  0
SECTION
  2
HEADER
  9
$ACADVER
  1
AC1018
  9
$ACADMAINTVER
 70
    76
  9
$DWGCODEPAGE
  3
ANSI_1252
  9
$LASTSAVEDBY
  1
simone
  9
$INSBASE
 10
0.0
 20
0.0
 30
0.0
  9
$EXTMIN
 10
0.0149999999999999
 20
0.015
 30
0.0
  9
$EXTMAX
 10
0.4050000000000001
 20
0.282
 30
0.0
  9
$LIMMIN
 10
0.0
 20
0.0
  9
$LIMMAX
 10
1.0
 20
0.5
  9
$ORTHOMODE
 70
     0
  9
$REGENMODE
 70
     1
  9
$FILLMODE
 70
     1
  9
$QTEXTMODE
 70
     0
  9
$MIRRTEXT
 70
     0
  9
$LTSCALE
 40
1.0
  9
$ATTMODE
 70
     1
  9
$TEXTSIZE
 40
0.005
  9
$TRACEWID
 40
1.0
  9
$TEXTSTYLE
  7
style1
  9
$CLAYER
  8
Dimensione
  9
$CELTYPE
  6
ByLayer
  9
$CECOLOR
 62
   256
  9
$CELTSCALE
 40
1.0
  9
$DISPSILH
 70
     0
  9
$DIMSCALE
 40
0.001
  9
$DIMASZ
 40
1.5
  9
$DIMEXO
 40
0.0625
  9
$DIMDLI
 40
0.38
  9
$DIMRND
 40
0.0
  9
$DIMDLE
 40
0.0
  9
$DIMEXE
 40
0.18
  9
$DIMTP
 40
0.0
  9
$DIMTM
 40
0.0
  9
$DIMTXT
 40
3.0
  9
$DIMCEN
 40
0.0
  9
$DIMTSZ
 40
0.0
  9
$DIMTOL
 70
     0
  9
$DIMLIM
 70
     0
  9
$DIMTIH
 70
     1
  9
$DIMTOH
 70
     1
  9
$DIMSE1
 70
     0
  9
$DIMSE2
 70
     0
  9
$DIMTAD
 70
     0
  9
$DIMZIN
 70
     0
  9
$DIMBLK
  1
ArchTick
  9
$DIMASO
 70
     1
  9
$DIMSHO
 70
     1
  9
$DIMPOST
  1

  9
$DIMAPOST
  1

  9
$DIMALT
 70
     0
  9
$DIMALTD
 70
     2
  9
$DIMALTF
 40
25.4
  9
$DIMLFAC
 40
1.0
  9
$DIMTOFL
 70
     0
  9
$DIMTVP
 40
0.0
  9
$DIMTIX
 70
     0
  9
$DIMSOXD
 70
     0
  9
$DIMSAH
 70
     0
  9
$DIMBLK1
  1

  9
$DIMBLK2
  1

  9
$DIMSTYLE
  2
Bovelacci
  9
$DIMCLRD
 70
     5
  9
$DIMCLRE
 70
     5
  9
$DIMCLRT
 70
     4
  9
$DIMTFAC
 40
1.0
  9
$DIMGAP
 40
2.0
  9
$DIMJUST
 70
     0
  9
$DIMSD1
 70
     0
  9
$DIMSD2
 70
     0
  9
$DIMTOLJ
 70
     1
  9
$DIMTZIN
 70
     0
  9
$DIMALTZ
 70
     0
  9
$DIMALTTZ
 70
     0
  9
$DIMUPT
 70
     0
  9
$DIMDEC
 70
     2
  9
$DIMTDEC
 70
     2
  9
$DIMALTU
 70
     2
  9
$DIMALTTD
 70
     2
  9
$DIMTXSTY
  7
ROMANS
  9
$DIMAUNIT
 70
     0
  9
$DIMADEC
 70
     0
  9
$DIMALTRND
 40
0.0
  9
$DIMAZIN
 70
     0
  9
$DIMDSEP
 70
    46
  9
$DIMATFIT
 70
     3
  9
$DIMFRAC
 70
     0
  9
$DIMLDRBLK
  1

  9
$DIMLUNIT
 70
     2
  9
$DIMLWD
 70
    -2
  9
$DIMLWE
 70
    -2
  9
$DIMTMOVE
 70
     2
  9
$LUNITS
 70
     2
  9
$LUPREC
 70
     2
  9
$SKETCHINC
 40
1.0
  9
$FILLETRAD
 40
0.0
  9
$AUNITS
 70
     0
  9
$AUPREC
 70
     0
  9
$MENU
  1
.
  9
$ELEVATION
 40
0.0
  9
$PELEVATION
 40
0.0
  9
$THICKNESS
 40
0.0
  9
$LIMCHECK
 70
     0
  9
$CHAMFERA
 40
0.0
  9
$CHAMFERB
 40
0.0
  9
$CHAMFERC
 40
0.0
  9
$CHAMFERD
 40
0.0
  9
$SKPOLY
 70
     0
  9
$TDCREATE
 40
2454297.625402373
  9
$TDUCREATE
 40
2454297.542069039
  9
$TDUPDATE
 40
2454370.707377743
  9
$TDUUPDATE
 40
2454370.624044410
  9
$TDINDWG
 40
0.4846017940
  9
$TDUSRTIMER
 40
0.4846012384
  9
$USRTIMER
 70
     1
  9
$ANGBASE
 50
0.0
  9
$ANGDIR
 70
     0
  9
$PDMODE
 70
     0
  9
$PDSIZE
 40
0.0
  9
$PLINEWID
 40
0.0
  9
$SPLFRAME
 70
     0
  9
$SPLINETYPE
 70
     6
  9
$SPLINESEGS
 70
     8
  9
$HANDSEED
  5
33E9
  9
$SURFTAB1
 70
     6
  9
$SURFTAB2
 70
     6
  9
$SURFTYPE
 70
     6
  9
$SURFU
 70
     6
  9
$SURFV
 70
     6
  9
$UCSBASE
  2

  9
$UCSNAME
  2

  9
$UCSORG
 10
0.0
 20
0.0
 30
0.0
  9
$UCSXDIR
 10
1.0
 20
0.0
 30
0.0
  9
$UCSYDIR
 10
0.0
 20
1.0
 30
0.0
  9
$UCSORTHOREF
  2

  9
$UCSORTHOVIEW
 70
     0
  9
$UCSORGTOP
 10
0.0
 20
0.0
 30
0.0
  9
$UCSORGBOTTOM
 10
0.0
 20
0.0
 30
0.0
  9
$UCSORGLEFT
 10
0.0
 20
0.0
 30
0.0
  9
$UCSORGRIGHT
 10
0.0
 20
0.0
 30
0.0
  9
$UCSORGFRONT
 10
0.0
 20
0.0
 30
0.0
  9
$UCSORGBACK
 10
0.0
 20
0.0
 30
0.0
  9
$PUCSBASE
  2

  9
$PUCSNAME
  2

  9
$PUCSORG
 10
0.0
 20
0.0
 30
0.0
  9
$PUCSXDIR
 10
1.0
 20
0.0
 30
0.0
  9
$PUCSYDIR
 10
0.0
 20
1.0
 30
0.0
  9
$PUCSORTHOREF
  2

  9
$PUCSORTHOVIEW
 70
     0
  9
$PUCSORGTOP
 10
0.0
 20
0.0
 30
0.0
  9
$PUCSORGBOTTOM
 10
0.0
 20
0.0
 30
0.0
  9
$PUCSORGLEFT
 10
0.0
 20
0.0
 30
0.0
  9
$PUCSORGRIGHT
 10
0.0
 20
0.0
 30
0.0
  9
$PUCSORGFRONT
 10
0.0
 20
0.0
 30
0.0
  9
$PUCSORGBACK
 10
0.0
 20
0.0
 30
0.0
  9
$USERI1
 70
     0
  9
$USERI2
 70
     0
  9
$USERI3
 70
     0
  9
$USERI4
 70
     0
  9
$USERI5
 70
     0
  9
$USERR1
 40
0.0
  9
$USERR2
 40
0.0
  9
$USERR3
 40
0.0
  9
$USERR4
 40
0.0
  9
$USERR5
 40
0.0
  9
$WORLDVIEW
 70
     1
  9
$SHADEDGE
 70
     3
  9
$SHADEDIF
 70
    70
  9
$TILEMODE
 70
     1
  9
$MAXACTVP
 70
    64
  9
$PINSBASE
 10
0.0
 20
0.0
 30
0.0
  9
$PLIMCHECK
 70
     0
  9
$PEXTMIN
 10
29.06606628894805
 20
20.36233246326446
 30
0.0
  9
$PEXTMAX
 10
261.5945966005325
 20
183.2609921693802
 30
0.0
  9
$PLIMMIN
 10
-3.17498779296875
 20
-3.174999952316281
  9
$PLIMMAX
 10
293.8356628417969
 20
206.7983276844024
  9
$UNITMODE
 70
     0
  9
$VISRETAIN
 70
     1
  9
$PLINEGEN
 70
     0
  9
$PSLTSCALE
 70
     1
  9
$TREEDEPTH
 70
  3020
  9
$CMLSTYLE
  2
Standard
  9
$CMLJUST
 70
     0
  9
$CMLSCALE
 40
20.0
  9
$PROXYGRAPHICS
 70
     1
  9
$MEASUREMENT
 70
     1
  9
$CELWEIGHT
370
    -1
  9
$ENDCAPS
280
     0
  9
$JOINSTYLE
280
     0
  9
$LWDISPLAY
290
     0
  9
$INSUNITS
 70
     4
  9
$HYPERLINKBASE
  1

  9
$STYLESHEET
  1

  9
$XEDIT
290
     1
  9
$CEPSNTYPE
380
     0
  9
$PSTYLEMODE
290
     1
  9
$FINGERPRINTGUID
  2
{4F38C4E7-9F37-4C76-96D9-79C94F9B03D9}
  9
$VERSIONGUID
  2
{E9573B1F-0592-4344-87FB-D8639AF5AEA5}
  9
$EXTNAMES
290
     1
  9
$PSVPSCALE
 40
0.0
  9
$OLESTARTUP
290
     0
  9
$SORTENTS
280
   127
  9
$INDEXCTL
280
     0
  9
$HIDETEXT
280
     1
  9
$XCLIPFRAME
290
     0
  9
$HALOGAP
280
     0
  9
$OBSCOLOR
 70
   257
  9
$OBSLTYPE
280
     0
  9
$INTERSECTIONDISPLAY
280
     0
  9
$INTERSECTIONCOLOR
 70
   257
  9
$DIMASSOC
280
     2
  9
$PROJECTNAME
  1

  0
ENDSEC
  0
SECTION
  2
CLASSES
  0
CLASS
  1
ACDBDICTIONARYWDFLT
  2
AcDbDictionaryWithDefault
  3
ObjectDBX Classes
 90
        0
 91
        1
280
     0
281
     0
  0
CLASS
  1
TABLESTYLE
  2
AcDbTableStyle
  3
ObjectDBX Classes
 90
     2047
 91
        1
280
     0
281
     0
  0
CLASS
  1
SORTENTSTABLE
  2
AcDbSortentsTable
  3
ObjectDBX Classes
 90
        0
 91
        1
280
     0
281
     0
  0
CLASS
  1
DICTIONARYVAR
  2
AcDbDictionaryVar
  3
ObjectDBX Classes
 90
        0
 91
        6
280
     0
281
     0
  0
CLASS
  1
DIMASSOC
  2
AcDbDimAssoc
  3
"AcDbDimAssoc|Product Desc:     AcDim ARX App For Dimension|Company:          Autodesk, Inc.|WEB Address:      www.autodesk.com"
 90
        0
 91
        0
280
     0
281
     0
  0
CLASS
  1
ACDBPLACEHOLDER
  2
AcDbPlaceHolder
  3
ObjectDBX Classes
 90
        0
 91
        1
280
     0
281
     0
  0
CLASS
  1
LAYOUT
  2
AcDbLayout
  3
ObjectDBX Classes
 90
        0
 91
        3
280
     0
281
     0
  0
CLASS
  1
MATERIAL
  2
AcDbMaterial
  3
ObjectDBX Classes
 90
        0
 91
        3
280
     0
281
     0
  0
CLASS
  1
VISUALSTYLE
  2
AcDbVisualStyle
  3
ObjectDBX Classes
 90
     4095
 91
       16
280
     0
281
     0
  0
CLASS
  1
ACAD_EVALUATION_GRAPH
  2
AcDbEvalGraph
  3
ObjectDBX Classes
 90
     1153
 91
        0
280
     0
281
     0
  0
CLASS
  1
ACAECUSTOBJ
  2
AcAeEditorObj
  3
AcAeEditorObj
 90
     1024
 91
        0
280
     0
281
     0
  0
CLASS
  1
ACDB_DYNAMICBLOCKPURGEPREVENTER_VERSION
  2
AcDbDynamicBlockPurgePreventer
  3
ObjectDBX Classes
 90
     1153
 91
        0
280
     0
281
     0
  0
ENDSEC
  0
SECTION
  2
TABLES
  0
TABLE
  2
VPORT
  5
96
330
0
100
AcDbSymbolTable
 70
     3
  0
VPORT
  5
33E8
330
96
100
AcDbSymbolTableRecord
100
AcDbViewportTableRecord
  2
*Active
 70
     0
 10
0.0
 20
0.0
 11
1.0
 21
1.0
 12
0.2428156566888465
 22
0.1875628715123379
 13
0.0
 23
0.0
 14
10.0
 24
10.0
 15
10.0
 25
10.0
 16
0.0
 26
0.0
 36
1.0
 17
0.0
 27
0.0
 37
0.0
 40
0.2431829676221792
 41
1.280471821756225
 42
50.0
 43
0.0
 44
0.0
 50
0.0
 51
0.0
 71
     0
 72
  1000
 73
     1
 74
     3
 75
     0
 76
     0
 77
     0
 78
     0
281
     0
 65
     1
110
0.0
120
0.0
130
0.0
111
1.0
121
0.0
131
0.0
112
0.0
122
1.0
132
0.0
 79
     0
146
0.0
  0
ENDTAB
  0
TABLE
  2
LTYPE
  5
91
330
0
100
AcDbSymbolTable
 70
     1
  0
LTYPE
  5
92
330
91
100
AcDbSymbolTableRecord
100
AcDbLinetypeTableRecord
  2
ByBlock
 70
     0
  3

 72
    65
 73
     0
 40
0.0
  0
LTYPE
  5
93
330
91
100
AcDbSymbolTableRecord
100
AcDbLinetypeTableRecord
  2
ByLayer
 70
     0
  3

 72
    65
 73
     0
 40
0.0
  0
LTYPE
  5
C
330
91
100
AcDbSymbolTableRecord
100
AcDbLinetypeTableRecord
  2
Continuous
 70
     0
  3
Solid line
 72
    65
 73
     0
 40
0.0
  0
ENDTAB
  0
TABLE
  2
LAYER
  5
8A
102
{ACAD_XDICTIONARY
360
8B
102
}
330
0
100
AcDbSymbolTable
 70
     7
  0
LAYER
  5
6
330
8A
100
AcDbSymbolTableRecord
100
AcDbLayerTableRecord
  2
0
 70
     0
 62
     7
  6
Continuous
370
    -3
390
7
  0
LAYER
  5
3F
330
8A
100
AcDbSymbolTableRecord
100
AcDbLayerTableRecord
  2
Defpoints
 70
     0
 62
     7
  6
Continuous
290
     0
370
    -3
390
7
  0
LAYER
  5
2E
330
8A
100
AcDbSymbolTableRecord
100
AcDbLayerTableRecord
  2
Dimensione
 70
     0
 62
   150
  6
Continuous
370
    -3
390
7
1001
AcAecLayerStandard
1000

1000

  0
LAYER
  5
54
330
8A
100
AcDbSymbolTableRecord
100
AcDbLayerTableRecord
  2
Sezione
 70
     0
 62
     2
  6
Continuous
370
    -3
390
7
1001
AcAecLayerStandard
1000

1000

  0
LAYER
  5
E
330
8A
100
AcDbSymbolTableRecord
100
AcDbLayerTableRecord
  2
Table
 70
     0
 62
     3
  6
Continuous
370
    -3
390
7
1001
AcAecLayerStandard
1000

1000

  0
LAYER
  5
19
330
8A
100
AcDbSymbolTableRecord
100
AcDbLayerTableRecord
  2
Text
 70
     0
 62
     4
  6
Continuous
370
    -3
390
7
1001
AcAecLayerStandard
1000

1000

  0
LAYER
  5
25D5
330
8A
100
AcDbSymbolTableRecord
100
AcDbLayerTableRecord
  2
Profilo
 70
     0
 62
     1
  6
Continuous
370
    -3
390
7
1001
AcAecLayerStandard
1000

1000

  0
ENDTAB
  0
TABLE
  2
STYLE
  5
8F
330
0
100
AcDbSymbolTable
 70
     4
  0
STYLE
  5
1A
330
8F
100
AcDbSymbolTableRecord
100
AcDbTextStyleTableRecord
  2
Standard
 70
     0
 40
0.0
 41
1.0
 50
0.0
 71
     0
 42
2.5
  3
txt
  4

  0
STYLE
  5
20
330
8F
100
AcDbSymbolTableRecord
100
AcDbTextStyleTableRecord
  2
ROMANS
 70
     0
 40
0.0
 41
1.0
 50
0.0
 71
     0
 42
2.5
  3
romans
  4

  0
STYLE
  5
28
330
8F
100
AcDbSymbolTableRecord
100
AcDbTextStyleTableRecord
  2
Arial
 70
     0
 40
0.0
 41
1.0
 50
0.0
 71
     0
 42
0.25
  3
ARIAL.TTF
  4

1001
ACAD
1000
Arial
1071
       34
  0
STYLE
  5
26
330
8F
100
AcDbSymbolTableRecord
100
AcDbTextStyleTableRecord
  2
style1
 70
     0
 40
0.0
 41
1.0
 50
0.0
 71
     0
 42
0.005
  3
TIMES.TTF
  4

1001
ACAD
1000
Times New Roman
1071
       18
  0
ENDTAB
  0
TABLE
  2
VIEW
  5
94
330
0
100
AcDbSymbolTable
 70
     0
  0
ENDTAB
  0
TABLE
  2
UCS
  5
95
330
0
100
AcDbSymbolTable
 70
     0
  0
ENDTAB
  0
TABLE
  2
APPID
  5
98
330
0
100
AcDbSymbolTable
 70
    14
  0
APPID
  5
1B
330
98
100
AcDbSymbolTableRecord
100
AcDbRegAppTableRecord
  2
ACAD
 70
     0
  0
APPID
  5
34
330
98
100
AcDbSymbolTableRecord
100
AcDbRegAppTableRecord
  2
ACAD_DSTYLE_DIMJOGGED_JOGANGLE_SYMBOL
 70
     0
  0
APPID
  5
F
330
98
100
AcDbSymbolTableRecord
100
AcDbRegAppTableRecord
  2
AcAecLayerStandard
 70
     0
  0
APPID
  5
85
330
98
100
AcDbSymbolTableRecord
100
AcDbRegAppTableRecord
  2
ACAD_PSEXT
 70
     0
  0
APPID
  5
BA
330
98
100
AcDbSymbolTableRecord
100
AcDbRegAppTableRecord
  2
ACAD_DSTYLE_DIMEXT_LENGTH
 70
     0
  0
APPID
  5
101
330
98
100
AcDbSymbolTableRecord
100
AcDbRegAppTableRecord
  2
ACAD_EXEMPT_FROM_CAD_STANDARDS
 70
     0
  0
APPID
  5
102
330
98
100
AcDbSymbolTableRecord
100
AcDbRegAppTableRecord
  2
ACAD_DSTYLE_DIM_LINETYPE
 70
     0
  0
APPID
  5
103
330
98
100
AcDbSymbolTableRecord
100
AcDbRegAppTableRecord
  2
ACAD_DSTYLE_DIM_EXT1_LINETYPE
 70
     0
  0
APPID
  5
104
330
98
100
AcDbSymbolTableRecord
100
AcDbRegAppTableRecord
  2
ACAD_DSTYLE_DIM_EXT2_LINETYPE
 70
     0
  0
APPID
  5
10D5
330
98
100
AcDbSymbolTableRecord
100
AcDbRegAppTableRecord
  2
ACAUTHENVIRON
 70
     0
  0
APPID
  5
10D9
330
98
100
AcDbSymbolTableRecord
100
AcDbRegAppTableRecord
  2
AcDbDynamicBlockTrueName
 70
     0
  0
APPID
  5
10DA
330
98
100
AcDbSymbolTableRecord
100
AcDbRegAppTableRecord
  2
AcDbDynamicBlockGUID
 70
     0
  0
APPID
  5
10DC
330
98
100
AcDbSymbolTableRecord
100
AcDbRegAppTableRecord
  2
AcDbBlockRepETag
 70
     0
  0
APPID
  5
249F
330
98
100
AcDbSymbolTableRecord
100
AcDbRegAppTableRecord
  2
DCO15
 70
     0
  0
ENDTAB
  0
TABLE
  2
DIMSTYLE
  5
99
330
0
100
AcDbSymbolTable
 70
     2
100
AcDbDimStyleTable
 71
     1
340
2F
  0
DIMSTYLE
105
2F
102
{ACAD_REACTORS
330
3279
330
3311
330
3365
102
}
330
99
100
AcDbSymbolTableRecord
100
AcDbDimStyleTableRecord
  2
Bovelacci
 70
     0
 40
0.001
 41
1.5
140
3.0
141
0.0
147
2.0
176
     5
177
     5
178
     4
271
     2
272
     2
279
     2
340
20
342
30
1001
ACAD_DSTYLE_DIMJOGGED_JOGANGLE_SYMBOL
1070
   384
1040
0.7853981633974483
1001
ACAD_DSTYLE_DIMEXT_LENGTH
1070
   378
1040
0.18
  0
DIMSTYLE
105
194
330
99
100
AcDbSymbolTableRecord
100
AcDbDimStyleTableRecord
  2
STANDARD
 70
     0
340
1A
  0
ENDTAB
  0
TABLE
  2
BLOCK_RECORD
  5
1
330
0
100
AcDbSymbolTable
 70
     9
  0
BLOCK_RECORD
  5
2
102
{ACAD_XDICTIONARY
360
3
102
}
330
1
100
AcDbSymbolTableRecord
100
AcDbBlockTableRecord
  2
*Model_Space
340
77
  0
BLOCK_RECORD
  5
79
330
1
100
AcDbSymbolTableRecord
100
AcDbBlockTableRecord
  2
*Paper_Space
340
82
  0
BLOCK_RECORD
  5
86
330
1
100
AcDbSymbolTableRecord
100
AcDbBlockTableRecord
  2
*Paper_Space0
340
89
  0
BLOCK_RECORD
  5
30
330
1
100
AcDbSymbolTableRecord
100
AcDbBlockTableRecord
  2
_ArchTick
340
0
310
2800000020000000200000000100080000000000000400000000000000000000000000000000000000000000000080000080000000808000800000008000800080800000C0C0C000C0DCC000F0CAA6000020400000206000002080000020A0000020C0000020E00000400000004020000040400000406000004080000040A0
310
000040C0000040E00000600000006020000060400000606000006080000060A0000060C0000060E00000800000008020000080400000806000008080000080A0000080C0000080E00000A0000000A0200000A0400000A0600000A0800000A0A00000A0C00000A0E00000C0000000C0200000C0400000C0600000C0800000C0
310
A00000C0C00000C0E00000E0000000E0200000E0400000E0600000E0800000E0A00000E0C00000E0E00040000000400020004000400040006000400080004000A0004000C0004000E00040200000402020004020400040206000402080004020A0004020C0004020E000404000004040200040404000404060004040800040
310
40A0004040C0004040E00040600000406020004060400040606000406080004060A0004060C0004060E00040800000408020004080400040806000408080004080A0004080C0004080E00040A0000040A0200040A0400040A0600040A0800040A0A00040A0C00040A0E00040C0000040C0200040C0400040C0600040C08000
310
40C0A00040C0C00040C0E00040E0000040E0200040E0400040E0600040E0800040E0A00040E0C00040E0E00080000000800020008000400080006000800080008000A0008000C0008000E00080200000802020008020400080206000802080008020A0008020C0008020E00080400000804020008040400080406000804080
310
008040A0008040C0008040E00080600000806020008060400080606000806080008060A0008060C0008060E00080800000808020008080400080806000808080008080A0008080C0008080E00080A0000080A0200080A0400080A0600080A0800080A0A00080A0C00080A0E00080C0000080C0200080C0400080C0600080C0
310
800080C0A00080C0C00080C0E00080E0000080E0200080E0400080E0600080E0800080E0A00080E0C00080E0E000C0000000C0002000C0004000C0006000C0008000C000A000C000C000C000E000C0200000C0202000C0204000C0206000C0208000C020A000C020C000C020E000C0400000C0402000C0404000C0406000C0
310
408000C040A000C040C000C040E000C0600000C0602000C0604000C0606000C0608000C060A000C060C000C060E000C0800000C0802000C0804000C0806000C0808000C080A000C080C000C080E000C0A00000C0A02000C0A04000C0A06000C0A08000C0A0A000C0A0C000C0A0E000C0C00000C0C02000C0C04000C0C06000
310
C0C08000C0C0A000F0FBFF00A4A0A000808080000000FF0000FF000000FFFF00FF000000FF00FF00FFFF0000FFFFFF00000000FF000000000000000000000000000000000000000000000000000000000000FF00FF00000000000000000000000000000000000000000000000000000000FF000000FF000000000000000000
310
0000000000000000000000000000000000FF0000000000FF0000000000000000000000000000000000000000000000000000FF0000000000FF0000000000000000000000000000000000000000000000000000FF0000000000FF0000000000000000000000000000000000000000000000000000FF0000000000FF00000000
310
00000000000000000000000000000000000000000000FF0000000000FF0000000000000000000000000000000000000000000000000000FF0000000000FF0000000000000000000000000000000000000000000000000000FF0000000000FF0000000000000000000000000000000000000000000000000000FF0000000000
310
FF0000000000000000000000000000000000000000000000000000FF0000000000FF0000000000000000000000000000000000000000000000000000FF0000000000FF0000000000000000000000000000000000000000000000000000FF0000000000FF0000000000000000000000000000000000000000000000000000FF
310
0000000000FF0000000000000000000000000000000000000000000000000000FF0000000000FF0000000000000000000000000000000000000000000000000000FF0000000000FF0000000000000000000000000000000000000000000000000000FF0000000000FF00000000000000000000000000000000000000000000
310
00000000FF0000000000FF0000000000000000000000000000000000000000000000000000FF0000000000FF0000000000000000000000000000000000000000000000000000FF0000000000FF0000000000000000000000000000000000000000000000000000FF0000000000FF0000000000000000000000000000000000
310
000000000000000000FF0000000000FF0000000000000000000000000000000000000000000000000000FF0000000000FF0000000000000000000000000000000000000000000000000000FF0000000000FF0000000000000000000000000000000000000000000000000000FF0000000000FF000000000000000000000000
310
0000000000000000000000000000FF0000000000FF0000000000000000000000000000000000000000000000000000FF0000000000FF0000000000000000000000000000000000000000000000000000FF0000000000FF0000000000000000000000000000000000000000000000000000FF000000FF000000000000000000
310
00000000000000000000000000000000000000FF00FF000000000000000000000000000000000000000000000000000000000000FF000000
102
{BLKREFS
331
32A0
331
32A1
331
32BA
331
32BB
331
33A4
331
33A5
331
33AE
331
33AF
331
33E0
331
33E1
102
}
  0
BLOCK_RECORD
  5
4E0
330
1
100
AcDbSymbolTableRecord
100
AcDbBlockTableRecord
  2
_Arrivo
340
0
310
2800000020000000200000000100080000000000000400000000000000000000000000000000000000000000000080000080000000808000800000008000800080800000C0C0C000C0DCC000F0CAA6000020400000206000002080000020A0000020C0000020E00000400000004020000040400000406000004080000040A0
310
000040C0000040E00000600000006020000060400000606000006080000060A0000060C0000060E00000800000008020000080400000806000008080000080A0000080C0000080E00000A0000000A0200000A0400000A0600000A0800000A0A00000A0C00000A0E00000C0000000C0200000C0400000C0600000C0800000C0
310
A00000C0C00000C0E00000E0000000E0200000E0400000E0600000E0800000E0A00000E0C00000E0E00040000000400020004000400040006000400080004000A0004000C0004000E00040200000402020004020400040206000402080004020A0004020C0004020E000404000004040200040404000404060004040800040
310
40A0004040C0004040E00040600000406020004060400040606000406080004060A0004060C0004060E00040800000408020004080400040806000408080004080A0004080C0004080E00040A0000040A0200040A0400040A0600040A0800040A0A00040A0C00040A0E00040C0000040C0200040C0400040C0600040C08000
310
40C0A00040C0C00040C0E00040E0000040E0200040E0400040E0600040E0800040E0A00040E0C00040E0E00080000000800020008000400080006000800080008000A0008000C0008000E00080200000802020008020400080206000802080008020A0008020C0008020E00080400000804020008040400080406000804080
310
008040A0008040C0008040E00080600000806020008060400080606000806080008060A0008060C0008060E00080800000808020008080400080806000808080008080A0008080C0008080E00080A0000080A0200080A0400080A0600080A0800080A0A00080A0C00080A0E00080C0000080C0200080C0400080C0600080C0
310
800080C0A00080C0C00080C0E00080E0000080E0200080E0400080E0600080E0800080E0A00080E0C00080E0E000C0000000C0002000C0004000C0006000C0008000C000A000C000C000C000E000C0200000C0202000C0204000C0206000C0208000C020A000C020C000C020E000C0400000C0402000C0404000C0406000C0
310
408000C040A000C040C000C040E000C0600000C0602000C0604000C0606000C0608000C060A000C060C000C060E000C0800000C0802000C0804000C0806000C0808000C080A000C080C000C080E000C0A00000C0A02000C0A04000C0A06000C0A08000C0A0A000C0A0C000C0A0E000C0C00000C0C02000C0C04000C0C06000
310
C0C08000C0C0A000F0FBFF00A4A0A000808080000000FF0000FF000000FFFF00FF000000FF00FF00FFFF0000FFFFFF00000000000000000000000000000000000000000000000000000000000000000000000000000000000000FF0000000000000000000000000000000000000000000000000000000000000000FF000000
310
00000000000000000000000000000000000000000000000000000000FF0000000000000000000000000000000000000000000000000000000000000000FF00000000000000000000000000000000000000000000000000000000000000FF0000000000000000000000000000000000000000000000000000000000000000FF
310
0000000000000000000000000000000000000000000000000000000000000000FF00000000000000000000000000000000000000000000000000000000000000FF0000000000000000000000000000000000000000000000000000000000000000FF0000000000000000000000000000000000000000000000000000000000
310
0000FF0000000000000000000000000000000000000000000000000000000000000000FF00000000000000000000000000000000000000000000000000000000000000FF0000000000000000000000000000000000000000000000000000000000000000FF0000FF0000000000000000000000000000000000000000000000
310
000000000000FFFF000000000000000000000000000000000000000000000000000000000000FFFF00000000000000000000000000000000000000000000000000000000FFFFFFFFFFFF00000000000000000000000000000000000000000000000000000000FFFF0000000000000000000000000000000000000000000000
310
000000000000FF0000FF000000000000000000000000000000000000000000000000000000FF00000000000000000000000000000000000000000000000000000000000000FF000000000000000000000000000000000000000000000000000000000000FF0000000000000000000000000000000000000000000000000000
310
0000000000FF000000000000000000000000000000000000000000000000000000000000FF00000000000000000000000000000000000000000000000000000000000000FF000000000000000000000000000000000000000000000000000000000000FF000000000000000000000000000000000000000000000000000000
310
000000FF00000000000000000000000000000000000000000000000000000000000000FF000000000000000000000000000000000000000000000000000000000000FF00000000000000000000000000000000000000000000000000000000000000FF00000000000000000000000000000000000000000000000000000000
310
0000FF0000000000000000000000000000000000000000000000000000000000000000000000000000000000000000000000000000000000
  0
BLOCK_RECORD
  5
4E6
330
1
100
AcDbSymbolTableRecord
100
AcDbBlockTableRecord
  2
_Partenza
340
0
310
2800000020000000200000000100080000000000000400000000000000000000000000000000000000000000000080000080000000808000800000008000800080800000C0C0C000C0DCC000F0CAA6000020400000206000002080000020A0000020C0000020E00000400000004020000040400000406000004080000040A0
310
000040C0000040E00000600000006020000060400000606000006080000060A0000060C0000060E00000800000008020000080400000806000008080000080A0000080C0000080E00000A0000000A0200000A0400000A0600000A0800000A0A00000A0C00000A0E00000C0000000C0200000C0400000C0600000C0800000C0
310
A00000C0C00000C0E00000E0000000E0200000E0400000E0600000E0800000E0A00000E0C00000E0E00040000000400020004000400040006000400080004000A0004000C0004000E00040200000402020004020400040206000402080004020A0004020C0004020E000404000004040200040404000404060004040800040
310
40A0004040C0004040E00040600000406020004060400040606000406080004060A0004060C0004060E00040800000408020004080400040806000408080004080A0004080C0004080E00040A0000040A0200040A0400040A0600040A0800040A0A00040A0C00040A0E00040C0000040C0200040C0400040C0600040C08000
310
40C0A00040C0C00040C0E00040E0000040E0200040E0400040E0600040E0800040E0A00040E0C00040E0E00080000000800020008000400080006000800080008000A0008000C0008000E00080200000802020008020400080206000802080008020A0008020C0008020E00080400000804020008040400080406000804080
310
008040A0008040C0008040E00080600000806020008060400080606000806080008060A0008060C0008060E00080800000808020008080400080806000808080008080A0008080C0008080E00080A0000080A0200080A0400080A0600080A0800080A0A00080A0C00080A0E00080C0000080C0200080C0400080C0600080C0
310
800080C0A00080C0C00080C0E00080E0000080E0200080E0400080E0600080E0800080E0A00080E0C00080E0E000C0000000C0002000C0004000C0006000C0008000C000A000C000C000C000E000C0200000C0202000C0204000C0206000C0208000C020A000C020C000C020E000C0400000C0402000C0404000C0406000C0
310
408000C040A000C040C000C040E000C0600000C0602000C0604000C0606000C0608000C060A000C060C000C060E000C0800000C0802000C0804000C0806000C0808000C080A000C080C000C080E000C0A00000C0A02000C0A04000C0A06000C0A08000C0A0A000C0A0C000C0A0E000C0C00000C0C02000C0C04000C0C06000
310
C0C08000C0C0A000F0FBFF00A4A0A000808080000000FF0000FF000000FFFF00FF000000FF00FF00FFFF0000FFFFFF0000000000000000000000000000000000000000000000000000000000000000000000000000000000000000000000000000000000000000000000000000000000000000000000000000000000000000
310
000000000000000000000000000000000000000000000000000000000000000000000000000000000000000000000000000000000000000000000000000000000000000000000000000000000000000000000000000000000000000000000000000000000000000000000000000000000000FFFFFFFFFFFFFFFFFFFFFFFFFF
310
FFFFFFFFFFFFFFFFFFFFFFFFFFFFFFFFFF0000000000000000000000000000000000000000000000000000000000000000000000000000000000000000000000000000000000000000000000000000000000000000000000000000000000000000000000000000000000000000000000000000000000000000000000000000
310
00000000000000000000000000000000000000000000000000000000000000000000000000000000000000000000000000000000000000000000000000000000000000000000000000000000000000000000000000000000000000000000000000000000000000000000000000000000000000000000000000000000000000
310
00000000000000000000000000000000000000000000000000000000000000000000000000000000000000000000000000000000000000000000000000000000000000000000000000000000000000000000000000000000000000000000000000000000000000000000000000000000000000000000000000000000000000
310
00000000000000000000000000000000000000000000000000000000000000000000000000000000000000000000000000000000000000000000000000000000000000000000000000000000000000000000000000000000000000000000000000000000000000000000000000000000000000000000000000000000000000
310
000000000000000000000000000000000000000000000000000000000000000000000000000000000000000000000000000000000000000000000000000000000000000000000000000000000000000000000000000000FFFFFFFFFFFFFFFFFFFFFFFFFFFFFFFFFFFFFFFFFFFFFFFFFFFFFFFFFFFF00000000000000000000
310
00000000000000000000000000000000000000000000000000000000000000000000000000000000000000000000000000000000000000000000000000000000000000000000000000000000000000000000000000000000000000000000000000000000000000000000000000000000000000000000000000000000000000
310
0000000000000000000000000000000000000000000000000000000000000000000000000000000000000000000000000000000000000000
  0
BLOCK_RECORD
  5
327A
330
1
100
AcDbSymbolTableRecord
100
AcDbBlockTableRecord
  2
*D4
340
0
  0
BLOCK_RECORD
  5
3312
330
1
100
AcDbSymbolTableRecord
100
AcDbBlockTableRecord
  2
*D7
340
0
  0
BLOCK_RECORD
  5
3366
330
1
100
AcDbSymbolTableRecord
100
AcDbBlockTableRecord
  2
*D8
340
0
  0
ENDTAB
  0
ENDSEC
  0
SECTION
  2
BLOCKS
  0
BLOCK
  5
5
330
2
100
AcDbEntity
  8
0
100
AcDbBlockBegin
  2
*Model_Space
 70
     0
 10
0.0
 20
0.0
 30
0.0
  3
*Model_Space
  1

  0
ENDBLK
  5
76
330
2
100
AcDbEntity
  8
0
100
AcDbBlockEnd
  0
BLOCK
  5
7A
330
79
100
AcDbEntity
 67
     1
  8
0
100
AcDbBlockBegin
  2
*Paper_Space
 70
     0
 10
0.0
 20
0.0
 30
0.0
  3
*Paper_Space
  1

  0
ENDBLK
  5
81
330
79
100
AcDbEntity
 67
     1
  8
0
100
AcDbBlockEnd
  0
BLOCK
  5
87
330
86
100
AcDbEntity
 67
     1
  8
0
100
AcDbBlockBegin
  2
*Paper_Space0
 70
     0
 10
0.0
 20
0.0
 30
0.0
  3
*Paper_Space0
  1

  0
ENDBLK
  5
88
330
86
100
AcDbEntity
 67
     1
  8
0
100
AcDbBlockEnd
  0
BLOCK
  5
31
330
30
100
AcDbEntity
  8
0
 62
     1
100
AcDbBlockBegin
  2
_ArchTick
 70
     0
 10
0.0
 20
0.0
 30
0.0
  3
_ArchTick
  1

  0
LWPOLYLINE
  5
32
330
30
100
AcDbEntity
  8
0
  6
ByBlock
 62
     0
100
AcDbPolyline
 90
        2
 70
     0
 43
0.15
 10
-0.5
 20
-0.5
 10
0.5
 20
0.5
  0
ENDBLK
  5
33
330
30
100
AcDbEntity
  8
0
 62
     1
100
AcDbBlockEnd
  0
BLOCK
  5
4E1
330
4E0
100
AcDbEntity
  8
0
100
AcDbBlockBegin
  2
_Arrivo
 70
     0
 10
0.0
 20
0.0
 30
0.0
  3
_Arrivo
  1

  0
LINE
  5
4E2
330
4E0
100
AcDbEntity
  8
0
  6
ByBlock
 62
     0
370
    -2
100
AcDbLine
 10
0.025
 20
-0.0433012701891858
 30
0.0
 11
-0.15
 21
0.2598076211353328
 31
0.0
  0
LINE
  5
4E3
330
4E0
100
AcDbEntity
  8
0
  6
ByBlock
 62
     0
370
    -2
100
AcDbLine
 10
0.025
 20
0.0433012701892585
 30
0.0
 11
-0.15
 21
-0.2598076211353328
 31
0.0
  0
LINE
  5
4E4
330
4E0
100
AcDbEntity
  8
0
  6
ByBlock
 62
     0
370
    -2
100
AcDbLine
 10
-0.05
 20
0.0
 30
0.0
 11
0.05
 21
0.0
 31
0.0
  0
ENDBLK
  5
4E5
330
4E0
100
AcDbEntity
  8
0
100
AcDbBlockEnd
  0
BLOCK
  5
4E7
330
4E6
100
AcDbEntity
  8
0
100
AcDbBlockBegin
  2
_Partenza
 70
     0
 10
0.0
 20
0.0
 30
0.0
  3
_Partenza
  1

  0
LINE
  5
4E8
330
4E6
100
AcDbEntity
  8
0
  6
ByBlock
 62
     0
370
    -2
100
AcDbLine
 10
-0.05
 20
0.05
 30
0.0
 11
0.1
 21
0.05
 31
0.0
  0
LINE
  5
4E9
330
4E6
100
AcDbEntity
  8
0
  6
ByBlock
 62
     0
370
    -2
100
AcDbLine
 10
-0.05
 20
-0.05
 30
0.0
 11
0.1
 21
-0.05
 31
0.0
  0
ENDBLK
  5
4EA
330
4E6
100
AcDbEntity
  8
0
100
AcDbBlockEnd
  0
BLOCK
  5
3285
330
327A
100
AcDbEntity
  8
0
100
AcDbBlockBegin
  2
*D4
 70
     1
 10
0.0
 20
0.0
 30
0.0
  3
*D4
  1

  0
LINE
  5
33A0
330
327A
100
AcDbEntity
  8
Dimensione
 62
     5
370
    -2
100
AcDbLine
 10
0.1968238021988486
 20
0.111180500326012
 30
0.0
 11
0.1225326219840786
 21
0.1111805003260121
 31
0.0
  0
LINE
  5
33A1
330
327A
100
AcDbEntity
  8
Dimensione
 62
     5
370
    -2
100
AcDbLine
 10
0.1610228921259565
 20
0.1994815147548981
 30
0.0
 11
0.1225326219840786
 21
0.1994815147548981
 31
0.0
  0
LINE
  5
33A2
330
327A
100
AcDbEntity
  8
Dimensione
 62
     5
370
    -2
100
AcDbLine
 10
0.1227126219840786
 20
0.1111805003260121
 30
0.0
 11
0.1227126219840786
 21
0.1518310075404551
 31
0.0
  0
LINE
  5
33A3
330
327A
100
AcDbEntity
  8
Dimensione
 62
     5
370
    -2
100
AcDbLine
 10
0.1227126219840786
 20
0.1994815147548981
 30
0.0
 11
0.1227126219840786
 21
0.1588310075404551
 31
0.0
  0
INSERT
  5
33A4
330
327A
100
AcDbEntity
  8
Dimensione
 62
     5
370
    -2
100
AcDbBlockReference
  2
_ArchTick
 10
0.1227126219840786
 20
0.1111805003260121
 30
0.0
 41
0.0015
 42
0.0015
 43
0.0015
 50
270.0
  0
INSERT
  5
33A5
330
327A
100
AcDbEntity
  8
Dimensione
 62
     5
370
    -2
100
AcDbBlockReference
  2
_ArchTick
 10
0.1227126219840786
 20
0.1994815147548981
 30
0.0
 41
0.0015
 42
0.0015
 43
0.0015
 50
90.0
  0
MTEXT
  5
33A6
330
327A
100
AcDbEntity
  8
Dimensione
 62
     4
100
AcDbMText
 10
0.1227126219840786
 20
0.1553310075404551
 30
0.0
 40
0.003
 41
0.0
 71
     5
 72
     1
  1
\A1;300 mm
  7
ROMANS
 73
     1
 44
1.0
  0
POINT
  5
33A7
330
327A
100
AcDbEntity
  8
Defpoints
 62
     0
100
AcDbPoint
 10
0.1968863021988486
 20
0.111180500326012
 30
0.0
  0
POINT
  5
33A8
330
327A
100
AcDbEntity
  8
Defpoints
 62
     0
100
AcDbPoint
 10
0.1610853921259565
 20
0.1994815147548981
 30
0.0
  0
POINT
  5
33A9
330
327A
100
AcDbEntity
  8
Defpoints
 62
     0
100
AcDbPoint
 10
0.1227126219840786
 20
0.1994815147548981
 30
0.0
  0
ENDBLK
  5
3286
330
327A
100
AcDbEntity
  8
0
100
AcDbBlockEnd
  0
BLOCK
  5
331D
330
3312
100
AcDbEntity
  8
0
100
AcDbBlockBegin
  2
*D7
 70
     1
 10
0.0
 20
0.0
 30
0.0
  3
*D7
  1

  0
LINE
  5
33AA
330
3312
100
AcDbEntity
  8
Dimensione
 62
     5
370
    -2
100
AcDbLine
 10
0.1601352235024703
 20
0.1995429569726299
 30
0.0
 11
0.1570173576572901
 21
0.2162737503134171
 31
0.0
  0
LINE
  5
33AB
330
3312
100
AcDbEntity
  8
Dimensione
 62
     5
370
    -2
100
AcDbLine
 10
0.2485815196815691
 20
0.2140179835363319
 30
0.0
 11
0.2451021245019922
 21
0.2326887809955686
 31
0.0
  0
LINE
  5
33AC
330
3312
100
AcDbEntity
  8
Dimensione
 62
     5
370
    -2
100
AcDbLine
 10
0.157050333830868
 20
0.2160967967263492
 30
0.0
 11
0.1895212886817905
 21
0.2221479192898724
 31
0.0
  0
LINE
  5
33AD
330
3312
100
AcDbEntity
  8
Dimensione
 62
     5
370
    -2
100
AcDbLine
 10
0.2451351006755701
 20
0.2325118274085007
 30
0.0
 11
0.2126641458246476
 21
0.2264607048449776
 31
0.0
  0
INSERT
  5
33AE
330
3312
100
AcDbEntity
  8
Dimensione
 62
     5
370
    -2
100
AcDbBlockReference
  2
_ArchTick
 10
0.157050333830868
 20
0.2160967967263492
 30
0.0
 41
0.0015
 42
0.0015
 43
0.0015
 50
190.5562627380345
  0
INSERT
  5
33AF
330
3312
100
AcDbEntity
  8
Dimensione
 62
     5
370
    -2
100
AcDbBlockReference
  2
_ArchTick
 10
0.2451351006755701
 20
0.2325118274085007
 30
0.0
 41
0.0015
 42
0.0015
 43
0.0015
 50
10.5562627380345
  0
MTEXT
  5
33B0
330
3312
100
AcDbEntity
  8
Dimensione
 62
     4
100
AcDbMText
 10
0.201092717253219
 20
0.224304312067425
 30
0.0
 40
0.003
 41
0.0
 71
     5
 72
     1
  1
\A1;350 mm
  7
ROMANS
 73
     1
 44
1.0
  0
POINT
  5
33B1
330
3312
100
AcDbEntity
  8
Defpoints
 62
     0
100
AcDbPoint
 10
0.1601466735627404
 20
0.1994815147548981
 30
0.0
  0
POINT
  5
33B2
330
3312
100
AcDbEntity
  8
Defpoints
 62
     0
100
AcDbPoint
 10
0.2485929697418392
 20
0.2139565413186
 30
0.0
  0
POINT
  5
33B3
330
3312
100
AcDbEntity
  8
Defpoints
 62
     0
100
AcDbPoint
 10
0.2451351006755701
 20
0.2325118274085007
 30
0.0
  0
ENDBLK
  5
331E
330
3312
100
AcDbEntity
  8
0
100
AcDbBlockEnd
  0
BLOCK
  5
3371
330
3366
100
AcDbEntity
  8
0
100
AcDbBlockBegin
  2
*D8
 70
     1
 10
0.0
 20
0.0
 30
0.0
  3
*D8
  1

  0
LINE
  5
33DC
330
3366
100
AcDbEntity
  8
Dimensione
 62
     5
370
    -2
100
AcDbLine
 10
0.2723339871936268
 20
0.1989104953286488
 30
0.0
 11
0.2824820444234029
 21
0.2158398361024573
 31
0.0
  0
LINE
  5
33DD
330
3366
100
AcDbEntity
  8
Dimensione
 62
     5
370
    -2
100
AcDbLine
 10
0.2485815196815691
 20
0.2140179835363319
 30
0.0
 11
0.2583461866748737
 21
0.2303077394304323
 31
0.0
  0
LINE
  5
33DE
330
3366
100
AcDbEntity
  8
Dimensione
 62
     5
370
    -2
100
AcDbLine
 10
0.2823894992145139
 20
0.2156854489776323
 30
0.0
 11
0.2761603916403966
 21
0.2194194006416199
 31
0.0
  0
LINE
  5
33DF
330
3366
100
AcDbEntity
  8
Dimensione
 62
     5
370
    -2
100
AcDbLine
 10
0.2582536414659847
 20
0.2301533523056074
 30
0.0
 11
0.264482749040102
 21
0.2264194006416198
 31
0.0
  0
INSERT
  5
33E0
330
3366
100
AcDbEntity
  8
Dimensione
 62
     5
370
    -2
100
AcDbBlockReference
  2
_ArchTick
 10
0.2823894992145139
 20
0.2156854489776323
 30
0.0
 41
0.0015
 42
0.0015
 43
0.0015
 50
329.0600080022291
  0
INSERT
  5
33E1
330
3366
100
AcDbEntity
  8
Dimensione
 62
     5
370
    -2
100
AcDbBlockReference
  2
_ArchTick
 10
0.2582536414659847
 20
0.2301533523056074
 30
0.0
 41
0.0015
 42
0.0015
 43
0.0015
 50
149.0600080022291
  0
MTEXT
  5
33E2
330
3366
100
AcDbEntity
  8
Dimensione
 62
     4
100
AcDbMText
 10
0.2703215703402493
 20
0.2229194006416199
 30
0.0
 40
0.003
 41
0.0
 71
     5
 72
     1
  1
\A1;175 mm
  7
ROMANS
 73
     1
 44
1.0
  0
POINT
  5
33E3
330
3366
100
AcDbEntity
  8
Defpoints
 62
     0
100
AcDbPoint
 10
0.2723018534405404
 20
0.1988568886880846
 30
0.0
  0
POINT
  5
33E4
330
3366
100
AcDbEntity
  8
Defpoints
 62
     0
100
AcDbPoint
 10
0.2485493859284827
 20
0.2139643768957677
 30
0.0
  0
POINT
  5
33E5
330
3366
100
AcDbEntity
  8
Defpoints
 62
     0
100
AcDbPoint
 10
0.2582536414659847
 20
0.2301533523056074
 30
0.0
  0
ENDBLK
  5
3372
330
3366
100
AcDbEntity
  8
0
100
AcDbBlockEnd
  0
ENDSEC
  0
SECTION
  2
ENTITIES
  0
LINE
  5
D
330
2
100
AcDbEntity
  8
Table
100
AcDbLine
 10
0.02
 20
0.02
 30
0.0
 11
0.4
 21
0.02
 31
0.0
  0
LINE
  5
10
330
2
100
AcDbEntity
  8
Table
100
AcDbLine
 10
0.4
 20
0.02
 30
0.0
 11
0.4
 21
0.2769999999999999
 31
0.0
  0
LINE
  5
11
330
2
100
AcDbEntity
  8
Table
100
AcDbLine
 10
0.4
 20
0.2769999999999999
 30
0.0
 11
0.02
 21
0.277
 31
0.0
  0
LINE
  5
12
330
2
100
AcDbEntity
  8
Table
100
AcDbLine
 10
0.02
 20
0.277
 30
0.0
 11
0.02
 21
0.02
 31
0.0
  0
LINE
  5
13
330
2
100
AcDbEntity
  8
Table
 62
     2
100
AcDbLine
 10
0.015
 20
0.015
 30
0.0
 11
0.4050000000000001
 21
0.015
 31
0.0
  0
LINE
  5
14
330
2
100
AcDbEntity
  8
Table
 62
     2
100
AcDbLine
 10
0.4050000000000001
 20
0.015
 30
0.0
 11
0.4050000000000001
 21
0.2819999999999998
 31
0.0
  0
LINE
  5
15
330
2
100
AcDbEntity
  8
Table
 62
     2
100
AcDbLine
 10
0.4050000000000001
 20
0.2819999999999998
 30
0.0
 11
0.0149999999999999
 21
0.282
 31
0.0
  0
LINE
  5
16
330
2
100
AcDbEntity
  8
Table
 62
     2
100
AcDbLine
 10
0.0149999999999999
 20
0.282
 30
0.0
 11
0.015
 21
0.015
 31
0.0
  0
LINE
  5
17
330
2
100
AcDbEntity
  8
Table
100
AcDbLine
 10
0.21
 20
0.2769999999999999
 30
0.0
 11
0.21
 21
0.2532994226089223
 31
0.0
  0
LINE
  5
1D
330
2
100
AcDbEntity
  8
Table
100
AcDbLine
 10
0.02
 20
0.0528099428524846
 30
0.0
 11
0.4
 21
0.0528099428524846
 31
0.0
  0
MTEXT
  5
1E
330
2
100
AcDbEntity
  8
Text
100
AcDbMText
 10
0.1133313047219695
 20
0.2610796890771976
 30
0.0
 40
0.003
 41
0.1103605678262056
 71
     2
 72
     5
  1
{\fTimes New Roman|b0|i0|c0|p18;Le colonne \fTimes New Roman|b0|i1|c0|p18;      Columns}
 73
     1
 44
1.0
1001
ACAD
1000
ACAD_MTEXT_DEFINED_HEIGHT_BEGIN
1070
    46
1040
0.0141952763113409
1000
ACAD_MTEXT_DEFINED_HEIGHT_END
  0
TEXT
  5
1F
330
2
100
AcDbEntity
  8
Text
100
AcDbText
 10
0.2180556919891047
 20
0.269976982173197
 30
0.0
 40
0.003
  1
Colonna - Column : 350 x 350 x H 300 mm
  7
ROMANS
100
AcDbText
  0
TEXT
  5
21
330
2
100
AcDbEntity
  8
Text
100
AcDbText
 10
0.2184542410678115
 20
0.2576348370183962
 30
0.0
 40
0.003
  1
File : C3224 ( MEZZO CAPITELLO CORINZIO )
  7
ROMANS
100
AcDbText
  0
LINE
  5
22
330
2
100
AcDbEntity
  8
Table
100
AcDbLine
 10
0.4
 20
0.2654452889427402
 30
0.0
 11
0.02
 21
0.2654452889427403
 31
0.0
  0
LINE
  5
23
330
2
100
AcDbEntity
  8
Table
100
AcDbLine
 10
0.4
 20
0.2532994226089223
 30
0.0
 11
0.02
 21
0.2532994226089225
 31
0.0
  0
LINE
  5
24
330
2
100
AcDbEntity
  8
Table
100
AcDbLine
 10
0.21
 20
0.0528099428524846
 30
0.0
 11
0.21
 21
0.02
 31
0.0
  0
TEXT
  5
25
330
2
100
AcDbEntity
  8
Text
100
AcDbText
 10
0.0896473531074035
 20
0.2687784133392506
 30
0.0
 40
0.005
  1
CLASSICSTYL
  7
style1
 72
     1
 11
0.1140561490699125
 21
0.2687784133392506
 31
0.0
100
AcDbText
  0
MTEXT
  5
10F
330
2
100
AcDbEntity
  8
Text
100
AcDbMText
 10
0.305
 20
0.0471738284815141
 30
0.0
 40
0.005
 41
0.1900000000000001
 71
     2
 72
     5
  3
\pt0.09;{\fTimes New Roman|b0|i0|c238|p18;\H1.6x;\C4;Bovelacci\P\H0.4375x;\T0.95;via del Commercio, 5  47100 Forli - Italy  \fTimes New Roman|b0|i0|c0|p18;\P\fTimes New Roman|b0|i0|c238|p18;tel.+39-0543721386  fax +39-0543721127\fTimes New Roman|b0|i
  1
0|c0|p18; \fTimes New Roman|b0|i0|c238|p18;www.bovelacci.it\fTimes New Roman|b0|i0|c0|p18; \fTimes New Roman|b0|i0|c238|p18;e-mail: bovelacci@bovelacci\fTimes New Roman|b0|i0|c0|p18;.it}
 73
     1
 44
1.0
1001
ACAD
1000
ACAD_MTEXT_DEFINED_HEIGHT_BEGIN
1070
    46
1040
0.0271738284815141
1000
ACAD_MTEXT_DEFINED_HEIGHT_END
  0
MTEXT
  5
110
330
2
100
AcDbEntity
  8
Text
100
AcDbMText
 10
0.0219676065851835
 20
0.0500313976452307
 30
0.0
 40
0.002
 41
0.1863544980601608
 71
     1
 72
     5
  3
{\fArial|b0|i0|c0|p34;\H1.25x;Le caratteristiche tecniche indicate vengono fornite a titolo indicativo e potranno essere modificate senza preavviso. Non devono quindi essere considerate a scopo di specifica.\P\fArial|b0|i1|c0|p34;The given values are
  3
 indicative and can be changed without notice. They cannot be considered like a state.\PThis lealfet and designs embodied within are protected by copyright law and international treaties. Unauthorized repro- duction of the leaflet or any portion of i
  1
t or reproduction of any of the designs embodied therein may result in severe civil penalties and will be prosecuted to the maximum.\PAll right reserved, Bovelacci Forlì Italy.}
 73
     1
 44
1.0
  0
TEXT
  5
1CA
330
2
100
AcDbEntity
  8
Text
100
AcDbText
 10
0.3020323407045702
 20
0.0905146669607496
 30
0.0
 40
0.005
  1
scala 1:3
  7
Arial
100
AcDbText
  0
LWPOLYLINE
  5
31CA
330
2
100
AcDbEntity
  8
0
  6
Continuous
 62
     1
370
     0
100
AcDbPolyline
 90
       39
 70
   129
 43
0.0
 10
0.2076264496454349
 20
0.18801419548474
 10
0.2072862197653864
 20
0.1861195011225006
 10
0.2056336690276632
 20
0.1853907731380336
 10
0.2034464731059131
 20
0.1858280101958165
 10
0.202231361965617
 20
0.1869939765735795
 10
0.2015509001401309
 20
0.1885485970750868
 10
0.201113460542704
 20
0.1906862007654754
 10
0.1996553292397376
 20
0.1915606762165448
 10
0.1979541757087171
 20
0.1928723873898933
 10
0.1970306916551716
 20
0.1941355169647164
 10
0.19698208679648
 20
0.1950099910802915
 10
0.1975653409699815
 20
0.1958358835973223
 10
0.1977111534806577
 20
0.1961759574580451
 10
0.1977597583393493
 20
0.1976819963610269
 10
0.1985860326755162
 20
0.1985564704765925
 10
0.1997525389571208
 20
0.1988965443373153
 10
0.2002871862065369
 20
0.1989937075343754
 10
0.2007246258039638
 20
0.2005969109699211
 10
0.2013564827707632
 20
0.2020543682743682
 10
0.202231361965617
 20
0.2028316791928738
 10
0.2037380981272702
 20
0.2030745885210326
 10
0.2055850662343656
 20
0.2027345146603098
 10
0.2070918023960186
 20
0.2016657128151202
 10
0.2084527239816018
 20
0.2008884032321091
 10
0.2090359781550987
 20
0.2005483293713864
 10
0.2104455045993733
 20
0.200694075502485
 10
0.2123896803584535
 20
0.200499747772861
 10
0.2144310658349166
 20
0.1992851997965728
 10
0.2159864047898674
 20
0.1972933409017694
 10
0.216035009648559
 20
0.1954958110721035
 10
0.2152573401710788
 20
0.1935039521773095
 10
0.2151601304537003
 20
0.1923865687335852
 10
0.2154031526817596
 20
0.1905890375684153
 10
0.2150143179430243
 20
0.1882571061483932
 10
0.2141880436068572
 20
0.186799648843946
 10
0.2126327025865126
 20
0.186605321114322
 10
0.2104941094580603
 20
0.1866539027128568
 10
0.209278998317764
 20
0.1869939765735795
 10
0.2082583066122294
 20
0.1875283768284224
  0
LWPOLYLINE
  5
31CB
330
2
100
AcDbEntity
  8
0
  6
Continuous
 62
     1
370
     0
100
AcDbPolyline
 90
       12
 70
   129
 43
0.0
 10
0.2034464731059131
 20
0.1954472281380742
 10
0.2048073946914963
 20
0.1961759574580451
 10
0.2057794836037332
 20
0.1962731206551051
 10
0.2076264496454349
 20
0.195787301998797
 10
0.208404121188304
 20
0.1945241724239739
 10
0.2085499336989802
 20
0.1927266412588041
 10
0.2077722621561108
 20
0.1915120932825157
 10
0.2064113405705325
 20
0.1910262746261981
 10
0.2048559995501879
 20
0.1912691839543569
 10
0.2037867029859616
 20
0.1919979132743277
 10
0.2030090335084864
 20
0.1930667151195268
 10
0.2028146140737248
 20
0.19442700789141
  0
LWPOLYLINE
  5
31CC
330
2
100
AcDbEntity
  8
0
  6
Continuous
 62
     1
370
     0
100
AcDbPolyline
 90
        2
 70
   128
 43
0.0
 10
0.2035922856165939
 20
0.195981629728421
 10
0.2008704383146446
 20
0.1984107256809977
  0
LWPOLYLINE
  5
31CD
330
2
100
AcDbEntity
  8
0
  6
Continuous
 62
     1
370
     0
100
AcDbPolyline
 90
        2
 70
   128
 43
0.0
 10
0.2171679429909693
 20
0.1770564935372385
 10
0.2161958551114292
 20
0.1784410777761362
  0
LWPOLYLINE
  5
31CE
330
2
100
AcDbEntity
  8
0
  6
Continuous
 62
     1
370
     0
100
AcDbPolyline
 90
        2
 70
   128
 43
0.0
 10
0.2177754985611173
 20
0.1772508212668624
 10
0.2172651516756531
 20
0.1787811516368589
  0
LWPOLYLINE
  5
31CF
330
2
100
AcDbEntity
  8
0
  6
Continuous
 62
     1
370
     0
100
AcDbPolyline
 90
        4
 70
   128
 43
0.0
 10
0.2184073555279143
 20
0.1770079112709517
 10
0.2183830530985685
 20
0.1781252953824328
 10
0.2186503777559735
 20
0.178635405505765
 10
0.2191121187500516
 20
0.1788054424361263
  0
LWPOLYLINE
  5
31D0
330
2
100
AcDbEntity
  8
0
  6
Continuous
 62
     1
370
     0
100
AcDbPolyline
 90
        2
 70
   128
 43
0.0
 10
0.2085985385576718
 20
0.1912691839543569
 10
0.2106399219687411
 20
0.1887429248047107
  0
LWPOLYLINE
  5
31D1
330
2
100
AcDbEntity
  8
0
  6
Continuous
 62
     1
370
     0
100
AcDbPolyline
 90
        2
 70
   128
 43
0.0
 10
0.2068973850266462
 20
0.1903461282402565
 10
0.2076264496454349
 20
0.1882571061483932
  0
LWPOLYLINE
  5
31D2
330
2
100
AcDbEntity
  8
0
  6
Continuous
 62
     1
370
     0
100
AcDbPolyline
 90
        2
 70
   128
 43
0.0
 10
0.2062655259944579
 20
0.1902489637076926
 10
0.2058766912557226
 20
0.1875769584269477
  0
LWPOLYLINE
  5
31D3
330
2
100
AcDbEntity
  8
0
  6
Continuous
 62
     1
370
     0
100
AcDbPolyline
 90
        2
 70
   128
 43
0.0
 10
0.2048073946914963
 20
0.1907833652980394
 10
0.2037867029859616
 20
0.1885000154765519
  0
LWPOLYLINE
  5
31D4
330
2
100
AcDbEntity
  8
0
  6
Continuous
 62
     1
370
     0
100
AcDbPolyline
 90
        2
 70
   128
 43
0.0
 10
0.2033492633885347
 20
0.1919493303402985
 10
0.2019883397375576
 20
0.1903947098387818
  0
LWPOLYLINE
  5
31D5
330
2
100
AcDbEntity
  8
0
  6
Continuous
 62
     1
370
     0
100
AcDbPolyline
 90
        2
 70
   128
 43
0.0
 10
0.2029604286497947
 20
0.1923865687335852
 10
0.2015509001401309
 20
0.1913663484869209
  0
LWPOLYLINE
  5
31D6
330
2
100
AcDbEntity
  8
0
  6
Continuous
 62
     1
370
     0
100
AcDbPolyline
 90
        2
 70
   128
 43
0.0
 10
0.2020855494549409
 20
0.19442700789141
 10
0.1982944055887654
 20
0.1942326801617765
  0
LWPOLYLINE
  5
31D7
330
2
100
AcDbEntity
  8
0
  6
Continuous
 62
     1
370
     0
100
AcDbPolyline
 90
       55
 70
   128
 43
0.0
 10
0.2078962847862342
 20
0.1858153068897333
 10
0.2091405571894311
 20
0.1800632092979998
 10
0.2073519157389203
 20
0.1803741331312024
 10
0.2061854115227095
 20
0.1798300157553484
 10
0.2065742462614448
 20
0.1790527061723371
 10
0.2074296839259064
 20
0.1776535462519322
 10
0.207507450047494
 20
0.176409849583618
 10
0.2075852161690865
 20
0.1740001865375504
 10
0.2075852161690865
 20
0.1717459867435925
 10
0.2067297805700185
 20
0.1715127932009411
 10
0.2056335327118228
 20
0.1709037663648897
 10
0.2052045860043343
 20
0.1699390830172287
 10
0.2051241596584634
 20
0.1688136184438677
 10
0.2052313968516803
 20
0.1673397972191735
 10
0.2056335327118228
 20
0.1666162843745494
 10
0.2065182369741505
 20
0.1656248041559385
 10
0.2068399464884171
 20
0.1649012913113145
 10
0.2074632134918741
 20
0.1621698948694513
 10
0.209007419986523
 20
0.1605406517932469
 10
0.2103371562255116
 20
0.1595974059423461
 10
0.2092218943729617
 20
0.159168657342659
 10
0.2076347917617944
 20
0.1575394142664547
 10
0.2061763733694086
 20
0.1558672961967398
 10
0.2057474266619201
 20
0.1547096767137425
 10
0.2060047950994883
 20
0.1534234322501947
 10
0.207162951003172
 20
0.1530375586440277
 10
0.2078921601993624
 20
0.1534234322501947
 10
0.209007419986523
 20
0.1533805572566746
 10
0.2102084720067252
 20
0.1529946836505076
 10
0.2111521535239702
 20
0.1524801863992843
 10
0.2112379436916225
 20
0.1520943127931172
 10
0.2112379436916225
 20
0.1505079447104424
 10
0.2093505785917482
 20
0.1516655641934302
 10
0.2076347917617944
 20
0.1515798155419035
 10
0.2065195299092399
 20
0.150636569690993
 10
0.2061763733694086
 20
0.149478948872492
 10
0.2063479516393242
 20
0.1477210821512408
 10
0.2074203194407449
 20
0.1471637085710031
 10
0.209007419986523
 20
0.1470350849259468
 10
0.2097366291827136
 20
0.1474209571966101
 10
0.20930506768956
 20
0.146632072807701
 10
0.2093908557918233
 20
0.1452600796926168
 10
0.2085541285091636
 20
0.1442731134746896
 10
0.2063579212842001
 20
0.1453707087680573
 10
0.2050401973623028
 20
0.1483342156595075
 10
0.2046009567434667
 20
0.1538221921263651
 10
0.2038322841114617
 20
0.1646883853971955
 10
0.2017867761135254
 20
0.1720706115037357
 10
0.1987839013141186
 20
0.1766113182486575
 10
0.196781987535036
 20
0.1788431911007512
 10
0.1950880587435577
 20
0.1806132977084939
 10
0.1948570674211158
 20
0.1811520249935794
 10
0.197936937951074
 20
0.1823834043162272
 10
0.2020177653705736
 20
0.1836147823033618
 10
0.2075615323245032
 20
0.1847691992497806
  0
LWPOLYLINE
  5
31D8
330
2
100
AcDbEntity
  8
0
  6
Continuous
 62
     1
370
     0
100
AcDbPolyline
 90
      105
 70
   128
 43
0.0
 10
0.2098714331565794
 20
0.1855388096570511
 10
0.2111033813685627
 20
0.1801515301286203
 10
0.2124256223017213
 20
0.181422258716435
 10
0.2136466280694231
 20
0.1818202279747466
 10
0.2146022000456568
 20
0.1816345088984965
 10
0.2153454208579339
 20
0.1808120379405677
 10
0.2153985076162285
 20
0.1796446586004556
 10
0.2149207226608038
 20
0.1775752136494578
 10
0.2143898509470893
 20
0.1761690530214636
 10
0.2150003538309404
 20
0.1768588684502974
 10
0.2159559237417849
 20
0.1768588684502974
 10
0.2162744463569321
 20
0.1759037392922564
 10
0.2161423790268335
 20
0.1742510768326061
 10
0.2158504008235282
 20
0.1732694179042481
 10
0.2157176828950972
 20
0.1722877576403862
 10
0.2166997951523899
 20
0.1731898232512815
 10
0.2177084538869182
 20
0.1735347316334551
 10
0.2187701973143472
 20
0.1735081991921305
 10
0.2194603313683343
 20
0.1727387904458338
 10
0.2195665069503078
 20
0.1715448799999105
 10
0.2190645610448651
 20
0.1698095993081335
 10
0.2183478825790361
 20
0.1677401556926396
 10
0.2175250305966225
 20
0.1664401194879288
 10
0.2167552653724986
 20
0.1645298625073507
 10
0.2160120445602216
 20
0.1629379828031158
 10
0.2151095614076716
 20
0.1612134448987782
 10
0.2144459717655309
 20
0.1599134100295713
 10
0.2156404331213861
 20
0.1593297203595153
 10
0.216516373927488
 20
0.158135809913592
 10
0.2172065079814706
 20
0.1568623061502059
 10
0.2179762732055896
 20
0.1562520853743385
 10
0.2189849298747288
 20
0.1562255529330138
 10
0.2199139574391206
 20
0.1559337080979858
 10
0.2198345266119596
 20
0.1551282754893961
 10
0.2194363728266761
 20
0.1544915236076984
 10
0.2187727831845307
 20
0.154279272090133
 10
0.2172067083244508
 20
0.1542262098784912
 10
0.2165962054406
 20
0.1543853978489203
 10
0.2159591581449071
 20
0.1543588667430995
 10
0.2150301326459045
 20
0.15454458581934
 10
0.213729495708071
 20
0.154173147666859
 10
0.2135702333678028
 20
0.1540935530138924
 10
0.2130128172422418
 20
0.1531118940855344
 10
0.2126146634569583
 20
0.1521832973688181
 10
0.2125881190451166
 20
0.1510955113461688
 10
0.2133844286810773
 20
0.1521567649274934
 10
0.2142603674217855
 20
0.1523955475508796
 10
0.215561004359619
 20
0.1524751422038461
 10
0.2171270771543145
 20
0.1519710458512528
 10
0.2178968423784335
 20
0.151068980240348
 10
0.2180295603068644
 20
0.1495832249593966
 10
0.2175252330049919
 20
0.1486280971368594
 10
0.2163573119301906
 20
0.1482566589843688
 10
0.2153751996728983
 20
0.1485219713780721
 10
0.2148171308836201
 20
0.1487259815056266
 10
0.2144986062030791
 20
0.1484341366705987
 10
0.2147109553016419
 20
0.1482218864885372
 10
0.2150825667404774
 20
0.1481688242768954
 10
0.215135653498772
 20
0.1458075344908696
 10
0.2147905864717782
 20
0.1457014087320821
 10
0.2152152846689083
 20
0.1453034394737801
 10
0.2167282707053046
 20
0.1454891585500208
 10
0.2185332370104045
 20
0.1467361312075858
 10
0.2198869607065325
 20
0.1492566089640408
 10
0.2206832703424983
 20
0.1516974920675294
 10
0.2214290543056547
 20
0.1557147109539486
 10
0.2219864704312111
 20
0.1592433787445826
 10
0.2227852957140483
 20
0.1668671225849843
 10
0.2234488874215831
 20
0.1714305128511124
 10
0.2243545843233401
 20
0.1759768300448208
 10
0.2262956413412231
 20
0.1821940286323246
 10
0.2283925879150223
 20
0.1859349479405239
 10
0.2304364456651328
 20
0.1885350190144322
 10
0.232666110167363
 20
0.1895962725957566
 10
0.2348426858459047
 20
0.1898615863249638
 10
0.2372316126884028
 20
0.1891983020019507
 10
0.2389304034115244
 20
0.1876329534035367
 10
0.2406557385464882
 20
0.1850328823296191
 10
0.2417199356590431
 20
0.1817086413435256
 10
0.2420119138623531
 20
0.1778085340649066
 10
0.2416071281048874
 20
0.1728044891883957
 10
0.2404984403935523
 20
0.1697682120651389
 10
0.2392106853026394
 20
0.1676404590460778
 10
0.2376338435565505
 20
0.1670362827575137
 10
0.2355051044110534
 20
0.1673777735870968
 10
0.2334026494380661
 20
0.1691903037882742
 10
0.231825805626588
 20
0.1720010384665015
 10
0.2312986123751712
 20
0.1742157207218954
 10
0.2310883658451803
 20
0.1773679462296869
 10
0.2312723323334444
 20
0.1796533113254465
 10
0.2317979455603429
 20
0.1814395721794301
 10
0.2325600853589637
 20
0.1822276285563827
 10
0.2333747873064317
 20
0.182542851374257
 10
0.2342946135515946
 20
0.1822013605446833
 10
0.235004191201368
 20
0.1807565891847694
 10
0.2355298064936603
 20
0.1784974947717169
 10
0.2356086486842345
 20
0.1764748164704517
 10
0.2354246821959655
 20
0.1748198970104501
 10
0.2348727889273405
 20
0.1737428871628265
 10
0.2341369291704464
 20
0.1736378124450306
 10
0.2334536294970059
 20
0.1740581099807007
 10
0.2326914896983851
 20
0.1751876571872269
 10
0.2325600853589637
 20
0.1770789927590064
 10
0.23287545412126
 20
0.1788127175896007
 10
0.2333747873064317
 20
0.1793380885075627
  0
LWPOLYLINE
  5
31D9
330
2
100
AcDbEntity
  8
0
  6
Continuous
 62
     1
370
     0
100
AcDbPolyline
 90
        2
 70
   128
 43
0.0
 10
0.2338741204916034
 20
0.182647924756549
 10
0.2370015260074485
 20
0.1832783703923163
  0
LWPOLYLINE
  5
31DA
330
2
100
AcDbEntity
  8
0
  6
Continuous
 62
     1
370
     0
100
AcDbPolyline
 90
       11
 70
   128
 43
0.0
 10
0.2347413845879189
 20
0.1732700536037576
 10
0.2373694548531983
 20
0.1719828943205328
 10
0.2384206833723889
 20
0.1724557278796017
 10
0.2392091052781257
 20
0.173322589627147
 10
0.2397084384632974
 20
0.1750563144577412
 10
0.2398135606955982
 20
0.1772366035002011
 10
0.2396295962727232
 20
0.1798109220666316
 10
0.2392616653615839
 20
0.1812819614382449
 10
0.2388674544087132
 20
0.1822538965680727
 10
0.2382892790329675
 20
0.1828843422038401
 10
0.2371854904303234
 20
0.1833046397395102
  0
LWPOLYLINE
  5
31DB
330
2
100
AcDbEntity
  8
0
  6
Continuous
 62
     1
370
     0
100
AcDbPolyline
 90
       12
 70
   128
 43
0.0
 10
0.2385853756269673
 20
0.1830255743342456
 10
0.2374210400718526
 20
0.1846654707191707
 10
0.2357803859892952
 20
0.1860937659765728
 10
0.2342985047492218
 20
0.1861466665923271
 10
0.2323932285740677
 20
0.1854060686557489
 10
0.2304350288065519
 20
0.1835016731985443
 10
0.2283709777235247
 20
0.179428384547369
 10
0.2271537185760481
 20
0.1759369933209935
 10
0.2261434033975173
 20
0.1717411962937491
 10
0.2255083099622066
 20
0.1677737075385787
 10
0.2249261421846466
 20
0.1634359184796201
 10
0.2239205794720158
 20
0.1565060379781464
  0
LWPOLYLINE
  5
31DC
330
2
100
AcDbEntity
  8
0
  6
Continuous
 62
     1
370
     0
100
AcDbPolyline
 90
        3
 70
   128
 43
0.0
 10
0.225825855647165
 20
0.1576698341632595
 10
0.2276782082299573
 20
0.1679853073306076
 10
0.2308536692103437
 20
0.1751796882398645
  0
LWPOLYLINE
  5
31DD
330
2
100
AcDbEntity
  8
0
  6
Continuous
 62
     1
370
     0
100
AcDbPolyline
 90
       11
 70
   128
 43
0.0
 10
0.2235835901912617
 20
0.1540248947963257
 10
0.2227925700229875
 20
0.1503629170800432
 10
0.2217517552078529
 20
0.1476580477374895
 10
0.220252979065125
 20
0.1452860846101853
 10
0.218962367537741
 20
0.1440376842997386
 10
0.2175884897511379
 20
0.1432886433121758
 10
0.2160064514799784
 20
0.1428308955968255
 10
0.2147158378872007
 20
0.1430389629829819
 10
0.2136333909751557
 20
0.1436215495274256
 10
0.2128840029037917
 20
0.1446618851227138
 10
0.2126342061915424
 20
0.145452539053314
  0
LWPOLYLINE
  5
31DE
330
2
100
AcDbEntity
  8
0
  6
Continuous
 62
     1
370
     0
100
AcDbPolyline
 90
        8
 70
   128
 43
0.0
 10
0.2168391037451677
 20
0.1428308955968255
 10
0.2181713473694668
 20
0.142914122818385
 10
0.2199199181590503
 20
0.1435799365843882
 10
0.2210023671364891
 20
0.1444122047935294
 10
0.222126448210838
 20
0.1458270595471048
 10
0.2232505292851869
 20
0.1476580477374895
 10
0.2240415494534659
 20
0.1494058100418182
 10
0.224416242456451
 20
0.1507374375738245
  0
LWPOLYLINE
  5
31DF
330
2
100
AcDbEntity
  8
0
  6
Continuous
 62
     1
370
     0
100
AcDbPolyline
 90
       29
 70
   128
 43
0.0
 10
0.2083156315539271
 20
0.1771646185442568
 10
0.2091998834955135
 20
0.1778520514354458
 10
0.2096911348036576
 20
0.1779175218069668
 10
0.2095928841289509
 20
0.1774264973593237
 10
0.2093308830181914
 20
0.1745458237160028
 10
0.2086431324260231
 20
0.1728763419295274
 10
0.2083156315539271
 20
0.1715996797011609
 10
0.2091343837341721
 20
0.1722216435563423
 10
0.2101496351984364
 20
0.1726799321504683
 10
0.2105753867452391
 20
0.1724507878534053
 10
0.2105753867452391
 20
0.1717960894802201
 10
0.2102806367865084
 20
0.1708140405849432
 10
0.2098548852397055
 20
0.1698319930251607
 10
0.2094291336929028
 20
0.1692754995415003
 10
0.2098548852397055
 20
0.1692100291699793
 10
0.2101823861118017
 20
0.1684571259072694
 10
0.2098221343263404
 20
0.167835162052088
 10
0.20926538325685
 20
0.1671804636789028
 10
0.2090361330594607
 20
0.1663948245626756
 10
0.2088723826234126
 20
0.1649872229267805
 10
0.208970633298124
 20
0.164136114774536
 10
0.2095273843676095
 20
0.1636123558088891
 10
0.2101168863504603
 20
0.1635796212908758
 10
0.210542635831874
 20
0.1639397049954769
 10
0.2107718880946571
 20
0.1643325245535953
 10
0.21087013670397
 20
0.1655109818924275
 10
0.2107391371812872
 20
0.1666567047132558
 10
0.2102806367865084
 20
0.1673441376044448
 10
0.2100513845237297
 20
0.167540547383504
  0
LWPOLYLINE
  5
31E0
330
2
100
AcDbEntity
  8
0
  6
Continuous
 62
     1
370
     0
100
AcDbPolyline
 90
        4
 70
   128
 43
0.0
 10
0.2110666380533881
 20
0.1725489927429395
 10
0.2117871395589216
 20
0.1727454025219892
 10
0.2124421413031138
 20
0.1721889077028346
 10
0.2131626428086521
 20
0.1706503666593917
  0
LWPOLYLINE
  5
31E1
330
2
100
AcDbEntity
  8
0
  6
Continuous
 62
     1
370
     0
100
AcDbPolyline
 90
        8
 70
   128
 43
0.0
 10
0.2116561400362388
 20
0.1730072813370655
 10
0.2109683873786767
 20
0.1747422334950619
 10
0.2104771360705326
 20
0.1760188957234284
 10
0.2101168863504603
 20
0.1772628220982778
 10
0.2104771360705326
 20
0.178048461214505
 10
0.2107718880946571
 20
0.1780157266964917
 10
0.2109356385307052
 20
0.1784412807726138
 10
0.2110011382920466
 20
0.1794560628504002
  0
LWPOLYLINE
  5
31E2
330
2
100
AcDbEntity
  8
0
  6
Continuous
 62
     1
370
     0
100
AcDbPolyline
 90
        5
 70
   128
 43
0.0
 10
0.2158641893773303
 20
0.1644814892473088
 10
0.2153401892212101
 20
0.168147800671353
 10
0.2145017869060219
 20
0.1708713470256281
 10
0.2144493858577181
 20
0.1731758859402867
 10
0.2142397857952671
 20
0.1753232975658995
  0
LWPOLYLINE
  5
31E3
330
2
100
AcDbEntity
  8
0
  6
Continuous
 62
     1
370
     0
100
AcDbPolyline
 90
        6
 70
   128
 43
0.0
 10
0.2108638145405212
 20
0.1594787211118227
 10
0.2114707732125211
 20
0.1592764952164918
 10
0.2120777318845163
 20
0.1596809483426574
 10
0.2131760389380645
 20
0.1599698417156942
 10
0.2135806780527294
 20
0.1599409521112878
 10
0.2139853171673946
 20
0.1599409521112878
  0
LWPOLYLINE
  5
31E4
330
2
100
AcDbEntity
  8
0
  6
Continuous
 62
     1
370
     0
100
AcDbPolyline
 90
        4
 70
   128
 43
0.0
 10
0.210690398072149
 20
0.154249732095694
 10
0.2105169795383874
 20
0.1557808731161114
 10
0.210574785716308
 20
0.1573120141365194
 10
0.2110661340978561
 20
0.1585542591128926
  0
LWPOLYLINE
  5
31E5
330
2
100
AcDbEntity
  8
0
  6
Continuous
 62
     1
370
     0
100
AcDbPolyline
 90
        2
 70
   128
 43
0.0
 10
0.2091585488149778
 20
0.156647555906229
 10
0.2094764786627645
 20
0.1582364761354495
  0
LWPOLYLINE
  5
31E6
330
2
100
AcDbEntity
  8
0
  6
Continuous
 62
     1
370
     0
100
AcDbPolyline
 90
        5
 70
   128
 43
0.0
 10
0.2142165398136872
 20
0.1553764213254496
 10
0.21363848423065
 20
0.1565897780329202
 10
0.2132338451159849
 20
0.1571675661144972
 10
0.2130893296711813
 20
0.1578031334048869
 10
0.2130893296711813
 20
0.1585831487172988
  0
LWPOLYLINE
  5
31E7
330
2
100
AcDbEntity
  8
0
  6
Continuous
 62
     1
370
     0
100
AcDbPolyline
 90
        4
 70
   128
 43
0.0
 10
0.211227755115245
 20
0.1484454296853405
 10
0.2106920978893711
 20
0.1493887703569753
 10
0.2098248441200154
 20
0.150000667189313
 10
0.2094167248206344
 20
0.150230129336126
  0
LWPOLYLINE
  5
31E8
330
2
100
AcDbEntity
  8
0
  6
Continuous
 62
     1
370
     0
100
AcDbPolyline
 90
        2
 70
   128
 43
0.0
 10
0.2113808006270345
 20
0.1484454296853405
 10
0.2112532627005416
 20
0.1499496763430758
  0
LWPOLYLINE
  5
31E9
330
2
100
AcDbEntity
  8
0
  6
Continuous
 62
     1
370
     0
100
AcDbPolyline
 90
        3
 70
   128
 43
0.0
 10
0.2120439957793964
 20
0.1485219166224435
 10
0.2122225488764826
 20
0.1499751724339511
 10
0.2125796530052654
 20
0.1507145470496292
  0
LWPOLYLINE
  5
31EA
330
2
100
AcDbEntity
  8
0
  6
Continuous
 62
     1
370
     0
100
AcDbPolyline
 90
        3
 70
   128
 43
0.0
 10
0.2099013668759102
 20
0.1478590289438685
 10
0.2103605013458893
 20
0.148190472783156
 10
0.214059088821779
 20
0.1482924558111344
  0
LWPOLYLINE
  5
31EB
330
2
100
AcDbEntity
  8
0
  6
Continuous
 62
     1
370
     0
100
AcDbPolyline
 90
        2
 70
   128
 43
0.0
 10
0.2098248441200154
 20
0.1454369377053737
 10
0.2143651777799686
 20
0.1456154076704551
  0
LWPOLYLINE
  5
31EC
330
2
100
AcDbEntity
  8
0
  6
Continuous
 62
     1
370
     0
100
AcDbPolyline
 90
       17
 70
   128
 43
0.0
 10
0.2408110683812987
 20
0.2135434468975573
 10
0.2406381827185506
 20
0.2106633675531461
 10
0.2412144661956601
 20
0.2080136945562808
 10
0.2423094025302403
 20
0.2049608104512032
 10
0.2426551717903522
 20
0.2038663803003256
 10
0.2427128003446017
 20
0.202426339292621
 10
0.2432890838217112
 20
0.2015623154892891
 10
0.2440958773850399
 20
0.1985094313842116
 10
0.2444992751994012
 20
0.1930948822167221
 10
0.2488790226031167
 20
0.1930948822167221
 10
0.24962818967759
 20
0.1974150012333341
 10
0.250262101708949
 20
0.1996038615350892
 10
0.2523943458238604
 20
0.2019079250106219
 10
0.2524519743781097
 20
0.203347966018336
 10
0.2541808227440538
 20
0.2045575993429816
 10
0.2555062712302427
 20
0.2062280453627471
 10
0.2563130668589653
 20
0.2081864993169471
  0
LWPOLYLINE
  5
31ED
330
2
100
AcDbEntity
  8
0
  6
Continuous
 62
     1
370
     0
100
AcDbPolyline
 90
       14
 70
   128
 43
0.0
 10
0.1721240630011813
 20
0.177121129219279
 10
0.1714775396891894
 20
0.1791890490256728
 10
0.1701844909998067
 20
0.1803522535828932
 10
0.1686974855233638
 20
0.1809984795240191
 10
0.1676630465718578
 20
0.1814508358130972
 10
0.1667579135219843
 20
0.1862329013670104
 10
0.1661113902099877
 20
0.1884946881544444
 10
0.1645597317827285
 20
0.1897871387011828
 10
0.1645597317827285
 20
0.191079587912427
 10
0.1630727263062856
 20
0.1921135478156238
 10
0.1619089835185359
 20
0.1936644876704191
 10
0.1613271131573601
 20
0.1957970298038293
 10
0.161456416993599
 20
0.19792957193723
 10
0.161456416993599
 20
0.1990281541674434
  0
LWPOLYLINE
  5
31EE
330
2
100
AcDbEntity
  8
0
  6
Continuous
 62
     1
370
     0
100
AcDbPolyline
 90
        5
 70
   128
 43
0.0
 10
0.1649680534904789
 20
0.1909279535478972
 10
0.1701745461396242
 20
0.1909992427066881
 10
0.1768431356434579
 20
0.191355687165177
 10
0.1900163019103555
 20
0.1924967277119151
 10
0.1969345187643336
 20
0.1933521936109805
  0
LWPOLYLINE
  5
31EF
330
2
100
AcDbEntity
  8
0
  6
Continuous
 62
     1
370
     0
100
AcDbPolyline
 90
        5
 70
   128
 43
0.0
 10
0.2166972567862088
 20
0.1967026572016622
 10
0.2237350556785375
 20
0.1982100596533704
 10
0.2304855978525808
 20
0.2004352723511992
 10
0.2379759839237567
 20
0.2027802703341468
 10
0.2419758810418581
 20
0.2038807623338773
  0
LWPOLYLINE
  5
31F0
330
2
100
AcDbEntity
  8
0
  6
Continuous
 62
     1
370
     0
100
AcDbPolyline
 90
        4
 70
   128
 43
0.0
 10
0.2164100000679234
 20
0.1951952547499541
 10
0.2243095691151177
 20
0.1970615629924746
 10
0.2345790117680153
 20
0.2001481485198441
 10
0.2415449969971199
 20
0.2021580180102903
  0
LWPOLYLINE
  5
31F1
330
2
100
AcDbEntity
  8
0
  6
Continuous
 62
     1
370
     0
100
AcDbPolyline
 90
        2
 70
   128
 43
0.0
 10
0.2434614200903186
 20
0.2023237018680891
 10
0.2520411886582778
 20
0.2020060791510297
  0
LWPOLYLINE
  5
31F2
330
2
100
AcDbEntity
  8
0
  6
Continuous
 62
     1
370
     0
100
AcDbPolyline
 90
        2
 70
   128
 43
0.0
 10
0.2431789592111432
 20
0.2039118127823973
 10
0.2517587277791025
 20
0.20338244203246
  0
LWPOLYLINE
  5
31F3
330
2
100
AcDbEntity
  8
0
  6
Continuous
 62
     1
370
     0
100
AcDbPolyline
 90
        5
 70
   128
 43
0.0
 10
0.2106566867517272
 20
0.1849535828228565
 10
0.2146099514600356
 20
0.1855180732994501
 10
0.2188769677290842
 20
0.1860825637760438
 10
0.2236459856691492
 20
0.1862707281585808
 10
0.2281640027737037
 20
0.1862080062525641
  0
LWPOLYLINE
  5
31F4
330
2
100
AcDbEntity
  8
0
  6
Continuous
 62
     1
370
     0
100
AcDbPolyline
 90
        5
 70
   128
 43
0.0
 10
0.2148609522955462
 20
0.1867097761586448
 10
0.2233322341084138
 20
0.1880269214943692
 10
0.2293562582914157
 20
0.1891559037830605
 10
0.2359450328052647
 20
0.1909120971188488
 10
0.2441025630573969
 20
0.1929818973136944
  0
LWPOLYLINE
  5
31F5
330
2
100
AcDbEntity
  8
0
  6
Continuous
 62
     1
370
     0
100
AcDbPolyline
 90
        6
 70
   128
 43
0.0
 10
0.1680235895775217
 20
0.1815045724538405
 10
0.1765576221156142
 20
0.1819436217894084
 10
0.1837738997509341
 20
0.1826962753130351
 10
0.1929981840703285
 20
0.183574372648686
 10
0.2015949673336459
 20
0.1844524699843274
 10
0.2053599819316735
 20
0.1850796823669378
  0
LWPOLYLINE
  5
31F6
330
2
100
AcDbEntity
  8
0
  6
Continuous
 62
     1
370
     0
100
AcDbPolyline
 90
       18
 70
   128
 43
0.0
 10
0.2114251301252707
 20
0.1448422314697356
 42
-0.6969890211612863
 10
0.2044292586808427
 20
0.1438746968228232
 42
-0.0031023912712712
 10
0.2007740093152579
 20
0.1581832643474549
 42
0.2042074380527084
 10
0.1905167173606858
 20
0.1758726100490485
 42
0.2103675733677307
 10
0.1814088860114806
 20
0.177983594490411
 42
0.4712843350415534
 10
0.1751170032673659
 20
0.1665490978814622
 42
0.3581351055493958
 10
0.1817168813260448
 20
0.1628988538959668
 42
0.2709800826645485
 10
0.1858968041653868
 20
0.1665051184268353
 42
0.4461401655355897
 10
0.1831688536314857
 20
0.17138676978054
 42
0.7646613859064245
 10
0.1827728623111257
 20
0.1706391297357918
 42
-0.5302436139951089
 10
0.1823171976989073
 20
0.1659669974601751
 42
-1.282212929955851
 10
0.1829488584535095
 20
0.1744652875333112
 42
-0.4412979024662583
 10
0.1877447698565815
 20
0.1644820928947359
 42
-0.6699211494341299
 10
0.1718610643063227
 20
0.1673407160453523
 42
-0.1956855568393625
 10
0.173665030961925
 20
0.1775877847407188
 42
-0.4124404183914951
 10
0.1917486965535397
 20
0.1786432769614
 42
-0.1575891902831175
 10
0.2024476931390384
 20
0.160554316661603
 42
-0.018704303524191
 10
0.2046916522159869
 20
0.1485041157007976
 42
0.8630923180374331
  0
LWPOLYLINE
  5
31F7
330
2
100
AcDbEntity
  8
0
  6
Continuous
 62
     1
370
     0
100
AcDbPolyline
 90
       44
 70
   128
 43
0.0
 10
0.2056210412238979
 20
0.1200435937718524
 10
0.2066572481505442
 20
0.1215764696108802
 10
0.2073204185182078
 20
0.1228193422737398
 10
0.2069888323016813
 20
0.1246007913098282
 10
0.2066157998734818
 20
0.1253465149075402
 10
0.2058282826092281
 20
0.1257193767064009
 10
0.2042532480807206
 20
0.1248079371988077
 10
0.2053309032844339
 20
0.1261750971279447
 10
0.2060769722716204
 20
0.1274179684553005
 10
0.2063256619340176
 20
0.1290751315606058
 10
0.2058697308862904
 20
0.1294894220030609
 10
0.2048335239596441
 20
0.1294479933594665
 10
0.2040045604837172
 20
0.1291579901832983
 10
0.2055381446697639
 20
0.1302351456007729
 10
0.2057453860550941
 20
0.1313951596409399
 10
0.2058282826092281
 20
0.1328866068363734
 10
0.2052065584532376
 20
0.1336737590776797
 10
0.20375587082132
 20
0.1335080418322947
 10
0.2038802156525163
 20
0.1339223336102536
 10
0.2048335239596441
 20
0.1349166304050355
 10
0.2054137998385678
 20
0.1366152221539352
 10
0.2048335239596441
 20
0.1373609457516473
 10
0.2039216639295833
 20
0.1374023757307453
 10
0.2030926983882626
 20
0.1371123712190828
 10
0.2044604894660508
 20
0.1382723852592405
 10
0.2052065584532376
 20
0.1395566865656944
 10
0.2048335239596441
 20
0.1401781228971195
 10
0.2049143138144233
 20
0.1415269824264348
 10
0.2043754862125668
 20
0.1427698537537906
 10
0.203463626182506
 20
0.14343271872881
 10
0.2018885916539985
 20
0.1433912900852157
 10
0.2008523867927414
 20
0.1430184282863644
 10
0.2002306626367507
 20
0.1422312760450486
 10
0.2010596281780716
 20
0.1440127264166502
 10
0.2013497661175309
 20
0.144717020035264
 10
0.202427419255855
 20
0.1456284595428573
 10
0.2030076951347785
 20
0.1467884735830244
 10
0.2030905916889125
 20
0.1481556335121709
 10
0.202593212364118
 20
0.1490670730197642
 10
0.2013083178404639
 20
0.1492327889296454
 10
0.2022616261475917
 20
0.149937083883763
 10
0.2022201778705248
 20
0.1508070934122582
 10
0.2016399040569951
 20
0.1517185342553552
 10
0.2020958330393285
 20
0.1524228278739691
  0
LWPOLYLINE
  5
31F8
330
2
100
AcDbEntity
  8
0
  6
Continuous
 62
     1
370
     0
100
AcDbPolyline
 90
       34
 70
   128
 43
0.0
 10
0.2012254212863346
 20
0.1553642922857282
 10
0.2007694902386072
 20
0.1554885795520152
 10
0.1995260419266309
 20
0.1555714368392039
 10
0.1989872163901636
 20
0.1553642922857282
 10
0.1997747315890235
 20
0.1564000190596084
 10
0.2001063178055546
 20
0.1575186031206773
 10
0.1996918350348942
 20
0.1585543298945575
 10
0.1989872163901636
 20
0.1588443344062295
 10
0.1987799750048333
 20
0.1593000534922789
 10
0.1987799750048333
 20
0.1603357802661591
 10
0.1983240439571059
 20
0.1615372242854149
 10
0.1970391473680626
 20
0.1623243765267308
 10
0.1962516321692027
 20
0.1619515147278701
 10
0.1952154252425517
 20
0.160791500687703
 10
0.1948009424718915
 20
0.1608743579748917
 10
0.1945108045324319
 20
0.1612886497528506
 10
0.1937232893335674
 20
0.1603772102452479
 10
0.1937232893335674
 20
0.1598800611801098
 10
0.1931015651775767
 20
0.1603357802661591
 10
0.1923969444674569
 20
0.1609986452411786
 10
0.1911534982208698
 20
0.1615372242854149
 10
0.1897028085235583
 20
0.1613715070400393
 10
0.1888323947051753
 20
0.1607086420650104
 10
0.1882106726145787
 20
0.160045777089991
 10
0.1879619829521814
 20
0.1592171962050902
 10
0.1878790863980475
 20
0.160045777089991
 10
0.1871330174108607
 20
0.1600043484463967
 10
0.1868428794714014
 20
0.1595486280248434
 10
0.1868014311943344
 20
0.1592586248486846
 10
0.1865527415319372
 20
0.1595900566684377
 10
0.1856408815018764
 20
0.1594243407585564
 10
0.1850191573458906
 20
0.1590929089388033
 10
0.1844803297440291
 20
0.1585543298945575
 10
0.1843559849128329
 20
0.1582643267183988
  0
LWPOLYLINE
  5
31F9
330
2
100
AcDbEntity
  8
0
  6
Continuous
 62
     1
370
     0
100
AcDbPolyline
 90
        4
 70
   128
 43
0.0
 10
0.1881692243375117
 20
0.1571457426573299
 10
0.1872573622420617
 20
0.1576014617433699
 10
0.1869672243025975
 20
0.1583471853410914
 10
0.1867185346402005
 20
0.1588857630498239
  0
LWPOLYLINE
  5
31FA
330
2
100
AcDbEntity
  8
0
  6
Continuous
 62
     1
370
     0
100
AcDbPolyline
 90
        4
 70
   128
 43
0.0
 10
0.1927699789610504
 20
0.1561928731706385
 10
0.1901587395712858
 20
0.1568557381456579
 10
0.1887909484935022
 20
0.1574357458334886
 10
0.1881692243375117
 20
0.1587200471399426
  0
LWPOLYLINE
  5
31FB
330
2
100
AcDbEntity
  8
0
  6
Continuous
 62
     1
370
     0
100
AcDbPolyline
 90
        3
 70
   128
 43
0.0
 10
0.1941792183159008
 20
0.1561100158834497
 10
0.1945522528094943
 20
0.1576014617433699
 10
0.1940963217617715
 20
0.1597143439347246
  0
LWPOLYLINE
  5
31FC
330
2
100
AcDbEntity
  8
0
  6
Continuous
 62
     1
370
     0
100
AcDbPolyline
 90
        3
 70
   128
 43
0.0
 10
0.1977437680781824
 20
0.1567728808584692
 10
0.1981582508488428
 20
0.1579743235422306
 10
0.1986556301736371
 20
0.1584714726073688
  0
LWPOLYLINE
  5
31FD
330
2
100
AcDbEntity
  8
0
  6
Continuous
 62
     1
370
     0
100
AcDbPolyline
 90
        2
 70
   128
 43
0.0
 10
0.196541770108662
 20
0.1571871713009243
 10
0.196458873554528
 20
0.1595900566684377
  0
LWPOLYLINE
  5
31FE
330
2
100
AcDbEntity
  8
0
  6
Continuous
 62
     1
370
     0
100
AcDbPolyline
 90
        4
 70
   128
 43
0.0
 10
0.1984886060920254
 20
0.1449161288662142
 10
0.1986958474773557
 20
0.1492661818507049
 10
0.1994419164645424
 20
0.1525805080613248
 10
0.2000636406205329
 20
0.1536576634787994
  0
LWPOLYLINE
  5
31FF
330
2
100
AcDbEntity
  8
0
  6
Continuous
 62
     1
370
     0
100
AcDbPolyline
 90
        3
 70
   128
 43
0.0
 10
0.1971622632913041
 20
0.1508819163124252
 10
0.1974524012307683
 20
0.1534090889462255
 10
0.1978668819360347
 20
0.1544448157201058
  0
LWPOLYLINE
  5
3200
330
2
100
AcDbEntity
  8
0
  6
Continuous
 62
     1
370
     0
100
AcDbPolyline
 90
        4
 70
   128
 43
0.0
 10
0.1991103302480159
 20
0.1441704066039966
 10
0.1997320544040017
 20
0.1469875824139746
 10
0.2003952247716656
 20
0.1488518914082593
 10
0.2008097075423258
 20
0.1492247532071106
  0
LWPOLYLINE
  5
3201
330
2
100
AcDbEntity
  8
0
  6
Continuous
 62
     1
370
     0
100
AcDbPolyline
 90
        5
 70
   128
 43
0.0
 10
0.1998574505194863
 20
0.1318583695642278
 10
0.2003548298442758
 20
0.1352141244184327
 10
0.2010180022773333
 20
0.1376170111214594
 10
0.2021785519697867
 20
0.140061326468071
 10
0.2023443450780546
 20
0.1405170455541205
  0
LWPOLYLINE
  5
3202
330
2
100
AcDbEntity
  8
0
  6
Continuous
 62
     1
370
     0
100
AcDbPolyline
 90
        5
 70
   128
 43
0.0
 10
0.2019319338950906
 20
0.1201655986632342
 10
0.2017246925097606
 20
0.1238113566936168
 10
0.2019319338950906
 20
0.1277471179001579
 10
0.2026365546052106
 20
0.130937156844491
 10
0.2033826235923974
 20
0.1322214581509356
  0
LWPOLYLINE
  5
3203
330
2
100
AcDbEntity
  8
0
  6
Continuous
 62
     1
370
     0
100
AcDbPolyline
 90
        3
 70
   128
 43
0.0
 10
0.2024707614969474
 20
0.1254270898198238
 10
0.2030510373758709
 20
0.1279542637891374
 10
0.2036313132547946
 20
0.1288242746531363
  0
LWPOLYLINE
  5
3204
330
2
100
AcDbEntity
  8
0
  6
Continuous
 62
     1
370
     0
100
AcDbPolyline
 90
        3
 70
   128
 43
0.0
 10
0.1984487006624247
 20
0.1318559790135599
 10
0.1989460799872191
 20
0.1389817804999381
 10
0.1991947696496114
 20
0.1422961053750542
  0
LWPOLYLINE
  5
3205
330
2
100
AcDbEntity
  8
0
  6
Continuous
 62
     1
370
     0
100
AcDbPolyline
 90
        2
 70
   128
 43
0.0
 10
0.19720546095499
 20
0.1413538785130625
 10
0.1970396699121157
 20
0.1463667964725821
  0
LWPOLYLINE
  5
3206
330
2
100
AcDbEntity
  8
0
  6
Continuous
 62
     1
370
     0
100
AcDbPolyline
 90
        3
 70
   128
 43
0.0
 10
0.1978686333880475
 20
0.1333994961417836
 10
0.1979929782192435
 20
0.1394481408751834
 10
0.1981173230504398
 20
0.1440467683922479
  0
LWPOLYLINE
  5
3207
330
2
100
AcDbEntity
  8
0
  6
Continuous
 62
     1
370
     0
100
AcDbPolyline
 90
       37
 70
   128
 43
0.0
 10
0.2163466648368947
 20
0.1421068792675045
 10
0.218468255662338
 20
0.1412293855792903
 10
0.2196387894574103
 20
0.1408637635430715
 10
0.220224055322252
 20
0.1399862698548572
 10
0.2200777388560393
 20
0.1389990886209179
 10
0.2198216840074758
 20
0.1382312811429153
 10
0.2204069519377114
 20
0.1370247274885527
 10
0.2206630047208808
 20
0.1356353621483334
 10
0.2202606354714986
 20
0.1349772422160462
 10
0.2194193147580936
 20
0.1347578684601191
 10
0.2182853590468787
 20
0.1347578684601191
 10
0.2177000931820374
 20
0.1347578684601191
 10
0.2174440383334739
 20
0.1345019326341214
 10
0.2167490340862769
 20
0.1345019326341214
 10
0.2165295593869651
 20
0.1338803747719047
 10
0.2162735066037908
 20
0.1326372577119678
 10
0.2159808716059807
 20
0.1322350736056784
 10
0.2155053441234899
 20
0.1322350736056784
 10
0.2151761310418225
 20
0.1322716356757489
 10
0.2150663926594673
 20
0.1308822703355298
 10
0.214846917960155
 20
0.1297854028913788
 10
0.2140421773959968
 20
0.1288347837275195
 10
0.2129813799178861
 20
0.1286154113070868
 10
0.2122863756706891
 20
0.1288713471330939
 10
0.2114450549572843
 20
0.1301510249275977
 10
0.2109329473255514
 20
0.1312113303016685
 10
0.210823208943196
 20
0.131686639883603
 10
0.2103842595445672
 20
0.1317963260938145
 10
0.2101647848452505
 20
0.1325641335718172
 10
0.2099818882297912
 20
0.1332588155741844
 10
0.2095063607473051
 20
0.1333685031198999
 10
0.2084089851853367
 20
0.1335513134702527
 10
0.2081163522529161
 20
0.1337706872261798
 10
0.2076408227050359
 20
0.1338072492962504
 10
0.2069092383085924
 20
0.1336244389458976
 10
0.2063605505276082
 20
0.1336244389458976
 10
0.2058484428958755
 20
0.1336975630860387
  0
LWPOLYLINE
  5
3208
330
2
100
AcDbEntity
  8
0
  6
Continuous
 62
     1
370
     0
100
AcDbPolyline
 90
        4
 70
   128
 43
0.0
 10
0.2120303228875197
 20
0.1441909279455854
 10
0.2113353186403228
 20
0.1392184623768545
 10
0.2104574177776714
 20
0.1368053537326255
 10
0.2095429388311624
 20
0.1337706872261798
  0
LWPOLYLINE
  5
3209
330
2
100
AcDbEntity
  8
0
  6
Continuous
 62
     1
370
     0
100
AcDbPolyline
 90
        3
 70
   128
 43
0.0
 10
0.2070921349240517
 20
0.1371709771043481
 10
0.209103989432529
 20
0.1389625265508473
 10
0.2099818882297912
 20
0.1404250160312171
  0
LWPOLYLINE
  5
320A
330
2
100
AcDbEntity
  8
0
  6
Continuous
 62
     1
370
     0
100
AcDbPolyline
 90
        3
 70
   128
 43
0.0
 10
0.2066531855254229
 20
0.1390356506909979
 10
0.2086650379685062
 20
0.13976689609893
 10
0.2091771476656376
 20
0.1404615781012877
  0
LWPOLYLINE
  5
320B
330
2
100
AcDbEntity
  8
0
  6
Continuous
 62
     1
370
     0
100
AcDbPolyline
 90
        6
 70
   128
 43
0.0
 10
0.2163466648368947
 20
0.134538494704192
 10
0.2149566563425058
 20
0.1356353621483334
 10
0.2142250719460623
 20
0.1368784778727666
 10
0.2134203313819087
 20
0.1385969045146379
 10
0.2128350634516733
 20
0.1408637635430715
 10
0.2125058524353997
 20
0.1426553129895801
  0
LWPOLYLINE
  5
320C
330
2
100
AcDbEntity
  8
0
  6
Continuous
 62
     1
370
     0
100
AcDbPolyline
 90
        2
 70
   128
 43
0.0
 10
0.214444546645379
 20
0.1416681330911541
 10
0.2183219391961253
 20
0.1387431527949201
  0
LWPOLYLINE
  5
320D
330
2
100
AcDbEntity
  8
0
  6
Continuous
 62
     1
370
     0
100
AcDbPolyline
 90
       13
 70
   128
 43
0.0
 10
0.2179561480306007
 20
0.1408272014730009
 10
0.2190535215271798
 20
0.1400593939949982
 10
0.2189437852102136
 20
0.1392550244469251
 10
0.2186145721285461
 20
0.1390356506909979
 10
0.2185048337461956
 20
0.1382678445484896
 10
0.2187974687440055
 20
0.1379022211767764
 10
0.218907205060967
 20
0.1371344136987738
 10
0.2188340468278628
 20
0.1365128558365571
 10
0.2183219391961253
 20
0.13585473590427
 10
0.2176635130327906
 20
0.1357450483585451
 10
0.2168953505524897
 20
0.1360741096601972
 10
0.2163832429207523
 20
0.1361472338003383
 10
0.2162735066037908
 20
0.1353794263223357
  0
LWPOLYLINE
  5
320E
330
2
100
AcDbEntity
  8
0
  6
Continuous
 62
     1
370
     0
100
AcDbPolyline
 90
        2
 70
   128
 43
0.0
 10
0.2147371816431937
 20
0.1322716356757489
 10
0.2138592807805375
 20
0.1331856914340338
  0
LWPOLYLINE
  5
320F
330
2
100
AcDbEntity
  8
0
  6
Continuous
 62
     1
370
     0
100
AcDbPolyline
 90
       59
 70
   128
 43
0.0
 10
0.2207353223396366
 20
0.12134625156927
 10
0.2194243253979268
 20
0.1233118384458625
 10
0.2193306826117038
 20
0.1246222288065882
 10
0.2196116109703682
 20
0.125932619167314
 10
0.2201734676877018
 20
0.1265878143476768
 10
0.2202671104739202
 20
0.1277110072301539
 10
0.2201734676877018
 20
0.1290213975908796
 10
0.2209226079120829
 20
0.1294893952929938
 10
0.2208289651258596
 20
0.130425388026224
 10
0.2209226079120829
 20
0.1322037760890734
 10
0.2214844646294116
 20
0.1338885640772947
 10
0.222982747143563
 20
0.1334205677106748
 10
0.2239191729403853
 20
0.1342629617047807
 10
0.2224208904262341
 20
0.136134948506745
 10
0.2221399620675696
 20
0.1377261364203475
 10
0.2234509590092796
 20
0.1383813329362048
 10
0.2244810296577142
 20
0.1383813329362048
 10
0.2234509590092796
 20
0.1395981245578156
 10
0.2224208904262341
 20
0.1399725208497978
 10
0.2225145332124571
 20
0.1412829125460274
 10
0.222982747143563
 20
0.1419381077263903
 10
0.2226081759986755
 20
0.1427805017205056
 10
0.223076389929786
 20
0.1452140849637084
 10
0.2238255301541669
 20
0.1455884825912038
 10
0.2249492435888247
 20
0.1454012837774514
 10
0.2256047410269828
 20
0.1462436777715668
 10
0.2254174554545413
 20
0.1470860717656727
 10
0.2258856693856472
 20
0.1479284657597785
 10
0.22729030911358
 20
0.1482092633126554
 10
0.2278521658309089
 20
0.1484900622010266
 10
0.22729030911358
 20
0.1493324561951325
 10
0.2246683152301602
 20
0.1499876513754953
 10
0.2243873868714958
 20
0.1513916418108397
 10
0.2252301698820953
 20
0.1519532382520877
 10
0.2259793121718702
 20
0.152421234618698
 10
0.2256443634979423
 20
0.152952573900302
 10
0.225353824872527
 20
0.1534043131869242
 10
0.224191670370857
 20
0.1542755260037619
 10
0.2234491827725686
 20
0.1550822046368073
 10
0.2236428751895136
 20
0.1558566161779519
 10
0.224288516579332
 20
0.1565342264433841
 10
0.2256766455674339
 20
0.1573086379845286
 10
0.2273875952504473
 20
0.1582121178932768
 10
0.2300024428792024
 20
0.15795398115806
 10
0.2297517580485928
 20
0.1588547152723115
 10
0.2293288629382659
 20
0.1594887640955974
 10
0.2290587634273515
 20
0.1603051211200618
 10
0.2292581935019415
 20
0.1610739889875733
 10
0.2296285595096902
 20
0.1618428568550944
 10
0.2296855395310011
 20
0.1624693427239729
 10
0.2294861115218
 20
0.1635229772597579
 10
0.2293436614685209
 20
0.1648898540622256
 10
0.229799497508238
 20
0.1657726283299514
 10
0.2305972116104355
 20
0.1661713013984203
 10
0.2324490478453467
 20
0.1662852077986251
 10
0.2341014560710521
 20
0.1660858705966435
 10
0.2348421901519388
 20
0.1659719641964387
 10
0.2352410461703406
 20
0.1662567308647027
 10
0.2352125561596876
 20
0.167167982066351
  0
LWPOLYLINE
  5
3210
330
2
100
AcDbEntity
  8
0
  6
Continuous
 62
     1
370
     0
100
AcDbPolyline
 90
       10
 70
   128
 43
0.0
 10
0.2387201197044814
 20
0.1667327389147886
 10
0.2404047005339302
 20
0.1663809006067096
 10
0.2416869926642637
 20
0.1664562951022309
 10
0.2428938546308214
 20
0.1657777486490793
 10
0.2443521490997158
 20
0.1655013035010083
 10
0.2458355835142154
 20
0.1654510405039974
 10
0.2475201643436641
 20
0.1657023541535582
 10
0.2483498816874996
 20
0.1658280103105866
 10
0.2493556013698912
 20
0.1659034048060983
 10
0.2498081761563892
 20
0.1660039308001299
  0
LWPOLYLINE
  5
3211
330
2
100
AcDbEntity
  8
0
  6
Continuous
 62
     1
370
     0
100
AcDbPolyline
 90
       71
 70
   128
 43
0.0
 10
0.2483006778652661
 20
0.1654280858756466
 10
0.2494082791806593
 20
0.1650168804454994
 10
0.2503892967804486
 20
0.1647005705280492
 10
0.2509905652988016
 20
0.1642261036486134
 10
0.2506741080751742
 20
0.163119015598764
 10
0.2501677773435276
 20
0.1618537705869291
 10
0.2497247364042916
 20
0.1612527808089162
 10
0.249376633251757
 20
0.1604620026765264
 10
0.249629798617585
 20
0.1597344873289196
 10
0.249598152688683
 20
0.1587222921207595
 10
0.2509008839335221
 20
0.1576315800106821
 10
0.2518502556044047
 20
0.1574101615994176
 10
0.252767981346385
 20
0.1567142776442115
 10
0.2528629191330913
 20
0.1561765493154873
 10
0.2529262109908958
 20
0.1555439268095697
 10
0.252166712828032
 20
0.1540256346650769
 10
0.2518186096755026
 20
0.1535827991780326
 10
0.2521983587569343
 20
0.1532664879250786
 10
0.2523565863360511
 20
0.1527603909887457
 10
0.25213506689913
 20
0.1520012442487568
 10
0.2515337983807773
 20
0.1511155732746682
 10
0.2518819015333067
 20
0.1505778449459439
 10
0.2522932965436406
 20
0.1497870668135541
 10
0.2524831700516596
 20
0.1490911828583481
 10
0.252166712828032
 20
0.1483952989031422
 10
0.251692025959894
 20
0.1478892006313149
 10
0.2512489870860517
 20
0.1468453753662578
 10
0.2499515122626347
 20
0.146370908486822
 10
0.2497299907603198
 20
0.1460229658414671
 10
0.2502046776284581
 20
0.1452954518293641
 10
0.2506595718496403
 20
0.1446169387637893
 10
0.2507927090525484
 20
0.1444395051491668
 10
0.2514583888709116
 20
0.1447278336043685
 10
0.2519243639176099
 20
0.1447278336043685
 10
0.2529228857105463
 20
0.1443507890096027
 10
0.2537438912329419
 20
0.1439072083118014
 10
0.2541432987108783
 20
0.1433083727003831
 10
0.2542320568461536
 20
0.1425099261088406
 10
0.2539879730068508
 20
0.1415784046401905
 10
0.2540323520744836
 20
0.1408021367496536
 10
0.2538548378693317
 20
0.1402033011382448
 10
0.2536107540300339
 20
0.1396710043008794
 10
0.2524133556874311
 20
0.1387773884184876
 10
0.2521027063447605
 20
0.1382672702821373
 10
0.252724007095491
 20
0.1382672702821373
 10
0.2535893916855194
 20
0.1380232992289657
 10
0.254144124867488
 20
0.1370252416572706
 10
0.2539222315946987
 20
0.1362711524677487
 10
0.2532565517763352
 20
0.1354061684376572
 10
0.2524133556874311
 20
0.1348516915637729
 10
0.2522802205499122
 20
0.1344968270055261
 10
0.2528571442983989
 20
0.134430289566977
 10
0.2535450126178818
 20
0.1344524682679921
 10
0.2544547762755478
 20
0.1341419611117849
 10
0.2547210486159699
 20
0.1333213358192179
 10
0.2547658779389599
 20
0.1324921058797789
 10
0.2545439846661706
 20
0.1315162256735949
 10
0.2538117352136564
 20
0.1305847042049544
 10
0.2541445751228402
 20
0.1302741983842416
 10
0.2546993103702029
 20
0.1299193324905004
 10
0.2550543387805062
 20
0.1291652433009785
 10
0.2548990130764741
 20
0.1280341108521947
 10
0.2544774170974136
 20
0.1275683501178745
 10
0.2543220913933859
 20
0.1272578429616578
 10
0.2532677895716073
 20
0.1256830403363636
 10
0.2542874444506014
 20
0.1263200299376196
 10
0.2554345567058118
 20
0.1251734483882562
 10
0.2557531991136721
 20
0.1237720701970919
 10
0.2550521866425379
 20
0.1221795948584529
 10
0.2544149018268222
 20
0.1210967128034156
 10
0.2542237167951831
 20
0.1204597218666558
  0
LWPOLYLINE
  5
3212
330
2
100
AcDbEntity
  8
0
  6
Continuous
 62
     1
370
     0
100
AcDbPolyline
 90
        4
 70
   128
 43
0.0
 10
0.2236147404262029
 20
0.1213597668612732
 10
0.223109960803584
 20
0.1240086265367053
 10
0.2219111125561359
 20
0.1256483960488331
 10
0.220712266374077
 20
0.1264052123358075
  0
LWPOLYLINE
  5
3213
330
2
100
AcDbEntity
  8
0
  6
Continuous
 62
     1
370
     0
100
AcDbPolyline
 90
        5
 70
   128
 43
0.0
 10
0.2257600460770996
 20
0.121548971600771
 10
0.225065975386872
 20
0.1250807831658434
 10
0.2241826156944239
 20
0.1276665750399473
 10
0.2227313786683611
 20
0.1291171398125773
 10
0.2219111125561359
 20
0.1297478204968953
  0
LWPOLYLINE
  5
3214
330
2
100
AcDbEntity
  8
0
  6
Continuous
 62
     1
370
     0
100
AcDbPolyline
 90
       14
 70
   128
 43
0.0
 10
0.2306816324235096
 20
0.1220535166824231
 10
0.2300506594442828
 20
0.1261529411304852
 10
0.2303030482228975
 20
0.1276035059031153
 10
0.2291041999754448
 20
0.1284233913269311
 10
0.2295458818870625
 20
0.1299370252363932
 10
0.2295458818870625
 20
0.1318921350906752
 10
0.2281577425720007
 20
0.1331534964593112
 10
0.2272112831031578
 20
0.1331534964593112
 10
0.2263279213453208
 20
0.1323966801723274
 10
0.2259493371447089
 20
0.1311983866050291
 10
0.2256969483660986
 20
0.1317659994880094
 10
0.2255076572984848
 20
0.1331534964593112
 10
0.225065975386872
 20
0.1338472449449574
 10
0.224308809051037
 20
0.1342256530884492
  0
LWPOLYLINE
  5
3215
330
2
100
AcDbEntity
  8
0
  6
Continuous
 62
     1
370
     0
100
AcDbPolyline
 90
        6
 70
   128
 43
0.0
 10
0.2311864099807345
 20
0.1238194217972074
 10
0.2304292436448995
 20
0.1295586170929012
 10
0.2297982706656727
 20
0.1323336110354953
 10
0.2285363247072189
 20
0.1343517900266095
 10
0.2266434078349366
 20
0.1366853080243835
 10
0.225065975386872
 20
0.1379466693930195
  0
LWPOLYLINE
  5
3216
330
2
100
AcDbEntity
  8
0
  6
Continuous
 62
     1
370
     0
100
AcDbPolyline
 90
        4
 70
   128
 43
0.0
 10
0.2291041999754448
 20
0.1346671303687732
 10
0.2279684494389977
 20
0.1374421256468616
 10
0.2263910190563218
 20
0.1393972355011532
 10
0.223993322561421
 20
0.1412262097527696
  0
LWPOLYLINE
  5
3217
330
2
100
AcDbEntity
  8
0
  6
Continuous
 62
     1
370
     0
100
AcDbPolyline
 90
        4
 70
   128
 43
0.0
 10
0.2333948133426324
 20
0.1252699879053413
 10
0.2326376470067974
 20
0.1317659994880094
 10
0.2315018964703456
 20
0.1356131513952454
 10
0.2307447301345106
 20
0.1376943981876972
  0
LWPOLYLINE
  5
3218
330
2
100
AcDbEntity
  8
0
  6
Continuous
 62
     1
370
     0
100
AcDbPolyline
 90
        7
 70
   128
 43
0.0
 10
0.2342781751004694
 20
0.1262160089318135
 10
0.2340257863218593
 20
0.1363068998808916
 10
0.2333317176970206
 20
0.1412262097527696
 10
0.2318786610610272
 20
0.1450317847755621
 10
0.2309322015921893
 20
0.1469868946298442
 10
0.2287868959412922
 20
0.1503925705922601
 10
0.2270201724256182
 20
0.1519692723030503
  0
LWPOLYLINE
  5
3219
330
2
100
AcDbEntity
  8
0
  6
Continuous
 62
     1
370
     0
100
AcDbPolyline
 90
       10
 70
   128
 43
0.0
 10
0.232194147550643
 20
0.1389141813363764
 10
0.2318155633500262
 20
0.141752244415812
 10
0.2306798128135791
 20
0.1437073542700941
 10
0.2293547712095183
 20
0.1449687156387206
 10
0.2283452160950683
 20
0.1445272396939005
 10
0.2280297296054571
 20
0.1435181508661001
 10
0.2284714094516813
 20
0.1415630396763141
 10
0.2273987566262303
 20
0.1440226946122484
 10
0.2268939790690054
 20
0.1450317847755621
 10
0.2257582285325583
 20
0.145410192919054
  0
LWPOLYLINE
  5
321A
330
2
100
AcDbEntity
  8
0
  6
Continuous
 62
     1
370
     0
100
AcDbPolyline
 90
        2
 70
   128
 43
0.0
 10
0.2298595487667431
 20
0.14566246545988
 10
0.2281559229620653
 20
0.1477437109168186
  0
LWPOLYLINE
  5
321B
330
2
100
AcDbEntity
  8
0
  6
Continuous
 62
     1
370
     0
100
AcDbPolyline
 90
        3
 70
   128
 43
0.0
 10
0.2358865574404904
 20
0.1249186584239649
 10
0.2358865574404904
 20
0.1361905374903692
 10
0.2348541467034612
 20
0.1439697205438214
  0
LWPOLYLINE
  5
321C
330
2
100
AcDbEntity
  8
0
  6
Continuous
 62
     1
370
     0
100
AcDbPolyline
 90
        2
 70
   128
 43
0.0
 10
0.2358071410710773
 20
0.1448428938793027
 10
0.2343776505523476
 20
0.1511932488095907
  0
LWPOLYLINE
  5
321D
330
2
100
AcDbEntity
  8
0
  6
Continuous
 62
     1
370
     0
100
AcDbPolyline
 90
        5
 70
   128
 43
0.0
 10
0.23247166181712
 20
0.1503200754740999
 10
0.2310421712983952
 20
0.1533364936653351
 10
0.2298509278225302
 20
0.1546859434870486
 10
0.2296126807796703
 20
0.1568291883427929
 10
0.2297715135185014
 20
0.1573054648290155
  0
LWPOLYLINE
  5
321E
330
2
100
AcDbEntity
  8
0
  6
Continuous
 62
     1
370
     0
100
AcDbPolyline
 90
        8
 70
   128
 43
0.0
 10
0.2378719604797465
 20
0.141112061626495
 10
0.2373954643286331
 20
0.1485737274676238
 10
0.2365218863304396
 20
0.1541302873638716
 10
0.2352512285505459
 20
0.1566704290688841
 10
0.2339805687052629
 20
0.1583373974384152
 10
0.2326304945559558
 20
0.1590518114999878
 10
0.2311215876678132
 20
0.1591311911369422
 10
0.2304862587778639
 20
0.1588136739246284
  0
LWPOLYLINE
  5
321F
330
2
100
AcDbEntity
  8
0
  6
Continuous
 62
     1
370
     0
100
AcDbPolyline
 90
        3
 70
   128
 43
0.0
 10
0.2345364812257941
 20
0.1583373974384152
 10
0.2330275743376466
 20
0.1605600205956101
 10
0.2308039221901414
 20
0.162068229691223
  0
LWPOLYLINE
  5
3220
330
2
100
AcDbEntity
  8
0
  6
Continuous
 62
     1
370
     0
100
AcDbPolyline
 90
        3
 70
   128
 43
0.0
 10
0.2400161983232278
 20
0.1221403778080892
 10
0.2400161983232278
 20
0.1415089584757632
 10
0.2404132781049235
 20
0.1592105707738967
  0
LWPOLYLINE
  5
3221
330
2
100
AcDbEntity
  8
0
  6
Continuous
 62
     1
370
     0
100
AcDbPolyline
 90
        3
 70
   128
 43
0.0
 10
0.2414456888419527
 20
0.1253155552732332
 10
0.2412868561031169
 20
0.1423027521742902
 10
0.2416839358848126
 20
0.1511138691726364
  0
LWPOLYLINE
  5
3222
330
2
100
AcDbEntity
  8
0
  6
Continuous
 62
     1
370
     0
100
AcDbPolyline
 90
        4
 70
   128
 43
0.0
 10
0.2437487573588759
 20
0.1257124521225014
 10
0.2430340120995135
 20
0.1376987465859916
 10
0.243351675511791
 20
0.1473830355843153
 10
0.2431928427729552
 20
0.1557972557333932
  0
LWPOLYLINE
  5
3223
330
2
100
AcDbEntity
  8
0
  6
Continuous
 62
     1
370
     0
100
AcDbPolyline
 90
        5
 70
   128
 43
0.0
 10
0.2358071410710773
 20
0.1596074676231648
 10
0.2358071410710773
 20
0.1611156767187872
 10
0.2361248044833501
 20
0.1621476093281774
 10
0.2358865574404904
 20
0.1631795419375771
 10
0.2354894755934056
 20
0.1650846478824582
  0
LWPOLYLINE
  5
3224
330
2
100
AcDbEntity
  8
0
  6
Continuous
 62
     1
370
     0
100
AcDbPolyline
 90
        4
 70
   128
 43
0.0
 10
0.2384278750656672
 20
0.1618300921158636
 10
0.2381102095880003
 20
0.1631001623006226
 10
0.2382690423268314
 20
0.1643702338208761
 10
0.2384278750656672
 20
0.1654021664302758
  0
LWPOLYLINE
  5
3225
330
2
100
AcDbEntity
  8
0
  6
Continuous
 62
     1
370
     0
100
AcDbPolyline
 90
        7
 70
   128
 43
0.0
 10
0.2405721108437546
 20
0.1596074676231648
 10
0.2418427686236483
 20
0.1608775391434277
 10
0.243351675511791
 20
0.1609569187803822
 10
0.2446223353570742
 20
0.1614331952665954
 10
0.2458929931369633
 20
0.1623857482390406
 10
0.2467665711351614
 20
0.1638145776977086
 10
0.2469254038739971
 20
0.16468775103319
  0
LWPOLYLINE
  5
3226
330
2
100
AcDbEntity
  8
0
  6
Continuous
 62
     1
370
     0
100
AcDbPolyline
 90
        3
 70
   128
 43
0.0
 10
0.2454164969858543
 20
0.1258712113964102
 10
0.2457341603981322
 20
0.1338885333607161
 10
0.2465283220269125
 20
0.1386512995584274
  0
LWPOLYLINE
  5
3227
330
2
100
AcDbEntity
  8
0
  6
Continuous
 62
     1
370
     0
100
AcDbPolyline
 90
        4
 70
   128
 43
0.0
 10
0.2454959133552723
 20
0.1442078594546846
 10
0.2471636509168571
 20
0.1496850397139778
 10
0.2486725598703889
 20
0.1523045610559449
 10
0.250737379279063
 20
0.1546859434870486
  0
LWPOLYLINE
  5
3228
330
2
100
AcDbEntity
  8
0
  6
Continuous
 62
     1
370
     0
100
AcDbPolyline
 90
        5
 70
   128
 43
0.0
 10
0.2470048202434151
 20
0.1523839393573955
 10
0.2480372289150551
 20
0.155479737185585
 10
0.2480372289150551
 20
0.1567498087058384
 10
0.2470842366128329
 20
0.1576229820413294
 10
0.2463694892880767
 20
0.1580198788905977
  0
LWPOLYLINE
  5
3229
330
2
100
AcDbEntity
  8
0
  6
Continuous
 62
     1
370
     0
100
AcDbPolyline
 90
        3
 70
   128
 43
0.0
 10
0.2454164969858543
 20
0.158734294287674
 10
0.2475607327639417
 20
0.1616713328419548
 10
0.2489902232826666
 20
0.1627032654513545
  0
LWPOLYLINE
  5
322A
330
2
100
AcDbEntity
  8
0
  6
Continuous
 62
     1
370
     0
100
AcDbPolyline
 90
        2
 70
   128
 43
0.0
 10
0.2473224836556928
 20
0.13912757604465
 10
0.2477195655027775
 20
0.1434140644206443
  0
LWPOLYLINE
  5
322B
330
2
100
AcDbEntity
  8
0
  6
Continuous
 62
     1
370
     0
100
AcDbPolyline
 90
        4
 70
   128
 43
0.0
 10
0.2477195655027775
 20
0.1334122568744934
 10
0.2493873051297561
 20
0.137381228038174
 10
0.2511344590607587
 20
0.1401595086540497
 10
0.2524845352754594
 20
0.1414295788388088
  0
LWPOLYLINE
  5
322C
330
2
100
AcDbEntity
  8
0
  6
Continuous
 62
     1
370
     0
100
AcDbPolyline
 90
        5
 70
   128
 43
0.0
 10
0.2487519741744177
 20
0.1336503957853566
 10
0.2505785465402273
 20
0.1342854302099843
 10
0.2510550447567299
 20
0.1330947396621797
 10
0.2512932917995898
 20
0.1306339775941215
 10
0.2508962120178988
 20
0.1286494906767822
  0
LWPOLYLINE
  5
322D
330
2
100
AcDbEntity
  8
0
  6
Continuous
 62
     1
370
     0
100
AcDbPolyline
 90
        3
 70
   128
 43
0.0
 10
0.2501814667585365
 20
0.1212672044726077
 10
0.2518492043201213
 20
0.1276175580673825
 10
0.2529610314265684
 20
0.1309514948064353
  0
LWPOLYLINE
  5
322E
330
2
100
AcDbEntity
  8
0
  6
Continuous
 62
     1
370
     0
100
AcDbPolyline
 90
        2
 70
   128
 43
0.0
 10
0.2517697900160924
 20
0.1210290668972483
 10
0.2525639516448728
 20
0.1240454850884836
  0
LWPOLYLINE
  5
322F
330
2
100
AcDbEntity
  8
0
  6
Continuous
 62
     1
370
     0
100
AcDbPolyline
 90
       20
 70
   128
 43
0.0
 10
0.2524666531156563
 20
0.1717400758065964
 10
0.2515029579545693
 20
0.1684124907205851
 10
0.2505392648588669
 20
0.1663984250792053
 10
0.2498821997885443
 20
0.1661795053943522
 10
0.249487961985586
 20
0.1679308655441937
 10
0.2494003542733924
 20
0.1747611736009047
 10
0.2497945920763506
 20
0.1809347212675529
 10
0.2507144823486485
 20
0.1847439315299463
 10
0.2515467628433634
 20
0.1874585406970668
 10
0.2522914356258796
 20
0.1884217897143364
 10
0.2530799132971899
 20
0.1881590855583018
 10
0.253824586079711
 20
0.1858823157608969
 10
0.2540874112816815
 20
0.181985537891663
 10
0.254218823882669
 20
0.1714773716505618
 10
0.2545280522359712
 20
0.1569168040277522
 10
0.2551851152409044
 20
0.1483351344856865
 10
0.2562364181141852
 20
0.1448324128504904
 10
0.2572439181640707
 20
0.1435626765415273
 10
0.2586018511281205
 20
0.1433437568566742
 10
0.2590398938198726
 20
0.1437815962263803
  0
LWPOLYLINE
  5
3230
330
2
100
AcDbEntity
  8
0
  6
Continuous
 62
     1
370
     0
100
AcDbPolyline
 90
       10
 70
   128
 43
0.0
 10
0.2599159792033765
 20
0.1432999723854926
 10
0.2596093491126121
 20
0.1418988839985169
 10
0.2585142413505377
 20
0.1415486109001475
 10
0.2568934831845127
 20
0.1419426671341851
 10
0.255491745331669
 20
0.1433875399923425
 10
0.2543528347461896
 20
0.1458832294746005
 10
0.2536519668524624
 20
0.1501740635778815
 10
0.253345336761698
 20
0.1564351788513607
 10
0.2533879519849738
 20
0.1655547650280957
 10
0.2532127344951971
 20
0.1721661520644501
  0
LWPOLYLINE
  5
3231
330
2
100
AcDbEntity
  8
0
  6
Continuous
 62
     1
370
     0
100
AcDbPolyline
 90
        6
 70
   128
 43
0.0
 10
0.2505406734558866
 20
0.1716845282235718
 10
0.252774691803445
 20
0.1722099365356221
 10
0.2532565393839863
 20
0.1726039927696599
 10
0.2536069743635445
 20
0.176238066482878
 10
0.2536069743635445
 20
0.180441332979309
 10
0.2511101287486261
 20
0.1808791736845284
  0
LWPOLYLINE
  5
3232
330
2
100
AcDbEntity
  8
0
  6
Continuous
 62
     1
370
     0
100
AcDbPolyline
 90
       13
 70
   128
 43
0.0
 10
0.2517671938189534
 20
0.1716407437523997
 10
0.2510663259252261
 20
0.1697580315245363
 10
0.2505844783446804
 20
0.1694953273685111
 10
0.2502340433651222
 20
0.169670462582192
 10
0.2501026307641345
 20
0.1727791293188541
 10
0.2503650841956353
 20
0.1785752023587125
 10
0.2508469317761812
 20
0.1820779239939084
 10
0.2513725842455161
 20
0.1840044220284478
 10
0.2518544297606728
 20
0.1847487500253607
 10
0.2522048647402311
 20
0.1847487500253607
 10
0.2524238871188016
 20
0.1840044220284478
 10
0.252686712320777
 20
0.1824281970922874
 10
0.2528181249217598
 20
0.180939539762958
  0
LWPOLYLINE
  5
3233
330
2
100
AcDbEntity
  8
0
  6
Continuous
 62
     1
370
     0
100
AcDbPolyline
 90
        6
 70
   128
 43
0.0
 10
0.2406835221932446
 20
0.1906050956584374
 10
0.2425758669520767
 20
0.1876628099122314
 10
0.2432767348457993
 20
0.1866820471064966
 10
0.2425758669520767
 20
0.1888537341730828
 10
0.2430664738580652
 20
0.1906050956584374
 10
0.2447485596945573
 20
0.192426510962158
  0
LWPOLYLINE
  5
3234
330
2
100
AcDbEntity
  8
0
  6
Continuous
 62
     1
370
     0
100
AcDbPolyline
 90
        5
 70
   128
 43
0.0
 10
0.247902468314409
 20
0.1923564571437826
 10
0.2485332492122218
 20
0.190955367421303
 10
0.2487435101999606
 20
0.1894842252159519
 10
0.2485332492122218
 20
0.1873125368138618
 10
0.2483229882244879
 20
0.1859815022452521
  0
LWPOLYLINE
  5
3235
330
2
100
AcDbEntity
  8
0
  6
Continuous
 62
     1
370
     0
100
AcDbPolyline
 90
        4
 70
   128
 43
0.0
 10
0.2489537711876945
 20
0.1901147149233172
 10
0.2501452480528044
 20
0.190044659769438
 10
0.2512666379219994
 20
0.189624334188197
 10
0.2518273318239026
 20
0.1887136265363415
  0
LWPOLYLINE
  5
3236
330
2
100
AcDbEntity
  8
0
  6
Continuous
 62
     1
370
     0
100
AcDbPolyline
 90
        6
 70
   128
 43
0.0
 10
0.2492341171059491
 20
0.1927067289066576
 10
0.2507760289506171
 20
0.1905350418400621
 10
0.2523179387298911
 20
0.1894141700620727
 10
0.2549111534478445
 20
0.1873825919677317
 10
0.257294107178059
 20
0.1859114484268767
 10
0.2607984487120798
 20
0.184510360039901
  0
LWPOLYLINE
  5
3237
330
2
100
AcDbEntity
  8
0
  6
Continuous
 62
     1
370
     0
100
AcDbPolyline
 90
        5
 70
   128
 43
0.0
 10
0.252863224811037
 20
0.2028512857147951
 10
0.2539735070046287
 20
0.2003543061364835
 10
0.2555695383033487
 20
0.1986202915017102
 10
0.2576513187072014
 20
0.1970249995869001
 10
0.2610515583123343
 20
0.1954297063365863
  0
LWPOLYLINE
  5
3238
330
2
100
AcDbEntity
  8
0
  6
Continuous
 62
     1
370
     0
100
AcDbPolyline
 90
        5
 70
   128
 43
0.0
 10
0.2523080826815467
 20
0.2013253531567204
 10
0.2534183648751382
 20
0.199105815011824
 10
0.2547368261418075
 20
0.1972330803280855
 10
0.2566798204969403
 20
0.195499067028816
 10
0.2597330970456602
 20
0.1937650523940426
  0
LWPOLYLINE
  5
323C
330
2
100
AcDbEntity
  8
0
  6
Continuous
 62
     1
370
     0
100
AcDbPolyline
 90
       18
 70
   128
 43
0.0
 10
0.2652993682571532
 20
0.1840676263606846
 10
0.2648104634822377
 20
0.1839813952829283
 10
0.2625898970296649
 20
0.183634593157274
 10
0.261410223877105
 20
0.183912035926193
 10
0.2609244747719768
 20
0.1852992470998177
 10
0.2604387256668439
 20
0.1884898322649416
 10
0.2607856887232569
 20
0.1925821050935672
 10
0.2619653639412063
 20
0.1948710025951896
 10
0.2632144321835179
 20
0.1957726902587006
 10
0.2646716774335178
 20
0.1972292621245456
 10
0.2664758857399261
 20
0.1977147856346593
 10
0.2673779909258296
 20
0.1974373442012442
 10
0.2671870681989161
 20
0.1985012540983563
 10
0.2674741349011813
 20
0.1992664106025773
 10
0.2685506355510347
 20
0.1996250773383275
 10
0.2697228216593266
 20
0.1996489881869453
 10
0.2712777661244985
 20
0.1993859661811607
 10
0.2719968302353668
 20
0.1990814185553104
  0
LWPOLYLINE
  5
323E
330
2
100
AcDbEntity
  8
0
  6
Continuous
 62
     1
370
     0
100
AcDbPolyline
 90
        3
 70
   128
 43
0.0
 10
0.2662753899233095
 20
0.1894299062958332
 10
0.266777755103234
 20
0.1886647497916123
 10
0.2675987646965522
 20
0.1884929901920307
  0
LWPOLYLINE
  5
3243
330
2
100
AcDbEntity
  8
0
  6
Continuous
 62
     1
370
     0
100
AcDbPolyline
 90
        7
 70
   128
 43
0.0
 10
0.2691522882322159
 20
0.1935502781109969
 10
0.2691905640679015
 20
0.1941624033143755
 10
0.2695733203593926
 20
0.1950423342958727
 10
0.2696115961950785
 20
0.1961518102253729
 10
0.2692671157392776
 20
0.1969552248886827
 10
0.2683867777146274
 20
0.197184771172199
 10
0.2680040234885301
 20
0.1972995456494657
  0
LWPOLYLINE
  5
3244
330
2
100
AcDbEntity
  8
0
  6
Continuous
 62
     1
370
     0
100
AcDbPolyline
 90
        5
 70
   128
 43
0.0
 10
0.265745767771465
 20
0.1895714642890117
 10
0.2648271539111291
 20
0.1893036598464161
 10
0.2636406133317577
 20
0.1893419180054955
 10
0.2627602753071074
 20
0.1896862387662784
 10
0.2623775210810102
 20
0.1899157850497947
  0
LWPOLYLINE
  5
3245
330
2
100
AcDbEntity
  8
0
  6
Continuous
 62
     1
370
     0
100
AcDbPolyline
 90
        4
 70
   128
 43
0.0
 10
0.2616120105634265
 20
0.1865108396076126
 10
0.2621861419025724
 20
0.1875055423953499
 10
0.2631047557629083
 20
0.1879646362978863
 10
0.2640616433935405
 20
0.1883854720413433
  0
LWPOLYLINE
  5
3246
330
2
100
AcDbEntity
  8
0
  6
Continuous
 62
     1
370
     0
100
AcDbPolyline
 90
        4
 70
   128
 43
0.0
 10
0.2672002371352609
 20
0.195157107437626
 10
0.2662433495046237
 20
0.1951953642612112
 10
0.2652481839729119
 20
0.195157107437626
 10
0.264099919229231
 20
0.1953483955620535
  0
LWPOLYLINE
  5
324D
330
2
100
AcDbEntity
  8
0
  6
Continuous
 62
     1
370
     0
100
AcDbPolyline
 90
       11
 70
   128
 43
0.0
 10
0.260754139867754
 20
0.1439396223090476
 10
0.2598465035633579
 20
0.1439849826739599
 10
0.2591203965852322
 20
0.1439849826739599
 10
0.258348906759188
 20
0.1439849826739599
 10
0.2579404714549061
 20
0.1444385903294995
 10
0.2578950906723816
 20
0.1457540515957304
 10
0.2582127623462254
 20
0.1465251844766068
 10
0.2582127623462254
 20
0.1467973480015369
 10
0.2573051281072185
 20
0.1467519876366341
 10
0.2567605463245799
 20
0.1467519876366341
 10
0.2561705837594217
 20
0.1467519876366341
  0
LWPOLYLINE
  5
324E
330
2
100
AcDbEntity
  8
0
  6
Continuous
 62
     1
370
     0
100
AcDbPolyline
 90
        9
 70
   128
 43
0.0
 10
0.2604818489764347
 20
0.1467519876366341
 10
0.2596195955199523
 20
0.1467973480015369
 10
0.2598465035633579
 20
0.1475231205175105
 10
0.2601187944546772
 20
0.1485210565584142
 10
0.2600280308242391
 20
0.1492468277388839
 10
0.2593019238461087
 20
0.1499726002548574
 10
0.2581219987157872
 20
0.1504715682753092
 10
0.2571689816288667
 20
0.150244763779778
 10
0.2558075313030534
 20
0.1497004353944235
  0
LWPOLYLINE
  5
3253
330
2
100
AcDbEntity
  8
0
  6
Continuous
 62
     1
370
     0
100
AcDbPolyline
 90
        8
 70
   128
 43
0.0
 10
0.2591496838370135
 20
0.1511919440230045
 10
0.2589093796642004
 20
0.1523528742183334
 10
0.2574275087510822
 20
0.1522728094682563
 10
0.2562259920177847
 20
0.1531134833342939
 10
0.2555851815787395
 20
0.1542343804868465
 10
0.255625233651136
 20
0.15551540580404
 10
0.2564662941252089
 20
0.1547948283953614
 10
0.2577078629309029
 20
0.1540342206149047
  0
LWPOLYLINE
  5
3254
330
2
100
AcDbEntity
  8
0
  6
Continuous
 62
     1
370
     0
100
AcDbPolyline
 90
       23
 70
   128
 43
0.0
 10
0.2567466483050296
 20
0.154994989602807
 10
0.2569068503984435
 20
0.1563160466272824
 10
0.2580683171247338
 20
0.1574369437798254
 10
0.2572272566506608
 20
0.1599589627069305
 10
0.2561058399313734
 20
0.1638420717013063
 10
0.2551846773779014
 20
0.1670846667015766
 10
0.2555050815647295
 20
0.1698068468361178
 10
0.2563461441041914
 20
0.1709277439886609
 10
0.2575877108444962
 20
0.17076761582402
 10
0.2575474563637303
 20
0.1734248397557582
 10
0.2581882668027755
 20
0.1747458981157374
 10
0.2585487209966064
 20
0.1749460579876791
 10
0.2584686209825961
 20
0.1763071480549497
 10
0.2583484688961848
 20
0.1776682367867165
 10
0.2586688730830131
 20
0.178669038817395
 10
0.2600305919097245
 20
0.1790293268539871
 10
0.2611920586360146
 20
0.1791894550186375
 10
0.26191296908907
 20
0.1803103521711806
 10
0.2622734253482946
 20
0.1813111528663648
 10
0.2625137274557185
 20
0.1819116338176748
 10
0.2627139816215291
 20
0.1825521464762668
 10
0.2622734253482946
 20
0.183032530970218
 10
0.262313475355302
 20
0.1835129154641691
  0
LWPOLYLINE
  5
3257
330
2
100
AcDbEntity
  8
0
  6
Continuous
 62
     1
370
     0
100
AcDbPolyline
 90
       10
 70
   128
 43
0.0
 10
0.2627962544274229
 20
0.1578705282364673
 10
0.2614345335353221
 20
0.1579906233583224
 10
0.259952662622204
 20
0.1587512324742829
 10
0.2590315000687273
 20
0.1609930267793785
 10
0.2585508937884851
 20
0.1626743731759405
 10
0.2585508937884851
 20
0.1659169695117242
 10
0.2592718042415454
 20
0.1685991166034702
 10
0.259311854248548
 20
0.1697600454633047
 10
0.2585508937884851
 20
0.1704806228719737
 10
0.2579501354218365
 20
0.1706807827439155
  0
LWPOLYLINE
  5
3258
330
2
100
AcDbEntity
  8
0
  6
Continuous
 62
     1
370
     0
100
AcDbPolyline
 90
        4
 70
   128
 43
0.0
 10
0.2595150577934553
 20
0.1706537094238058
 10
0.2598755140526752
 20
0.1726953438569597
 10
0.2602760203189072
 20
0.1741364973388035
 10
0.2590745015202205
 20
0.1752974261986381
  0
LWPOLYLINE
  5
325D
330
2
100
AcDbEntity
  8
0
  6
Continuous
 62
     1
370
     0
100
AcDbPolyline
 90
        4
 70
   128
 43
0.0
 10
0.2595092891549302
 20
0.1535803311681901
 10
0.2604705037808035
 20
0.1547812930708103
 10
0.2609511100610458
 20
0.1561423818025865
 10
0.2609911600680483
 20
0.1568629592112557
  0
LWPOLYLINE
  5
325F
330
2
100
AcDbEntity
  8
0
  6
Continuous
 62
     1
370
     0
100
AcDbPolyline
 90
       17
 70
   128
 43
0.0
 10
0.2589073762344218
 20
0.14110738469442
 10
0.258466819961187
 20
0.1397863276699351
 10
0.2575857074147176
 20
0.1392659114687021
 10
0.2566645448612408
 20
0.139185846718625
 10
0.2562640385950137
 20
0.1389456551394014
 10
0.2565443927748343
 20
0.138145014316159
 10
0.2566244948542382
 20
0.1373443734929072
 10
0.2557033302353675
 20
0.1359432517183546
 10
0.2556632802283649
 20
0.134061745449851
 10
0.2566244948542382
 20
0.1335012962058228
 10
0.2579461636739424
 20
0.1338215525351235
 10
0.2576658094941218
 20
0.1327406870898623
 10
0.2574655553283112
 20
0.1313795983580955
 10
0.2578660615945383
 20
0.1299384448762517
 10
0.2583066178677731
 20
0.12809697031503
 10
0.2589474262414293
 20
0.1271362013271373
 10
0.2598183560080622
 20
0.1272478070920166
  0
LWPOLYLINE
  5
3260
330
2
100
AcDbEntity
  8
0
  6
Continuous
 62
     1
370
     0
100
AcDbPolyline
 90
        4
 70
   128
 43
0.0
 10
0.2588673262274193
 20
0.1333811997484638
 10
0.2595081346010706
 20
0.1345020982365108
 10
0.2602690950611333
 20
0.1368239559561702
 10
0.2603491971405374
 20
0.139305943175984
  0
LWPOLYLINE
  5
3261
330
2
100
AcDbEntity
  8
0
  6
Continuous
 62
     1
370
     0
100
AcDbPolyline
 90
        4
 70
   128
 43
0.0
 10
0.2580663136949597
 20
0.1345421299437927
 10
0.2590675783278358
 20
0.1365437326696648
 10
0.2595081346010706
 20
0.1383852058953826
 10
0.2597484387738884
 20
0.1403067438711681
  0
LWPOLYLINE
  5
326B
330
2
100
AcDbEntity
  8
0
  6
Continuous
 62
     1
370
     0
100
AcDbPolyline
 90
        5
 70
   128
 43
0.0
 10
0.2448807922559779
 20
0.1668750100666511
 10
0.2458959321890998
 20
0.1716439569730087
 10
0.2460989601757253
 20
0.1770217050153656
 10
0.2458959321890998
 20
0.1827038556289827
 10
0.2456929042024746
 20
0.1864581326398091
  0
LWPOLYLINE
  5
326C
330
2
100
AcDbEntity
  8
0
  6
Continuous
 62
     1
370
     0
100
AcDbPolyline
 90
        2
 70
   128
 43
0.0
 10
0.2085706619682943
 20
0.1959311717479458
 10
0.2096982542082348
 20
0.1967201202410103
  0
LWPOLYLINE
  5
326D
330
2
100
AcDbEntity
  8
0
  6
Continuous
 62
     1
370
     0
100
AcDbPolyline
 90
        3
 70
   128
 43
0.0
 10
0.2100365322932951
 20
0.1936770320516225
 10
0.2120661966728649
 20
0.19322620491366
 10
0.2142086190371987
 20
0.1933389120320242
  0
LWPOLYLINE
  5
326E
330
2
100
AcDbEntity
  8
0
  6
Continuous
 62
     1
370
     0
100
AcDbPolyline
 90
        2
 70
   128
 43
0.0
 10
0.2100365322932951
 20
0.191761013710401
 10
0.2117279185878093
 20
0.1910847723357102
  0
DIMENSION
  5
3279
330
2
100
AcDbEntity
  8
Dimensione
100
AcDbDimension
  2
*D4
 10
0.1227126219840786
 20
0.1994815147548981
 30
0.0
 11
0.1227126219840786
 21
0.1553310075404551
 31
0.0
 70
    32
  1
300 mm
 71
     5
 42
0.088301014428886
  3
Bovelacci
100
AcDbAlignedDimension
 13
0.1968863021988486
 23
0.111180500326012
 33
0.0
 14
0.1610853921259565
 24
0.1994815147548981
 34
0.0
 50
90.0
100
AcDbRotatedDimension
  0
LWPOLYLINE
  5
32E7
330
2
100
AcDbEntity
  8
0
  6
Continuous
 62
     1
370
     0
100
AcDbPolyline
 90
       19
 70
   128
 43
0.0
 10
0.1968863021992485
 20
0.1111805003259461
 42
-0.8007191513799201
 10
0.1964998096144972
 20
0.1179653318289782
 42
0.1237552028959039
 10
0.1982592071900686
 20
0.1189811204928459
 10
0.1953166583426147
 20
0.1532631905677758
 10
0.1940124172790729
 20
0.1545674316313128
 10
0.1937433298275062
 20
0.1551032962382465
 10
0.1868057168817403
 20
0.1555571843494573
 10
0.1857461545077607
 20
0.1561623689429094
 10
0.1847370475832741
 20
0.1575240332765418
 10
0.1830972485728079
 20
0.1585074577400793
 42
-0.6553769846132642
 10
0.1711042181061717
 20
0.1754017957707633
 42
0.2110199460729311
 10
0.166704510758789
 20
0.1803643064989342
 42
0.0898395180014138
 10
0.1630679614480461
 20
0.1890948739595506
 42
-0.3017670883996293
 10
0.1588249925324889
 20
0.1979887280497977
 42
-0.4502469052324615
 10
0.1610853921259565
 20
0.1994815147548981
 42
0.0983842267423906
 10
0.2408778858624325
 20
0.2139938627005396
 42
-0.0961326970975885
 10
0.2561596516420954
 20
0.2124501425758477
 42
0.0819904518326952
 10
0.2567361272006141
 20
0.2084816067861973
 42
0.0586485543502733
 10
0.2719927777770507
 20
0.1991690065738776
 42
0.0586485543502733
  0
DIMENSION
  5
3311
330
2
100
AcDbEntity
  8
Dimensione
100
AcDbDimension
  2
*D7
 10
0.2451351006755701
 20
0.2325118274085007
 30
0.0
 11
0.201092717253219
 21
0.224304312067425
 31
0.0
 70
    32
  1
350 mm
 71
     5
 42
0.0896012242236763
  3
Bovelacci
100
AcDbAlignedDimension
 13
0.1601466735627404
 23
0.1994815147548981
 33
0.0
 14
0.2485929697418391
 24
0.2139565413186
 34
0.0
 50
10.5562627380345
100
AcDbRotatedDimension
  0
DIMENSION
  5
3365
330
2
100
AcDbEntity
  8
Dimensione
100
AcDbDimension
  2
*D8
 10
0.2582536414659847
 20
0.2301533523056074
 30
0.0
 11
0.2703215703402493
 21
0.2229194006416199
 31
0.0
 70
    32
  1
175 mm
 71
     5
 42
0.0281400045480606
  3
Bovelacci
100
AcDbAlignedDimension
 13
0.2723018534405404
 23
0.1988568886880846
 33
0.0
 14
0.2485493859284826
 24
0.2139643768957677
 34
0.0
 50
149.0600080022291
100
AcDbRotatedDimension
  0
LWPOLYLINE
  5
3395
330
2
100
AcDbEntity
  8
Dimensione
 62
     1
100
AcDbPolyline
 90
       43
 70
     0
 43
0.0
 10
0.2719834711651685
 20
0.199087076566955
 10
0.272004672115687
 20
0.1972533728085322
 10
0.271563147007887
 20
0.1960763101526236
 10
0.2711216219000867
 20
0.1948256809847861
 10
0.2703857467204198
 20
0.1933543522811619
 10
0.2703121596938196
 20
0.192471555672969
 10
0.2691347594063524
 20
0.1903381291294617
 10
0.2683988842266856
 20
0.1896024655451266
 10
0.2678837711095525
 20
0.189234632985482
 10
0.2677365960736191
 20
0.1887932346813855
 10
0.2674422460017523
 20
0.1881311368415024
 10
0.266927133867352
 20
0.1865862423934262
 10
0.2661912586876851
 20
0.1856298785058275
 10
0.2653817964814178
 20
0.1841585505696802
 10
0.2646459213017509
 20
0.1831286201701525
 10
0.2637628710861506
 20
0.1815101592101474
 10
0.2631741709424171
 20
0.1801123977859292
 10
0.2628798208705503
 20
0.1788617686180918
 10
0.2628798208705503
 20
0.1777582724741121
 10
0.2624283524730182
 20
0.1700919619464594
 10
0.262899252444762
 20
0.1679735196247338
 10
0.2639587768898195
 20
0.1636189454466914
 10
0.2634878769180755
 20
0.1610297388467842
 10
0.263370152416506
 20
0.1586759151534449
 10
0.2627815279431924
 20
0.1576166939925822
 10
0.2625460779573205
 20
0.1570282378773781
 10
0.2625460779573205
 20
0.1550274873926749
 10
0.2620751779855766
 20
0.1530267369079719
 10
0.2613688280279607
 20
0.1516144425384728
 10
0.2608979280562167
 20
0.15055522137761
 10
0.2604270280844729
 20
0.148554470892907
 10
0.2603093035829032
 20
0.1472598675929534
 10
0.2603093035829032
 20
0.1457298821539089
 10
0.2604270280844729
 20
0.1438468227387513
 10
0.2604270280844729
 20
0.1380799541912099
 10
0.2604270280844729
 20
0.1347846004065532
 10
0.2598384036111594
 20
0.1301946433219429
 10
0.2598384036111594
 20
0.1273700545829449
 10
0.2597206791095896
 20
0.1254869951677872
 10
0.25854342918023
 20
0.1227800974983346
 10
0.2586611536817995
 20
0.1203085819679728
 10
0.2587974547801082
 20
0.1198610538247362
 42
-0.5423538169770329
 10
0.2586351181436621
 20
0.1121928514661732
 42
6.232731855102041
  0
ARC
  5
3396
330
2
100
AcDbEntity
  8
0
  6
Continuous
 62
     1
370
     0
100
AcDbCircle
 10
0.2312696452444709
 20
-0.108922012578581
 30
0.0
 40
0.2227719247702728
100
AcDbArc
 50
82.94576231947509
 51
98.87870894693833
  0
ARC
  5
3397
330
2
100
AcDbEntity
  8
0
  6
Continuous
 62
     1
370
     0
100
AcDbCircle
 10
0.2322638817657538
 20
-0.1351670479320892
 30
0.0
 40
0.2564129665339633
100
AcDbArc
 50
84.05532559174583
 51
97.62083515459726
  0
LWPOLYLINE
  5
3399
330
2
100
AcDbEntity
  8
0
  6
Continuous
 62
     1
370
     0
100
AcDbPolyline
 90
        3
 70
   128
 43
0.0
 10
0.2628404866234766
 20
0.1769573050080092
 10
0.2623185995916666
 20
0.1781397014550439
 10
0.261357384965798
 20
0.178860278863713
  0
LWPOLYLINE
  5
339B
330
2
100
AcDbEntity
  8
0
  6
Continuous
 62
     1
370
     0
100
AcDbPolyline
 90
        9
 70
   128
 43
0.0
 10
0.2703325242619561
 20
0.1928262864479256
 10
0.2695766539013082
 20
0.1932795996655939
 10
0.2686915324298926
 20
0.1931122223897749
 10
0.2682370099791846
 20
0.192610087891329
 10
0.2678303323230877
 20
0.1919883978142999
 10
0.2674236546669904
 20
0.1913906199213923
 10
0.2668016785332339
 20
0.1909123962715548
 10
0.2662993112879155
 20
0.1903385292272649
 10
0.2661318555394776
 20
0.1895494618744167
  0
LINE
  5
339F
330
2
100
AcDbEntity
  8
Profilo
100
AcDbLine
 10
0.2188612446455922
 20
0.1102024734979464
 30
0.0
 11
0.218885607695475
 21
0.1135258677595915
 31
0.0
  0
LWPOLYLINE
  5
33E6
330
2
100
AcDbEntity
  8
Dimensione
 62
     1
100
AcDbPolyline
 90
        2
 70
     0
 43
0.0
 10
0.1968605546460123
 20
0.1112036042572024
 42
0.0095583396333209
 10
0.218871771801411
 20
0.1102683958742859
 42
-2.840077470120997
  0
VIEWPORT
  5
7B
330
79
100
AcDbEntity
 67
     1
  8
0
100
AcDbViewport
 10
145.330337524414
 20
101.8116638660431
 30
0.0
 40
351.1337450215151
 41
222.1517806396485
 68
     1
 69
     1
 12
145.330337524414
 22
101.8116638660431
 13
0.0
 23
0.0
 14
10.0
 24
10.0
 15
10.0
 25
10.0
 16
0.0
 26
0.0
 36
1.0
 17
0.0
 27
0.0
 37
0.0
 42
50.0
 43
0.0
 44
0.0
 45
222.1517806396485
 50
0.0
 51
0.0
 72
  1000
 90
    32800
  1

281
     0
 71
     1
 74
     0
110
0.0
120
0.0
130
0.0
111
1.0
121
0.0
131
0.0
112
0.0
122
1.0
132
0.0
 79
     0
146
0.0
170
     0
  0
VIEWPORT
  5
80
330
79
100
AcDbEntity
 67
     1
  8
Sezione
100
AcDbViewport
 10
145.3303314447403
 20
101.8116623163223
 30
0.0
 40
232.5285303115845
 41
162.8986597061157
 68
     2
 69
     2
 12
0.2100067158578973
 22
0.1484909068076998
 13
0.0
 23
0.0
 14
10.0
 24
10.0
 15
10.0
 25
10.0
 16
0.0
 26
0.0
 36
1.0
 17
0.0
 27
0.0
 37
0.0
 42
50.0
 43
0.0
 44
0.0
 45
0.2752830087467564
 50
0.0
 51
0.0
 72
  1000
 90
    32864
  1

281
     0
 71
     1
 74
     0
110
0.0
120
0.0
130
0.0
111
1.0
121
0.0
131
0.0
112
0.0
122
1.0
132
0.0
 79
     0
146
0.0
170
     0
  0
ENDSEC
  0
SECTION
  2
OBJECTS
  0
DICTIONARY
  5
9
330
0
100
AcDbDictionary
281
     1
  3
ACAD_2007HEADERVARS_RT
350
14A
  3
ACAD_COLOR
350
A1
  3
ACAD_GROUP
350
9C
  3
ACAD_LAYOUT
350
78
  3
ACAD_MATERIAL
350
B
  3
ACAD_MLINESTYLE
350
9D
  3
ACAD_PLOTSETTINGS
350
9E
  3
ACAD_PLOTSTYLENAME
350
8
  3
ACAD_TABLESTYLE
350
A2
  3
ACAD_VISUALSTYLE
350
7F
  3
AcDbVariableDictionary
350
A9
  3
AEC_CLASSIFICATION_SYSTEM_DEFS
350
1217
  3
AEC_PROPERTY_SET_DEFS
350
10D
  3
ASE_INDEX_DICTIONARY
350
249E
  0
DICTIONARY
  5
8B
330
8A
100
AcDbDictionary
280
     1
281
     1
  3
ACAD_LAYERFILTERS
360
25D9
  3
ACAD_LAYERSTATES
360
8D
  3
ACLYDICTIONARY
360
25D8
  0
DICTIONARY
  5
3
330
2
100
AcDbDictionary
280
     1
281
     1
  3
ACAD_SORTENTS
360
A8
  0
DICTIONARY
  5
14A
102
{ACAD_REACTORS
330
9
102
}
330
9
100
AcDbDictionary
281
     1
  3
DIMFXL
350
14B
  0
DICTIONARY
  5
A1
102
{ACAD_REACTORS
330
9
102
}
330
9
100
AcDbDictionary
281
     1
  0
DICTIONARY
  5
9C
102
{ACAD_REACTORS
330
9
102
}
330
9
100
AcDbDictionary
281
     1
  0
DICTIONARY
  5
78
102
{ACAD_REACTORS
330
9
102
}
330
9
100
AcDbDictionary
281
     1
  3
Layout1
350
82
  3
Layout2
350
89
  3
Model
350
77
  0
DICTIONARY
  5
B
102
{ACAD_REACTORS
330
9
102
}
330
9
100
AcDbDictionary
281
     1
  3
ByBlock
350
A0
  3
ByLayer
350
9F
  3
Global
350
A
  0
DICTIONARY
  5
9D
102
{ACAD_REACTORS
330
9
102
}
330
9
100
AcDbDictionary
281
     1
  3
Standard
350
A3
  0
DICTIONARY
  5
9E
102
{ACAD_REACTORS
330
9
102
}
330
9
100
AcDbDictionary
281
     1
  0
ACDBDICTIONARYWDFLT
  5
8
102
{ACAD_REACTORS
330
9
102
}
330
9
100
AcDbDictionary
281
     1
  3
Normal
350
7
100
AcDbDictionaryWithDefault
340
7
  0
DICTIONARY
  5
A2
102
{ACAD_REACTORS
330
9
102
}
330
9
100
AcDbDictionary
281
     1
  3
Standard
350
A4
  0
DICTIONARY
  5
7F
102
{ACAD_REACTORS
330
9
102
}
330
9
100
AcDbDictionary
281
     1
  3
2dWireframe
350
7E
  3
3D Hidden
350
D8
  3
3dWireframe
350
A6
  3
Basic
350
D7
  3
Brighten
350
DB
  3
ColorChange
350
DF
  3
Conceptual
350
D9
  3
Dim
350
DA
  3
Facepattern
350
DE
  3
Flat
350
D3
  3
FlatWithEdges
350
D4
  3
Gouraud
350
D5
  3
GouraudWithEdges
350
D6
  3
Linepattern
350
DD
  3
Realistic
350
A5
  3
Thicken
350
DC
  0
DICTIONARY
  5
A9
102
{ACAD_REACTORS
330
9
102
}
330
9
100
AcDbDictionary
281
     1
  3
CTABLESTYLE
350
AA
  3
DIMASSOC
350
AE
  3
HIDETEXT
350
AD
  3
INDEXCTL
350
AC
  3
PROJECTNAME
350
16A
  3
SORTENTS
350
AB
  0
DICTIONARY
  5
1217
102
{ACAD_REACTORS
330
9
102
}
330
9
100
AcDbDictionary
281
     1
  0
DICTIONARY
  5
10D
102
{ACAD_REACTORS
330
9
102
}
330
9
100
AcDbDictionary
281
     1
  0
DICTIONARY
  5
249E
102
{ACAD_REACTORS
330
9
102
}
330
9
100
AcDbDictionary
281
     1
  3
ASEBlockHierarchyIndexRecord
350
24A0
1001
DCO15
1040
1602050354.187
  0
DICTIONARY
  5
25D9
102
{ACAD_REACTORS
330
8B
102
}
330
8B
100
AcDbDictionary
281
     1
  0
DICTIONARY
  5
8D
102
{ACAD_REACTORS
330
8B
102
}
330
8B
100
AcDbDictionary
281
     1
  0
DICTIONARY
  5
25D8
102
{ACAD_REACTORS
330
8B
102
}
330
8B
100
AcDbDictionary
281
     1
1001
ACAD
1000
<All
  0
SORTENTSTABLE
  5
A8
102
{ACAD_REACTORS
330
3
102
}
330
3
100
AcDbSortentsTable
330
2
331
3208
  5
320D
331
31D1
  5
31D6
331
3210
  5
3215
331
31D9
  5
31DE
331
3257
  5
325F
331
3218
  5
321D
331
31E1
  5
31E6
331
325F
  5
3268
331
3220
  5
3225
331
3228
  5
322D
331
31E9
  5
31EE
331
3230
  5
3235
331
31F1
  5
31F6
331
3238
  5
323D
331
31F9
  5
31FE
331
3201
  5
3206
331
31CA
  5
31CF
331
3365
  5
339D
331
17
  5
17
331
1F
  5
21
331
3209
  5
320E
331
31D2
  5
31D7
331
3211
  5
3216
331
31DA
  5
31DF
331
3258
  5
3260
331
3219
  5
321E
331
31E2
  5
31E7
331
3221
  5
3226
331
3395
  5
339E
331
3260
  5
326A
331
3229
  5
322E
331
31EA
  5
31EF
331
3231
  5
3236
331
31F2
  5
31F7
331
31FA
  5
31FF
331
3202
  5
3207
331
31CB
  5
31D0
331
32E7
  5
31C0
331
10
  5
14
331
320A
  5
320F
331
31D3
  5
31D8
331
3212
  5
3217
331
31DB
  5
31E0
331
321A
  5
321F
331
31E3
  5
31E8
331
3222
  5
3227
331
3396
  5
31CC
331
3261
  5
326B
331
322A
  5
322F
331
31EB
  5
31F0
331
3232
  5
3237
331
31F3
  5
31F8
331
3279
  5
3399
331
31FB
  5
3200
331
3203
  5
3208
331
31CC
  5
31D1
331
11
  5
15
331
320B
  5
3210
331
31D4
  5
31D9
331
3213
  5
3218
331
31DC
  5
31E1
331
321B
  5
3220
331
31E4
  5
31E9
331
3223
  5
3228
331
21
  5
22
331
3397
  5
31CE
331
322B
  5
3230
331
31EC
  5
31F1
331
3233
  5
3238
331
31F4
  5
31F9
331
10F
  5
10F
331
31FC
  5
3201
331
3243
  5
324B
331
3204
  5
3209
331
31CD
  5
31D2
331
12
  5
16
331
320C
  5
3211
331
31D5
  5
31DA
331
3253
  5
325B
331
3214
  5
3219
331
31DD
  5
31E2
331
3311
  5
339C
331
321C
  5
3221
331
31E5
  5
31EA
331
3224
  5
3229
331
22
  5
23
331
322C
  5
3231
331
31ED
  5
31F2
331
326B
  5
3395
331
3234
  5
3239
331
31F5
  5
31FA
331
110
  5
110
331
323C
  5
3241
331
31FD
  5
3202
331
3244
  5
324C
331
3205
  5
320A
331
31CE
  5
31D3
331
13
  5
D
331
320D
  5
3212
331
31D6
  5
31DB
331
3254
  5
325C
331
3215
  5
321A
331
31DE
  5
31E3
331
321D
  5
3222
331
31E6
  5
31EB
331
3225
  5
322A
331
23
  5
24
331
322D
  5
3232
331
31EE
  5
31F3
331
326C
  5
3396
331
3235
  5
323A
331
31F6
  5
31FB
331
31FE
  5
3203
331
3399
  5
3262
331
3245
  5
324D
331
3206
  5
320B
331
31CF
  5
31D4
331
14
  5
10
331
324D
  5
3255
331
320E
  5
3213
331
31D7
  5
31DC
331
3216
  5
321B
331
31DF
  5
31E4
331
325D
  5
3266
331
321E
  5
3223
331
31E7
  5
31EC
331
3226
  5
322B
331
24
  5
18
331
322E
  5
3233
331
31EF
  5
31F4
331
326D
  5
3397
331
3236
  5
323B
331
31F7
  5
31FC
331
323E
  5
3244
331
31FF
  5
3204
331
3246
  5
324E
331
3207
  5
320C
331
D
  5
13
331
15
  5
11
331
1D
  5
1E
331
31D0
  5
31D5
331
324E
  5
3256
331
320F
  5
3214
331
31D8
  5
31DD
331
3217
  5
321C
331
31E0
  5
31E5
331
321F
  5
3224
331
3227
  5
322C
331
25
  5
25
331
31E8
  5
31ED
331
1CA
  5
1CA
331
322F
  5
3234
331
31F0
  5
31F5
331
326E
  5
3398
331
3237
  5
323C
331
31F8
  5
31FD
331
3200
  5
3205
331
339B
  5
3246
331
16
  5
12
331
1E
  5
1F
  0
XRECORD
  5
14B
102
{ACAD_REACTORS
330
14A
102
}
330
14A
100
AcDbXrecord
280
     1
 40
0.18
  0
LAYOUT
  5
82
102
{ACAD_XDICTIONARY
360
83
102
}
102
{ACAD_REACTORS
330
78
102
}
330
78
100
AcDbPlotSettings
  1

  2
C:\Documents and Settings\All Users\Dati applicazioni\Autodesk\ADT 2006\enu\Plotters\Default Windows System Printer.pc3
  4
A4
  6

 40
3.174999952316281
 41
3.174999952316281
 42
3.175003051757812
 43
3.17498779296875
 44
209.9733276367186
 45
297.0106506347656
 46
0.0
 47
0.0
 48
0.0
 49
0.0
140
0.0
141
0.0
142
1.0
143
1.0
 70
   688
 72
     1
 73
     1
 74
     5
  7

 75
    16
147
1.0
 76
     0
 77
     2
 78
   300
148
0.0
149
0.0
100
AcDbLayout
  1
Layout1
 70
     1
 71
     1
 10
-3.17498779296875
 20
-3.174999952316281
 11
293.8356628417969
 21
206.7983276844024
 12
0.0
 22
0.0
 32
0.0
 14
29.06606628894805
 24
20.36233246326446
 34
0.0
 15
261.5945966005325
 25
183.2609921693802
 35
0.0
146
0.0
 13
0.0
 23
0.0
 33
0.0
 16
1.0
 26
0.0
 36
0.0
 17
0.0
 27
1.0
 37
0.0
 76
     0
330
79
331
7B
1001
ACAD_PSEXT
1000
C:\Documents and Settings\All Users\Dati applicazioni\Autodesk\ADT 2006\enu\Plotters\Default Windows System Printer.pc3
1000
Microsoft Office Document Image Writer Driver
1000
Microsoft Document Imaging Writer Port:
1000

1070
     0
  0
LAYOUT
  5
89
102
{ACAD_REACTORS
330
78
102
}
330
78
100
AcDbPlotSettings
  1

  2
C:\Documents and Settings\All Users\Dati applicazioni\Autodesk\ADT 2006\enu\Plotters\Default Windows System Printer.pc3
  4

  6

 40
0.0
 41
0.0
 42
0.0
 43
0.0
 44
0.0
 45
0.0
 46
0.0
 47
0.0
 48
0.0
 49
0.0
140
0.0
141
0.0
142
1.0
143
1.0
 70
   688
 72
     0
 73
     0
 74
     5
  7

 75
    16
147
1.0
 76
     0
 77
     2
 78
   300
148
0.0
149
0.0
100
AcDbLayout
  1
Layout2
 70
     1
 71
     2
 10
0.0
 20
0.0
 11
12.0
 21
9.0
 12
0.0
 22
0.0
 32
0.0
 14
0.0
 24
0.0
 34
0.0
 15
0.0
 25
0.0
 35
0.0
146
0.0
 13
0.0
 23
0.0
 33
0.0
 16
1.0
 26
0.0
 36
0.0
 17
0.0
 27
1.0
 37
0.0
 76
     0
330
86
  0
LAYOUT
  5
77
102
{ACAD_REACTORS
330
78
102
}
330
78
100
AcDbPlotSettings
  1

  2
C:\Documents and Settings\All Users\Dati applicazioni\Autodesk\ADT 2006\enu\Plotters\Default Windows System Printer.pc3
  4

  6

 40
0.0
 41
0.0
 42
0.0
 43
0.0
 44
0.0
 45
0.0
 46
0.0
 47
0.0
 48
0.0
 49
0.0
140
0.0
141
0.0
142
1.0
143
1.0
 70
  1712
 72
     0
 73
     0
 74
     0
  7

 75
     0
147
1.0
 76
     0
 77
     2
 78
   300
148
0.0
149
0.0
100
AcDbLayout
  1
Model
 70
     1
 71
     0
 10
0.0
 20
0.0
 11
12.0
 21
9.0
 12
0.0
 22
0.0
 32
0.0
 14
0.0
 24
0.0
 34
0.0
 15
0.0
 25
0.0
 35
0.0
146
0.0
 13
0.0
 23
0.0
 33
0.0
 16
1.0
 26
0.0
 36
0.0
 17
0.0
 27
1.0
 37
0.0
 76
     0
330
2
  0
MATERIAL
  5
A0
102
{ACAD_XDICTIONARY
360
C7
102
}
102
{ACAD_REACTORS
330
B
102
}
330
B
100
AcDbMaterial
  1
ByBlock
  0
MATERIAL
  5
9F
102
{ACAD_XDICTIONARY
360
C5
102
}
102
{ACAD_REACTORS
330
B
102
}
330
B
100
AcDbMaterial
  1
ByLayer
  0
MATERIAL
  5
A
102
{ACAD_XDICTIONARY
360
B1
102
}
102
{ACAD_REACTORS
330
B
102
}
330
B
100
AcDbMaterial
  1
Global
  0
MLINESTYLE
  5
A3
102
{ACAD_REACTORS
330
9D
102
}
330
9D
100
AcDbMlineStyle
  2
STANDARD
 70
     0
  3

 62
   256
 51
90.0
 52
90.0
 71
     2
 49
0.5
 62
   256
  6
BYLAYER
 49
-0.5
 62
   256
  6
BYLAYER
  0
ACDBPLACEHOLDER
  5
7
102
{ACAD_REACTORS
330
8
102
}
330
8
  0
TABLESTYLE
  5
A4
102
{ACAD_XDICTIONARY
360
155
102
}
102
{ACAD_REACTORS
330
A2
102
}
330
A2
100
AcDbTableStyle
  3
Standard
 70
     0
 71
     0
 40
1.5
 41
1.5
280
     0
281
     0
  7
Standard
140
4.5
170
     2
 62
     0
 63
     7
283
     0
274
    -2
284
     1
 64
     0
275
    -2
285
     1
 65
     0
276
    -2
286
     1
 66
     0
277
    -2
287
     1
 67
     0
278
    -2
288
     1
 68
     0
279
    -2
289
     1
 69
     0
  7
Standard
140
6.0
170
     5
 62
     0
 63
     7
283
     0
274
    -2
284
     1
 64
     0
275
    -2
285
     1
 65
     0
276
    -2
286
     1
 66
     0
277
    -2
287
     1
 67
     0
278
    -2
288
     1
 68
     0
279
    -2
289
     1
 69
     0
  7
Standard
140
4.5
170
     5
 62
     0
 63
     7
283
     0
274
    -2
284
     1
 64
     0
275
    -2
285
     1
 65
     0
276
    -2
286
     1
 66
     0
277
    -2
287
     1
 67
     0
278
    -2
288
     1
 68
     0
279
    -2
289
     1
 69
     0
  0
ACAD_PROXY_OBJECT
  5
7E
102
{ACAD_REACTORS
330
7F
102
}
330
7F
100
AcDbProxyObject
 90
      499
 91
      508
 95
  1310743
 70
     1
100
AcDbVisualStyle
  2
2dWireframe
 70
     4
 71
     0
 72
     2
 73
     0
 90
        0
 40
-0.6
 41
-30.0
 62
     5
 63
     7
 74
     1
 91
        4
 64
     7
 65
   257
 75
     1
175
     1
 42
1.0
 92
        0
 66
   257
 43
1.0
 76
     1
 77
     6
 78
     2
 67
     7
 79
     5
170
     0
171
     0
290
     0
174
     0
 93
        1
 44
0.0
173
     0
291
     0
 45
0.0
1001
ACAD
1000
AcDbSavedByObjectVersion
1070
     0
1000
AcDbSavedByObjectVersion
1070
     0
1000
AcDbSavedByObjectVersion
1070
     0
  0
ACAD_PROXY_OBJECT
  5
D8
102
{ACAD_REACTORS
330
7F
102
}
330
7F
100
AcDbProxyObject
 90
      499
 91
      508
 95
  1310743
 70
     1
100
AcDbVisualStyle
  2
3D Hidden
 70
     6
 71
     1
 72
     2
 73
     2
 90
        0
 40
-0.6
 41
-30.0
 62
     5
 63
     7
 74
     2
 91
        2
 64
     7
 65
   257
 75
     2
175
     1
 42
40.0
 92
        0
 66
   257
 43
1.0
 76
     1
 77
     6
 78
     2
 67
     7
 79
     3
170
     0
171
     0
290
     0
174
     0
 93
        1
 44
0.0
173
     0
291
     0
 45
0.0
1001
ACAD
1000
AcDbSavedByObjectVersion
1070
     0
1000
AcDbSavedByObjectVersion
1070
     0
  0
ACAD_PROXY_OBJECT
  5
A6
102
{ACAD_REACTORS
330
7F
102
}
330
7F
100
AcDbProxyObject
 90
      499
 91
      508
 95
  1310743
 70
     1
100
AcDbVisualStyle
  2
3dWireframe
 70
     5
 71
     0
 72
     2
 73
     0
 90
        0
 40
-0.6
 41
-30.0
 62
     5
 63
     7
 74
     1
 91
        4
 64
     7
 65
   257
 75
     1
175
     1
 42
1.0
 92
        0
 66
   257
 43
1.0
 76
     1
 77
     6
 78
     2
 67
     7
 79
     5
170
     0
171
     0
290
     0
174
     0
 93
        1
 44
0.0
173
     0
291
     0
 45
0.0
1001
ACAD
1000
AcDbSavedByObjectVersion
1070
     0
1000
AcDbSavedByObjectVersion
1070
     0
1000
AcDbSavedByObjectVersion
1070
     0
  0
ACAD_PROXY_OBJECT
  5
D7
102
{ACAD_REACTORS
330
7F
102
}
330
7F
100
AcDbProxyObject
 90
      499
 91
      508
 95
  1310743
 70
     1
100
AcDbVisualStyle
  2
Basic
 70
     7
 71
     1
 72
     0
 73
     1
 90
        0
 40
-0.6
 41
-30.0
 62
     5
 63
     7
 74
     0
 91
        4
 64
     7
 65
   257
 75
     1
175
     1
 42
1.0
 92
        8
 66
     7
 43
1.0
 76
     1
 77
     6
 78
     2
 67
     7
 79
     5
170
     0
171
     0
290
     0
174
     0
 93
        1
 44
0.0
173
     0
291
     1
 45
0.0
1001
ACAD
1000
AcDbSavedByObjectVersion
1070
     0
1000
AcDbSavedByObjectVersion
1070
     0
  0
ACAD_PROXY_OBJECT
  5
DB
102
{ACAD_REACTORS
330
7F
102
}
330
7F
100
AcDbProxyObject
 90
      499
 91
      508
 95
  1310743
 70
     1
100
AcDbVisualStyle
  2
Brighten
 70
    12
 71
     2
 72
     2
 73
     0
 90
        0
 40
-0.6
 41
-30.0
 62
     5
 63
     7
 74
     1
 91
        4
 64
     7
 65
   257
 75
     1
175
     1
 42
1.0
 92
        8
 66
     7
 43
1.0
 76
     1
 77
     6
 78
     2
 67
     7
 79
     5
170
     0
171
     0
290
     0
174
     0
 93
        1
 44
50.0
173
     0
291
     1
 45
0.0
1001
ACAD
1000
AcDbSavedByObjectVersion
1070
     0
1000
AcDbSavedByObjectVersion
1070
     0
  0
ACAD_PROXY_OBJECT
  5
DF
102
{ACAD_REACTORS
330
7F
102
}
330
7F
100
AcDbProxyObject
 90
      499
 91
      508
 95
  1310743
 70
     1
100
AcDbVisualStyle
  2
ColorChange
 70
    16
 71
     2
 72
     2
 73
     3
 90
        0
 40
-0.6
 41
-30.0
 62
     5
 63
     8
 74
     1
 91
        4
 64
     7
 65
   257
 75
     1
175
     1
 42
1.0
 92
        8
 66
     8
 43
1.0
 76
     1
 77
     6
 78
     2
 67
     7
 79
     5
170
     0
171
     0
290
     0
174
     0
 93
        1
 44
0.0
173
     0
291
     1
 45
0.0
1001
ACAD
1000
AcDbSavedByObjectVersion
1070
     0
1000
AcDbSavedByObjectVersion
1070
     0
  0
ACAD_PROXY_OBJECT
  5
D9
102
{ACAD_REACTORS
330
7F
102
}
330
7F
100
AcDbProxyObject
 90
      499
 91
      508
 95
  1310743
 70
     1
100
AcDbVisualStyle
  2
Conceptual
 70
     9
 71
     3
 72
     2
 73
     0
 90
        0
 40
-0.6
 41
-30.0
 62
     5
 63
     7
 74
     2
 91
        2
 64
     7
 65
   257
 75
     1
175
     1
 42
40.0
 92
        8
 66
     7
 43
1.0
 76
     1
 77
     6
 78
     2
 67
     7
 79
     3
170
     0
171
     0
290
     0
174
     0
 93
        1
 44
0.0
173
     0
291
     0
 45
0.0
1001
ACAD
1000
AcDbSavedByObjectVersion
1070
     0
1000
AcDbSavedByObjectVersion
1070
     0
  0
ACAD_PROXY_OBJECT
  5
DA
102
{ACAD_REACTORS
330
7F
102
}
330
7F
100
AcDbProxyObject
 90
      499
 91
      508
 95
  1310743
 70
     1
100
AcDbVisualStyle
  2
Dim
 70
    11
 71
     2
 72
     2
 73
     0
 90
        0
 40
-0.6
 41
-30.0
 62
     5
 63
     7
 74
     1
 91
        4
 64
     7
 65
   257
 75
     1
175
     1
 42
1.0
 92
        8
 66
     7
 43
1.0
 76
     1
 77
     6
 78
     2
 67
     7
 79
     5
170
     0
171
     0
290
     0
174
     0
 93
        1
 44
-50.0
173
     0
291
     1
 45
0.0
1001
ACAD
1000
AcDbSavedByObjectVersion
1070
     0
1000
AcDbSavedByObjectVersion
1070
     0
  0
ACAD_PROXY_OBJECT
  5
DE
102
{ACAD_REACTORS
330
7F
102
}
330
7F
100
AcDbProxyObject
 90
      499
 91
      508
 95
  1310743
 70
     1
100
AcDbVisualStyle
  2
Facepattern
 70
    15
 71
     2
 72
     2
 73
     0
 90
        0
 40
-0.6
 41
-30.0
 62
     5
 63
     7
 74
     1
 91
        4
 64
     7
 65
   257
 75
     1
175
     1
 42
1.0
 92
        8
 66
     7
 43
1.0
 76
     1
 77
     6
 78
     2
 67
     7
 79
     5
170
     0
171
     0
290
     0
174
     0
 93
        1
 44
0.0
173
     0
291
     1
 45
0.0
1001
ACAD
1000
AcDbSavedByObjectVersion
1070
     0
1000
AcDbSavedByObjectVersion
1070
     0
  0
ACAD_PROXY_OBJECT
  5
D3
102
{ACAD_REACTORS
330
7F
102
}
330
7F
100
AcDbProxyObject
 90
      499
 91
      508
 95
  1310743
 70
     1
100
AcDbVisualStyle
  2
Flat
 70
     0
 71
     2
 72
     1
 73
     1
 90
        2
 40
-0.6
 41
30.0
 62
     5
 63
     7
 74
     0
 91
        4
 64
     7
 65
   257
 75
     1
175
     1
 42
1.0
 92
        8
 66
     7
 43
1.0
 76
     1
 77
     6
 78
     2
 67
     7
 79
     5
170
     0
171
     0
290
     0
174
     0
 93
       13
 44
0.0
173
     0
291
     1
 45
0.0
1001
ACAD
1000
AcDbSavedByObjectVersion
1070
     0
1000
AcDbSavedByObjectVersion
1070
     0
  0
ACAD_PROXY_OBJECT
  5
D4
102
{ACAD_REACTORS
330
7F
102
}
330
7F
100
AcDbProxyObject
 90
      499
 91
      508
 95
  1310743
 70
     1
100
AcDbVisualStyle
  2
FlatWithEdges
 70
     1
 71
     2
 72
     1
 73
     1
 90
        2
 40
-0.6
 41
30.0
 62
     5
 63
     7
 74
     1
 91
        4
 64
     7
 65
   257
 75
     1
175
     1
 42
1.0
 92
        0
 66
   257
 43
1.0
 76
     1
 77
     6
 78
     2
 67
     7
 79
     5
170
     0
171
     0
290
     0
174
     0
 93
       13
 44
0.0
173
     0
291
     1
 45
0.0
1001
ACAD
1000
AcDbSavedByObjectVersion
1070
     0
1000
AcDbSavedByObjectVersion
1070
     0
  0
ACAD_PROXY_OBJECT
  5
D5
102
{ACAD_REACTORS
330
7F
102
}
330
7F
100
AcDbProxyObject
 90
      499
 91
      508
 95
  1310743
 70
     1
100
AcDbVisualStyle
  2
Gouraud
 70
     2
 71
     2
 72
     2
 73
     1
 90
        2
 40
-0.6
 41
30.0
 62
     5
 63
     7
 74
     0
 91
        4
 64
     7
 65
   257
 75
     1
175
     1
 42
1.0
 92
        0
 66
     7
 43
1.0
 76
     1
 77
     6
 78
     2
 67
     7
 79
     5
170
     0
171
     0
290
     0
174
     0
 93
       13
 44
0.0
173
     0
291
     1
 45
0.0
1001
ACAD
1000
AcDbSavedByObjectVersion
1070
     0
1000
AcDbSavedByObjectVersion
1070
     0
  0
ACAD_PROXY_OBJECT
  5
D6
102
{ACAD_REACTORS
330
7F
102
}
330
7F
100
AcDbProxyObject
 90
      499
 91
      508
 95
  1310743
 70
     1
100
AcDbVisualStyle
  2
GouraudWithEdges
 70
     3
 71
     2
 72
     2
 73
     1
 90
        2
 40
-0.6
 41
30.0
 62
     5
 63
     7
 74
     1
 91
        4
 64
     7
 65
   257
 75
     1
175
     1
 42
1.0
 92
        0
 66
   257
 43
1.0
 76
     1
 77
     6
 78
     2
 67
     7
 79
     5
170
     0
171
     0
290
     0
174
     0
 93
       13
 44
0.0
173
     0
291
     1
 45
0.0
1001
ACAD
1000
AcDbSavedByObjectVersion
1070
     0
1000
AcDbSavedByObjectVersion
1070
     0
  0
ACAD_PROXY_OBJECT
  5
DD
102
{ACAD_REACTORS
330
7F
102
}
330
7F
100
AcDbProxyObject
 90
      499
 91
      508
 95
  1310743
 70
     1
100
AcDbVisualStyle
  2
Linepattern
 70
    14
 71
     2
 72
     2
 73
     0
 90
        0
 40
-0.6
 41
-30.0
 62
     5
 63
     7
 74
     1
 91
        4
 64
     7
 65
   257
 75
     7
175
     7
 42
1.0
 92
        8
 66
     7
 43
1.0
 76
     1
 77
     6
 78
     2
 67
     7
 79
     5
170
     0
171
     0
290
     0
174
     0
 93
        1
 44
0.0
173
     0
291
     1
 45
0.0
1001
ACAD
1000
AcDbSavedByObjectVersion
1070
     0
1000
AcDbSavedByObjectVersion
1070
     0
  0
ACAD_PROXY_OBJECT
  5
A5
102
{ACAD_REACTORS
330
7F
102
}
330
7F
100
AcDbProxyObject
 90
      499
 91
      508
 95
  1310743
 70
     1
100
AcDbVisualStyle
  2
Realistic
 70
     8
 71
     2
 72
     2
 73
     0
 90
        0
 40
-0.6
 41
-30.0
 62
     5
 63
     7
 74
     1
 91
        0
 64
     7
 65
   257
 75
     1
175
     1
 42
1.0
 92
        8
 66
     8
 43
1.0
 76
     1
 77
     6
 78
     2
 67
     7
 79
     5
170
     0
171
     0
290
     0
174
     0
 93
       13
 44
0.0
173
     0
291
     0
 45
0.0
1001
ACAD
1000
AcDbSavedByObjectVersion
1070
     0
1000
AcDbSavedByObjectVersion
1070
     0
1000
AcDbSavedByObjectVersion
1070
     0
  0
ACAD_PROXY_OBJECT
  5
DC
102
{ACAD_REACTORS
330
7F
102
}
330
7F
100
AcDbProxyObject
 90
      499
 91
      508
 95
  1310743
 70
     1
100
AcDbVisualStyle
  2
Thicken
 70
    13
 71
     2
 72
     2
 73
     0
 90
        0
 40
-0.6
 41
-30.0
 62
     5
 63
     7
 74
     1
 91
        4
 64
     7
 65
   257
 75
     1
175
     1
 42
1.0
 92
       12
 66
     7
 43
1.0
 76
     1
 77
     6
 78
     2
 67
     7
 79
     5
170
     0
171
     0
290
     0
174
     0
 93
        1
 44
0.0
173
     0
291
     1
 45
0.0
1001
ACAD
1000
AcDbSavedByObjectVersion
1070
     0
1000
AcDbSavedByObjectVersion
1070
     0
  0
DICTIONARYVAR
  5
AA
102
{ACAD_REACTORS
330
A9
102
}
330
A9
100
DictionaryVariables
280
     0
  1
STANDARD
  0
DICTIONARYVAR
  5
AE
102
{ACAD_REACTORS
330
A9
102
}
330
A9
100
DictionaryVariables
280
     0
  1
2
  0
DICTIONARYVAR
  5
AD
102
{ACAD_REACTORS
330
A9
102
}
330
A9
100
DictionaryVariables
280
     0
  1
1
  0
DICTIONARYVAR
  5
AC
102
{ACAD_REACTORS
330
A9
102
}
330
A9
100
DictionaryVariables
280
     0
  1
0
  0
DICTIONARYVAR
  5
16A
102
{ACAD_REACTORS
330
A9
102
}
330
A9
100
DictionaryVariables
280
     0
  1

  0
DICTIONARYVAR
  5
AB
102
{ACAD_REACTORS
330
A9
102
}
330
A9
100
DictionaryVariables
280
     0
  1
127
  0
XRECORD
  5
24A0
102
{ACAD_REACTORS
330
249E
102
}
330
249E
100
AcDbXrecord
280
     1
330
0
330
0
330
0
330
0
330
0
330
0
330
0
330
0
330
0
330
0
330
0
330
0
330
0
330
0
330
0
330
0
330
0
330
0
330
0
330
0
330
0
330
0
330
0
330
0
330
0
330
0
  0
DICTIONARY
  5
83
330
82
100
AcDbDictionary
280
     1
281
     1
  3
ADSK_XREC_LAYOUTTHUMBNAIL
360
84
  0
DICTIONARY
  5
C7
330
A0
100
AcDbDictionary
280
     1
281
     1
  3
ACAD_XREC_ROUNDTRIP
360
C8
  0
DICTIONARY
  5
C5
330
9F
100
AcDbDictionary
280
     1
281
     1
  3
ACAD_XREC_ROUNDTRIP
360
C6
  0
DICTIONARY
  5
B1
330
A
100
AcDbDictionary
280
     1
281
     1
  3
ACAD_XREC_ROUNDTRIP
360
B2
  0
DICTIONARY
  5
155
330
A4
100
AcDbDictionary
280
     1
281
     1
  3
ACAD_XREC_ROUNDTRIP
360
156
  0
XRECORD
  5
84
102
{ACAD_REACTORS
330
83
102
}
330
83
100
AcDbXrecord
280
     1
310
28000000B40000007F00000001000800000000004C59000000000000000000000001000000000000FFFFFF0000000000FFFFFF000000000000000000000000000000000000000000000000000000000000000000330000006600000099000000CC000000FF00000000330000333300006633000099330000CC330000FF3300
310
0000660000336600006666000099660000CC660000FF66000000990000339900006699000099990000CC990000FF99000000CC000033CC000066CC000099CC0000CCCC0000FFCC000000FF000033FF000066FF000099FF0000CCFF0000FFFF000000003300330033006600330099003300CC003300FF003300003333003333
310
33006633330099333300CC333300FF33330000663300336633006666330099663300CC663300FF66330000993300339933006699330099993300CC993300FF99330000CC330033CC330066CC330099CC3300CCCC3300FFCC330000FF330033FF330066FF330099FF3300CCFF3300FFFF330000006600330066006600660099
310
006600CC006600FF00660000336600333366006633660099336600CC336600FF33660000666600336666006666660099666600CC666600FF66660000996600339966006699660099996600CC996600FF99660000CC660033CC660066CC660099CC6600CCCC6600FFCC660000FF660033FF660066FF660099FF6600CCFF6600
310
FFFF660000009900330099006600990099009900CC009900FF00990000339900333399006633990099339900CC339900FF33990000669900336699006666990099669900CC669900FF66990000999900339999006699990099999900CC999900FF99990000CC990033CC990066CC990099CC9900CCCC9900FFCC990000FF99
310
0033FF990066FF990099FF9900CCFF9900FFFF99000000CC003300CC006600CC009900CC00CC00CC00FF00CC000033CC003333CC006633CC009933CC00CC33CC00FF33CC000066CC003366CC006666CC009966CC00CC66CC00FF66CC000099CC003399CC006699CC009999CC00CC99CC00FF99CC0000CCCC0033CCCC0066CC
310
CC0099CCCC00CCCCCC00FFCCCC0000FFCC0033FFCC0066FFCC0099FFCC00CCFFCC00FFFFCC000000FF003300FF006600FF009900FF00CC00FF00FF00FF000033FF003333FF006633FF009933FF00CC33FF00FF33FF000066FF003366FF006666FF009966FF00CC66FF00FF66FF000099FF003399FF006699FF009999FF00CC
310
99FF00FF99FF0000CCFF0033CCFF0066CCFF0099CCFF00CCCCFF00FFCCFF0000FFFF0033FFFF0066FFFF0099FFFF00CCFFFF00FFFFFF00000000000D0D0D001A1A1A00282828003535350043434300505050005D5D5D006B6B6B00787878008686860093939300A1A1A100AEAEAE00BBBBBB00C9C9C900D6D6D600E4E4E400
310
F1F1F100FFFFFF0000000000000000000000000000000000000000000000000000000000000000000000000000000000E2E2E2E2E2E2E2E2E2E2E2E2E2E2E2E2E2E2E2E2E2E2E2E2E2E2E2E2E2E2E2E2E2E2E2E2E2E2E2E2E2E2E2E2E2E2E2E2E2E2E2E2E2E2E2E2E2E2E2E2E2E2E2E2E2E2E2E2E2E2E2E2E2E2E2E2E2E2E2
310
E2E2E2E2E2E2E2E2E2E2E2E2E2E2E2E2E2E2E2E2E2E2E2E2E2E2E2E2E2E2E2E2E2E2E2E2E2E2E2E2E2E2E2E2E2E2E2E2E2E2E2E2E2E2E2E2E2E2E2E2E2E2E2E2E2E2E2E2E2E2E2E2E2E2E2E2E2E2E2E2E2E2E2E2E2E2E2E2E2E2E2E2E2E2E2E2E2E2E2E2E2E2F5F5F5F5F5F5F5F5F5F5F5F5F5F5F5F5F5F5F5F5F5F5F5F5F5
310
F5F5F5F5F5F5F5F5F5F5F5F5F5F5F5F5F5F5F5F5F5F5F5F5F5F5F5F5F5F5F5F5F5F5F5F5F5F5F5F5F5F5F5F5F5F5F5F5F5F5F5F5F5F5F5F5F5F5F5F5F5F5F5F5F5F5F5F5F5F5F5F5F5F5F5F5F5F5F5F5F5F5F5F5F5F5F5F5F5F5F5F5F5F5F5F5F5F5F5F5F5F5F5F5F5F5F5F5F5F5F5F5F5F5F5F5F5F5F5F5F5F5F5F5F5F5F5
310
F5F5F5F5F5F5F5F5F5F5F5F5F5F5F5F5F5F5F5F5F5F5F5F5F5F5E2E2F5E2E2E2E2E2E2E2E2E2F5F5F5F5F5F5F5F5F5E2E2E2E2E2E2E2E2E2E2E2E2E2E2E2E2F5F5F5F5F5F5F5F5F5E2E2E2E2E2E2E2E2E2E2E2E2E2E2E2E2F5F5F5F5F5F5F5F5F5E2E2E2E2E2E2E2E2E2E2E2E2E2E2E2E2F5F5F5F5F5F5F5F5F5E2E2E2E2E2
310
E2E2E2E2E2E2E2E2E2E2E2F5F5F5F5F5F5F5F5F5E2E2E2E2E2E2E2E2E2E2E2E2E2E2E2E2F5F5F5F5F5F5F5F5F5E2E2E2E2E2E2E2E2E2E2E2E2E2E2E2E2F5F5F5F5F5F5F5F5F5E2E2E2E2E2E2E2E2F5E2E2F5E2F5F5F5F5F5F5F5F5F5F5F5F5F5F5F5F5F5F5F5F5F5F5F5F5F5F5F5F5F5F5F5F5F5F5F5F5F5F5F5F5F5F5F5F5
310
F5F5F5F5F5F5F5F5F5F5F5F5F5F5F5F5F5F5F5F5F5F5F5F5F5F5F5F5F5F5F5F5F5F5F5F5F5F5F5F5F5F5F5F5F5F5F5F5F5F5F5F5F5F5F5F5F5F5F5F5F5F5F5F5F5F5F5F5F5F5F5F5F5F5F5F5F5F5F5F5F5F5F5F5F5F5F5F5F5F5F5F5F5F5F5F5F5F5F5F5F5F5F5F5F5F5F5F5F5F5F5F5F5F5F5F5F5F5F5F5F5F5F5F5F5F5F5
310
F5F5F5E2F5E2E2F5E2F5F5F5F5F5F5F5F5F5F5F5F5F5F5F5F5F5F5F5F5F5F5F5F5F5F5F5F5F5F5F5F5F5F5F5F5F5F5F5F5F5F5F5F5F5F5F5F5F5F5F5F5F5F5F5F5F5F5F5F5F5F5F5F5F5F5F5F5F5F5F5F5F5F5F5F5F5F5F5F5F5F5F5F5F5F5F5F5F5F5F5F5F5F5F5F5F5F5F5F5F5F5F5F5F5F5F5F5F5F5F5F5F5F5F5F5F5F5
310
F5F5F5F5F5F5F5F5F5F5F5F5F5F5F5F5F5F5F5F5F5F5F5F5F5F5F5F5F5F5F5F5F5F5F5F5F5F5F5F5F5F5F5F5F5F5F5F5F5F5F5F5F5F5F5F5E2F5E2E2F5E2F5F5F5F5F5F5F5F5F5F5F5F5F5F5F5F5F5F5F5F5F5F5F5F5F5F5F5F5F5F5F5F5F5F5F5F5F5F5F5F5F5F5F5F5F5F5F5F5F5F5F5F5F5F5F5F5F5F5F5F5F5F5F5F5F5
310
F5F5F5F5F5F5F5F5F5F5F5F5F5F5F5F5F5F5F5F5F5F5F5F5F5F5F5F5F5F5F5F5F5F5F5F5F5F5F5F5F5F5F5F5F5F5F5F5F5F5F5F5F5F5F5F5F5F5F5F5F5F5F5F5F5F5F5F5F5F5F5F5F5F5F5F5F5F5F5F5F5F5F5F5F5F5F5F5F5F5F5F5F5F5F5F5F5F5F5F5F5F5F5F5F5F5F5F5F5E2F5E2E2F5E2F5F5F5F5F5F5F5F5F5F5F5F5
310
F5F5F5F5F5F5F5F5F5F5F5F5F5F5F5F5F5F5F5F5F5F5F5F5F5F5F5F5F5F5F5F5F5F5F5F5F5F5F5F5F5F5F5F5F5F5F5F5F5F5F5F5F5F5F5F5F5F5F5F5F5F5F5F5F5F5F5F5F5F5F5F5F5F5F5F5F5F5F5F5F5F5F5F5F5F5F5F5F5F5F5F5F5F5F5F5F5F5F5F5F5F5F5F5F5F5F5F5F5F5F5F5F5F5F5F5F5F5F5F5F5F5F5F5F5F5F5
310
F5F5F5F5F5F5F5F5F5F5F5F5F5F5F5F5F5F5F5F5F5F5F5F5F5F5F5F5F5F5F5F5F5F5F5E2F5E2E2F5E2F5F5F5F5F5F5F5F5F5F5F5F5F5F5F5F5F5F5F5F5F5F5F5F5F5F5F5F5F5F5F5F5F5F5F5F5F5F5F5F5F5F5F5F5F5F5F5F5F5F5F5F5F5F5F5F5F5F5F5F5F5F5F5F5F5F5F5F5F5F5F5F5F5F5F5F5F5F5F5F5F5F5F5F5F5F5
310
F5F5F5F5F5F5F5F5F5F5F5F5F5F5F5F5F5F5F5F5F5F5F5F5F5F5F5F5F5F5F5F5F5F5F5F5F5F5F5F5F5F5F5F5F5F5F5F5F5F5F5F5F5F5F5F5F5F5F5F5F5F5F5F5F5F5F5F5F5F5F5F5F5F5F5F5F5F5F5F5F5F5F5F5F5F5F5F5E2F5E2E2F5E2F5F5F5F5F5F5F5F5F5F5F5F5F5F5F5F5F5F5F5F5F5F5F5F5F5F5F5F5F5F5F5F5F5
310
F5F5F5F5F5F5F5F5F5F5F5F5F5F5F5F5F5F5F5F5F5F5F5F5F5F5F5F5F5F5F5F5F5F5F5F5F5F5F5F5F5F5F5F5F5F5F5F5F5F5F5F5F5F5F5F5F5F5F5F5F5F5F5F5F5F5F5F5F5F5F5F5F5F5F5F5F5F5F5F5F5F5F5F5F5F5F5F5F5F5F5F5F5F5F5F5F5F5F5F5F5F5F5F5F5F5F5F5F5F5F5F5F5F5F5F5F5F5F5F5F5F5F5F5F5F5F5
310
F5F5F5F5F5F5F5F5F5F5F5F5F5F5E2F5E2E2F5E2F5F5F5F5F5F5F5F5F5F5F5F5F5F5F5F5F5F5F5F5F5F5F5F5F5F5F5F5F5F5F5F5F5F5F5F5F5F5F5F5F5F5F5F5F5F5F5F5F5F5F5F5F5F5F5F5F5F5F5F5F5F5F5F5F5F5F5F5F5F5F5F5F5F5F5F5F5F5F5F5F5F5F5F5F5F5F5F5F5F5F5F5F5F5F5F5F5F5F5F5F5F5F5F5F5F5F5
310
F5F5F5F5F5F5F5F5F5F5F5F5F5F5F5F5F5F5F5F5F5F5F5F5F5F5F5F5F5F5F5F5F5F5F5F5F5F5F5F5F5F5F5F5F5F5F5F5F5F5F5F5F5F5F5F5F5F5F5F5F5F5F5F5F5F5F5E2F5E2E2F5F5F5F5F5F5F5F5F5F5F5F5F5F5F5F5F5F5F5F5F5F5F5F5F5F5F5F5F5F5F5F5F5F5F5F5F5F5F5F5F5F5F5F5F5F5F5F5F5F5F5F5F5F5F5F5
310
F5F5F5F5F5F5F5F5F5F5F5F5F5F5F5F5F5F5F5F5F5F5F5F5F5F5F5F5F5F5F5F5F5F5F5F5F5F5F5F5F5F5F5F5F5F5F5F5F5F5F5F5F5F5F5F5F5F5F5F5F5F5F5F5F5F5F5F5F5F5F5F5F5F5F5F5F5F5F5F5F5F5F5F5F5F5F5F5F5F5F5F5F5F5F5F5F5F5F5F5F5F5F5F5F5F5F5F5F5F5F5F5F5F5F5F5F5F5F5F5F5F5E2E2F5F5F5
310
F5F5F5F5F5F5F5F5F5F5F5F5F5F5F5F5F5F5F5F5F5F5F5F5F5F5F5F5F5F5F5F5F5F5F5F5F5F5F5F5F5F5F5F5F5F5F5F5F5F5F5F5F5F5F5F5F5F5F5F5F5F5F5F5F5F5F5F5F5F5F5F5F5F5F5F5F5F5F5F5F5F5F5F5F5F5F5F5F5F5F5F5F5F5F5F5F5F5F5F5F5F5F5F5F5F5F5F5F5F5F5F5F5F5F5F5F5F5F5F5F5F5F5F5F5F5F5
310
F5F5F5F5F5F5F5F5F5F5F5F5F5F5F5F5F5F5F5F5F5F5F5F5F5F5F5F5F5F5F5F5F5F5F5F5F5F5F5F5F5F5F5F5F5F5F5F5E2E2F5F5F5F5F5F5F5F5F5F5F5F5F5F5F5F5F5F5F5F5F5F5F5F5F5F5F5F5F5F5F5F5F5F5F5F5F5F5F5F5F5F5F5F5F5F5F5F5F5F5F5F5F5F5F5F5F5F5F5F5F5F5F5F5F5F5F5F5F5F5F5F5F5F5F5F5F5
310
F5F5F5F5F5F5F5F5F5F5F5F5F5F5F5F5F5F5F5F5F5F5F5F5F5F5F5F5F5F5F5F5F5F5F5F5F5F5F5F5F5F5F5F5F5F5F5F5F5F5F5F5F5F5F5F5F5F5F5F5F5F5F5F5F5F5F5F5F5F5F5F5F5F5F5F5F5F5F5F5F5F5F5F5F5F5F5F5F5F5F5F5F5F5F5F5F5F5F5F5F5E2E2F5F5F5F5F5F5F5F5F5F5F5F5F5F5F5F5F5F5F5F5F5F5F5F5
310
F5F5F5F5F5F5F5F5F5F5F5F5F5F5F5F5F5F5F5F5F5F5F5F5F5F5F5F5F5F5F5F5F5F5F5F5F5F5F5F5F5F5F5F5F5F5F5F5F5F5F5F5F5F5F5F5F5F5F5F5F5F5F5F5F5F5F5F5F5F5F5F5F5F5F5F5F5F5F5F5F5F5F5F5F5F5F5F5F5F5F5F5F5F5F5F5F5F5F5F5F5F5F5F5F5F5F5F5F5F5F5F5F5F5F5F5F5F5F5F5F5F5F5F5F5F5F5
310
F5F5F5F5F5F5F5F5F5F5F5F5F5F5F5F5F5F5F5F5F5F5F5F5F5F5F5E2E2F5F5F5F5F5F5F5F5F5F5F5F5F5F5F5F5F5F5F5DCDCDCDCDCDCDCDCDCDCDCDCDCDCDCDCDCDCDCDCDCDCDCDCDCDCDCDCDCDCDCDCDCDCDCDCDCDCDCDCDCDCDCDCDCDCDCDCDCDCDCDCDCDCDCDCDCDCDCDCDCDCDCDCDCDCDCDCDCDCDCDCDCDCDCDCDCDCDC
310
DCDCDCDCDCDCDCDCDCDCDCDCDCDCDCDCDCDCDCDCDCDCDCDCDCDCDCDCDCDCDCDCDCDCDCDCDCDCDCDCDCDCDCDCDCDCDCDCDCDCDCDCDCDCDCDCDCDCDCDCDCF5F5F5F5F5F5F5F5F5F5F5F5F5F5F5F5F5F5F5E2E2F5F5F5F5F5F5F5F5F5F5F5F5F5F5F5F5F5F5F5DCDCDCDCDCDCDCDCDCDCDCDCDCDCDCDCDCDCDCDCDCDCDCDCDCDC
310
DCDCDCDCDCDCDCDCDCDCDCDCDCDCDCDCDCDCDCDCDCDCDCDCDCDCDCDCDCDCDCDCDCDCDCDCDCDCDCDCDCDCDCDCDCDCDCDCDCDCDCDCDCDCDCDCDCDCDCDCDCDCDCDCDCDCDCDCDCDCDCDCDCDCDCDCDCDCDCDCDCDCDCDCDCDCDCDCDCDCDCDCDCDCDCDCDCDCDCDCDCDCDCDCDCDCDCDCDCDCDCDCDCDCF5F5F5F5F5F5F5F5F5F5F5F5F5
310
F5F5F5F5F5F5E2E2F5F5F5F5F5F5F5F5F5F5F5F5F5F5F5F5F5F5F5DCF5F5F5F5F5F5F5F5F5F5F5F5F5F5F5F5F5F5F5F5F5F5F5F5F5F5F5F5F5F5F5F5F5F5F5F5F5F5F5F5F5F5F5F5F5F5F5F5F5F5F5F5F5F5F5F5F5F5F5F5F5F5F5F5F5F5F5F5F5F5F5F5F5F5F5F5F5F5F5F5F5F5F5F5F5F5F5F5F5F5F5F5F5F5F5F5F5F5F5
310
F5F5F5F5F5F5F5F5F5F5F5F5F5F5F5F5F5F5F5F5F5F5F5F5F5F5F5F5F5F5F5F5F5F5F5F5F5F5F5DCF5F5F5F5F5F5F5F5F5F5F5F5F5F5F5F5F5F5F5E2E2F5F5F5F5F5F5F5F5F5F5F5F5F5F5F5F5F5F5F5DCF5282828282828282828282828282828282828282828282828282828282828282828282828282828282828282828
310
28282828282828282828282828282828282828282828282828282828282828282828282828282828282828282828282828282828282828282828282828282828282828282828282828282828282828282828282828282828282828F5DCF5F5F5F5F5F5F5F5F5F5F5F5F5F5F5F5F5F5F5E2E2F5F5F5F5F5F5F5F5F5F5F5F5F5
310
F5F5F5F5F5F5DCF5282D2D2D2D2D2D2D2D2D2D2D2D2D2D2D2D2D2D2D2D2DF5F5F5F5F5F5F5F5F5F5F5F5F5F5F5F5F5F5F5F5F5F5F5F5F5F5F5F5F5F5F5F5F5F5F5F5F5F5F5F5F5F5F5F5F528F5F5F5F5F5F5F5F5F5F5F5F5F5F5F5F5F5F5F5F5F5F5F5F5F5F5F5F5F5F5F5F5F5F5F5F5F5F5F5F5F5F5F5F5F5F5F5F5F5F5F5
310
F5F5F5F5F5F5F5F5F5F5F5F5F5F5F5F528F5DCF5F5F5F5F5F5F5F5F5F5F5F5F5F5F5F5F5F5F5E2E2F5E2F5F5F5F5F5F5F5F5F5F5F5F5F5F5F5F5F5DCF5282D2D2D2D2D2D2D2D2D2D2D2D2D2D2D2D2D2D2D2D2D2D2D2D2D2D2D2D2DF5F5F5F5F5F5F5F5F5F5F5F5F5F5F5F5F5F5F5F5F5F5F5F5F5F5F5F5F5F5F5F5F5F5F5F5
310
F528F5F5F5F5F5F5F5F5F5F5F5F5F5F5F5F5F5F5F5F5F5F5F5F5F5F5F5F5F5F5F5F5F5F5F5F5F5F5F5F5F5F5F5F5F5F5F5F5F5F5F5F5F5F5F5F5F5F5F5F5F5F5F5F5F5F5F528F5DCF5F5F5F5F5F5F5F5F5F5F5F5F5F5F5F5F5E2F5E2E2F5E2F5F5F5F5F5F5F5F5F5F5F5F5F5F5F5F5F5DCF5282D2D2D2D2D2D2D2D2D2D2D2D
310
2D2D2D2D2D2D2D2D2D2D2D2D2D2D2D2D2DF5F5F5F5F5F5F5F5F5F5F5F5F5F5F5F5F5F5F5F5F5F5F5F5F5F5F5F5F5F5F5F5F5F5F5F5F528F5F5F5F5F5F5F5F52D2D2D2D2D2D2D2D2D2D2D2D2D2D2D2D2D2D2D2D2D2D2D2D2D2D2D2D2D2D2D2D2D2D2D2D2D2D2D2D2D2D2D2D2D2D2D2D2D2D2DF5F5F5F5F5F5F5F528F5DCF5F5
310
F5F5F5F5F5F5F5F5F5F5F5F5F5F5F5E2F5E2E2F5E2F5F5F5F5F5F5F5F5F5F5F5F5F5F5F5F5F5DCF5282D2D2D2D2D2D2D2D2D2D2D2D2D2D2D2D2D2D2D2D2D2D2D2D2D2D2D2D2D2D2D2D2D2D2D2D2D2D2D2D2D2D2D2D2D2D2D2D2D2D2D2D2D2D2D2D2D2D2D2D2D2D2D2D2D2D28F5F5F5F5F5F5F5F52D2D2D2D2D2D2D2D2D2D2D
310
2D2D2D2D2D2D2D2D2D2D2D2D2D2D2D2D2D2D2D2D2D2D2D2D2D2D2D2D2D2D2D2D2D2D2D2D2D2D2D2DF5F5F5F5F5F5F5F528F5DCF5F5F5F5F5F5F5F5F5F5F5F5F5F5F5F5F5E2F5E2E2F5E2F5F5F5F5F5F5F5F5F5F5F5F5F5F5F5F5F5DCF5282D2D2D2D2D2D2D2D2D2D2D2D2D2D2D2D2D2D2D2D2D2D2D2D2D2D2D2D2D2D2D2D2D
310
2D2D2D2D2D2D2D2D2D2D2D2D2D2D2D2D2D2D2D2D2D2D2D2D2D2D2D2D2DF5F5F5F528F5F5F5F5F5F5F5F5F5F5F5F52D2D2D2D2D2D2D2D2D2D2D2D2D2D2D2D2D2D2D2D2D2D2D2D2D2D2D2D2D2D2D2D2D2D2D2D2D2D2D2D2D2DF5F5F5F5F5F5F5F5F5F5F5F5F528F5DCF5F5F5F5F5F5F5F5F5F5F5F5F5F5F5F5F5E2F5E2E2F5E2
310
F5F5F5F5F5F5F5F5F5F5F5F5F5F5F5F5F5DCF5282D2D2D2D2D2D2D2D2D2D2D2D2D2D2D2D2D2D2D2D2D2D2D2D2D2D2D2D2D2D2D2D2D2D2D2D2D2D2D2D2D2D2D2D2D2D2D2D2D2D2D2D2D2D2D2D2D2D2D2D2D2DF5F5F5F528F5F5F5F5F5F5F5F5F5F5F5F52D2D2D2D2D2D2D2D2D2D2D2D2D2D2D2D2D2D2D2D2D2D2D2D2D2D2D2D
310
2D2D2D2D2D2D2D2D2D2D2D2D2D2DF5F5F5F5F5F5F5F5F5F5F5F5F528F5DCF5F5F5F5F5F5F5F5F5F5F5F5F5F5F5F5F5E2F5E2E2F5E2F5F5F5F5F5F5F5F5F5F5F5F5F5F5F5F5F5DCF5282D2D2D2D2D2D2D2D2D2D2D2D2D2D2D2D2D2D2D2D2D2D2D2D2D2D2D2D2D2D2D2D2D2D2D2D2D2D2D2D2D2D2D2D2D2D2D2D2D2D2D2D2D2D
310
2D2D2D2D2DF5F5F5F5F5F5F528F5F5F5F5F5F5F5F5F5F5F5F5F5F5F5F5F5F5F5F5F5F5F5F5F5F5F5F52D2D2D2D2D2D2D2D2D2DF5F5F5F5F5F5F5F5F5F5F5F5F5F5F5F5F5F5F5F5F5F5F5F5F5F5F5F5F528F5DCF5F5F5F5F5F5F5F5F5F5F5F5F5F5F5F5F5E2F5E2E2F5E2F5F5F5F5F5F5F5F5F5F5F5F5F5F5F5F5F5DCF5282D
310
2D2D2D2D2D2D2D2D2D2D2D2D2D2D2D2D2D2D2D2D2D2D2D2D2D2D2D2D2D2D2DF5F5F5F5F5F5F5F5F5F5F5F5F5F5F5F5F5F5F5F5F5F5F5F5F5F5F5F5F5F5F5F5F5F528F5F5F5F5F5F5F5F5F5F5F5F5F5F5F5F5F5F5F5F5F5F5F5F5F5F5F5F52D2D2D2D2D2D2D2D2D2DF5F5F5F5F5F5F5F5F5F5F5F5F5F5F5F5F5F5F5F5F5F5F5
310
F5F5F5F5F5F528F5DCF5F5F5F5F5F5F5F5F5F5F5F5F5F5F5F5F5E2F5E2E2F5E2F5F5F5F5F5F5F5F5F5F5F5F5F5F5F5F5F5DCF5282D2D2D2D2D2D2D2D2D2D2D2D2D2D2D2D2D2D2D2D2D2D2D2D2D2D2D2D2D2D2D2DF5F5F5F5F5F5F5F5F5F5F5F5F5F5F5F5F5F5F5F5F5F5F5F5F5F5F5F5F5F5F5F5F5F528F5F5F5F5F5F5F5F5
310
F5F5F5F5F5F5F5F5F5F5F5F5F5F5F5F5F5F5F5F52D2D2D2D2D2D2D2D2D2DF5F5F5F5F5F5F5F5F5F5F5F5F5F5F5F5F5F5F5F5F5F5F5F5F5F5F5F5F528F5DCF5F5F5F5F5F5F5F5F5F5F5F5F5F5F5F5F5E2F5E2E2F5E2F5F5F5F5F5F5F5F5F5F5F5F5F5F5F5F5F5DCF5282D2D2D2D2D2D2D2D2D2D2D2D2D2D2D2D2D2D2D2D2D2D
310
2D2D2D2D2D2D2D2D2D2D2D2D2D2D2D2D2D2D2D2D2D2D2D2D2D2D2D2D2D2D2D2D2D2D2D2D2D2D2D2D2D2DF5F528F5F5F5F5F5F5F5F5F5F5F5F5F5F5F5F5F5F5F5F5F5F5F5F5F5F5F5F5F5F5F5F5F5F5F5F5F5F5F5F5F5F5F5F5F5F5F5F5F5F5F5F5F5F5F5F5F5F5F5F5F5F5F5F5F5F5F528F5DCF5F5F5F5F5F5F5F5F5F5F5F5
310
F5F5F5F5F5E2F5E2E2F5E2F5F5F5F5F5F5F5F5F5F5F5F5F5F5F5F5F5DCF528F5F5F5F5F5F5F5F5F5F5F5F5F5F5F5F5F5F5F5F5F5F5F5F5F5F5F5F5F5F5F5F5F5F5F5F5F5F5F5F5F5F5F5F5F5F5F5F5F5F5F5F5F5F5F5F5F5F5F5F5F5F5F5F5F5F528F5F5F5F5F5F5F5F5F5F5F5F5F5F5F5F5F5F5F5F5F5F5F5F5F5F5F5F5F5
310
F5F5F5F5F5F5F5F5F5F5F5F5F5F5F5F5F5F5F5F5F5F5F5F5F5F5F5F5F5F5F5F5F5F5F5F5F5F528F5DCF5F5F5F5F5F5F5F5F5F5F5F5F5F5F5F5F5E2F5E2E2F5E2F5F5F5F5F5F5F5F5F5F5F5F5F5F5F5F5F5DCF52828282828282828282828282828282828282828282828282828282828282828282828282828282828282828
310
2828282828282828282828282828282828282828282828282828282828282828282828282828282828282828282828282828282828282828282828282828282828282828282828282828282828282828282828282828282828282828F5DCF5F5F5F5F5F5F5F5F5F5F5F5F5F5F5F5F5E2F5E2E2F5E2F5F5F5F5F5F5F5F5F5F5
310
F5F5F5F5F5F5F5DCF528F5F5F5F5F5F5F5F5F5F5F5F5F5F5F5F5F5F5F5F5F5F5F5F5F5F5F5F5F5F5F5F5F5F5F5F5F5F5F5F5F5F5F5F5F5F5F5F5F5F5F5F5F5F5F5F5F5F5F5F5F5F5F5F5F5F5F5F5F5F5F5F5F5F5F5F5F5F5F5F5F5F5F5F5F5F5F5F5F5F5F5F5F5F5F5F5F5F5F5F5F5F5F5F5F5F5F5F5F5F5F5F5F5F5F5F5F5
310
F5F5F5F5F5F5F5F5F5F5F5F5F5F5F5F5F528F5DCF5F5F5F5F5F5F5F5F5F5F5F5F5F5F5F5F5E2F5E2E2F5E2F5F5F5F5F5F5F5F5F5F5F5F5F5F5F5F5F5DCF528F5F5F5F5F5F5F5F5F5F5F5F5F5F5F5F5F5F5F5F5F5F5F5F5F5F5F5F5F5F5F5F5F5F5F5F5F5F5F5F5F5F5F5F5F5F5F5F5F5F5F5F5F5F5F5F5F5F5F5F5F5F5F5F5
310
F5F5F5F5F5F5F5F5F5F5F5F5F5F5F5F5F5F5F5F5F5F5F5F5F5F5F5F5F5F5F5F5F5F5F5F5F5F5F5F5F5F5F5F5F5F5F5F5F5F5F5F5F5F5F5F5F5F5F5F5F5F5F5F5F5F5F5F5F5F528F5DCF5F5F5F5F5F5F5F5F5F5F5F5F5F5F5F5F5E2F5E2E2F5E2F5F5F5F5F5F5F5F5F5F5F5F5F5F5F5F5F5DCF528F5F5F5F5F5F5F5F5F5F5F5
310
F5F5F5F5F5F5F5F5F5F5F5F5F5F5F5F5F5F5F5F5F5F5F5F5F5F5F5F5F5F5F5F5F5F5F5F5F5F5F5F5F5F5F5F5F5F5F5F5F5F5F5F5F5F5F5F5F5F5F5F5F5F5F5F5F5F5F5F5F5F5F5F5F5F5F5F5F5F5F5F5F5F5F5F5F5F5F5F5F5F5F5F5F5F5F5F5F5F5F5F5F5F5F5F5F5F5F5F5F5F5F5F5F5F5F5F5F5F5F5F5F5F5F528F5DCF5
310
F5F5F5F5F5F5F5F5F5F5F5F5F5F5F5F5E2F5E2E2F5E2F5F5F5F5F5F5F5F5F5F5F5F5F5F5F5F5F5DCF528F5F5F5F5F5F5F5F5F5F5F5F5F5F5F5F5F5F5F5F5F5F5F5F5F5F5F5F5F5F5F5F5F5F5F5F5F5F5F5F5F5F5F5F5F5F5F5F5F5F5F5F5F5F5F5F5F5F5F5F5F5F5F5F5F5F5F5F5F5F5F5F5F5F5F5F5F5F5F5F5F5F5F5F5F5
310
F5F5F5F5F5F5F5F5F5F5F5F5F5F5F5F5F5F5F5F5F5F5F5F5F5F5F5F5F5F5F5F5F5F5F5F5F5F5F5F5F5F5F5F5F5F5F5F5F528F5DCF5F5F5F5F5F5F5F5F5F5F5F5F5F5F5F5F5E2F5E2E2F5E2F5F5F5F5F5F5F5F5F5F5F5F5F5F5F5F5F5DCF528F5F5F5F5F5F5F5F5F5F5F5F5F5F5F5F5F5F5F5F5F5F5F5F5F5F5F5F5F5F5F5F5
310
F5F5F5F5F5F5F5F5F5F5F5F5F5F5F5F5F5F5F5F5F5F5F5F5F5F5F5F5F5F5F5F5F5F5F5F5F5F5F5F5F5F5F5F5F5F5F5F5F5F5F5F5F5F5F5F5F5F5F5F5F5F5F5F5F5F5F5F5F5F5F5F5F5F5F5F5F5F5F5F5F5F5F5F5F5F5F5F5F5F5F5F5F5F5F5F5F5F5F5F5F5F528F5DCF5F5F5F5F5F5F5F5F5F5F5F5F5F5F5F5F5E2F5E2E2F5
310
F5F5F5F5F5F5F5F5F5F5F5F5F5F5F5F5F5F5DCF528F5F5F5F5F5F5F5F5F5F5F5F5F5F5F5F5F5F5F5F5F5F5F5F5F5F5F5F5F5F5F5F5F5F5F5F5F5F5F5F5F5F5F5F5F5F5F5F5F5F5F5F5F5F5F5F5F5F5F5F5F5F5F5F5F5F5F5F5F5F5F5F5F5F5F5F5F5F5F5F5F5F5F5F5F5F5F5F5F5F5F5F5F5F5F5F5F5F5F5F5F5F5F5F5F5F5
310
F5F5F5F5F5F5F5F5F5F5F5F5F5F5F5F5F5F5F5F5F5F5F5F5F5F5F5F528F5DCF5F5F5F5F5F5F5F5F5F5F5F5F5F5F5F5F5F5F5E2E2F5F5F5F5F5F5F5F5F5F5F5F5F5F5F5F5F5F5F5DCF528F5F5F5F5F5F5F5F5F5F5F5F5F5F5F5F5F5F5F5F5F5F5F5F5F5F5F5F5F5F5F5F5F5F5F5F5F5F5F5F5F5F5F5F5F5F5F5F5F5F5F5F5F5
310
F5F5F5F5F5F5F5F5F5F5F5F5F5F5F5F5F5F5F5F5F5F5F5F5F5F5F5F5F5F5F5F5F5F5F5F5F5F5F5F5F5F5F5F5F5F5F5F5F5F5F5F5F5F5F5F5F5F5F5F5F5F5F5F5F5F5F5F5F5F5F5F5F5F5F5F5F5F5F5F5F528F5DCF5F5F5F5F5F5F5F5F5F5F5F5F5F5F5F5F5F5F5E2E2F5F5F5F5F5F5F5F5F5F5F5F5F5F5F5F5F5F5F5DCF528
310
F5F5F5F5F5F5F5F5F5F5F5F5F5F5F5F5F5F5F5F5F5F5F5F5F5F5F5F5F5F5F5F5F5F5F5F5F5F5F5F5F5F5F5F5F5F5F5F5F5F5F5F5F5F5F5F5F5F5F5F5F5F5F5F5F5F5F5F5F5F5F5F5F5F5F5F5F5F5F5F5F5F5F5F5F5F5F5F5F5F5F5F5F5F5F5F5F5F5F5F5F5F5F5F5F5F5F5F5F5F5F5F5F5F5F5F5F5F5F5F5F5F5F5F5F5F5F5
310
F5F5F5F5F5F5F528F5DCF5F5F5F5F5F5F5F5F5F5F5F5F5F5F5F5F5F5F5E2E2F5F5F5F5F5F5F5F5F5F5F5F5F5F5F5F5F5F5F5DCF528F5F5F5F5F5F5F5F5F5F5F5F5F5F5F5F5F5F5F5F5F5F5F5F5F5F5F5F5F5F5F5F5F5F5F5F5F5F5F5F5F5F5F5F5F5F5F5F5F5F5F5F5F5F5F5F5F5F5F5F5F5F5F5F5F5F5F5F5F5F5F5F5F5F5
310
F5F5F5F5F5F5F5F5F5F5F5F5F5F5F5F5F5F5F5F5F5F5F5F5F5F5F5F5F5F5F5F5F5F5F5F5F5F5F5F5F5F5F5F5F5F5F5F5F5F5F5F5F5F5F5F5F5F5F5F528F5DCF5F5F5F5F5F5F5F5F5F5F5F5F5F5F5F5F5F5F5E2E2F5F5F5F5F5F5F5F5F5F5F5F5F5F5F5F5F5F5F5DCF528F5F5F5F5F5F5F5F5F5F5F5F5F5F5F5F5F5F5F5F5F5
310
F5F5F5F5F5F5F5F5F5F5F5F5F5F5F5F5F5F5F5F5F5F5F5F5F5F5F5F5F5F5F5F5F5F5F5F5F5F5F5F5F5F5F5F5F5F5F5F5F5F5F5F5F5F5F5F5F5F5F5F5F5F5F5F5F5F5F5F5F5F5F5F5F5F5F5F5F5F5F5F5F5F5F5F5F5F5F5F5F5F5F5F5F5F5F5F5F5F5F5F5F5F5F5F5F5F5F5F5F5F5F5F5F528F5DCF5F5F5F5F5F5F5F5F5F5F5
310
F5F5F5F5F5F5F5F5E2E2F5F5F5F5F5F5F5F5F5F5F5F5F5F5F5F5F5F5F5DCF528F5F5F5F5F5F5F5F5F5F5F5F5F5F5F5F5F5F5F5F5F5F5F5F5F5F5F5F5F5F5F5F5F5F5F5F5F5F5F5F5F5F5F5F5F5F5F5F5F5F5F5F5F5F5F5F5F5F5F5F5F5F5F5F5F5F5F5F5F5F5F5F5F5F5F5F5F5F5F5F5F5F5F5F5F5F5F5F5F5F5F5F5F5F5F5
310
F5F5F5F5F5F5F5F5F5F5F5F5F5F5F5F5F5F5F5F5F5F5F5F5F5F5F5F5F5F5F5F5F5F5F5F5F5F5F528F5DCF5F5F5F5F5F5F5F5F5F5F5F5F5F5F5F5F5F5F5E2E2F5F5F5F5F5F5F5F5F5F5F5F5F5F5F5F5F5F5F5DCF528F5F5F5F5F5F5F5F5F5F5F5F5F5F5F5F5F5F5F5F5F5F5F5F5F5F5F5F5F5F5F5F5F5F5F5F5F5F5F5F5F5F5
310
F5F5F5F5F5F5F5F5F5F5F5F5F5F5F5F5F5F5F5F5F5F5F5F5F5F5F5F5F5F5F5F5F5F5F5F5F5F5F5F5F5F5F5F5F5F5F5F5F5F5F5F5F5F5F5F5F5F5F5F5F5F5F5F5F5F5F5F5F5F5F5F5F5F5F5F5F5F5F5F5F5F5F5F5F5F5F5F5F5F5F5F528F5DCF5F5F5F5F5F5F5F5F5F5F5F5F5F5F5F5F5F5F5E2E2F5F5F5F5F5F5F5F5F5F5F5
310
F5F5F5F5F5F5F5F5DCF528F5F5F5F5F5F5F5F5F5F5F5F5F5F5F52D2D2D2D2D2D2D2D2D2DF5F5F5F5F5F5F5F5F5F5F5F5F5F5F5F5F5F5F5F5F5F5F5F5F5F5F5F5F5F5F5F5F5F5F5F5F5F5F5F5F5F5F5F5F5F5F5F5F5F5F5F5F5F5F5F5F5F5F5F5F5F5F5F5F5F5F5F5F5F5F5F5F5F5F5F5F5F5F5F5F5F5F5F5F5F5F5F5F5F5F5
310
F5F5F5F5F5F5F5F5F5F5F5F5F5F5F5F5F5F528F5DCF5F5F5F5F5F5F5F5F5F5F5F5F5F5F5F5F5F5F5E2E2F5E2F5F5F5F5F5F5F5F5F5F5F5F5F5F5F5F5F5DCF528F5F5F5F5F5F5F5F5F5F5F5F5F5F5F52D2D2D2D2D2D2D2D2D2DF5F5F5F5F5F5F5F5F5F5F5F5F5F5F5F5F5F5F5F5F5F5F5F5F5F5F5F5F5F5F5F5F5F5F5F5F5F5
310
F5F5F5F5F5F5F5F5F5F5F5F5F5F5F5F5F5F5F5F5F5F5F5F5F5F5F5F5F5F5F5F5F5F5F5F5F5F5F5F5F5F5F5F5F5F5F5F5F5F5F5F5F5F5F5F5F5F5F5F5F5F5F5F5F5F5F5F5F5F5F528F5DCF5F5F5F5F5F5F5F5F5F5F5F5F5F5F5F5F5E2F5E2E2F5E2F5F5F5F5F5F5F5F5F5F5F5F5F5F5F5F5F5DCF528F5F5F5F5F5F5F5F5F5F5
310
F5F5F5F5F5F5F5F5F5F5F5F5F5F5F5F5F5F5F5F5F5F5F5F5F5F5F5F5F5F5F5F5F5F5F5F5F5F5F5F5F5F5F5F5F5F5F5F5F5F5F5F5F5F5F5F5F5F5F5F5F5F5F5F5F5F5F5F5F5F5F5F5F5F5F5F5F5F5F5F5F5F5F5F5F5F5F5F5F5F5F5F5F5F5F5F5F5F5F5F5F5F5F5F5F5F5F5F5F5F5F5F5F5F5F5F5F5F5F5F5F5F5F5F528F5DC
310
F5F5F5F5F5F5F5F5F5F5F5F5F5F5F5F5F5E2F5E2E2F5E2F5F5F5F5F5F5F5F5F5F5F5F5F5F5F5F5F5DCF528F5F5F5F5F5F5F5F5F5F5F5F5F5F5F5F5F5F5F5F5F5F5F5F5F5F5F5F5F5F5F5F5F5F5F5F5F5F5F5F5F5F5F5F5F5F5F5F5F5F5F5F5F5F5F5F5F5F5F5F5F5F5F5F5F5F5F5F5F5F5F5F5F5F5F5F5F5F5F5F5F5F5F5F5
310
F5F5F5F5F5F5F5F5F5F5F5F5F5F5F5F5F5F5F5F5F5F5F5F5F5F5F5F5F5F5F5F5F5F5F5F5F5F5F5F5F5F5F5F5F5F5F5F5F5F528F5DCF5F5F5F5F5F5F5F5F5F5F5F5F5F5F5F5F5E2F5E2E2F5E2F5F5F5F5F5F5F5F5F5F5F5F5F5F5F5F5F5DCF528F5F5F5F5F5F5F5F5F5F5F5F5F5F5F5F5F5F5F5F5F5F5F5F5F5F5F5F5F5F5F5
310
F5F5F5F5F5F5F5F5F5F5F5F5F5F5F5F5F5F5F5F5F5F5F5F5F5F5F5F5F5F5F5F5F5F5F5F5F5F5F5F5F5F5F5F5F5F5F5F5F5F5F5F5F5F5F5F5F5F5F5F5F5F5F5F5F5F5F5F5F5F5F5F5F5F5F5F5F5F5F5F5F5F5F5F5F5F5F5F5F5F5F5F5F5F5F5F5F5F5F5F5F5F5F528F5DCF5F5F5F5F5F5F5F5F5F5F5F5F5F5F5F5F5E2F5E2E2
310
F5E2F5F5F5F5F5F5F5F5F5F5F5F5F5F5F5F5F5DCF528F5F5F5F5F5F5F5F5F5F5F5F5F5F5F5F5F5F5F5F5F5F5F5F5F5F5F5F5F5F5F5F5F5F5F5F5F5F5F5F5F5F5F5F5F5F5F5F5F5F5F5F5F5F5F5F5F5F5F5F5F5F5F5F5F5F5F5F5F5F5F5F5F5F5F5F5F5F5F5F5F5F5F5F5F5F5F5F5F5F5F5F5F5F5F5F5F5F5F5F5F5F5F5F5F5
310
F5F5F5F5F5F5F5F5F5F5F5F5F5F5F5F5F5F5F5F5F5F5F5F5F5F5F5F5F528F5DCF5F5F5F5F5F5F5F5F5F5F5F5F5F5F5F5F5E2F5E2E2F5E2F5F5F5F5F5F5F5F5F5F5F5F5F5F5F5F5F5DCF528F5F5F5F5F5F5F5F5F5F5F5F5F5F5F5F5F5F5F5F5F5F5F5F5F5F5F5F5F5F5F5F5F5F5F5F5F5F5F5F5F5F5F5F5F5F5F5F5F5F5F5F5
310
F5F5F5F5F5F5F5F5F5F5F5F5F5F5F5F5F5F5F5F5F5F5F5F5F5F5F5F5F5F5F5F5F5F5F5F5F5F5F5F5F5F5F5F5F5F5F5F5F5F5F5F5F5F5F5F5F5F5F5F5F5F5F5F5F5F5F5F5F5F5F5F5F5F5F5F5F5F5F5F5F5F528F5DCF5F5F5F5F5F5F5F5F5F5F5F5F5F5F5F5F5E2F5E2E2F5E2F5F5F5F5F5F5F5F5F5F5F5F5F5F5F5F5F5DCF5
310
28F5F5F5F5F5F5F5F5F5F5F5F5F5F5F5F5F5F5F5F5F5F5F5F5F5F5F5F5F5F5F5F5F5F5F5F5F5F5F5F5F5F5F5F5F5F5F5F5F5F5F5F5F5F5F5F5F5F5F5F5F5F5F5F5F5F5F5F5F5F5F5F5F5F5F5F5F5F5F5F5F5F5F5F5F5F5F5F5F5F5F5F5F5F5F5F5F5F5F5F5F5F5F5F5F5F5F5F5F5F5F5F5F5F5F5F5F5F5F5F5F5F5F5F5F5F5
310
F5F5F5F5F5F5F5F528F5DCF5F5F5F5F5F5F5F5F5F5F5F5F5F5F5F5F5E2F5E2E2F5E2F5F5F5F5F5F5F5F5F5F5F5F5F5F5F5F5F5DCF528F5F5F5F5F5F5F5F5F5F5F5F5F5F5F5F5F5F5F5F5F5F5F5F5F5F5F5F5F5F5F5F5F5F5F5F5F5F5F5F5F5F5F5F5F5F5F5F5F5F5F5F5F5F5F5F5F5F5F5F5F5F5F5F5F5F5F5F5F5F5F5F5F5
310
F5F5F5F5F5F5F5F5F5F5F5F5F5F5F5F5F5F5F5F5F5F5F5F5F5F5F5F5F5F5F5F5F5F5F5F5F5F5F5F5F5F5F5F5F5F5F5F5F5F5F5F5F5F5F5F5F5F5F5F5F528F5DCF5F5F5F5F5F5F5F5F5F5F5F5F5F5F5F5F5E2F5E2E2F5E2F5F5F5F5F5F5F5F5F5F5F5F5F5F5F5F5F5DCF528F5F5F5F5F5F5F5F5F5F5F5F5F5F5F5F5F5F5F5F5
310
F5F5F5F5F5F5F5F5F5F5F5F5F5F5F5F5F5F5F5F5F5F5F5F5F5F5F5F5F5F5F5F5F5F5F5F5F5F5F5F5F5F5F5F5F5F5F5F5F5F5F5F5F5F5F5F5F5F5F5F5F5F5F5F5F5F5F5F5F5F5F5F5F5F5F5F5F5F5F5F5F5F5F5F5F5F5F5F5F5F5F5F5F5F5F5F5F5F5F5F5F5F5F5F5F5F5F5F5F5F5F5F5F5F528F5DCF5F5F5F5F5F5F5F5F5F5
310
F5F5F5F5F5F5F5E2F5E2E2F5E2F5F5F5F5F5F5F5F5F5F5F5F5F5F5F5F5F5DCF528F5F5F5F5F5F5F5F5F5DCF5F5F5F5F5F5F5F5F5F5F5F5F5F5F5F5F5F5F5F5F5F5F5F5F5F5F5F5F5F5F5F5F5F5F5F5F5F5F5F5F5F5F5F5F5F5F5F5F5F5F5F5F5F5F5F5F5F5F5F5F5F5F5F5F5F5F5F5F5F5F5F5F5F5F5F5F5F5F5F5F5F5F5F5
310
F5F5F5F5F5F5F5F5F5F5F5F5F5F5F5F5F5F5F5F5F5F5F5F5F5F5F5F5F5F5F5F5F5F5F5F5F5F5F5F528F5DCF5F5F5F5F5F5F5F5F5F5F5F5F5F5F5F5F5E2F5E2E2F5E2F5F5F5F5F5F5F5F5F5F5F5F5F5F5F5F5F5DCF528F5F5F5F5F5F5F5F50FDCF5F5F5F5F52D2D2D2D2D2D2D2DF5F5F5F5F50FF5F5F5F5F5F5F5F5F5F5F5F5
310
F5F5F5F5F5F5F5F5F5F5F5F5F5F5F5F5F5F5F5F5F5F5F5F5F5F5F5F5F5F5F5F5F5F5F5F5F5F5F5F5F5F5F5F5F5F5F5F5F5F5F5F5F5F5F5F5F5F5F5F5F5F5F5F5F5F5F5F5F5F5F5F5F5F5F5F5F5F5F5F5F5F5F5F5F5F5F5F5F5F5F5F5F528F5DCF5F5F5F5F5F5F5F5F5F5F5F5F5F5F5F5F5E2F5E2E2F5E2F5F5F5F5F5F5F5F5
310
F5F5F5F5F5F5F5F5F5DCF528F5F5F5F5DCF5F5DC0FDC0F0F0F0F0F2D2D2D2D2D2D2D2D0F0F0F0F0F0F0FF5F5F5F5F5F5F5F5F5F5F5F5F5F5F5F5F5F5F5F5F5F5F5F5F5F5F5F5F5F5F5F5F5F5F5F5F5F5F5F5F5F5F5F5F5F5F5F5F5F5F5F5F5F5F5F5F5F5F5F5F5F5F5F5F5F5F5F5F5F5F5F5F5F5F5F5F5F5F5F5F5F5F5F5F5
310
F5F5F5F5F5F5F5F5F5F5F5F5F5F5F5F5F5F5F528F5DCF5F5F5F5F5F5F5F5F5F5F5F5F5F5F5F5F5E2F5E2E2F5E2F5F5F5F5F5F5F5F5F5F5F5F5F5F5F5F5F5DCF528F5F5F5DCF5F5DCF5F5DCF5F5F5F5F5F5F5F5F5F5F5F5F5F5F5F5F5F50FF5F5F5F5F5F5F5F5F5F5F5F5F5F5F5F5F5F5F5F5F5F5F5F5F5F5F5F5F5F5F5F5F5
310
F5F5F5F5F5F5F5F5F5F5F5F5F5F5F5F5F5F5F5F5F5F5F5F5F5F5F5F5F5F5F5F5F5F5F5F5F5F5F5F5F5F5F5F5F5F5F5F5F5F5F5F5F5F5F5F5F5F5F5F5F5F5F5F5F5F5F5F5F5F5F5F528F5DCF5F5F5F5F5F5F5F5F5F5F5F5F5F5F5F5F5E2F5E2E2F5E2F5F5F5F5F5F5F5F5F5F5F5F5F5F5F5F5F5DCF528F5F5F5F5F5DCF5F5DC
310
DCF5F5F5F5F5F5F5F5F5F5F5F5F5F5F5F5F5F50FF5F5F5F5F5F5F5F5F5F5F5F5F5F5F5F5F5F5F5F5F5F5F5F5F5F5F5F5F5F5F5F5F5F5F5F5F5F5F5F5F5F5F5F5F5F5F5F5F5F5F5F5F5F5F5F5F5F5F5F5F5F5F5F5F5F5F5F5F5F5F5F5F5F5F5F5F5F5F5F5F5F5F5F5F5F5F5F5F5F5F5F5F5F5F5F5F5F5F5F5F5F5F5F5F528F5
310
DCF5F5F5F5F5F5F5F5F5F5F5F5F5F5F5F5F5E2F5E2E2F5E2F5F5F5F5F5F5F5F5F5F5F5F5F5F5F5F5F5DCF528F5F5F5F5DCF5F5DCF5DCF5F5F5F5F5F5F5F5F5F5F5F5F5F5F5F5F5F50FF5F5F5F5F5F5F5F5F5F5F5F5F5F5F5F5F5F5F5F5F5F5F5F5F5F5F5F5F5F5F5F5F5F5F5F5F5F5F5F5F5F5F5F5F5F5F5F5F5F5F5F5F5F5
310
F5F5F5F5F5F5F5F5F5F5F5F5F5F5F5F5F5F5F5F5F5F5F5F5F5F5F5F5F5F5F5F5F5F5F5F5F5F5F5F5F5F5F5F5F5F5F5F5F5F5F528F5DCF5F5F5F5F5F5F5F5F5F5F5F5F5F5F5F5F5E2F5E2E2F5E2F5F5F5F5F5F5F5F5F5F5F5F5F5F5F5F5F5DCF528F5F5F5DCF5F5DCF5F5DCF5F5F5F5F5F5F5F5F5F5F5F5F5F5F5F5F5F50FF5
310
F5F5F5F5F5F5F5F5F5F5F5F5F5F5F5F5F5F5F5F5F5F5F5F5F5F5F5F5F5F5F5F5F5F5F5F5F5F5F5F5F5F5F5F5F5F5F5F5F5F5F5F5F5F5F5F5F5F5F5F5F5F5F5F5F5F5F5F5F5F5F5F5F5F5F5F5F5F5F5F5F5F5F5F5F5F5F5F5F5F5F5F5F5F5F5F5F5F5F5F5F5F5F5F528F5DCF5F5F5F5F5F5F5F5F5F5F5F5F5F5F5F5F5E2F5E2
310
E2F5F5F5F5F5F5F5F5F5F5F5F5F5F5F5F5F5F5F5DCF528F5F5F5F5F5DCF5F5F5DC1B0F0F0F0F0F0F0F0F0F0F0F0F0F0F0F0F0F0F0F0F0F0F0F0F0FF5F5F5F5F5F5F5F5F5F5F5F5F5F5F5F5F5F5F5F5F5F5F5F5F5F5F5F5F5F5F5F5F5F5F5F5F5F5F5F5F5F5F5F5F5F5F5F5F5F5F5F5F5F5F5F5F5F5F5F5F5F5F5F5F5F5F5F5
310
F5F5F5F5F5F5F5F5F5F5F5F5F5F5F5F5F5F5F5F5F5F5F5F5F5F5F5F5F5F528F5DCF5F5F5F5F5F5F5F5F5F5F5F5F5F5F5F5F5F5F5E2E2F5F5F5F5F5F5F5F5F5F5F5F5F5F5F5F5F5F5F5DCF528F5F5F5F5DCF5F5F5DCDCBEF5F5F5F5F5F5F5F5F5F5F5F5F5F5F5F5F50FF5F5F5F5F50FF5F5F5F5F5F5F5F5F5F5F5F5F5F5F5F5
310
F5F5F5F5F5F5F5F5F5F5F5F5F5F5F5F5F5F5F5F5F5F5F5F5F5F5F5F5F5F5F5F5F5F5F5F5F5F5F5F5F5F5F5F5F5F5F5F5F5F5F5F5F5F5F5F5F5F5F5F5F5F5F5F5F5F5F5F5F5F5F5F5F5F5F5F5F5F5F5F5F5F5F528F5DCF5F5F5F5F5F5F5F5F5F5F5F5F5F5F5F5F5F5F5E2E2F5F5F5F5F5F5F5F5F5F5F5F5F5F5F5F5F5F5F5DC
310
F528F5F5F5DCF5F5F5DCF5DCF5BEBEF5F5F5F5F5F5F5F5F5F5F5F5F5F5F50FF5F5F5F5F50FF5F5F5F5F5F5F5F5F5F5F5F5F5F5F5F5F5F5F5F5F5F5F5F5F5F5F5F5F5F5F5F5F5F5F5F5F5F5F5F5F5F5F5F5F5F5F5F5F5F5F5F5F5F5F5F5F5F5F5F5F5F5F5F5F5F5F5F5F5F5F5F5F5F5F5F5F5F5F5F5F5F5F5F5F5F5F5F5F5F5
310
F5F5F5F5F5F5F5F5F528F5DCF5F5F5F5F5F5F5F5F5F5F5F5F5F5F5F5F5F5F5E2E2F5F5F5F5F5F5F5F5F5F5F5F5F5F5F5F5F5F5F5DCF528F5F5F5F5F5DCDCF5F5DCF5F5BEBEF5F5F5F5F5F5F5F5F5F5F5F5F5F50FF5F5F5F5F50FF5F5F5F5F5F5F5F5F5F5F5F5F5F5F5F5F5F5F5F5F5F5F5F5F5F5F5F5F5F5F5F5F5F5F5F5F5
310
F5F5F5F5F5F5F5F5F5F5F5F5F5F5F5F5F5F5F5F5F5F5F5F5F5F5F5F5F5F5F5F5F5F5F5F5F5F5F5F5F5F5F5F5F5F5F5F5F5F5F5F5F5F5F5F5F5F5F5F5F5F528F5DCF5F5F5F5F5F5F5F5F5F5F5F5F5F5F5F5F5F5F5E2E2F5F5F5F5F5F5F5F5F5F5F5F5F5F5F5F5F5F5F5DCF528F5F5F5F5DCF5F5F5DCDCF5F5F5BEF5F5F5F5F5
310
F5F5F5F5F5F5F5F5F50FF5F5F5F5F50FF5F5F5F5F5F5F5F5F5F5F5F5F5F5F5F5F5F5F5F5F5F5F5F5F5F5F5F5F5F5F5F5F5F5F5F5F5F5F5F5F5F5F5F5F5F5F5F5F5F5F5F5F5F5F5F5F5F5F5F5F5F5F5F5F5F5F5F5F5F5F5F5F5F5F5F5F5F5F5F5F5F5F5F5F5F5F5F5F5F5F5F5F5F5F5F5F5F5F528F5DCF5F5F5F5F5F5F5F5F5
310
F5F5F5F5F5F5F5F5F5F5E2E2F5F5F5F5F5F5F5F5F5F5F5F5F5F5F5F5F5F5F5DCF528F5F5F5DCF5F5F5DCF5DCF5F5F5BEBEBEF5F5F5F5F5F5F5F5F5F5F5F50FF5F5F5F5F50FF5F5F5F5F5F5F5F5F5F5F5F5F5F5F5F5F5F5F5F5F5F5F5F5F5F5F5F5F5F5F5F5F5F5F5F5F5F5F5F5F5F5F5F5F5F5F5F5F5F5F5F5F5F5F5F5F5F5
310
F5F5F5F5F5F5F5F5F5F5F5F5F5F5F5F5F5F5F5F5F5F5F5F5F5F5F5F5F5F5F5F5F5F5F5F5F5F5F5F5F528F5DCF5F5F5F5F5F5F5F5F5F5F5F5F5F5F5F5F5F5F5E2E2F5F5F5F5F5F5F5F5F5F5F5F5F5F5F5F5F5F5F5DCF528F5F5F5F5F5DCDCF5F5DCF5F5F5F5BEBEF5F5F5F5F5F5F5F5F5F5F5F50FF5F5F5F5F50FF5F5F5F5F5
310
F5F5F5F5F5F5F5F5F5F5F5F5F5F5F5F5F5F5F5F5F5F5F5F5F5F5F5F5F5F5F5F5F5F5F5F5F5F5F5F5F5F5F5F5F5F5F5F5F5F5F5F5F5F5F5F5F5F5F5F5F5F5F5F5F5F5F5F5F5F5F5F5F5F5F5F5F5F5F5F5F5F5F5F5F5F5F5F5F5F5F5F5F5F528F5DCF5F5F5F5F5F5F5F5F5F5F5F5F5F5F5F5F5F5F5E2E2F5F5F5F5F5F5F5F5F5
310
F5F5F5F5F5F5F5F5F5F5DCF528F5F5F5F5DCF5F5F5DCDCF5F5F5F5BEF5F5F5F5F5F5F5F5F5F5F5F5F50FF5F5F5F5F50FF5F5F5F5F5F5F5F5F5F5F5F5F5F5F5F5F5F5F5F5F5F5F5F5F5F5F5F5F5F5F5F5F5F5F5F5F5F5F5F5F5F5F5F5F5F5F5F5F5F5F5F5F5F5F5F5F5F5F5F5F5F5F5F5F5F5F5F5F5F5F5F5F5F5F5F5F5F5F5
310
F5F5F5F5F5F5F5F5F5F5F5F5F5F5F5F5F5F5F5F528F5DCF5F5F5F5F5F5F5F5F5F5F5F5F5F5F5F5F5F5F5E2E2F5F5F5F5F5F5F5F5F5F5F5F5F5F5F5F5F5F5F5DCF528F5F5F5DCF5F5F5DCF5DCF5F5F5F5BEF5F5F5F5F5F5F5F5F5F5F5F5F50FF5F5F5F5F50FF5F5F5F5F5F5F5F5F5F5F5F5F5F5F5F5F5F5F5F5F5F5F5F5F5F5
310
F5F5F5F5F5F5F5F5F5F5F5F5F5F5F5F5F5F5F5F5F5F5F5F5F5F5F5F5F5F5F5F5F5F5F5F5F5F5F5F5F5F5F5F5F5F5F5F5F5F5F5F5F5F5F5F5F5F5F5F5F5F5F5F5F5F5F5F5F5F5F5F5F528F5DCF5F5F5F5F5F5F5F5F5F5F5F5F5F5F5F5F5F5F5E2E2F5E2F5F5F5F5F5F5F5F5F5F5F5F5F5F5F5F5F5DCF528F5F5F5F5F5F5DCF5
310
F5DCBEBEF5F5BEF5F5F5F5F5F5F5F5F5F5F5F5F50FF5F52D2D2D2D2D2D2D2DF5F5F5F5F5F5F5F5F5F5F5F5F5F5F5F5F5F5F5F5F5F5F5F5F5F5F5F5F5F5F5F5F5F5F5F5F5F5F5F5F5F5F5F5F5F5F5F5F5F5F5F5F5F5F5F5F5F5F5F5F5F5F5F5F5F5F5F5F5F5F5F5F5F5F5F5F5F5F5F5F5F5F5F5F5F5F5F5F5F5F5F5F5F5F528
310
F5DCF5F5F5F5F5F5F5F5F5F5F5F5F5F5F5F5F5E2F5E2E2F5E2F5F5F5F5F5F5F5F5F5F5F5F5F5F5F5F5F5DCF528F5F5F5F5F5DCF5F5DCDCF5BEF5F5BEF5F5F5F5F5F5F5F5F5F5F5F5F50FF5F52D2D2D2D2D2D2D2DF5F5F5F5F5F5F5F5F5F5F5F5F5F5F5F5F5F5F5F5F5F5F5F5F5F5F5F5F5F5F5F5F5F5F5F5F5F5F5F5F5F5F5
310
F5F5F5F5F5F5F5F5F5F5F5F5F5F5F5F5F5F5F5F5F5F5F5F5F5F5F5F5F5F5F5F5F5F5F5F5F5F5F5F5F5F5F5F5F5F5F5F5F5F5F5F528F5DCF5F5F5F5F5F5F5F5F5F5F5F5F5F5F5F5F5E2F5E2E2F5E2F5F5F5F5F5F5F5F5F5F5F5F5F5F5F5F5F5DCF528F5F5F5F5DCF5F5DCF5DCF5BEF5F5BEBEF5F5F5F5F5F5F5F5F5F5F5F50F
310
F5F5F5F5F50FF5F5F5F5F5F5F5F5F5F5F5F5F5F5F5F5F5F5F5F5F5F5F5F5F5F5F5F5F5F5F5F5F5F5F5F5F5F5F5F5F5F5F5F5F5F5F5F5F5F5F5F5F5F5F5F5F5F5F5F5F5F5F5F5F5F5F5F5F5F5F5F5F5F5F5F5F5F5F5F5F5F5F5F5F5F5F5F5F5F5F5F5F5F5F5F5F5F5F528F5DCF5F5F5F5F5F5F5F5F5F5F5F5F5F5F5F5F5E2F5
310
E2E2F5E2F5F5F5F5F5F5F5F5F5F5F5F5F5F5F5F5F5DCF528F5F5F5DCF5F5DCF5F5DCF5F5BEF5F5BEF5F5F5F5F5F5F5F5F5F5F5F50FF5F5F5F5F50FF5F5F5F5F5F5F5F5F5F5F5F5F5F5F5F5F5F5F5F5F5F5F5F5F5F5F5F5F5F5F5F5F5F5F5F5F5F5F5F5F5F5F5F5F5F5F5F5F5F5F5F5F5F5F5F5F5F5F5F5F5F5F5F5F5F5F5F5
310
F5F5F5F5F5F5F5F5F5F5F5F5F5F5F5F5F5F5F5F5F5F5F5F5F5F5F5F5F5F5F528F5DCF5F5F5F5F5F5F5F5F5F5F5F5F5F5F5F5F5E2F5E2E2F5E2F5F5F5F5F5F5F5F5F5F5F5F5F5F5F5F5F5DCF528F5F5F5F5F5DCF5F5DCDCF5F5BEF5F5F5BEBEF5F5F5F5BEBEF5F5F5F50FF5F5F5F5F50FF5F5F5F5F5F5F5F5F5F5F5F5F5F5F5
310
F5F5F5F5F5F5F5F5F5F5F5F5F5F5F5F5F5F5F5F5F5F5F5F5F5F5F5F5F5F5F5F5F5F5F5F5F5F5F5F5F5F5F5F5F5F5F5F5F5F5F5F5F5F5F5F5F5F5F5F5F5F5F5F5F5F5F5F5F5F5F5F5F5F5F5F5F5F5F5F5F5F5F5F528F5DCF5F5F5F5F5F5F5F5F5F5F5F5F5F5F5F5F5E2F5E2E2F5E2F5F5F5F5F5F5F5F5F5F5F5F5F5F5F5F5F5
310
DCF528F5F5F5F5DCF5F5DCF5DCF5F5F5BEF5F5F5BEBEBEBEBEF5BEF5F5F5F50FF5F5F5F5F50FF5F5F5F5F5F5F5F5F5F5F5F5F5F5F5F5F5F5F5F5F5F5F5F5F5F5F5F5F5F5F5F5F5F5F5F5F5F5F5F5F5F5F5F5F5F5F5F5F5F5F5F5F5F5F5F5F5F5F5F5F5F5F5F5F5F5F5F5F5F5F5F5F5F5F5F5F5F5F5F5F5F5F5F5F5F5F5F5F5
310
F5F5F5F5F5F5F5F5F5F528F5DCF5F5F5F5F5F5F5F5F5F5F5F5F5F5F5F5F5E2F5E2E2F5E2F5F5F5F5F5F5F5F5F5F5F5F5F5F5F5F5F5DCF528F5F5F5DCF5F5DCF5F5DCF5F5F5F5BEF5F5F5F5F5F5F5F5BEBEF5F5F50FF5F5F5F5F50FF5F5F5F5F5F5F5F5F5F5F5F5F5F5F5F5F5F5F5F5F5F5F5F5F5F5F5F5F5F5F5F5F5F5F5F5
310
F5F5F5F5F5F5F5F5F5F5F5F5F5F5F5F5F5F5F5F5F5F5F5F5F5F5F5F5F5F5F5F5F5F5F5F5F5F5F5F5F5F5F5F5F5F5F5F5F5F5F5F5F5F5F5F5F5F5F5F5F5F5F528F5DCF5F5F5F5F5F5F5F5F5F5F5F5F5F5F5F5F5E2F5E2E2F5E2F5F5F5F5F5F5F5F5F5F5F5F5F5F5F5F5F5DCF528F5F5F5F5F5DCF5F5F5DCF5F5F5F5F5BEBEBE
310
F5F5F5F5F5F5F5BEBEF50FF5F5F5F5F50FF5F5F5F5F5F5F5F5F5F5F5F5F5F5F5F5F5F5F5F5F5F5F5F5F5F5F5F5F5F5F5F5F5F5F5F5F5F5F5F5F5F5F5F5F5F5F5F5F5F5F5F5F5F5F5F5F5F5F5F5F5F5F5F5F5F5F5F5F5F5F5F5F5F5F5F5F5F5F5F5F5F5F5F5F5F5F5F5F5F5F5F5F5F5F5F5F5F5F528F5DCF5F5F5F5F5F5F5F5
310
F5F5F5F5F5F5F5F5F5E2F5E2E2F5E2F5F5F5F5F5F5F5F5F5F5F5F5F5F5F5F5F5DCF528F5F5F5F5DCF5F5F5DCDCF5F5F5F5F5F5F5F5BEBEF5F5F5F5F5F5BEF50FF5F5F5F5F50FF5F5F5F5F5F5F5F5F5F5F5F5F5F5F5F5F5F5F5F5F5F5F5F5F5F5F5F5F5F5F5F5F5F5F5F5F5F5F5F5F5F5F5F5F5F5F5F5F5F5F5F5F5F5F5F5F5
310
F5F5F5F5F5F5F5F5F5F5F5F5F5F5F5F5F5F5F5F5F5F5F5F5F5F5F5F5F5F5F5F5F5F5F5F5F5F5F5F5F5F528F5DCF5F5F5F5F5F5F5F5F5F5F5F5F5F5F5F5F5E2F5E2E2F5E2F5F5F5F5F5F5F5F5F5F5F5F5F5F5F5F5F5DCF528F5F5F5DCF5F5F5DCF5DCF5F5F5F5F5F5F5F5F5BEBEF5F5F5F5F5F5BE1BF5F5F5F5F50FF5F5F5F5
310
F5F5F5F5F5F5F5F5F5F5F5F5F5F5F5F5F5F5F5F5F5F5F5F5F5F5F5F5F5F5F5F5F5F5F5F5F5F5F5F5F5F5F5F5F5F5F5F5F5F5F5F5F5F5F5F5F5F5F5F5F5F5F5F5F5F5F5F5F5F5F5F5F5F5F5F5F5F5F5F5F5F5F5F5F5F5F5F5F5F5F5F5F5F5F528F5DCF5F5F5F5F5F5F5F5F5F5F5F5F5F5F5F5F5E2F5E2E2F5E2F5F5F5F5F5F5
310
F5F5F5F5F5F5F5F5F5F5F5DCF528F5F5F5F5F5DCDCF5F5DCF5F5F5F5F5F5F5F5F5F5BEF5F5F5F5F5F5F5BEF5F5F5F5F50F0FF5F5F5F5F5F5F5F5F5F5F5F5F5F5F5F5F5F5F5F5F5F5F5F5F5F5F5F5F5F5F5F5F5F5F5F5F5F5F5F5F5F5F5F5F5F5F5F5F5F5F5F5F5F5F5F5F5F5F5F5F5F5F5F5F5F5F5F5F5F5F5F5F5F5F5F5F5
310
F5F5F5F5F5F5F5F5F5F5F5F5F5F5F5F5F5F5F5F5F528F5DCF5F5F5F5F5F5F5F5F5F5F5F5F5F5F5F5F5E2F5E2E2F5E2F5F5F5F5F5F5F5F5F5F5F5F5F5F5F5F5F5DCF528F5F5F5F5DCF5F5F5DCDCDCDCDCDCDCDCDCDCDCDCDCDCDCDCDCDCDCDCDCDCDCDCDCDCDCDCDCF5F5F5F5F5F5F5F5F5F5F5F5F5F5F5F5F5F5F5F5F5F5F5
310
F5F5F5F5F5F5F5F5F5F5F5F5F5F5F5F5F5F5F5F5F5F5F5F5F5F5F5F5F5F5F5F5F5F5F5F5F5F5F5F5F5F5F5F5F5F5F5F5F5F5F5F5F5F5F5F5F5F5F5F5F5F5F5F5F5F5F5F5F5F5F5F5F5F528F5DCF5F5F5F5F5F5F5F5F5F5F5F5F5F5F5F5F5E2F5E2E2F5E2F5F5F5F5F5F5F5F5F5F5F5F5F5F5F5F5F5DCF528F5F5F5DCF5F5F5
310
DCF5F5DCF5F5DCF5F5F5DCF5F5DCF5F5DCF5F5DCF5F5DCF5F5DCF5F5F5F5F5F5F5F5F5F5F5F5F5F5F5F5F5F5F5F5F5F5F5F5F5F5F5F5F5F5F5F5F5F5F5F5F5F5F5F5F5F5F5F5F5F5F5F5F5F5F5F5F5F5F5F5F5F5F5F5F5F5F5F5F5F5F5F5F5F5F5F5F5F5F5F5F5F5F5F5F5F5F5F5F5F5F5F5F5F5F5F5F5F5F5F5F5F5F5F5F5
310
28F5DCF5F5F5F5F5F5F5F5F5F5F5F5F5F5F5F5F5E2F5E2E2F5E2F5F5F5F5F5F5F5F5F5F5F5F5F5F5F5F5F5DCF528F5F5F5F5F5DCDCF5F5DCF5F5DCF5F5F5DCF5F5DCF5F5DCF5F5DCF5F5DCF5F5DCF5F5F5F5F5F5F5F5F5F5F5F5F5F5F5F5F5F5F5F5F5F5F5F5F5F5F5F5F5F5F5F5F5F5F5F5F5F5F5F5F5F5F5F5F5F5F5F5F5
310
F5F5F5F5F5F5F5F5F5F5F5F5F5F5F5F5F5F5F5F5F5F5F5F5F5F5F5F5F5F5F5F5F5F5F5F5F5F5F5F5F5F5F5F5F5F5F5F5F5F5F5F5F528F5DCF5F5F5F5F5F5F5F5F5F5F5F5F5F5F5F5F5E2F5E2E2F5E2F5F5F5F5F5F5F5F5F5F5F5F5F5F5F5F5F5DCF528F5F5F5F5DCF5F5F5DCF5F5DCF5F5DCDCF5DCDCF5DCDCF5F5DCF5F5DC
310
F5F5DCF5F5F5F5F5F5F5F5F5F5F5F5F5F5F5F5F5F5F5F5F5F5F5F5F5F5F5F5F5F5F5F5F5F5F5F5F5F5F5F5F5F5F5F5F5F5F5F5F5F5F5F5F5F5F5F5F5F5F5F5F5F5F5F5F5F5F5F5F5F5F5F5F5F5F5F5F5F5F5F5F5F5F5F5F5F5F5F5F5F5F5F5F5F5F5F5F5F5F5F5F5F5F528F5DCF5F5F5F5F5F5F5F5F5F5F5F5F5F5F5F5F5E2
310
F5E2E2F5E2F5F5F5F5F5F5F5F5F5F5F5F5F5F5F5F5F5DCF528F5F5F5DCF5F5F5DCF5F5DCF5F5DCF5F5DCF5F5DCF5F5F5DCF5F5DCF5F5DCF5F5F5DCF5F5F5F5F5F5F5F5F5F5F5F5F5F5F5F5F5F5F5F5F5F5F5F5F5F5F5F5F5F5F5F5F5F5F5F5F5F5F5F5F5F5F5F5F5F5F5F5F5F5F5F5F5F5F5F5F5F5F5F5F5F5F5F5F5F5F5F5
310
F5F5F5F5F5F5F5F5F5F5F5F5F5F5F5F5F5F5F5F5F5F5F5F5F5F5F5F5F5F5F5F528F5DCF5F5F5F5F5F5F5F5F5F5F5F5F5F5F5F5F5E2F5E2E2F5F5F5F5F5F5F5F5F5F5F5F5F5F5F5F5F5F5F5DCF528F5F5F5F5F5F5DCF5F5DCF5F5DCF5F5DCF5F5DCF5F5F5DCF5F5DCF5F5DCF5F5DCDCF5F5F5F5F5F5F5F5F5F5F5F5F5F5F5F5
310
F5F5F5F5F5F5F5F5F5F5F5F5F5F5F5F5F5F5F5F5F5F5F5F5F5F5F5F5F5F5F5F5F5F5F5F5F5F5F5F5F5F5F5F5F5F5F5F5F5F5F5F5F5F5F5F5F5F5F5F5F5F5F5F5F5F5F5F5F5F5F5F5F5F5F5F5F5F5F5F5F5F5F5F5F528F5DCF5F5F5F5F5F5F5F5F5F5F5F5F5F5F5F5F5F5F5E2E2F5F5F5F5F5F5F5F5F5F5F5F5F5F5F5F5F5F5
310
F5DCF528F5F5F5F5F5F5F5F5F5F5F5F5F5F5F5F5F5F5F5F5F5F5F5F5F5F5F5F5F5F5F5F5F5F5F5F5F5F5F5F5F5F5F5F5F5F5F5F5F5F5F5F5F5F5F5F5F5F5F5F5F5F5F5F5F5F5F5F5F5F5F5F5F5F5F5F5F5F5F5F5F5F5F5F5F5F5F5F5F5F5F5F5F5F5F5F5F5F5F5F5F5F5F5F5F5F5F5F5F5F5F5F5F5F5F5F5F5F5F5F5F5F5F5
310
F5F5F5F5F5F5F5F5F5F5F528F5DCF5F5F5F5F5F5F5F5F5F5F5F5F5F5F5F5F5F5F5E2E2F5F5F5F5F5F5F5F5F5F5F5F5F5F5F5F5F5F5F5DCF528F5F5F5F5F5F5F5F5F5F5F5F5F5F5F5F5F5F5F5F5F5F5F5F5F5F5F5F5F5F5F5F5F5F5F5F5F5F5F5F5F5F5F5F5F5F5F5F5F5F5F5F5F5F5F5F5F5F5F5F5F5F5F5F5F5F5F5F5F5F5
310
F5F5F5F5F5F5F5F5F5F5F5F5F5F5F5F5F5F5F5F5F5F5F5F5F5F5F5F5F5F5F5F5F5F5F5F5F5F5F5F5F5F5F5F5F5F5F5F5F5F5F5F5F5F5F5F5F5F5F5F5F5F5F5F528F5DCF5F5F5F5F5F5F5F5F5F5F5F5F5F5F5F5F5F5F5E2E2F5F5F5F5F5F5F5F5F5F5F5F5F5F5F5F5F5F5F5DCF528F5F5F5F5F5F5F5F5F5F5F5F5F5F5F5F5F5
310
F5F5F5F5F5F5F5F5F5F5F5F5F5F5F5F5F5F5F5F5F5F5F5F5F5F5F5F5F5F5F5F5F5F5F5F5F5F5F5F5F5F5F5F5F5F5F5F5F5F5F5F5F5F5F5F5F5F5F5F5F5F5F5F5F5F5F5F5F5F5F5F5F5F5F5F5F5F5F5F5F5F5F5F5F5F5F5F5F5F5F5F5F5F5F5F5F5F5F5F5F5F5F5F5F5F5F5F5F5F5F5F5F5F5F5F5F528F5DCF5F5F5F5F5F5F5
310
F5F5F5F5F5F5F5F5F5F5F5F5E2E2F5F5F5F5F5F5F5F5F5F5F5F5F5F5F5F5F5F5F5DCF528F5F5F5F5F5F5F5F5F5F5F5F5F5F5F5F5F5F5F5F5F5F5F5F5F5F5F5F5F5F5F5F5F5F5F5F5F5F5F5F5F5F5F5F5F5F5F5F5F5F5F5F5F5F5F5F5F5F5F5F5F5F5F5F5F5F5F5F5F5F5F5F5F5F5F5F5F5F5F5F5F5F5F5F5F5F5F5F5F5F5F5
310
F5F5F5F5F5F5F5F5F5F5F5F5F5F5F5F5F5F5F5F5F5F5F5F5F5F5F5F5F5F5F5F5F5F5F5F5F5F5F5F5F5F5F528F5DCF5F5F5F5F5F5F5F5F5F5F5F5F5F5F5F5F5F5F5E2E2F5F5F5F5F5F5F5F5F5F5F5F5F5F5F5F5F5F5F5DCF528F5F5F5F5F5F5F5F5F5F5F5F5F5F5F5F5F5F5F5F5F5F5F5F5F5F5F5F5F5F5F5F5F5F5F5F5F5F5
310
F5F5F5F5F5F5F5F5F5F5F5F5F5F5F5F5F5F5F5F5F5F5F5F5F5F5F5F5F5F5F5F5F5F5F5F5F5F5F5F5F5F5F5F5F5F5F5F5F5F5F5F5F5F5F5F5F5F5F5F5F5F5F5F5F5F5F5F5F5F5F5F5F5F5F5F5F5F5F5F5F5F5F5F5F5F5F5F5F5F5F5F5F5F5F5F528F5DCF5F5F5F5F5F5F5F5F5F5F5F5F5F5F5F5F5F5F5E2E2F5F5F5F5F5F5F5
310
F5F5F5F5F5F5F5F5F5F5F5F5DCF528F5F5F5F5F5F5F5F5F5F5F5F5F5F5F5F5F5F5F5F5F5F5F5F5F5F5F5F5F5F5F5F5F5F5F5F5F5F5F5F5F5F5F5F5F5F5F5F5F5F5F5F5F5F5F5F5F5F5F5F5F5F5F5F5F5F5F5F5F5F5F5F5F5F5F5F5F5F5F5F5F5F5F5F5F5F5F5F5F5F5F5F5F5F5F5F5F5F5F5F5F5F5F5F5F5F5F5F5F5F5F5F5
310
F5F5F5F5F5F5F5F5F5F5F5F5F5F5F5F5F5F5F5F5F5F528F5DCF5F5F5F5F5F5F5F5F5F5F5F5F5F5F5F5F5F5F5E2E2F5F5F5F5F5F5F5F5F5F5F5F5F5F5F5F5F5F5F5DCF528F5F5F5F5F5F5F5F5F5F5F5F5F5F5F5F5F5F5F5F5F5F5F5F5F5F5F5F5F5F5F5F5F5F5F5F5F5F5F5F5F5F5F5F5F5F5F5F5F5F5F5F5F5F5F5F5F5F5F5
310
F5F5F5F5F5F5F5F5F5F5F5F5F5F5F5F5F5F5F5F5F5F5F5F5F5F5F5F5F5F5F5F5F5F5F5F5F5F5F5F5F5F5F5F5F5F5F5F5F5F5F5F5F5F5F5F5F5F5F5F5F5F5F5F5F5F5F5F5F5F5F5F5F5F5F528F5DCF5F5F5F5F5F5F5F5F5F5F5F5F5F5F5F5F5F5F5E2E2F5E2F5F5F5F5F5F5F5F5F5F5F5F5F5F5F5F5F5DCF528F5F5F5F5F5F5
310
F5F5F5F5F5F5F5F5F5F5F5F5F5F5F5F5F5F5F5F5F5F5F5F5F5F5F5F5F5F5F5F5F5F5F5F5F5F5F5F5F5F5F5F5F5F5F5F5F5F5F5F5F5F5F5F5F5F5F5F5F5F5F5F5F5F5F5F5F5F5F5F5F5F5F5F5F5F5F5F5F5F5F5F5F5F5F5F5F5F5F5F5F5F5F5F5F5F5F5F5F5F5F5F5F5F5F5F5F5F5F5F5F5F5F5F5F5F5F5F5F5F5F5F5F5F5F5
310
F528F5DCF5F5F5F5F5F5F5F5F5F5F5F5F5F5F5F5F5E2F5E2E2F5E2F5F5F5F5F5F5F5F5F5F5F5F5F5F5F5F5F5DCF528F5F5F5F5F5F5F5F5F5F5F5F5F5F5F5F5F5F5F5F5F5F5F5F5F5F5F5F5F5F5F5F5F5F5F5F5F5F5F5F5F5F5F5F5F5F5F5F5F5F5F5F5F5F5F5F5F5F5F5F5F5F5F5F5F5F5F5F5F5F5F5F5F5F5F5F5F5F5F5F5
310
F5F5F5F5F5F5F5F5F5F5F5F5F5F5F5F5F5F5F5F5F5F5F5F5F5F5F5F5F5F5F5F5F5F5F5F5F5F5F5F5F5F5F5F5F5F5F5F5F5F5F5F5F5F528F5DCF5F5F5F5F5F5F5F5F5F5F5F5F5F5F5F5F5E2F5E2E2F5E2F5F5F5F5F5F5F5F5F5F5F5F5F5F5F5F5F5DCF528F5F5F5F5F5F5F5F5F5F5F5F5F5F5F5F5F5F5F5F5F5F5F5F5F5F5F5
310
F5F5F5F5F5F5F5F5F5F5F5F5F5F5F5F5F5F5F5F5F5F5F5F5F5F5F5F5F5F5F5F5F5F5F5F5F5F5F5F5F5F5F5F5F5F5F5F5F5F5F5F5F5F5F5F5F5F5F5F5F5F5F5F5F5F5F5F5F5F5F5F5F5F5F5F5F5F5F5F5F5F5F5F5F5F5F5F5F5F5F5F5F5F5F5F5F5F5F5F5F5F5F5F5F5F5F528F5DCF5F5F5F5F5F5F5F5F5F5F5F5F5F5F5F5F5
310
E2F5E2E2F5E2F5F5F5F5F5F5F5F5F5F5F5F5F5F5F5F5F5DCF528F5F5F5F5F5F5F5F5F5F5F5F5F5F5F5F5F5F5F5F5F5F5F5F5F5F5F5F5F5F5F5F5F5F5F5F5F5F5F5F5F5F5F5F5F5F5F5F5F5F5F5F5F5F5F5F5F5F5F5F5F5F5F5F5F5F5F5F5F5F5F5F5F5F5F5F5F5F5F5F5F5F5F5F5F5F5F5F5F5F5F5F5F5F5F5F5F5F5F5F5F5
310
F5F5F5F5F5F5F5F5F5F5F5F5F5F5F5F5F5F5F5F5F5F5F5F5F5F5F5F5F5F5F5F5F528F5DCF5F5F5F5F5F5F5F5F5F5F5F5F5F5F5F5F5E2F5E2E2F5E2F5F5F5F5F5F5F5F5F5F5F5F5F5F5F5F5F5DCF528F5F5F5F5F5F5F5F5F5F5F5F5F5F5F5F5F5F5F5F5F5F5F5F5F5F5F5F5F5F5F5F5F5F5F5F5F5F5F5F5F5F5F5F5F5F5F5F5
310
F5F5F5F5F5F5F5F5F5F5F5F5F5F5F5F5F5F5F5F5F5F5F5F5F5F5F5F5F5F5F5F5F5F5F5F5F5F5F5F5F5F5F5F5F5F5F5F5F5F5F5F5F5F5F5F5F5F5F5F5F5F5F5F5F5F5F5F5F5F5F5F5F5F5F5F5F5F5F5F5F5F5F5F5F5F528F5DCF5F5F5F5F5F5F5F5F5F5F5F5F5F5F5F5F5E2F5E2E2F5E2F5F5F5F5F5F5F5F5F5F5F5F5F5F5F5
310
F5F5DCF528F5F5F5F5F5F5F5F5F5F5F5F5F5F5F5F5F5F5F5F5F5F5F5F5F5F5F5F5F5F5F5F5F5F5F5F5F5F5F5F5F5F5F5F5F5F5F5F5F5F5F5F5F5F5F5F5F5F5F5F5F5F5F5F5F5F5F5F5F5F5F5F5F5F5F5F5F5F5F5F5F5F5F5F5F5F5F5F5F5F5F5F5F5F5F5F5F5F5F5F5F5F5F5F5F5F5F5F5F5F5F5F5F5F5F5F5F5F5F5F5F5F5
310
F5F5F5F5F5F5F5F5F5F5F5F528F5DCF5F5F5F5F5F5F5F5F5F5F5F5F5F5F5F5F5E2F5E2E2F5E2F5F5F5F5F5F5F5F5F5F5F5F5F5F5F5F5F5DCF528F5F5F5F5F5F5F5F5F5F5F5F5F5F5F5F5F5F5F5F5F5F5F5F5F5F5F5F5F5F5F5F5F5F5F5F5F5F5F5F5F5F5F5F5F5F5F5F5F5F5F5F5F5F5F5F5F5F5F5F5F5F5F5F5F5F5F5F5F5
310
F5F5F5F5F5F5F5F5F5F5F5F5F5F5F5F5F5F5F5F5F5F5F5F5F5F5F5F5F5F5F5F5F5F5F5F5F5F5F5F5F5F5F5F5F5F5F5F5F5F5F5F5F5F5F5F5F5F5F5F5F5F5F5F5F528F5DCF5F5F5F5F5F5F5F5F5F5F5F5F5F5F5F5F5E2F5E2E2F5E2F5F5F5F5F5F5F5F5F5F5F5F5F5F5F5F5F5DCF528F5F5F5F5F5F5F5F5F5F5F5F5F5F5F5F5
310
F5F5F5F5F5F5F5F5F5F5F5F5F5F5F5F5F5F5F5F5F5F5F5F5F5F5F5F5F5F5F5F5F5F5F5F5F5F5F5F5F5F5F5F5F5F5F5F5F5F5F5F5F5F5F5F5F5F5F5F5F5F5F5F5F5F5F5F5F5F5F5F5F5F5F5F5F5F5F5F5F5F5F5F5F5F5F5F5F5F5F5F5F5F5F5F5F5F5F5F5F5F5F5F5F5F5F5F5F5F5F5F5F5F5F5F5F5F528F5DCF5F5F5F5F5F5
310
F5F5F5F5F5F5F5F5F5F5F5E2F5E2E2F5E2F5F5F5F5F5F5F5F5F5F5F5F5F5F5F5F5F5DCF528282828282828282828282828282828282828282828282828282828282828282828282828282828282828282828282828282828282828282828282828282828282828282828282828282828282828282828282828282828282828
310
282828282828282828282828282828282828282828282828282828282828282828282828282828282828282828F5DCF5F5F5F5F5F5F5F5F5F5F5F5F5F5F5F5F5E2F5E2E2F5E2F5F5F5F5F5F5F5F5F5F5F5F5F5F5F5F5F5DCF528F5F5F5F5F5F5F5F5F5F5F5F5F5F5F5F5F5F5F5F5F5F5F5F5F5F5F5F5F5F5F5F5F5F5F5F5F5
310
F5F5F5F5F5F5F5F5F5F5F5F5F5F5F5F5F5F5F5F5F5F5F5F5F5F5F5F5F528F5F5F5F5F5F5F5F5F5F5F5F5F5F5F5F5F5F5F5F5F5F5F5F5F5F5F5F5F5F5F5F5F5F5F5F5F5F5F5F5F5F5F5F5F5F5F5F5F5F5F5F5F5F5F5F5F5F5F5F5F5F5F5F5F5F5F528F5DCF5F5F5F5F5F5F5F5F5F5F5F5F5F5F5F5F5E2F5E2E2F5E2F5F5F5F5
310
F5F5F5F5F5F5F5F5F5F5F5F5F5DCF528F5F5F5F5F5F5F5F5F5F5F5F5F52D2D2D2D2D2D2D2D2D2D2D2D2D2D2D2D2D2D2D2D2D2D2D2D2D2D2D2D2D2D2D2D2D2D2D2D2D2DF5F5F5F5F5F5F5F5F5F5F5F5F5F5F528F5F5F52D2D2D2DF52D2D2D2D2D2DF5F5F5F5F5F5F5F5F5F5F5F5F5F5F5F5F5F5F5F5F5F5F5F5F5F5F5F5F5F5
310
F5F5F5F5F5F5F5F5F5F5F5F5F5F5F5F5F5F5F5F5F5F5F528F5DCF5F5F5F5F5F5F5F5F5F5F5F5F5F5F5F5F5E2F5E2E2F5E2F5F5F5F5F5F5F5F5F5F5F5F5F5F5F5F5F5DCF528F5F5F5F5F5F5F5F5F5F5F5F5F52D2D2D2D2D2D2D2D2D2D2D2D2D2D2D2D2D2D2D2D2D2D2D2D2D2D2D2D2D2D2D2D2D2D2D2D2D2DF5F5F5F5F5F5F5
310
F5F5F5F5F5F5F5F528F5F5F52D2D2D2DF52D2D2D2DF52DF5F5F5F5F5F5F5F5F5F5F5F5F5F5F5F5F5F5F5F5F5F5F5F5F5F5F5F5F5F5F5F5F5F5F5F5F5F5F5F5F5F5F5F5F5F5F5F5F5F5F5F5F528F5DCF5F5F5F5F5F5F5F5F5F5F5F5F5F5F5F5F5E2F5E2E2F5E2F5F5F5F5F5F5F5F5F5F5F5F5F5F5F5F5F5DCF528F5F5F5F5F5
310
F5F5F5F5F5F5F5F5F5F5F5F5F5F5F5F5F5F5F5F5F5F5F5F5F5F5F5F5F5F5F5F5F5F5F5F5F5F5F5F5F5F5F5F5F5F5F5F5F5F5F5F5F5F5F5F5F5F5F5F5F528F5F5F5F5F5F5F5F5F5F5F5F5F5F5F5F5F5F5F5F5F5F5F5F5F5F5F5F5F5F5F5F5F5F5F5F5F5F5F5F5F5F5F5F5F5F5F5F5F5F5F5F5F5F5F5F5F5F5F5F5F5F5F5F5F5
310
F5F528F5DCF5F5F5F5F5F5F5F5F5F5F5F5F5F5F5F5F5E2F5E2E2F5E2F5F5F5F5F5F5F5F5F5F5F5F5F5F5F5F5F5DCF52828282828282828282828282828282828282828282828282828282D2D2D2D2D2D2D2D2D2D2D2D2D28282828282828282828282828282828282828282828282828282828282828282828282828282828
310
2828282828282828282828282828282828282828282828282828282828282828282828282828282828282828282828282828282828282828F5DCF5F5F5F5F5F5F5F5F5F5F5F5F5F5F5F5F5E2F5E2E2F5E2F5F5F5F5F5F5F5F5F5F5F5F5F5F5F5F5F5DCF528F5F5F5F5F5F5F5F5F5F5F5F5F5F5F5F5F5F5F5F5F5F5F5F5F5F5
310
2D2D2D2D2D2D2D2D2D2D2D2D2DF5F5F5F5F5F5F5F5F5F5F5F5F5F5F5F5F5F5F5F5F5F5F5F5F5F5F528F5F5F52D2D2D2D2D2D2D2D2D2D2DF5F52D2D2D2D2D2D2D2D2D2DF5F5F5F5F5F5F5F5F5F5F5F5F5F5F5F5F5F5F5F5F5F5F5F5F5F5F5F5F5F5F5F5F5F5F5F5F5F5F5F5F528F5DCF5F5F5F5F5F5F5F5F5F5F5F5F5F5F5F5
310
F5E2F5E2E2F5E2F5F5F5F5F5F5F5F5F5F5F5F5F5F5F5F5F5DCF528F5F5F5F5F5F5F5F5F5F5F5F5F5F5F5F5F5F5F5F5F5F5F5F5F5F52D2D2D2D2D2D2D2D2D2D2D2D2DF5F5F5F5F5F5F5F5F5F5F5F5F5F5F5F5F5F5F5F5F5F5F5F5F5F5F528F5F5F52D2D2D2D2D2D2D2D2D2D2DF52D2D2D2D2D2D2D2D2D2D2DF5F5F5F5F5F5F5
310
F5F5F5F5F5F5F5F5F5F5F5F5F5F5F5F5F5F5F5F5F5F5F5F5F5F5F5F5F5F5F5F5F5F528F5DCF5F5F5F5F5F5F5F5F5F5F5F5F5F5F5F5F5E2F5E2E2F5F5F5F5F5F5F5F5F5F5F5F5F5F5F5F5F5F5F5DCF528F5F5F5F5F5F5F5F5F5F5F5F5F5F5F5F5F5F5F5F5F5F5F5F5F5F5F5F5F5F5F5F5F5F5F5F5F5F5F5F5F5F5F5F5F5F5F5
310
F5F5F5F5F5F5F5F5F5F5F5F5F5F5F5F5F5F5F528F5F5F5F5F5F5F5F5F5F5F5F5F5F5F5F5F5F5F5F5F5F5F5F5F5F5F5F5F5F5F5F5F5F5F5F5F5F5F5F5F5F5F5F5F5F5F5F5F5F5F5F5F5F5F5F5F5F5F5F5F5F5F5F5F5F5F528F5DCF5F5F5F5F5F5F5F5F5F5F5F5F5F5F5F5F5F5F5E2E2F5F5F5F5F5F5F5F5F5F5F5F5F5F5F5F5
310
F5F5F5DCF52828282828282828282828282828282828282828282828282828282828282828282828282828282828282828282828282828282828282828282828282828282828282828282828282828282828282828282828282828282828282828282828282828282828282828282828282828282828282828282828282828
310
2828282828282828282828282828F5DCF5F5F5F5F5F5F5F5F5F5F5F5F5F5F5F5F5F5F5E2E2F5F5F5F5F5F5F5F5F5F5F5F5F5F5F5F5F5F5F5DCF5F5F5F5F5F5F5F5F5F5F5F5F5F5F5F5F5F5F5F5F5F5F5F5F5F5F5F5F5F5F5F5F5F5F5F5F5F5F5F5F5F5F5F5F5F5F5F5F5F5F5F5F5F5F5F5F5F5F5F5F5F5F5F5F5F5F5F5F5F5
310
F5F5F5F5F5F5F5F5F5F5F5F5F5F5F5F5F5F5F5F5F5F5F5F5F5F5F5F5F5F5F5F5F5F5F5F5F5F5F5F5F5F5F5F5F5F5F5F5F5F5F5F5F5F5F5F5F5F5F5F5F5F5F5F5F5F5F5F5DCF5F5F5F5F5F5F5F5F5F5F5F5F5F5F5F5F5F5F5E2E2F5F5F5F5F5F5F5F5F5F5F5F5F5F5F5F5F5F5F5DCDCDCDCDCDCDCDCDCDCDCDCDCDCDCDCDCDC
310
DCDCDCDCDCDCDCDCDCDCDCDCDCDCDCDCDCDCDCDCDCDCDCDCDCDCDCDCDCDCDCDCDCDCDCDCDCDCDCDCDCDCDCDCDCDCDCDCDCDCDCDCDCDCDCDCDCDCDCDCDCDCDCDCDCDCDCDCDCDCDCDCDCDCDCDCDCDCDCDCDCDCDCDCDCDCDCDCDCDCDCDCDCDCDCDCDCDCDCDCDCDCDCDCDCDCDCDCDCDCDCDCDCDCDCDCDCDCDCDCDCDCF5F5F5F5F5
310
F5F5F5F5F5F5F5F5F5F5F5F5F5F5E2E2F5F5F5F5F5F5F5F5F5F5F5F5F5F5F5F5F5F5F5DCDCDCDCDCDCDCDCDCDCDCDCDCDCDCDCDCDCDCDCDCDCDCDCDCDCDCDCDCDCDCDCDCDCDCDCDCDCDCDCDCDCDCDCDCDCDCDCDCDCDCDCDCDCDCDCDCDCDCDCDCDCDCDCDCDCDCDCDCDCDCDCDCDCDCDCDCDCDCDCDCDCDCDCDCDCDCDCDCDCDCDC
310
DCDCDCDCDCDCDCDCDCDCDCDCDCDCDCDCDCDCDCDCDCDCDCDCDCDCDCDCDCDCDCDCDCDCDCDCDCDCDCDCDCDCDCDCDCDCDCDCF5F5F5F5F5F5F5F5F5F5F5F5F5F5F5F5F5F5F5E2E2F5F5F5F5F5F5F5F5F5F5F5F5F5F5F5F5F5F5F5F5F5F5F5F5F5F5F5F5F5F5F5F5F5F5F5F5F5F5F5F5F5F5F5F5F5F5F5F5F5F5F5F5F5F5F5F5F5F5
310
F5F5F5F5F5F5F5F5F5F5F5F5F5F5F5F5F5F5F5F5F5F5F5F5F5F5F5F5F5F5F5F5F5F5F5F5F5F5F5F5F5F5F5F5F5F5F5F5F5F5F5F5F5F5F5F5F5F5F5F5F5F5F5F5F5F5F5F5F5F5F5F5F5F5F5F5F5F5F5F5F5F5F5F5F5F5F5F5F5F5F5F5F5F5F5F5F5F5F5F5F5F5F5F5F5F5F5F5F5F5F5F5F5F5F5F5F5F5F5F5E2E2F5F5F5F5F5
310
F5F5F5F5F5F5F5F5F5F5F5F5F5F5F5F5F5F5F5F5F5F5F5F5F5F5F5F5F5F5F5F5F5F5F5F5F5F5F5F5F5F5F5F5F5F5F5F5F5F5F5F5F5F5F5F5F5F5F5F5F5F5F5F5F5F5F5F5F5F5F5F5F5F5F5F5F5F5F5F5F5F5F5F5F5F5F5F5F5F5F5F5F5F5F5F5F5F5F5F5F5F5F5F5F5F5F5F5F5F5F5F5F5F5F5F5F5F5F5F5F5F5F5F5F5F5F5
310
F5F5F5F5F5F5F5F5F5F5F5F5F5F5F5F5F5F5F5F5F5F5F5F5F5F5F5F5F5F5F5F5F5F5F5F5F5F5F5F5F5F5F5F5F5F5E2E2F5F5F5F5F5F5F5F5F5F5F5F5F5F5F5F5F5F5F5F5F5F5F5F5F5F5F5F5F5F5F5F5F5F5F5F5F5F5F5F5F5F5F5F5F5F5F5F5F5F5F5F5F5F5F5F5F5F5F5F5F5F5F5F5F5F5F5F5F5F5F5F5F5F5F5F5F5F5F5
310
F5F5F5F5F5F5F5F5F5F5F5F5F5F5F5F5F5F5F5F5F5F5F5F5F5F5F5F5F5F5F5F5F5F5F5F5F5F5F5F5F5F5F5F5F5F5F5F5F5F5F5F5F5F5F5F5F5F5F5F5F5F5F5F5F5F5F5F5F5F5F5F5F5F5F5F5F5F5F5F5F5F5F5F5F5F5F5F5F5F5F5F5F5F5F5F5F5F5F5E2E2F5F5F5F5F5F5F5F5F5F5F5F5F5F5F5F5F5F5F5F5F5F5F5F5F5F5
310
F5F5F5F5F5F5F5F5F5F5F5F5F5F5F5F5F5F5F5F5F5F5F5F5F5F5F5F5F5F5F5F5F5F5F5F5F5F5F5F5F5F5F5F5F5F5F5F5F5F5F5F5F5F5F5F5F5F5F5F5F5F5F5F5F5F5F5F5F5F5F5F5F5F5F5F5F5F5F5F5F5F5F5F5F5F5F5F5F5F5F5F5F5F5F5F5F5F5F5F5F5F5F5F5F5F5F5F5F5F5F5F5F5F5F5F5F5F5F5F5F5F5F5F5F5F5F5
310
F5F5F5F5F5F5F5F5F5F5F5F5F5F5F5F5F5F5F5F5F5F5F5F5F5E2E2F5E2F5F5F5F5F5F5F5F5F5F5F5F5F5F5F5F5F5F5F5F5F5F5F5F5F5F5F5F5F5F5F5F5F5F5F5F5F5F5F5F5F5F5F5F5F5F5F5F5F5F5F5F5F5F5F5F5F5F5F5F5F5F5F5F5F5F5F5F5F5F5F5F5F5F5F5F5F5F5F5F5F5F5F5F5F5F5F5F5F5F5F5F5F5F5F5F5F5F5
310
F5F5F5F5F5F5F5F5F5F5F5F5F5F5F5F5F5F5F5F5F5F5F5F5F5F5F5F5F5F5F5F5F5F5F5F5F5F5F5F5F5F5F5F5F5F5F5F5F5F5F5F5F5F5F5F5F5F5F5F5F5F5F5F5F5F5F5F5F5F5F5F5F5F5F5F5E2F5E2E2F5E2F5F5F5F5F5F5F5F5F5F5F5F5F5F5F5F5F5F5F5F5F5F5F5F5F5F5F5F5F5F5F5F5F5F5F5F5F5F5F5F5F5F5F5F5F5
310
F5F5F5F5F5F5F5F5F5F5F5F5F5F5F5F5F5F5F5F5F5F5F5F5F5F5F5F5F5F5F5F5F5F5F5F5F5F5F5F5F5F5F5F5F5F5F5F5F5F5F5F5F5F5F5F5F5F5F5F5F5F5F5F5F5F5F5F5F5F5F5F5F5F5F5F5F5F5F5F5F5F5F5F5F5F5F5F5F5F5F5F5F5F5F5F5F5F5F5F5F5F5F5F5F5F5F5F5F5F5F5F5F5F5F5F5F5F5F5F5F5F5F5F5F5F5F5
310
F5F5E2F5E2E2F5E2F5F5F5F5F5F5F5F5F5F5F5F5F5F5F5F5F5F5F5F5F5F5F5F5F5F5F5F5F5F5F5F5F5F5F5F5F5F5F5F5F5F5F5F5F5F5F5F5F5F5F5F5F5F5F5F5F5F5F5F5F5F5F5F5F5F5F5F5F5F5F5F5F5F5F5F5F5F5F5F5F5F5F5F5F5F5F5F5F5F5F5F5F5F5F5F5F5F5F5F5F5F5F5F5F5F5F5F5F5F5F5F5F5F5F5F5F5F5F5
310
F5F5F5F5F5F5F5F5F5F5F5F5F5F5F5F5F5F5F5F5F5F5F5F5F5F5F5F5F5F5F5F5F5F5F5F5F5F5F5F5F5F5F5F5F5F5F5F5F5F5F5F5F5F5F5E2F5E2E2F5E2F5F5F5F5F5F5F5F5F5F5F5F5F5F5F5F5F5F5F5F5F5F5F5F5F5F5F5F5F5F5F5F5F5F5F5F5F5F5F5F5F5F5F5F5F5F5F5F5F5F5F5F5F5F5F5F5F5F5F5F5F5F5F5F5F5F5
310
F5F5F5F5F5F5F5F5F5F5F5F5F5F5F5F5F5F5F5F5F5F5F5F5F5F5F5F5F5F5F5F5F5F5F5F5F5F5F5F5F5F5F5F5F5F5F5F5F5F5F5F5F5F5F5F5F5F5F5F5F5F5F5F5F5F5F5F5F5F5F5F5F5F5F5F5F5F5F5F5F5F5F5F5F5F5F5F5F5F5F5F5F5F5F5F5F5F5F5F5F5F5F5F5F5F5F5F5E2F5E2E2F5E2F5F5F5F5F5F5F5F5F5F5F5F5F5
310
F5F5F5F5F5F5F5F5F5F5F5F5F5F5F5F5F5F5F5F5F5F5F5F5F5F5F5F5F5F5F5F5F5F5F5F5F5F5F5F5F5F5F5F5F5F5F5F5F5F5F5F5F5F5F5F5F5F5F5F5F5F5F5F5F5F5F5F5F5F5F5F5F5F5F5F5F5F5F5F5F5F5F5F5F5F5F5F5F5F5F5F5F5F5F5F5F5F5F5F5F5F5F5F5F5F5F5F5F5F5F5F5F5F5F5F5F5F5F5F5F5F5F5F5F5F5F5
310
F5F5F5F5F5F5F5F5F5F5F5F5F5F5F5F5F5F5F5F5F5F5F5F5F5F5F5F5F5F5F5F5F5F5E2F5E2E2F5E2F5F5F5F5F5F5F5F5F5F5F5F5F5F5F5F5F5F5F5F5F5F5F5F5F5F5F5F5F5F5F5F5F5F5F5F5F5F5F5F5F5F5F5F5F5F5F5F5F5F5F5F5F5F5F5F5F5F5F5F5F5F5F5F5F5F5F5F5F5F5F5F5F5F5F5F5F5F5F5F5F5F5F5F5F5F5F5
310
F5F5F5F5F5F5F5F5F5F5F5F5F5F5F5F5F5F5F5F5F5F5F5F5F5F5F5F5F5F5F5F5F5F5F5F5F5F5F5F5F5F5F5F5F5F5F5F5F5F5F5F5F5F5F5F5F5F5F5F5F5F5F5F5F5F5F5F5F5F5F5F5F5F5F5F5F5F5F5F5F5F5F5F5F5F5F5E2F5E2E2F5E2F5F5F5F5F5F5F5F5F5F5F5F5F5F5F5F5F5F5F5F5F5F5F5F5F5F5F5F5F5F5F5F5F5F5
310
F5F5F5F5F5F5F5F5F5F5F5F5F5F5F5F5F5F5F5F5F5F5F5F5F5F5F5F5F5F5F5F5F5F5F5F5F5F5F5F5F5F5F5F5F5F5F5F5F5F5F5F5F5F5F5F5F5F5F5F5F5F5F5F5F5F5F5F5F5F5F5F5F5F5F5F5F5F5F5F5F5F5F5F5F5F5F5F5F5F5F5F5F5F5F5F5F5F5F5F5F5F5F5F5F5F5F5F5F5F5F5F5F5F5F5F5F5F5F5F5F5F5F5F5F5F5F5
310
F5F5F5F5F5F5F5F5F5F5F5F5F5E2F5E2E2F5E2E2E2E2E2E2E2E2E2F5F5F5F5F5F5F5F5F5E2E2E2E2E2E2E2E2E2E2E2E2E2E2E2E2F5F5F5F5F5F5F5F5F5E2E2E2E2E2E2E2E2E2E2E2E2E2E2E2E2F5F5F5F5F5F5F5F5F5E2E2E2E2E2E2E2E2E2E2E2E2E2E2E2E2F5F5F5F5F5F5F5F5F5E2E2E2E2E2E2E2E2E2E2E2E2E2E2E2E2
310
F5F5F5F5F5F5F5F5F5E2E2E2E2E2E2E2E2E2E2E2E2E2E2E2E2F5F5F5F5F5F5F5F5F5E2E2E2E2E2E2E2E2E2E2E2E2E2E2E2E2F5F5F5F5F5F5F5F5F5E2E2E2E2E2E2E2E2F5E2E2F5F5F5F5F5F5F5F5F5F5F5F5F5F5F5F5F5F5F5F5F5F5F5F5F5F5F5F5F5F5F5F5F5F5F5F5F5F5F5F5F5F5F5F5F5F5F5F5F5F5F5F5F5F5F5F5F5
310
F5F5F5F5F5F5F5F5F5F5F5F5F5F5F5F5F5F5F5F5F5F5F5F5F5F5F5F5F5F5F5F5F5F5F5F5F5F5F5F5F5F5F5F5F5F5F5F5F5F5F5F5F5F5F5F5F5F5F5F5F5F5F5F5F5F5F5F5F5F5F5F5F5F5F5F5F5F5F5F5F5F5F5F5F5F5F5F5F5F5F5F5F5F5F5F5F5F5F5F5F5F5F5F5F5F5F5F5F5F5F5F5F5F5F5F5F5F5F5F5F5E2E2E2E2E2E2
310
E2E2E2E2E2E2E2E2E2E2E2E2E2E2E2E2E2E2E2E2E2E2E2E2E2E2E2E2E2E2E2E2E2E2E2E2E2E2E2E2E2E2E2E2E2E2E2E2E2E2E2E2E2E2E2E2E2E2E2E2E2E2E2E2E2E2E2E2E2E2E2E2E2E2E2E2E2E2E2E2E2E2E2E2E2E2E2E2E2E2E2E2E2E2E2E2E2E2E2E2E2E2E2E2E2E2E2E2E2E2E2E2E2E2E2E2E2E2E2E2E2E2E2E2E2E2E2
310
E2E2E2E2E2E2E2E2E2E2E2E2E2E2E2E2E2E2E2E2E2E2E2E2E2E2E2E2E2E2E2E2E2E2E2E2E2E2E2E2E2E2E2E2E2E2E2E2
  0
XRECORD
  5
C8
102
{ACAD_REACTORS
330
C7
102
}
330
C7
100
AcDbXrecord
280
     1
102
MATERIAL
148
0.0
149
0.0
149
0.0
 93
        0
 94
       63
282
     0
 72
     1
 77
     1
171
     1
175
     1
179
     1
273
     0
  0
XRECORD
  5
C6
102
{ACAD_REACTORS
330
C5
102
}
330
C5
100
AcDbXrecord
280
     1
102
MATERIAL
148
0.0
149
0.0
149
0.0
 93
        0
 94
       63
282
     0
 72
     1
 77
     1
171
     1
175
     1
179
     1
273
     0
  0
XRECORD
  5
B2
102
{ACAD_REACTORS
330
B1
102
}
330
B1
100
AcDbXrecord
280
     1
102
MATERIAL
148
0.0
149
0.0
149
0.0
 93
        0
 94
       63
282
     0
 72
     1
 77
     1
171
     1
175
     1
179
     1
273
     0
  0
XRECORD
  5
156
102
{ACAD_REACTORS
330
155
102
}
330
155
100
AcDbXrecord
280
     1
102
ACAD_ROUNDTRIP_PRE2007_TABLESTYLE
 90
        4
 91
        0
  1

 92
        4
 93
        0
  2

 94
        4
 95
        0
  3

  0
ENDSEC
  0
EOF
