  0
SECTION
  2
HEADER
  9
$ACADVER
  1
AC1018
  9
$ACADMAINTVER
 70
    76
  9
$DWGCODEPAGE
  3
ANSI_1252
  9
$LASTSAVEDBY
  1
simone
  9
$INSBASE
 10
0.0
 20
0.0
 30
0.0
  9
$EXTMIN
 10
0.0149999999999999
 20
0.015
 30
0.0
  9
$EXTMAX
 10
0.60900774846685
 20
0.282
 30
0.0
  9
$LIMMIN
 10
0.0
 20
0.0
  9
$LIMMAX
 10
1.0
 20
0.5
  9
$ORTHOMODE
 70
     0
  9
$REGENMODE
 70
     1
  9
$FILLMODE
 70
     1
  9
$QTEXTMODE
 70
     0
  9
$MIRRTEXT
 70
     0
  9
$LTSCALE
 40
1.0
  9
$ATTMODE
 70
     1
  9
$TEXTSIZE
 40
0.005
  9
$TRACEWID
 40
1.0
  9
$TEXTSTYLE
  7
style1
  9
$CLAYER
  8
Dimensione
  9
$CELTYPE
  6
ByLayer
  9
$CECOLOR
 62
     1
  9
$CELTSCALE
 40
1.0
  9
$DISPSILH
 70
     0
  9
$DIMSCALE
 40
0.001
  9
$DIMASZ
 40
1.5
  9
$DIMEXO
 40
0.0625
  9
$DIMDLI
 40
0.38
  9
$DIMRND
 40
0.0
  9
$DIMDLE
 40
0.0
  9
$DIMEXE
 40
0.18
  9
$DIMTP
 40
0.0
  9
$DIMTM
 40
0.0
  9
$DIMTXT
 40
3.0
  9
$DIMCEN
 40
0.0
  9
$DIMTSZ
 40
0.0
  9
$DIMTOL
 70
     0
  9
$DIMLIM
 70
     0
  9
$DIMTIH
 70
     1
  9
$DIMTOH
 70
     1
  9
$DIMSE1
 70
     0
  9
$DIMSE2
 70
     0
  9
$DIMTAD
 70
     0
  9
$DIMZIN
 70
     0
  9
$DIMBLK
  1
ArchTick
  9
$DIMASO
 70
     1
  9
$DIMSHO
 70
     1
  9
$DIMPOST
  1

  9
$DIMAPOST
  1

  9
$DIMALT
 70
     0
  9
$DIMALTD
 70
     2
  9
$DIMALTF
 40
25.4
  9
$DIMLFAC
 40
1.0
  9
$DIMTOFL
 70
     0
  9
$DIMTVP
 40
0.0
  9
$DIMTIX
 70
     0
  9
$DIMSOXD
 70
     0
  9
$DIMSAH
 70
     0
  9
$DIMBLK1
  1

  9
$DIMBLK2
  1

  9
$DIMSTYLE
  2
Bovelacci
  9
$DIMCLRD
 70
     5
  9
$DIMCLRE
 70
     5
  9
$DIMCLRT
 70
     4
  9
$DIMTFAC
 40
1.0
  9
$DIMGAP
 40
2.0
  9
$DIMJUST
 70
     0
  9
$DIMSD1
 70
     0
  9
$DIMSD2
 70
     0
  9
$DIMTOLJ
 70
     1
  9
$DIMTZIN
 70
     0
  9
$DIMALTZ
 70
     0
  9
$DIMALTTZ
 70
     0
  9
$DIMUPT
 70
     0
  9
$DIMDEC
 70
     2
  9
$DIMTDEC
 70
     2
  9
$DIMALTU
 70
     2
  9
$DIMALTTD
 70
     2
  9
$DIMTXSTY
  7
ROMANS
  9
$DIMAUNIT
 70
     0
  9
$DIMADEC
 70
     0
  9
$DIMALTRND
 40
0.0
  9
$DIMAZIN
 70
     0
  9
$DIMDSEP
 70
    46
  9
$DIMATFIT
 70
     3
  9
$DIMFRAC
 70
     0
  9
$DIMLDRBLK
  1

  9
$DIMLUNIT
 70
     2
  9
$DIMLWD
 70
    -2
  9
$DIMLWE
 70
    -2
  9
$DIMTMOVE
 70
     2
  9
$LUNITS
 70
     2
  9
$LUPREC
 70
     2
  9
$SKETCHINC
 40
1.0
  9
$FILLETRAD
 40
0.0
  9
$AUNITS
 70
     0
  9
$AUPREC
 70
     0
  9
$MENU
  1
.
  9
$ELEVATION
 40
0.0
  9
$PELEVATION
 40
0.0
  9
$THICKNESS
 40
0.0
  9
$LIMCHECK
 70
     0
  9
$CHAMFERA
 40
0.0
  9
$CHAMFERB
 40
0.0
  9
$CHAMFERC
 40
0.0
  9
$CHAMFERD
 40
0.0
  9
$SKPOLY
 70
     0
  9
$TDCREATE
 40
2454297.625402373
  9
$TDUCREATE
 40
2454297.542069039
  9
$TDUPDATE
 40
2454370.497298171
  9
$TDUUPDATE
 40
2454370.413964838
  9
$TDINDWG
 40
1.1636605093
  9
$TDUSRTIMER
 40
1.1636599537
  9
$USRTIMER
 70
     1
  9
$ANGBASE
 50
0.0
  9
$ANGDIR
 70
     0
  9
$PDMODE
 70
     0
  9
$PDSIZE
 40
0.0
  9
$PLINEWID
 40
0.0
  9
$SPLFRAME
 70
     0
  9
$SPLINETYPE
 70
     6
  9
$SPLINESEGS
 70
     8
  9
$HANDSEED
  5
3365
  9
$SURFTAB1
 70
     6
  9
$SURFTAB2
 70
     6
  9
$SURFTYPE
 70
     6
  9
$SURFU
 70
     6
  9
$SURFV
 70
     6
  9
$UCSBASE
  2

  9
$UCSNAME
  2

  9
$UCSORG
 10
0.0
 20
0.0
 30
0.0
  9
$UCSXDIR
 10
1.0
 20
0.0
 30
0.0
  9
$UCSYDIR
 10
0.0
 20
1.0
 30
0.0
  9
$UCSORTHOREF
  2

  9
$UCSORTHOVIEW
 70
     0
  9
$UCSORGTOP
 10
0.0
 20
0.0
 30
0.0
  9
$UCSORGBOTTOM
 10
0.0
 20
0.0
 30
0.0
  9
$UCSORGLEFT
 10
0.0
 20
0.0
 30
0.0
  9
$UCSORGRIGHT
 10
0.0
 20
0.0
 30
0.0
  9
$UCSORGFRONT
 10
0.0
 20
0.0
 30
0.0
  9
$UCSORGBACK
 10
0.0
 20
0.0
 30
0.0
  9
$PUCSBASE
  2

  9
$PUCSNAME
  2

  9
$PUCSORG
 10
0.0
 20
0.0
 30
0.0
  9
$PUCSXDIR
 10
1.0
 20
0.0
 30
0.0
  9
$PUCSYDIR
 10
0.0
 20
1.0
 30
0.0
  9
$PUCSORTHOREF
  2

  9
$PUCSORTHOVIEW
 70
     0
  9
$PUCSORGTOP
 10
0.0
 20
0.0
 30
0.0
  9
$PUCSORGBOTTOM
 10
0.0
 20
0.0
 30
0.0
  9
$PUCSORGLEFT
 10
0.0
 20
0.0
 30
0.0
  9
$PUCSORGRIGHT
 10
0.0
 20
0.0
 30
0.0
  9
$PUCSORGFRONT
 10
0.0
 20
0.0
 30
0.0
  9
$PUCSORGBACK
 10
0.0
 20
0.0
 30
0.0
  9
$USERI1
 70
     0
  9
$USERI2
 70
     0
  9
$USERI3
 70
     0
  9
$USERI4
 70
     0
  9
$USERI5
 70
     0
  9
$USERR1
 40
0.0
  9
$USERR2
 40
0.0
  9
$USERR3
 40
0.0
  9
$USERR4
 40
0.0
  9
$USERR5
 40
0.0
  9
$WORLDVIEW
 70
     1
  9
$SHADEDGE
 70
     3
  9
$SHADEDIF
 70
    70
  9
$TILEMODE
 70
     1
  9
$MAXACTVP
 70
    64
  9
$PINSBASE
 10
0.0
 20
0.0
 30
0.0
  9
$PLIMCHECK
 70
     0
  9
$PEXTMIN
 10
29.06606628894805
 20
20.36233246326446
 30
0.0
  9
$PEXTMAX
 10
261.5945966005325
 20
183.2609921693802
 30
0.0
  9
$PLIMMIN
 10
-3.17498779296875
 20
-3.174999952316281
  9
$PLIMMAX
 10
293.8356628417969
 20
206.7983276844024
  9
$UNITMODE
 70
     0
  9
$VISRETAIN
 70
     1
  9
$PLINEGEN
 70
     0
  9
$PSLTSCALE
 70
     1
  9
$TREEDEPTH
 70
  3020
  9
$CMLSTYLE
  2
Standard
  9
$CMLJUST
 70
     0
  9
$CMLSCALE
 40
20.0
  9
$PROXYGRAPHICS
 70
     1
  9
$MEASUREMENT
 70
     1
  9
$CELWEIGHT
370
    -1
  9
$ENDCAPS
280
     0
  9
$JOINSTYLE
280
     0
  9
$LWDISPLAY
290
     0
  9
$INSUNITS
 70
     4
  9
$HYPERLINKBASE
  1

  9
$STYLESHEET
  1

  9
$XEDIT
290
     1
  9
$CEPSNTYPE
380
     0
  9
$PSTYLEMODE
290
     1
  9
$FINGERPRINTGUID
  2
{4F38C4E7-9F37-4C76-96D9-79C94F9B03D9}
  9
$VERSIONGUID
  2
{ECD7EAEB-6703-456A-A31E-C2236444253D}
  9
$EXTNAMES
290
     1
  9
$PSVPSCALE
 40
0.0
  9
$OLESTARTUP
290
     0
  9
$SORTENTS
280
   127
  9
$INDEXCTL
280
     0
  9
$HIDETEXT
280
     1
  9
$XCLIPFRAME
290
     0
  9
$HALOGAP
280
     0
  9
$OBSCOLOR
 70
   257
  9
$OBSLTYPE
280
     0
  9
$INTERSECTIONDISPLAY
280
     0
  9
$INTERSECTIONCOLOR
 70
   257
  9
$DIMASSOC
280
     2
  9
$PROJECTNAME
  1

  0
ENDSEC
  0
SECTION
  2
CLASSES
  0
CLASS
  1
ACDBDICTIONARYWDFLT
  2
AcDbDictionaryWithDefault
  3
ObjectDBX Classes
 90
        0
 91
        1
280
     0
281
     0
  0
CLASS
  1
TABLESTYLE
  2
AcDbTableStyle
  3
ObjectDBX Classes
 90
     2047
 91
        1
280
     0
281
     0
  0
CLASS
  1
SORTENTSTABLE
  2
AcDbSortentsTable
  3
ObjectDBX Classes
 90
        0
 91
        2
280
     0
281
     0
  0
CLASS
  1
DICTIONARYVAR
  2
AcDbDictionaryVar
  3
ObjectDBX Classes
 90
        0
 91
        6
280
     0
281
     0
  0
CLASS
  1
DIMASSOC
  2
AcDbDimAssoc
  3
"AcDbDimAssoc|Product Desc:     AcDim ARX App For Dimension|Company:          Autodesk, Inc.|WEB Address:      www.autodesk.com"
 90
        0
 91
        2
280
     0
281
     0
  0
CLASS
  1
ACDBPLACEHOLDER
  2
AcDbPlaceHolder
  3
ObjectDBX Classes
 90
        0
 91
        1
280
     0
281
     0
  0
CLASS
  1
LAYOUT
  2
AcDbLayout
  3
ObjectDBX Classes
 90
        0
 91
        3
280
     0
281
     0
  0
CLASS
  1
MATERIAL
  2
AcDbMaterial
  3
ObjectDBX Classes
 90
        0
 91
        3
280
     0
281
     0
  0
CLASS
  1
VISUALSTYLE
  2
AcDbVisualStyle
  3
ObjectDBX Classes
 90
     4095
 91
       16
280
     0
281
     0
  0
CLASS
  1
ACAD_EVALUATION_GRAPH
  2
AcDbEvalGraph
  3
ObjectDBX Classes
 90
     1153
 91
        0
280
     0
281
     0
  0
CLASS
  1
ACAECUSTOBJ
  2
AcAeEditorObj
  3
AcAeEditorObj
 90
     1024
 91
        0
280
     0
281
     0
  0
CLASS
  1
ACDB_DYNAMICBLOCKPURGEPREVENTER_VERSION
  2
AcDbDynamicBlockPurgePreventer
  3
ObjectDBX Classes
 90
     1153
 91
        0
280
     0
281
     0
  0
CLASS
  1
IMAGEDEF
  2
AcDbRasterImageDef
  3
ISM
 90
        0
 91
        1
280
     0
281
     0
  0
CLASS
  1
RASTERVARIABLES
  2
AcDbRasterVariables
  3
ISM
 90
        0
 91
        1
280
     0
281
     0
  0
CLASS
  1
IMAGEDEF_REACTOR
  2
AcDbRasterImageDefReactor
  3
ISM
 90
        1
 91
        0
280
     0
281
     0
  0
CLASS
  1
IMAGE
  2
AcDbRasterImage
  3
ISM
 90
      127
 91
        0
280
     0
281
     1
  0
ENDSEC
  0
SECTION
  2
TABLES
  0
TABLE
  2
VPORT
  5
96
330
0
100
AcDbSymbolTable
 70
     8
  0
VPORT
  5
3364
330
96
100
AcDbSymbolTableRecord
100
AcDbViewportTableRecord
  2
*Active
 70
     0
 10
0.0
 20
0.0
 11
1.0
 21
1.0
 12
0.212237688972727
 22
0.1417890304755223
 13
0.0
 23
0.0
 14
10.0
 24
10.0
 15
10.0
 25
10.0
 16
0.0
 26
0.0
 36
1.0
 17
0.0
 27
0.0
 37
0.0
 40
0.322254500214135
 41
1.320054945054945
 42
50.0
 43
0.0
 44
0.0
 50
0.0
 51
0.0
 71
     0
 72
  1000
 73
     1
 74
     3
 75
     0
 76
     0
 77
     0
 78
     0
281
     0
 65
     1
110
0.0
120
0.0
130
0.0
111
1.0
121
0.0
131
0.0
112
0.0
122
1.0
132
0.0
 79
     0
146
0.0
  0
ENDTAB
  0
TABLE
  2
LTYPE
  5
91
330
0
100
AcDbSymbolTable
 70
     2
  0
LTYPE
  5
92
330
91
100
AcDbSymbolTableRecord
100
AcDbLinetypeTableRecord
  2
ByBlock
 70
     0
  3

 72
    65
 73
     0
 40
0.0
  0
LTYPE
  5
93
330
91
100
AcDbSymbolTableRecord
100
AcDbLinetypeTableRecord
  2
ByLayer
 70
     0
  3

 72
    65
 73
     0
 40
0.0
  0
LTYPE
  5
C
330
91
100
AcDbSymbolTableRecord
100
AcDbLinetypeTableRecord
  2
Continuous
 70
     0
  3
Solid line
 72
    65
 73
     0
 40
0.0
  0
ENDTAB
  0
TABLE
  2
LAYER
  5
8A
102
{ACAD_XDICTIONARY
360
8B
102
}
330
0
100
AcDbSymbolTable
 70
     7
  0
LAYER
  5
6
330
8A
100
AcDbSymbolTableRecord
100
AcDbLayerTableRecord
  2
0
 70
     0
 62
     7
  6
Continuous
370
    -3
390
7
  0
LAYER
  5
3F
330
8A
100
AcDbSymbolTableRecord
100
AcDbLayerTableRecord
  2
Defpoints
 70
     0
 62
     7
  6
Continuous
290
     0
370
    -3
390
7
  0
LAYER
  5
2E
330
8A
100
AcDbSymbolTableRecord
100
AcDbLayerTableRecord
  2
Dimensione
 70
     0
 62
   150
  6
Continuous
370
    -3
390
7
1001
AcAecLayerStandard
1000

1000

  0
LAYER
  5
54
330
8A
100
AcDbSymbolTableRecord
100
AcDbLayerTableRecord
  2
Sezione
 70
     0
 62
     2
  6
Continuous
370
    -3
390
7
1001
AcAecLayerStandard
1000

1000

  0
LAYER
  5
E
330
8A
100
AcDbSymbolTableRecord
100
AcDbLayerTableRecord
  2
Table
 70
     0
 62
     3
  6
Continuous
370
    -3
390
7
1001
AcAecLayerStandard
1000

1000

  0
LAYER
  5
19
330
8A
100
AcDbSymbolTableRecord
100
AcDbLayerTableRecord
  2
Text
 70
     0
 62
     4
  6
Continuous
370
    -3
390
7
1001
AcAecLayerStandard
1000

1000

  0
LAYER
  5
25D5
330
8A
100
AcDbSymbolTableRecord
100
AcDbLayerTableRecord
  2
Profilo
 70
     0
 62
     1
  6
Continuous
370
    -3
390
7
1001
AcAecLayerStandard
1000

1000

  0
ENDTAB
  0
TABLE
  2
STYLE
  5
8F
330
0
100
AcDbSymbolTable
 70
     4
  0
STYLE
  5
1A
330
8F
100
AcDbSymbolTableRecord
100
AcDbTextStyleTableRecord
  2
Standard
 70
     0
 40
0.0
 41
1.0
 50
0.0
 71
     0
 42
2.5
  3
txt
  4

  0
STYLE
  5
20
330
8F
100
AcDbSymbolTableRecord
100
AcDbTextStyleTableRecord
  2
ROMANS
 70
     0
 40
0.0
 41
1.0
 50
0.0
 71
     0
 42
2.5
  3
romans
  4

  0
STYLE
  5
28
330
8F
100
AcDbSymbolTableRecord
100
AcDbTextStyleTableRecord
  2
Arial
 70
     0
 40
0.0
 41
1.0
 50
0.0
 71
     0
 42
0.25
  3
ARIAL.TTF
  4

1001
ACAD
1000
Arial
1071
       34
  0
STYLE
  5
26
330
8F
100
AcDbSymbolTableRecord
100
AcDbTextStyleTableRecord
  2
style1
 70
     0
 40
0.0
 41
1.0
 50
0.0
 71
     0
 42
0.005
  3
TIMES.TTF
  4

1001
ACAD
1000
Times New Roman
1071
       18
  0
ENDTAB
  0
TABLE
  2
VIEW
  5
94
330
0
100
AcDbSymbolTable
 70
     0
  0
ENDTAB
  0
TABLE
  2
UCS
  5
95
330
0
100
AcDbSymbolTable
 70
     0
  0
ENDTAB
  0
TABLE
  2
APPID
  5
98
330
0
100
AcDbSymbolTable
 70
    14
  0
APPID
  5
1B
330
98
100
AcDbSymbolTableRecord
100
AcDbRegAppTableRecord
  2
ACAD
 70
     0
  0
APPID
  5
34
330
98
100
AcDbSymbolTableRecord
100
AcDbRegAppTableRecord
  2
ACAD_DSTYLE_DIMJOGGED_JOGANGLE_SYMBOL
 70
     0
  0
APPID
  5
F
330
98
100
AcDbSymbolTableRecord
100
AcDbRegAppTableRecord
  2
AcAecLayerStandard
 70
     0
  0
APPID
  5
85
330
98
100
AcDbSymbolTableRecord
100
AcDbRegAppTableRecord
  2
ACAD_PSEXT
 70
     0
  0
APPID
  5
BA
330
98
100
AcDbSymbolTableRecord
100
AcDbRegAppTableRecord
  2
ACAD_DSTYLE_DIMEXT_LENGTH
 70
     0
  0
APPID
  5
101
330
98
100
AcDbSymbolTableRecord
100
AcDbRegAppTableRecord
  2
ACAD_EXEMPT_FROM_CAD_STANDARDS
 70
     0
  0
APPID
  5
102
330
98
100
AcDbSymbolTableRecord
100
AcDbRegAppTableRecord
  2
ACAD_DSTYLE_DIM_LINETYPE
 70
     0
  0
APPID
  5
103
330
98
100
AcDbSymbolTableRecord
100
AcDbRegAppTableRecord
  2
ACAD_DSTYLE_DIM_EXT1_LINETYPE
 70
     0
  0
APPID
  5
104
330
98
100
AcDbSymbolTableRecord
100
AcDbRegAppTableRecord
  2
ACAD_DSTYLE_DIM_EXT2_LINETYPE
 70
     0
  0
APPID
  5
10D5
330
98
100
AcDbSymbolTableRecord
100
AcDbRegAppTableRecord
  2
ACAUTHENVIRON
 70
     0
  0
APPID
  5
10D9
330
98
100
AcDbSymbolTableRecord
100
AcDbRegAppTableRecord
  2
AcDbDynamicBlockTrueName
 70
     0
  0
APPID
  5
10DA
330
98
100
AcDbSymbolTableRecord
100
AcDbRegAppTableRecord
  2
AcDbDynamicBlockGUID
 70
     0
  0
APPID
  5
10DC
330
98
100
AcDbSymbolTableRecord
100
AcDbRegAppTableRecord
  2
AcDbBlockRepETag
 70
     0
  0
APPID
  5
249F
330
98
100
AcDbSymbolTableRecord
100
AcDbRegAppTableRecord
  2
DCO15
 70
     0
  0
ENDTAB
  0
TABLE
  2
DIMSTYLE
  5
99
330
0
100
AcDbSymbolTable
 70
     3
100
AcDbDimStyleTable
 71
     1
340
2F
  0
DIMSTYLE
105
2F
102
{ACAD_REACTORS
330
309F
330
30AD
330
30C7
330
3247
102
}
330
99
100
AcDbSymbolTableRecord
100
AcDbDimStyleTableRecord
  2
Bovelacci
 70
     0
 40
0.001
 41
1.5
140
3.0
141
0.0
147
2.0
176
     5
177
     5
178
     4
271
     2
272
     2
279
     2
340
20
342
30
1001
ACAD_DSTYLE_DIMJOGGED_JOGANGLE_SYMBOL
1070
   384
1040
0.7853981633974483
1001
ACAD_DSTYLE_DIMEXT_LENGTH
1070
   378
1040
0.18
  0
DIMSTYLE
105
194
330
99
100
AcDbSymbolTableRecord
100
AcDbDimStyleTableRecord
  2
STANDARD
 70
     0
340
1A
  0
ENDTAB
  0
TABLE
  2
BLOCK_RECORD
  5
1
330
0
100
AcDbSymbolTable
 70
    10
  0
BLOCK_RECORD
  5
2
102
{ACAD_XDICTIONARY
360
3
102
}
330
1
100
AcDbSymbolTableRecord
100
AcDbBlockTableRecord
  2
*Model_Space
340
77
  0
BLOCK_RECORD
  5
79
330
1
100
AcDbSymbolTableRecord
100
AcDbBlockTableRecord
  2
*Paper_Space
340
82
  0
BLOCK_RECORD
  5
86
330
1
100
AcDbSymbolTableRecord
100
AcDbBlockTableRecord
  2
*Paper_Space0
340
89
  0
BLOCK_RECORD
  5
30
330
1
100
AcDbSymbolTableRecord
100
AcDbBlockTableRecord
  2
_ArchTick
340
0
310
2800000020000000200000000100080000000000000400000000000000000000000000000000000000000000000080000080000000808000800000008000800080800000C0C0C000C0DCC000F0CAA6000020400000206000002080000020A0000020C0000020E00000400000004020000040400000406000004080000040A0
310
000040C0000040E00000600000006020000060400000606000006080000060A0000060C0000060E00000800000008020000080400000806000008080000080A0000080C0000080E00000A0000000A0200000A0400000A0600000A0800000A0A00000A0C00000A0E00000C0000000C0200000C0400000C0600000C0800000C0
310
A00000C0C00000C0E00000E0000000E0200000E0400000E0600000E0800000E0A00000E0C00000E0E00040000000400020004000400040006000400080004000A0004000C0004000E00040200000402020004020400040206000402080004020A0004020C0004020E000404000004040200040404000404060004040800040
310
40A0004040C0004040E00040600000406020004060400040606000406080004060A0004060C0004060E00040800000408020004080400040806000408080004080A0004080C0004080E00040A0000040A0200040A0400040A0600040A0800040A0A00040A0C00040A0E00040C0000040C0200040C0400040C0600040C08000
310
40C0A00040C0C00040C0E00040E0000040E0200040E0400040E0600040E0800040E0A00040E0C00040E0E00080000000800020008000400080006000800080008000A0008000C0008000E00080200000802020008020400080206000802080008020A0008020C0008020E00080400000804020008040400080406000804080
310
008040A0008040C0008040E00080600000806020008060400080606000806080008060A0008060C0008060E00080800000808020008080400080806000808080008080A0008080C0008080E00080A0000080A0200080A0400080A0600080A0800080A0A00080A0C00080A0E00080C0000080C0200080C0400080C0600080C0
310
800080C0A00080C0C00080C0E00080E0000080E0200080E0400080E0600080E0800080E0A00080E0C00080E0E000C0000000C0002000C0004000C0006000C0008000C000A000C000C000C000E000C0200000C0202000C0204000C0206000C0208000C020A000C020C000C020E000C0400000C0402000C0404000C0406000C0
310
408000C040A000C040C000C040E000C0600000C0602000C0604000C0606000C0608000C060A000C060C000C060E000C0800000C0802000C0804000C0806000C0808000C080A000C080C000C080E000C0A00000C0A02000C0A04000C0A06000C0A08000C0A0A000C0A0C000C0A0E000C0C00000C0C02000C0C04000C0C06000
310
C0C08000C0C0A000F0FBFF00A4A0A000808080000000FF0000FF000000FFFF00FF000000FF00FF00FFFF0000FFFFFF00000000FF000000000000000000000000000000000000000000000000000000000000FF00FF00000000000000000000000000000000000000000000000000000000FF000000FF000000000000000000
310
0000000000000000000000000000000000FF0000000000FF0000000000000000000000000000000000000000000000000000FF0000000000FF0000000000000000000000000000000000000000000000000000FF0000000000FF0000000000000000000000000000000000000000000000000000FF0000000000FF00000000
310
00000000000000000000000000000000000000000000FF0000000000FF0000000000000000000000000000000000000000000000000000FF0000000000FF0000000000000000000000000000000000000000000000000000FF0000000000FF0000000000000000000000000000000000000000000000000000FF0000000000
310
FF0000000000000000000000000000000000000000000000000000FF0000000000FF0000000000000000000000000000000000000000000000000000FF0000000000FF0000000000000000000000000000000000000000000000000000FF0000000000FF0000000000000000000000000000000000000000000000000000FF
310
0000000000FF0000000000000000000000000000000000000000000000000000FF0000000000FF0000000000000000000000000000000000000000000000000000FF0000000000FF0000000000000000000000000000000000000000000000000000FF0000000000FF00000000000000000000000000000000000000000000
310
00000000FF0000000000FF0000000000000000000000000000000000000000000000000000FF0000000000FF0000000000000000000000000000000000000000000000000000FF0000000000FF0000000000000000000000000000000000000000000000000000FF0000000000FF0000000000000000000000000000000000
310
000000000000000000FF0000000000FF0000000000000000000000000000000000000000000000000000FF0000000000FF0000000000000000000000000000000000000000000000000000FF0000000000FF0000000000000000000000000000000000000000000000000000FF0000000000FF000000000000000000000000
310
0000000000000000000000000000FF0000000000FF0000000000000000000000000000000000000000000000000000FF0000000000FF0000000000000000000000000000000000000000000000000000FF0000000000FF0000000000000000000000000000000000000000000000000000FF000000FF000000000000000000
310
00000000000000000000000000000000000000FF00FF000000000000000000000000000000000000000000000000000000000000FF000000
102
{BLKREFS
331
313E
331
313F
331
3148
331
3149
331
3349
331
334A
331
335D
331
335E
102
}
  0
BLOCK_RECORD
  5
4E0
330
1
100
AcDbSymbolTableRecord
100
AcDbBlockTableRecord
  2
_Arrivo
340
0
310
2800000020000000200000000100080000000000000400000000000000000000000000000000000000000000000080000080000000808000800000008000800080800000C0C0C000C0DCC000F0CAA6000020400000206000002080000020A0000020C0000020E00000400000004020000040400000406000004080000040A0
310
000040C0000040E00000600000006020000060400000606000006080000060A0000060C0000060E00000800000008020000080400000806000008080000080A0000080C0000080E00000A0000000A0200000A0400000A0600000A0800000A0A00000A0C00000A0E00000C0000000C0200000C0400000C0600000C0800000C0
310
A00000C0C00000C0E00000E0000000E0200000E0400000E0600000E0800000E0A00000E0C00000E0E00040000000400020004000400040006000400080004000A0004000C0004000E00040200000402020004020400040206000402080004020A0004020C0004020E000404000004040200040404000404060004040800040
310
40A0004040C0004040E00040600000406020004060400040606000406080004060A0004060C0004060E00040800000408020004080400040806000408080004080A0004080C0004080E00040A0000040A0200040A0400040A0600040A0800040A0A00040A0C00040A0E00040C0000040C0200040C0400040C0600040C08000
310
40C0A00040C0C00040C0E00040E0000040E0200040E0400040E0600040E0800040E0A00040E0C00040E0E00080000000800020008000400080006000800080008000A0008000C0008000E00080200000802020008020400080206000802080008020A0008020C0008020E00080400000804020008040400080406000804080
310
008040A0008040C0008040E00080600000806020008060400080606000806080008060A0008060C0008060E00080800000808020008080400080806000808080008080A0008080C0008080E00080A0000080A0200080A0400080A0600080A0800080A0A00080A0C00080A0E00080C0000080C0200080C0400080C0600080C0
310
800080C0A00080C0C00080C0E00080E0000080E0200080E0400080E0600080E0800080E0A00080E0C00080E0E000C0000000C0002000C0004000C0006000C0008000C000A000C000C000C000E000C0200000C0202000C0204000C0206000C0208000C020A000C020C000C020E000C0400000C0402000C0404000C0406000C0
310
408000C040A000C040C000C040E000C0600000C0602000C0604000C0606000C0608000C060A000C060C000C060E000C0800000C0802000C0804000C0806000C0808000C080A000C080C000C080E000C0A00000C0A02000C0A04000C0A06000C0A08000C0A0A000C0A0C000C0A0E000C0C00000C0C02000C0C04000C0C06000
310
C0C08000C0C0A000F0FBFF00A4A0A000808080000000FF0000FF000000FFFF00FF000000FF00FF00FFFF0000FFFFFF00000000000000000000000000000000000000000000000000000000000000000000000000000000000000FF0000000000000000000000000000000000000000000000000000000000000000FF000000
310
00000000000000000000000000000000000000000000000000000000FF0000000000000000000000000000000000000000000000000000000000000000FF00000000000000000000000000000000000000000000000000000000000000FF0000000000000000000000000000000000000000000000000000000000000000FF
310
0000000000000000000000000000000000000000000000000000000000000000FF00000000000000000000000000000000000000000000000000000000000000FF0000000000000000000000000000000000000000000000000000000000000000FF0000000000000000000000000000000000000000000000000000000000
310
0000FF0000000000000000000000000000000000000000000000000000000000000000FF00000000000000000000000000000000000000000000000000000000000000FF0000000000000000000000000000000000000000000000000000000000000000FF0000FF0000000000000000000000000000000000000000000000
310
000000000000FFFF000000000000000000000000000000000000000000000000000000000000FFFF00000000000000000000000000000000000000000000000000000000FFFFFFFFFFFF00000000000000000000000000000000000000000000000000000000FFFF0000000000000000000000000000000000000000000000
310
000000000000FF0000FF000000000000000000000000000000000000000000000000000000FF00000000000000000000000000000000000000000000000000000000000000FF000000000000000000000000000000000000000000000000000000000000FF0000000000000000000000000000000000000000000000000000
310
0000000000FF000000000000000000000000000000000000000000000000000000000000FF00000000000000000000000000000000000000000000000000000000000000FF000000000000000000000000000000000000000000000000000000000000FF000000000000000000000000000000000000000000000000000000
310
000000FF00000000000000000000000000000000000000000000000000000000000000FF000000000000000000000000000000000000000000000000000000000000FF00000000000000000000000000000000000000000000000000000000000000FF00000000000000000000000000000000000000000000000000000000
310
0000FF0000000000000000000000000000000000000000000000000000000000000000000000000000000000000000000000000000000000
  0
BLOCK_RECORD
  5
4E6
330
1
100
AcDbSymbolTableRecord
100
AcDbBlockTableRecord
  2
_Partenza
340
0
310
2800000020000000200000000100080000000000000400000000000000000000000000000000000000000000000080000080000000808000800000008000800080800000C0C0C000C0DCC000F0CAA6000020400000206000002080000020A0000020C0000020E00000400000004020000040400000406000004080000040A0
310
000040C0000040E00000600000006020000060400000606000006080000060A0000060C0000060E00000800000008020000080400000806000008080000080A0000080C0000080E00000A0000000A0200000A0400000A0600000A0800000A0A00000A0C00000A0E00000C0000000C0200000C0400000C0600000C0800000C0
310
A00000C0C00000C0E00000E0000000E0200000E0400000E0600000E0800000E0A00000E0C00000E0E00040000000400020004000400040006000400080004000A0004000C0004000E00040200000402020004020400040206000402080004020A0004020C0004020E000404000004040200040404000404060004040800040
310
40A0004040C0004040E00040600000406020004060400040606000406080004060A0004060C0004060E00040800000408020004080400040806000408080004080A0004080C0004080E00040A0000040A0200040A0400040A0600040A0800040A0A00040A0C00040A0E00040C0000040C0200040C0400040C0600040C08000
310
40C0A00040C0C00040C0E00040E0000040E0200040E0400040E0600040E0800040E0A00040E0C00040E0E00080000000800020008000400080006000800080008000A0008000C0008000E00080200000802020008020400080206000802080008020A0008020C0008020E00080400000804020008040400080406000804080
310
008040A0008040C0008040E00080600000806020008060400080606000806080008060A0008060C0008060E00080800000808020008080400080806000808080008080A0008080C0008080E00080A0000080A0200080A0400080A0600080A0800080A0A00080A0C00080A0E00080C0000080C0200080C0400080C0600080C0
310
800080C0A00080C0C00080C0E00080E0000080E0200080E0400080E0600080E0800080E0A00080E0C00080E0E000C0000000C0002000C0004000C0006000C0008000C000A000C000C000C000E000C0200000C0202000C0204000C0206000C0208000C020A000C020C000C020E000C0400000C0402000C0404000C0406000C0
310
408000C040A000C040C000C040E000C0600000C0602000C0604000C0606000C0608000C060A000C060C000C060E000C0800000C0802000C0804000C0806000C0808000C080A000C080C000C080E000C0A00000C0A02000C0A04000C0A06000C0A08000C0A0A000C0A0C000C0A0E000C0C00000C0C02000C0C04000C0C06000
310
C0C08000C0C0A000F0FBFF00A4A0A000808080000000FF0000FF000000FFFF00FF000000FF00FF00FFFF0000FFFFFF0000000000000000000000000000000000000000000000000000000000000000000000000000000000000000000000000000000000000000000000000000000000000000000000000000000000000000
310
000000000000000000000000000000000000000000000000000000000000000000000000000000000000000000000000000000000000000000000000000000000000000000000000000000000000000000000000000000000000000000000000000000000000000000000000000000000000FFFFFFFFFFFFFFFFFFFFFFFFFF
310
FFFFFFFFFFFFFFFFFFFFFFFFFFFFFFFFFF0000000000000000000000000000000000000000000000000000000000000000000000000000000000000000000000000000000000000000000000000000000000000000000000000000000000000000000000000000000000000000000000000000000000000000000000000000
310
00000000000000000000000000000000000000000000000000000000000000000000000000000000000000000000000000000000000000000000000000000000000000000000000000000000000000000000000000000000000000000000000000000000000000000000000000000000000000000000000000000000000000
310
00000000000000000000000000000000000000000000000000000000000000000000000000000000000000000000000000000000000000000000000000000000000000000000000000000000000000000000000000000000000000000000000000000000000000000000000000000000000000000000000000000000000000
310
00000000000000000000000000000000000000000000000000000000000000000000000000000000000000000000000000000000000000000000000000000000000000000000000000000000000000000000000000000000000000000000000000000000000000000000000000000000000000000000000000000000000000
310
000000000000000000000000000000000000000000000000000000000000000000000000000000000000000000000000000000000000000000000000000000000000000000000000000000000000000000000000000000FFFFFFFFFFFFFFFFFFFFFFFFFFFFFFFFFFFFFFFFFFFFFFFFFFFFFFFFFFFF00000000000000000000
310
00000000000000000000000000000000000000000000000000000000000000000000000000000000000000000000000000000000000000000000000000000000000000000000000000000000000000000000000000000000000000000000000000000000000000000000000000000000000000000000000000000000000000
310
0000000000000000000000000000000000000000000000000000000000000000000000000000000000000000000000000000000000000000
  0
BLOCK_RECORD
  5
30A0
330
1
100
AcDbSymbolTableRecord
100
AcDbBlockTableRecord
  2
*D4
340
0
  0
BLOCK_RECORD
  5
30AE
330
1
100
AcDbSymbolTableRecord
100
AcDbBlockTableRecord
  2
*D5
340
0
  0
BLOCK_RECORD
  5
30C8
330
1
100
AcDbSymbolTableRecord
100
AcDbBlockTableRecord
  2
*D6
340
0
  0
BLOCK_RECORD
  5
3248
330
1
100
AcDbSymbolTableRecord
100
AcDbBlockTableRecord
  2
*D7
340
0
  0
ENDTAB
  0
ENDSEC
  0
SECTION
  2
BLOCKS
  0
BLOCK
  5
5
330
2
100
AcDbEntity
  8
0
100
AcDbBlockBegin
  2
*Model_Space
 70
     0
 10
0.0
 20
0.0
 30
0.0
  3
*Model_Space
  1

  0
ENDBLK
  5
76
330
2
100
AcDbEntity
  8
0
100
AcDbBlockEnd
  0
BLOCK
  5
7A
330
79
100
AcDbEntity
 67
     1
  8
0
100
AcDbBlockBegin
  2
*Paper_Space
 70
     0
 10
0.0
 20
0.0
 30
0.0
  3
*Paper_Space
  1

  0
ENDBLK
  5
81
330
79
100
AcDbEntity
 67
     1
  8
0
100
AcDbBlockEnd
  0
BLOCK
  5
87
330
86
100
AcDbEntity
 67
     1
  8
0
100
AcDbBlockBegin
  2
*Paper_Space0
 70
     0
 10
0.0
 20
0.0
 30
0.0
  3
*Paper_Space0
  1

  0
ENDBLK
  5
88
330
86
100
AcDbEntity
 67
     1
  8
0
100
AcDbBlockEnd
  0
BLOCK
  5
31
330
30
100
AcDbEntity
  8
0
 62
     1
100
AcDbBlockBegin
  2
_ArchTick
 70
     0
 10
0.0
 20
0.0
 30
0.0
  3
_ArchTick
  1

  0
LWPOLYLINE
  5
32
330
30
100
AcDbEntity
  8
0
  6
ByBlock
 62
     0
100
AcDbPolyline
 90
        2
 70
     0
 43
0.15
 10
-0.5
 20
-0.5
 10
0.5
 20
0.5
  0
ENDBLK
  5
33
330
30
100
AcDbEntity
  8
0
 62
     1
100
AcDbBlockEnd
  0
BLOCK
  5
4E1
330
4E0
100
AcDbEntity
  8
0
100
AcDbBlockBegin
  2
_Arrivo
 70
     0
 10
0.0
 20
0.0
 30
0.0
  3
_Arrivo
  1

  0
LINE
  5
4E2
330
4E0
100
AcDbEntity
  8
0
  6
ByBlock
 62
     0
370
    -2
100
AcDbLine
 10
0.025
 20
-0.0433012701891858
 30
0.0
 11
-0.15
 21
0.2598076211353328
 31
0.0
  0
LINE
  5
4E3
330
4E0
100
AcDbEntity
  8
0
  6
ByBlock
 62
     0
370
    -2
100
AcDbLine
 10
0.025
 20
0.0433012701892585
 30
0.0
 11
-0.15
 21
-0.2598076211353328
 31
0.0
  0
LINE
  5
4E4
330
4E0
100
AcDbEntity
  8
0
  6
ByBlock
 62
     0
370
    -2
100
AcDbLine
 10
-0.05
 20
0.0
 30
0.0
 11
0.05
 21
0.0
 31
0.0
  0
ENDBLK
  5
4E5
330
4E0
100
AcDbEntity
  8
0
100
AcDbBlockEnd
  0
BLOCK
  5
4E7
330
4E6
100
AcDbEntity
  8
0
100
AcDbBlockBegin
  2
_Partenza
 70
     0
 10
0.0
 20
0.0
 30
0.0
  3
_Partenza
  1

  0
LINE
  5
4E8
330
4E6
100
AcDbEntity
  8
0
  6
ByBlock
 62
     0
370
    -2
100
AcDbLine
 10
-0.05
 20
0.05
 30
0.0
 11
0.1
 21
0.05
 31
0.0
  0
LINE
  5
4E9
330
4E6
100
AcDbEntity
  8
0
  6
ByBlock
 62
     0
370
    -2
100
AcDbLine
 10
-0.05
 20
-0.05
 30
0.0
 11
0.1
 21
-0.05
 31
0.0
  0
ENDBLK
  5
4EA
330
4E6
100
AcDbEntity
  8
0
100
AcDbBlockEnd
  0
BLOCK
  5
30AB
330
30A0
100
AcDbEntity
  8
0
100
AcDbBlockBegin
  2
*D4
 70
     1
 10
0.0
 20
0.0
 30
0.0
  3
*D4
  1

  0
LINE
  5
3359
330
30A0
100
AcDbEntity
  8
Dimensione
 62
     5
370
    -2
100
AcDbLine
 10
0.1140815140359884
 20
0.0973683980354956
 30
0.0
 11
0.0566773964956749
 21
0.0973683980354956
 31
0.0
  0
LINE
  5
335A
330
30A0
100
AcDbEntity
  8
Dimensione
 62
     5
370
    -2
100
AcDbLine
 10
0.0956992097563565
 20
0.2142211639165624
 30
0.0
 11
0.0566773964956749
 21
0.2142211639165624
 31
0.0
  0
LINE
  5
335B
330
30A0
100
AcDbEntity
  8
Dimensione
 62
     5
370
    -2
100
AcDbLine
 10
0.0568573964956749
 20
0.0973683980354956
 30
0.0
 11
0.0568573964956749
 21
0.152294780976029
 31
0.0
  0
LINE
  5
335C
330
30A0
100
AcDbEntity
  8
Dimensione
 62
     5
370
    -2
100
AcDbLine
 10
0.0568573964956749
 20
0.2142211639165624
 30
0.0
 11
0.0568573964956749
 21
0.159294780976029
 31
0.0
  0
INSERT
  5
335D
330
30A0
100
AcDbEntity
  8
Dimensione
 62
     5
370
    -2
100
AcDbBlockReference
  2
_ArchTick
 10
0.0568573964956749
 20
0.0973683980354956
 30
0.0
 41
0.0015
 42
0.0015
 43
0.0015
 50
270.0
  0
INSERT
  5
335E
330
30A0
100
AcDbEntity
  8
Dimensione
 62
     5
370
    -2
100
AcDbBlockReference
  2
_ArchTick
 10
0.0568573964956749
 20
0.2142211639165624
 30
0.0
 41
0.0015
 42
0.0015
 43
0.0015
 50
90.0
  0
MTEXT
  5
335F
330
30A0
100
AcDbEntity
  8
Dimensione
 62
     4
100
AcDbMText
 10
0.0568573964956749
 20
0.155794780976029
 30
0.0
 40
0.003
 41
0.0
 71
     5
 72
     1
  1
\A1;240 cm
  7
ROMANS
 73
     1
 44
1.0
  0
POINT
  5
3360
330
30A0
100
AcDbEntity
  8
Defpoints
 62
     0
100
AcDbPoint
 10
0.1141440140359884
 20
0.0973683980354956
 30
0.0
  0
POINT
  5
3361
330
30A0
100
AcDbEntity
  8
Defpoints
 62
     0
100
AcDbPoint
 10
0.0957617097563565
 20
0.2142211639165624
 30
0.0
  0
POINT
  5
3362
330
30A0
100
AcDbEntity
  8
Defpoints
 62
     0
100
AcDbPoint
 10
0.0568573964956749
 20
0.2142211639165624
 30
0.0
  0
ENDBLK
  5
30AC
330
30A0
100
AcDbEntity
  8
0
100
AcDbBlockEnd
  0
BLOCK
  5
30B9
330
30AE
100
AcDbEntity
  8
0
100
AcDbBlockBegin
  2
*D5
 70
     1
 10
0.0
 20
0.0
 30
0.0
  3
*D5
  1

  0
LINE
  5
313A
330
30AE
100
AcDbEntity
  8
Dimensione
 62
     5
370
    -2
100
AcDbLine
 10
0.0706044625183444
 20
0.089622381164697
 30
0.0
 11
0.0705864257748048
 21
0.0895062737752573
 31
0.0
  0
LINE
  5
313B
330
30AE
100
AcDbEntity
  8
Dimensione
 62
     5
370
    -2
100
AcDbLine
 10
0.1206641685389157
 20
0.0818458384010007
 30
0.0
 11
0.1206461317953761
 21
0.081729731011561
 31
0.0
  0
LINE
  5
313C
330
30AE
100
AcDbEntity
  8
Dimensione
 62
     5
370
    -2
100
AcDbLine
 10
0.0706140565308654
 20
0.0896841404143989
 30
0.0
 11
0.0840724809697225
 21
0.0875934367027603
 31
0.0
  0
LINE
  5
313D
330
30AE
100
AcDbEntity
  8
Dimensione
 62
     5
370
    -2
100
AcDbLine
 10
0.1206737625514367
 20
0.0819075976507026
 30
0.0
 11
0.1072153381125796
 21
0.0839983013623412
 31
0.0
  0
INSERT
  5
313E
330
30AE
100
AcDbEntity
  8
Dimensione
 62
     5
370
    -2
100
AcDbBlockReference
  2
_ArchTick
 10
0.0706140565308654
 20
0.0896841404143989
 30
0.0
 41
0.0015
 42
0.0015
 43
0.0015
 50
171.1699449233109
  0
INSERT
  5
313F
330
30AE
100
AcDbEntity
  8
Dimensione
 62
     5
370
    -2
100
AcDbBlockReference
  2
_ArchTick
 10
0.1206737625514367
 20
0.0819075976507026
 30
0.0
 41
0.0015
 42
0.0015
 43
0.0015
 50
351.1699449233109
  0
MTEXT
  5
3140
330
30AE
100
AcDbEntity
  8
Dimensione
 62
     4
100
AcDbMText
 10
0.0956439095411511
 20
0.0857958690325508
 30
0.0
 40
0.003
 41
0.0
 71
     5
 72
     1
  1
\A1;350 mm
  7
ROMANS
 73
     1
 44
1.0
  0
POINT
  5
3141
330
30AE
100
AcDbEntity
  8
Defpoints
 62
     0
100
AcDbPoint
 10
0.0706140565308654
 20
0.0896841404143989
 30
0.0
  0
POINT
  5
3142
330
30AE
100
AcDbEntity
  8
Defpoints
 62
     0
100
AcDbPoint
 10
0.1206737625514367
 20
0.0819075976507026
 30
0.0
  0
POINT
  5
3143
330
30AE
100
AcDbEntity
  8
Defpoints
 62
     0
100
AcDbPoint
 10
0.1206737625514367
 20
0.0819075976507026
 30
0.0
  0
ENDBLK
  5
30BA
330
30AE
100
AcDbEntity
  8
0
100
AcDbBlockEnd
  0
BLOCK
  5
30D3
330
30C8
100
AcDbEntity
  8
0
100
AcDbBlockBegin
  2
*D6
 70
     1
 10
0.0
 20
0.0
 30
0.0
  3
*D6
  1

  0
LINE
  5
3144
330
30C8
100
AcDbEntity
  8
Dimensione
 62
     5
370
    -2
100
AcDbLine
 10
0.1803929322408852
 20
0.0871509821135683
 30
0.0
 11
0.1803387123623613
 21
0.0872552244023615
 31
0.0
  0
LINE
  5
3145
330
30C8
100
AcDbEntity
  8
Dimensione
 62
     5
370
    -2
100
AcDbLine
 10
0.2039495693612246
 20
0.0994035719010864
 30
0.0
 11
0.2038953494827007
 21
0.0995078141898797
 31
0.0
  0
LINE
  5
3146
330
30C8
100
AcDbEntity
  8
Dimensione
 62
     5
370
    -2
100
AcDbLine
 10
0.1804217726018021
 20
0.0870955340876144
 30
0.0
 11
0.1854710460089888
 21
0.0897218289813735
 31
0.0
  0
LINE
  5
3147
330
30C8
100
AcDbEntity
  8
Dimensione
 62
     5
370
    -2
100
AcDbLine
 10
0.2039784097221415
 20
0.0993481238751325
 30
0.0
 11
0.1989291363149548
 21
0.0967218289813735
 31
0.0
  0
INSERT
  5
3148
330
30C8
100
AcDbEntity
  8
Dimensione
 62
     5
370
    -2
100
AcDbBlockReference
  2
_ArchTick
 10
0.1804217726018021
 20
0.0870955340876144
 30
0.0
 41
0.0015
 42
0.0015
 43
0.0015
 50
207.4804401145771
  0
INSERT
  5
3149
330
30C8
100
AcDbEntity
  8
Dimensione
 62
     5
370
    -2
100
AcDbBlockReference
  2
_ArchTick
 10
0.2039784097221415
 20
0.0993481238751325
 30
0.0
 41
0.0015
 42
0.0015
 43
0.0015
 50
27.4804401145771
  0
MTEXT
  5
314A
330
30C8
100
AcDbEntity
  8
Dimensione
 62
     4
100
AcDbMText
 10
0.1922000911619718
 20
0.0932218289813735
 30
0.0
 40
0.003
 41
0.0
 71
     5
 72
     1
  1
\A1;350 mm
  7
ROMANS
 73
     1
 44
1.0
  0
POINT
  5
314B
330
30C8
100
AcDbEntity
  8
Defpoints
 62
     0
100
AcDbPoint
 10
0.1804217726018021
 20
0.0870955340876144
 30
0.0
  0
POINT
  5
314C
330
30C8
100
AcDbEntity
  8
Defpoints
 62
     0
100
AcDbPoint
 10
0.2039784097221415
 20
0.0993481238751325
 30
0.0
  0
POINT
  5
314D
330
30C8
100
AcDbEntity
  8
Defpoints
 62
     0
100
AcDbPoint
 10
0.2039784097221415
 20
0.0993481238751325
 30
0.0
  0
ENDBLK
  5
30D4
330
30C8
100
AcDbEntity
  8
0
100
AcDbBlockEnd
  0
BLOCK
  5
3253
330
3248
100
AcDbEntity
  8
0
 62
     1
100
AcDbBlockBegin
  2
*D7
 70
     1
 10
0.0
 20
0.0
 30
0.0
  3
*D7
  1

  0
LINE
  5
3345
330
3248
100
AcDbEntity
  8
Dimensione
 62
     5
370
    -2
100
AcDbLine
 10
0.3101834762517672
 20
0.1051736690980034
 30
0.0
 11
0.2753599559041648
 21
0.1051736690980034
 31
0.0
  0
LINE
  5
3346
330
3248
100
AcDbEntity
  8
Dimensione
 62
     5
370
    -2
100
AcDbLine
 10
0.3108167955156273
 20
0.2304303565950676
 30
0.0
 11
0.2753599559041649
 21
0.2304303565950676
 31
0.0
  0
LINE
  5
3347
330
3248
100
AcDbEntity
  8
Dimensione
 62
     5
370
    -2
100
AcDbLine
 10
0.2755399559041649
 20
0.1051736690980034
 30
0.0
 11
0.2755399559041649
 21
0.1643020128465355
 31
0.0
  0
LINE
  5
3348
330
3248
100
AcDbEntity
  8
Dimensione
 62
     5
370
    -2
100
AcDbLine
 10
0.2755399559041649
 20
0.2304303565950676
 30
0.0
 11
0.2755399559041649
 21
0.1713020128465355
 31
0.0
  0
INSERT
  5
3349
330
3248
100
AcDbEntity
  8
Dimensione
 62
     5
370
    -2
100
AcDbBlockReference
  2
_ArchTick
 10
0.2755399559041649
 20
0.1051736690980034
 30
0.0
 41
0.0015
 42
0.0015
 43
0.0015
 50
270.0
  0
INSERT
  5
334A
330
3248
100
AcDbEntity
  8
Dimensione
 62
     5
370
    -2
100
AcDbBlockReference
  2
_ArchTick
 10
0.2755399559041649
 20
0.2304303565950676
 30
0.0
 41
0.0015
 42
0.0015
 43
0.0015
 50
90.0
  0
MTEXT
  5
334B
330
3248
100
AcDbEntity
  8
Dimensione
 62
     4
100
AcDbMText
 10
0.2755399559041649
 20
0.1678020128465356
 30
0.0
 40
0.003
 41
0.0
 71
     5
 72
     1
  1
\A1;240 cm
  7
ROMANS
 73
     1
 44
1.0
  0
POINT
  5
334C
330
3248
100
AcDbEntity
  8
Defpoints
 62
     0
100
AcDbPoint
 10
0.3102459762517672
 20
0.1051736690980034
 30
0.0
  0
POINT
  5
334D
330
3248
100
AcDbEntity
  8
Defpoints
 62
     0
100
AcDbPoint
 10
0.3108792955156273
 20
0.2304303565950676
 30
0.0
  0
POINT
  5
334E
330
3248
100
AcDbEntity
  8
Defpoints
 62
     0
100
AcDbPoint
 10
0.2755399559041649
 20
0.2304303565950676
 30
0.0
  0
ENDBLK
  5
3254
330
3248
100
AcDbEntity
  8
0
 62
     1
100
AcDbBlockEnd
  0
ENDSEC
  0
SECTION
  2
ENTITIES
  0
LINE
  5
D
330
2
100
AcDbEntity
  8
Table
100
AcDbLine
 10
0.02
 20
0.02
 30
0.0
 11
0.4
 21
0.02
 31
0.0
  0
LINE
  5
10
330
2
100
AcDbEntity
  8
Table
100
AcDbLine
 10
0.4
 20
0.02
 30
0.0
 11
0.4
 21
0.2769999999999999
 31
0.0
  0
LINE
  5
11
330
2
100
AcDbEntity
  8
Table
100
AcDbLine
 10
0.4
 20
0.2769999999999999
 30
0.0
 11
0.02
 21
0.277
 31
0.0
  0
LINE
  5
12
330
2
100
AcDbEntity
  8
Table
100
AcDbLine
 10
0.02
 20
0.277
 30
0.0
 11
0.02
 21
0.02
 31
0.0
  0
LINE
  5
13
330
2
100
AcDbEntity
  8
Table
 62
     2
100
AcDbLine
 10
0.015
 20
0.015
 30
0.0
 11
0.4050000000000001
 21
0.015
 31
0.0
  0
LINE
  5
14
330
2
100
AcDbEntity
  8
Table
 62
     2
100
AcDbLine
 10
0.4050000000000001
 20
0.015
 30
0.0
 11
0.4050000000000001
 21
0.2819999999999998
 31
0.0
  0
LINE
  5
15
330
2
100
AcDbEntity
  8
Table
 62
     2
100
AcDbLine
 10
0.4050000000000001
 20
0.2819999999999998
 30
0.0
 11
0.0149999999999999
 21
0.282
 31
0.0
  0
LINE
  5
16
330
2
100
AcDbEntity
  8
Table
 62
     2
100
AcDbLine
 10
0.0149999999999999
 20
0.282
 30
0.0
 11
0.015
 21
0.015
 31
0.0
  0
LINE
  5
17
330
2
100
AcDbEntity
  8
Table
100
AcDbLine
 10
0.21
 20
0.2769999999999999
 30
0.0
 11
0.21
 21
0.2532994226089223
 31
0.0
  0
LINE
  5
1D
330
2
100
AcDbEntity
  8
Table
100
AcDbLine
 10
0.02
 20
0.0528099428524846
 30
0.0
 11
0.4
 21
0.0528099428524846
 31
0.0
  0
MTEXT
  5
1E
330
2
100
AcDbEntity
  8
Text
100
AcDbMText
 10
0.1133313047219695
 20
0.2610796890771976
 30
0.0
 40
0.003
 41
0.1103605678262056
 71
     2
 72
     5
  1
{\fTimes New Roman|b0|i0|c0|p18;Le colonne \fTimes New Roman|b0|i1|c0|p18;      Columns}
 73
     1
 44
1.0
1001
ACAD
1000
ACAD_MTEXT_DEFINED_HEIGHT_BEGIN
1070
    46
1040
0.0141952763113409
1000
ACAD_MTEXT_DEFINED_HEIGHT_END
  0
TEXT
  5
1F
330
2
100
AcDbEntity
  8
Text
100
AcDbText
 10
0.2180556919891047
 20
0.269976982173197
 30
0.0
 40
0.003
  1
Colonna - Column : 350 x 350 x H 240 cm
  7
ROMANS
100
AcDbText
  0
TEXT
  5
21
330
2
100
AcDbEntity
  8
Text
100
AcDbText
 10
0.2184542410678115
 20
0.2576348370183962
 30
0.0
 40
0.003
  1
File : C3230 ( COLONNA IONICA LISCIA )
  7
ROMANS
100
AcDbText
  0
LINE
  5
22
330
2
100
AcDbEntity
  8
Table
100
AcDbLine
 10
0.4
 20
0.2654452889427402
 30
0.0
 11
0.02
 21
0.2654452889427403
 31
0.0
  0
LINE
  5
23
330
2
100
AcDbEntity
  8
Table
100
AcDbLine
 10
0.4
 20
0.2532994226089223
 30
0.0
 11
0.02
 21
0.2532994226089225
 31
0.0
  0
LINE
  5
24
330
2
100
AcDbEntity
  8
Table
100
AcDbLine
 10
0.21
 20
0.0528099428524846
 30
0.0
 11
0.21
 21
0.02
 31
0.0
  0
TEXT
  5
25
330
2
100
AcDbEntity
  8
Text
100
AcDbText
 10
0.0896473531074035
 20
0.2687784133392506
 30
0.0
 40
0.005
  1
CLASSICSTYL
  7
style1
 72
     1
 11
0.1140561490699125
 21
0.2687784133392506
 31
0.0
100
AcDbText
  0
MTEXT
  5
10F
330
2
100
AcDbEntity
  8
Text
100
AcDbMText
 10
0.305
 20
0.0471738284815141
 30
0.0
 40
0.005
 41
0.1900000000000001
 71
     2
 72
     5
  3
\pt0.09;{\fTimes New Roman|b0|i0|c238|p18;\H1.6x;\C4;Bovelacci\P\H0.4375x;\T0.95;via del Commercio, 5  47100 Forli - Italy  \fTimes New Roman|b0|i0|c0|p18;\P\fTimes New Roman|b0|i0|c238|p18;tel.+39-0543721386  fax +39-0543721127\fTimes New Roman|b0|i
  1
0|c0|p18; \fTimes New Roman|b0|i0|c238|p18;www.bovelacci.it\fTimes New Roman|b0|i0|c0|p18; \fTimes New Roman|b0|i0|c238|p18;e-mail: bovelacci@bovelacci\fTimes New Roman|b0|i0|c0|p18;.it}
 73
     1
 44
1.0
1001
ACAD
1000
ACAD_MTEXT_DEFINED_HEIGHT_BEGIN
1070
    46
1040
0.0271738284815141
1000
ACAD_MTEXT_DEFINED_HEIGHT_END
  0
MTEXT
  5
110
330
2
100
AcDbEntity
  8
Text
100
AcDbMText
 10
0.0219676065851835
 20
0.0500313976452307
 30
0.0
 40
0.002
 41
0.1863544980601608
 71
     1
 72
     5
  3
{\fArial|b0|i0|c0|p34;\H1.25x;Le caratteristiche tecniche indicate vengono fornite a titolo indicativo e potranno essere modificate senza preavviso. Non devono quindi essere considerate a scopo di specifica.\P\fArial|b0|i1|c0|p34;The given values are
  3
 indicative and can be changed without notice. They cannot be considered like a state.\PThis lealfet and designs embodied within are protected by copyright law and international treaties. Unauthorized repro- duction of the leaflet or any portion of i
  1
t or reproduction of any of the designs embodied therein may result in severe civil penalties and will be prosecuted to the maximum.\PAll right reserved, Bovelacci Forlì Italy.}
 73
     1
 44
1.0
  0
TEXT
  5
1CA
330
2
100
AcDbEntity
  8
Text
100
AcDbText
 10
0.1717949031138708
 20
0.0631053788071426
 30
0.0
 40
0.005
  1
scala 1:6
  7
Arial
100
AcDbText
  0
LWPOLYLINE
  5
2FC3
330
2
100
AcDbEntity
  8
0
  6
Continuous
 62
     1
370
     0
100
AcDbPolyline
 90
        9
 70
   128
 43
0.0
 10
0.0920351830164482
 20
0.1008259801546634
 10
0.0920351830164482
 20
0.113258703276447
 42
0.3265156300498512
 10
0.0957194934734461
 20
0.1170432861927835
 10
0.1065246749351815
 20
0.1200015973091821
 42
-0.5462934308230969
 10
0.1114104959292999
 20
0.1288765299906306
 42
-0.2516488839919457
 10
0.113289657294049
 20
0.1308956945830819
 10
0.113289657294049
 20
0.1334783473570014
 42
-0.8112812201042446
 10
0.1129138252276371
 20
0.1377514633398263
 10
0.1129138252276371
 20
0.1557372918541132
  0
ARC
  5
2FC4
330
2
100
AcDbEntity
  8
0
  6
Continuous
 62
     1
370
     0
100
AcDbCircle
 10
0.1310149640944527
 20
0.2236124559176859
 30
0.0
 40
0.087748283599913
100
AcDbArc
 50
258.0952784808058
 51
280.9896561411341
  0
ARC
  5
2FC5
330
2
100
AcDbEntity
  8
0
  6
Continuous
 62
     1
370
     0
100
AcDbCircle
 10
0.1297849072910793
 20
0.2249668909207878
 30
0.0
 40
0.0929636857912127
100
AcDbArc
 50
259.7794593769917
 51
280.8848850379088
  0
LWPOLYLINE
  5
2FC6
330
2
100
AcDbEntity
  8
0
  6
Continuous
 62
     1
370
     0
100
AcDbPolyline
 90
        4
 70
   128
 43
0.0
 10
0.1114104959292999
 20
0.1288765299906306
 42
0.3877862425418213
 10
0.1126726019555956
 20
0.1268392459590267
 42
0.0899322622117975
 10
0.1466894867284313
 20
0.1267098083247947
 42
0.2673370115826191
 10
0.1492115652315782
 20
0.1287053959444193
 42
-1.295342744674457
  0
LWPOLYLINE
  5
2FC7
330
2
100
AcDbEntity
  8
0
  6
Continuous
 62
     1
370
     0
100
AcDbPolyline
 90
        4
 70
   128
 43
0.0
 10
0.1065246749351815
 20
0.1200015973091821
 42
0.2639550332294433
 10
0.1111964222288168
 20
0.1161799755481452
 42
0.0885242694183054
 10
0.1499574638239653
 20
0.1164547493140045
 42
0.3283394128818273
 10
0.1543841111056681
 20
0.12118153037901
 42
-16.91194667305209
  0
LWPOLYLINE
  5
2FC8
330
2
100
AcDbEntity
  8
0
  6
Continuous
 62
     1
370
     0
100
AcDbPolyline
 90
        3
 70
   128
 43
0.0
 10
0.0957194934734461
 20
0.1170432861927835
 10
0.1409544562579892
 20
0.1121270613332086
 10
0.1626532530502658
 20
0.1202321358715499
  0
LWPOLYLINE
  5
2FC9
330
2
100
AcDbEntity
  8
0
  6
Continuous
 62
     1
370
     0
100
AcDbPolyline
 90
        3
 70
   128
 43
0.0
 10
0.0920351830164482
 20
0.113258703276447
 10
0.1423289608909188
 20
0.1076619861356143
 10
0.1656515261573589
 20
0.1174306862790633
  0
LWPOLYLINE
  5
2FCA
330
2
100
AcDbEntity
  8
0
  6
Continuous
 62
     1
370
     0
100
AcDbPolyline
 90
        3
 70
   128
 43
0.0
 10
0.1420948890370195
 20
0.0930494373909671
 10
0.1423289608909188
 20
0.1076619861356143
 42
-0.2574591619078772
 10
0.1409544562579892
 20
0.1121270613332086
 42
-0.8131799407212312
  0
ARC
  5
2FCB
330
2
100
AcDbEntity
  8
0
  6
Continuous
 62
     1
370
     0
100
AcDbCircle
 10
0.1301054967502483
 20
0.0740534489461515
 30
0.0
 40
0.1113859623851364
100
AcDbArc
 50
80.88932572748136
 51
98.87870894693833
  0
LWPOLYLINE
  5
2FCD
330
2
100
AcDbEntity
  8
0
  6
Continuous
 62
     1
370
     0
100
AcDbPolyline
 90
        4
 70
   128
 43
0.0
 10
0.1117458198952729
 20
0.129661938346048
 42
0.3944747122529336
 10
0.1133604165749011
 20
0.1277928566499732
 42
0.0642726241848362
 10
0.1466311001754925
 20
0.127934529496424
 42
0.1658446072113343
 10
0.1492115652315782
 20
0.1294314035089529
 42
-0.3007332763893182
  0
LINE
  5
309B
102
{ACAD_REACTORS
330
30E0
102
}
330
2
100
AcDbEntity
  8
Dimensione
100
AcDbLine
 10
0.1420948890370195
 20
0.0930494373909671
 30
0.0
 11
0.1804217726018021
 21
0.0870955340876144
 31
0.0
  0
LINE
  5
309C
102
{ACAD_REACTORS
330
30E0
102
}
330
2
100
AcDbEntity
  8
Dimensione
100
AcDbLine
 10
0.1656515261573589
 20
0.1053020271784852
 30
0.0
 11
0.2039784097221415
 21
0.0993481238751325
 31
0.0
  0
LINE
  5
309D
102
{ACAD_REACTORS
330
30C6
102
}
330
2
100
AcDbEntity
  8
Dimensione
100
AcDbLine
 10
0.1420948890370195
 20
0.0930494373909671
 30
0.0
 11
0.1206737625514367
 21
0.0819075976507026
 31
0.0
  0
LINE
  5
309E
102
{ACAD_REACTORS
330
30C6
102
}
330
2
100
AcDbEntity
  8
Dimensione
100
AcDbLine
 10
0.0920351830164482
 20
0.1008259801546634
 30
0.0
 11
0.0706140565308654
 21
0.089684140414399
 31
0.0
  0
DIMENSION
  5
309F
330
2
100
AcDbEntity
  8
Dimensione
100
AcDbDimension
  2
*D4
 10
0.0568573964956749
 20
0.2142211639165624
 30
0.0
 11
0.0568573964956749
 21
0.155794780976029
 31
0.0
 70
    32
  1
240 cm
 71
     5
 42
0.1168527658810668
  3
Bovelacci
100
AcDbAlignedDimension
 13
0.1141440140359884
 23
0.0973683980354956
 33
0.0
 14
0.0957617097563565
 24
0.2142211639165624
 34
0.0
 50
90.0
100
AcDbRotatedDimension
  0
DIMENSION
  5
30AD
102
{ACAD_XDICTIONARY
360
30BB
102
}
102
{ACAD_REACTORS
330
30C6
102
}
330
2
100
AcDbEntity
  8
Dimensione
100
AcDbDimension
  2
*D5
 10
0.1206737625514367
 20
0.0819075976507026
 30
0.0
 11
0.0956439095411511
 21
0.0857958690325508
 31
0.0
 70
    33
  1
350 mm
 71
     5
 42
0.0506601301244047
  3
Bovelacci
100
AcDbAlignedDimension
 13
0.0706140565308654
 23
0.089684140414399
 33
0.0
 14
0.1206737625514367
 24
0.0819075976507026
 34
0.0
  0
DIMENSION
  5
30C7
102
{ACAD_XDICTIONARY
360
30D5
102
}
102
{ACAD_REACTORS
330
30E0
102
}
330
2
100
AcDbEntity
  8
Dimensione
100
AcDbDimension
  2
*D6
 10
0.2039784097221415
 20
0.0993481238751325
 30
0.0
 11
0.1922000911619718
 21
0.0932218289813735
 31
0.0
 70
    33
  1
350 mm
 71
     5
 42
0.0265526102091781
  3
Bovelacci
100
AcDbAlignedDimension
 13
0.1804217726018021
 23
0.0870955340876144
 33
0.0
 14
0.2039784097221415
 24
0.0993481238751325
 34
0.0
  0
LWPOLYLINE
  5
3151
330
2
100
AcDbEntity
  8
0
  6
Continuous
 62
     1
370
     0
100
AcDbPolyline
 90
        9
 70
   128
 43
0.0
 10
0.3099858393632644
 20
0.1056242394058131
 10
0.3099858393632644
 20
0.1093540563423482
 42
0.3265156300498512
 10
0.3110911325003638
 20
0.1104894312172492
 10
0.3143326869388844
 20
0.1113769245521687
 42
-0.5462934308230969
 10
0.31579843323712
 20
0.1140394043566033
 42
-0.2516488839919457
 10
0.3163621816465447
 20
0.1146451537343387
 10
0.3163621816465447
 20
0.1154199495665145
 42
-0.8112812201042446
 10
0.3162494320266211
 20
0.116701884361362
 10
0.3162494320266211
 20
0.1236548706701503
  0
ARC
  5
3152
330
2
100
AcDbEntity
  8
0
  6
Continuous
 62
     1
370
     0
100
AcDbCircle
 10
0.3216797736866658
 20
0.1424601821347199
 30
0.0
 40
0.0263244850799739
100
AcDbArc
 50
258.0952784808058
 51
280.9896561411341
  0
ARC
  5
3153
330
2
100
AcDbEntity
  8
0
  6
Continuous
 62
     1
370
     0
100
AcDbCircle
 10
0.3213107566456537
 20
0.1428665126356504
 30
0.0
 40
0.0278891057373638
100
AcDbArc
 50
259.7794593769917
 51
280.8848850379088
  0
LWPOLYLINE
  5
3154
330
2
100
AcDbEntity
  8
0
  6
Continuous
 62
     1
370
     0
100
AcDbPolyline
 90
        4
 70
   128
 43
0.0
 10
0.31579843323712
 20
0.1140394043566033
 42
0.3877862425418213
 10
0.3161770650450086
 20
0.1134282191471221
 42
0.0899322622117975
 10
0.3263821304768594
 20
0.1133893878568525
 42
0.2673370115826191
 10
0.3271387540278035
 20
0.1139880641427399
 42
-1.295342744674457
  0
LWPOLYLINE
  5
3155
330
2
100
AcDbEntity
  8
0
  6
Continuous
 62
     1
370
     0
100
AcDbPolyline
 90
        4
 70
   128
 43
0.0
 10
0.3143326869388844
 20
0.1113769245521687
 42
0.2639550332294433
 10
0.315734211126975
 20
0.1102304380238577
 42
0.0885242694183054
 10
0.3273625236055195
 20
0.1103128701536154
 42
0.3283394128818273
 10
0.3286905177900303
 20
0.1117309044731171
 42
-16.91194667305209
  0
LWPOLYLINE
  5
3156
330
2
100
AcDbEntity
  8
0
  6
Continuous
 62
     1
370
     0
100
AcDbPolyline
 90
        3
 70
   128
 43
0.0
 10
0.3110911325003638
 20
0.1104894312172492
 10
0.3246616213357267
 20
0.1090145637593767
 10
0.3311712603734097
 20
0.111446086120879
  0
LWPOLYLINE
  5
3157
330
2
100
AcDbEntity
  8
0
  6
Continuous
 62
     1
370
     0
100
AcDbPolyline
 90
        3
 70
   128
 43
0.0
 10
0.3099858393632644
 20
0.1093540563423482
 10
0.3250739727256056
 20
0.1076750412000984
 10
0.3320707423055376
 20
0.1106056512431331
  0
LWPOLYLINE
  5
3158
330
2
100
AcDbEntity
  8
0
  6
Continuous
 62
     1
370
     0
100
AcDbPolyline
 90
        3
 70
   128
 43
0.0
 10
0.3250037511694358
 20
0.1032912765767042
 10
0.3250739727256056
 20
0.1076750412000984
 42
-0.2574591619078772
 10
0.3246616213357267
 20
0.1090145637593767
 42
-0.8131799407212312
  0
ARC
  5
3159
330
2
100
AcDbEntity
  8
0
  6
Continuous
 62
     1
370
     0
100
AcDbCircle
 10
0.3214069334834044
 20
0.1841698274950458
 30
0.0
 40
0.0334157887155409
100
AcDbArc
 50
80.8893257274814
 51
98.87870894693829
  0
ARC
  5
315A
330
2
100
AcDbEntity
  8
0
  6
Continuous
 62
     1
370
     0
100
AcDbCircle
 10
0.3215560689615968
 20
0.1802330721920195
 30
0.0
 40
0.0384619449800945
100
AcDbArc
 50
82.75355102995925
 51
97.62083515459723
  0
LWPOLYLINE
  5
315B
330
2
100
AcDbEntity
  8
0
  6
Continuous
 62
     1
370
     0
100
AcDbPolyline
 90
        4
 70
   128
 43
0.0
 10
0.3158990304269118
 20
0.1142750268632285
 42
0.3944747122529336
 10
0.3163834094308002
 20
0.1137143023544061
 42
0.0642726241848362
 10
0.3263646145109778
 20
0.1137568042083413
 42
0.1658446072113343
 10
0.3271387540278035
 20
0.1142058664121
 42
-0.3007332763893182
  0
LWPOLYLINE
  5
3201
330
2
100
AcDbEntity
  8
0
  6
Continuous
 62
     1
370
     0
100
AcDbPolyline
 90
       12
 70
   128
 43
0.0
 10
0.3266980569981364
 20
0.1236025758052391
 10
0.3266980569981364
 20
0.1166184455960969
 42
-0.8779639311632411
 10
0.3265772346921794
 20
0.115479171986815
 10
0.326602377219526
 20
0.1146330939404577
 10
0.3271387540278035
 20
0.1142058664121
 10
0.3271387540278035
 20
0.1139880641427399
 42
-0.5020096845354747
 10
0.3286905177900303
 20
0.1117309044731171
 10
0.3311712603734097
 20
0.111446086120879
 42
0.4102902273640335
 10
0.3320707423055376
 20
0.1106056512431331
 10
0.3320707423055376
 20
0.1069670535129596
 10
0.3250037511694358
 20
0.1032912765767042
 10
0.3099858393632644
 20
0.1056242394058131
  0
LINE
  5
3203
330
2
100
AcDbEntity
  8
Dimensione
 62
     1
100
AcDbLine
 10
0.3162494320266211
 20
0.2181981317811199
 30
0.0
 11
0.3162494320266211
 21
0.1236548706701503
 31
0.0
  0
LINE
  5
3204
330
2
100
AcDbEntity
  8
Dimensione
 62
     1
100
AcDbLine
 10
0.3266980569981364
 20
0.2182835546362754
 30
0.0
 11
0.3266980569981364
 21
0.1236025758052391
 31
0.0
  0
TEXT
  5
321F
330
2
100
AcDbEntity
  8
Text
100
AcDbText
 10
0.3467050934548801
 20
0.0631053788071426
 30
0.0
 40
0.005
  1
scala 1:20
  7
Arial
100
AcDbText
  0
LWPOLYLINE
  5
3223
330
2
100
AcDbEntity
  8
Dimensione
 62
     2
100
AcDbPolyline
 90
        5
 70
     0
 43
0.0
 10
0.1009947523255477
 20
0.1551295137595972
 10
0.1157744161986329
 20
0.1594468275605507
 42
-0.1045220413873161
 10
0.1334332085915264
 20
0.1607900025352791
 42
0.1909048442990748
 10
0.1533953355244364
 20
0.1657788437424159
 42
0.0019678449479376
 10
0.1624166630474662
 20
0.1723027592295807
 42
-1.966795092680843
  0
LWPOLYLINE
  5
3224
330
2
100
AcDbEntity
  8
Dimensione
 62
     2
100
AcDbPolyline
 90
        5
 70
     0
 43
0.0
 10
0.1009947523255477
 20
0.1522555903501654
 10
0.1157744161986329
 20
0.156572904151119
 42
-0.1045220413873161
 10
0.1334332085915264
 20
0.1579160791258474
 42
0.1909048442990748
 10
0.1533953355244364
 20
0.1629049203329842
 42
0.0019678449479376
 10
0.1624166630474662
 20
0.169428835820149
 42
-1.966795092680843
  0
LWPOLYLINE
  5
3225
330
2
100
AcDbEntity
  8
0
  6
Continuous
 62
     1
370
     0
100
AcDbPolyline
 90
       12
 70
   128
 43
0.0
 10
0.1477425751326883
 20
0.1597711857087785
 10
0.1477425751326883
 20
0.1374733341222761
 42
-0.8779639311632411
 10
0.1473398341128317
 20
0.1336757554246698
 10
0.1474236425373201
 20
0.1308554952701453
 10
0.1492115652315782
 20
0.1294314035089529
 10
0.1492115652315782
 20
0.1287053959444193
 42
-0.5020096845354747
 10
0.1543841111056681
 20
0.12118153037901
 10
0.1626532530502658
 20
0.1202321358715499
 42
0.4102902273640335
 10
0.1656515261573589
 20
0.1174306862790633
 10
0.1656515261573589
 20
0.1053020271784852
 10
0.1420948890370195
 20
0.0930494373909671
 10
0.0920351830164482
 20
0.1008259801546634
  0
DIMENSION
  5
3247
330
2
100
AcDbEntity
  8
Dimensione
100
AcDbDimension
  2
*D7
 10
0.2755399559041649
 20
0.2304303565950676
 30
0.0
 11
0.2755399559041649
 21
0.1678020128465356
 31
0.0
 70
    32
  1
240 cm
 71
     5
 42
0.1252566874970642
  3
Bovelacci
100
AcDbAlignedDimension
 13
0.3102459762517672
 23
0.1051736690980034
 33
0.0
 14
0.3108792955156273
 24
0.2304303565950676
 34
0.0
 50
90.0
100
AcDbRotatedDimension
  0
LWPOLYLINE
  5
32D9
330
2
100
AcDbEntity
  8
Dimensione
 62
     1
100
AcDbPolyline
 90
       30
 70
     0
 43
0.0
 10
0.0927793637669788
 20
0.2124993056567786
 10
0.0957617097563565
 20
0.2142211639165624
 42
0.0531382177770021
 10
0.1432278398777504
 20
0.2167861035295794
 10
0.1498865873694883
 20
0.2161092415441731
 10
0.1499994479598013
 20
0.2153195679032255
 10
0.1490965668821947
 20
0.2146427045931791
 10
0.148645126343391
 20
0.2138530309522316
 10
0.1485322675755266
 20
0.2135145999595282
 10
0.1489837081143302
 20
0.2126121159876796
 10
0.1501123085501144
 20
0.2115968216849299
 10
0.1527080911926217
 20
0.2102430963894771
 10
0.156432476093362
 20
0.2092278020867272
 10
0.1607211603007701
 20
0.2083253181148787
 10
0.1641069634305714
 20
0.2077612651357332
 10
0.1661384467664111
 20
0.2071972121565877
 10
0.1659235764441163
 20
0.2063710168614796
 10
0.1656109226478961
 20
0.2061756933696735
 10
0.1652591864437299
 20
0.2057069191087631
 10
0.1649074520620128
 20
0.2054725319783078
 10
0.1644775528644037
 20
0.2053944033763696
 10
0.1641648990681836
 20
0.205316273449791
 10
0.1638522452719634
 20
0.2051990798845633
 10
0.1639304082654064
 20
0.2046521756970745
 10
0.1638131628640178
 20
0.2042224663994533
 10
0.1633441812584633
 20
0.2036755622119643
 10
0.1632269358570746
 20
0.2035193036834475
 10
0.163109690455686
 20
0.2030114644592478
 10
0.163109690455686
 20
0.2005503982648279
 42
-0.218230656213193
 10
0.1681082948941966
 20
0.1921797638862594
 42
-0.2407029580764583
 10
0.1645251716210938
 20
0.1827694220865857
 42
-0.4096406469384263
  0
LWPOLYLINE
  5
32DA
330
2
100
AcDbEntity
  8
Dimensione
 62
     1
100
AcDbPolyline
 90
        7
 70
     0
 43
0.0
 10
0.1645251716210938
 20
0.1827694220865857
 42
-0.2073043949757346
 10
0.1513870493081537
 20
0.1819267045546219
 10
0.1480849548825613
 20
0.1856487063251413
 10
0.1469608376700715
 20
0.1857891592471353
 10
0.146117749305092
 20
0.1854380262798304
 10
0.1459410009603865
 20
0.1852602741398954
 10
0.1458020719017794
 20
0.1843278800032889
  0
LWPOLYLINE
  5
32DB
330
2
100
AcDbEntity
  8
Dimensione
 62
     1
100
AcDbPolyline
 90
       17
 70
     0
 43
0.0
 10
0.1446758900201875
 20
0.1844823231431762
 42
0.2101162436316575
 10
0.1425457921739097
 20
0.1852503724546155
 42
0.0747360872629912
 10
0.1180420062794705
 20
0.1862424948268504
 42
0.0812305427148768
 10
0.1146921217870301
 20
0.1853123801856702
 10
0.1142215564737347
 20
0.1850092376071282
 10
0.1139422935788148
 20
0.1847300988331287
 10
0.1137704403307632
 20
0.1857822406515212
 10
0.1126533887510827
 20
0.185889602737398
 10
0.1122452368313487
 20
0.1860828531673361
 10
0.1116007844174827
 20
0.1866626044571507
 10
0.1112785572993253
 20
0.1871349949857285
 10
0.1112785572993253
 20
0.1875000234284295
 10
0.1104407704370137
 20
0.1876718027658325
 10
0.1101829887424882
 20
0.1878006359442445
 10
0.1097963180231479
 20
0.1880797760428842
 10
0.1094311285042021
 20
0.1884018596512344
 10
0.1092163110329138
 20
0.1887454170014003
  0
LWPOLYLINE
  5
32DC
330
2
100
AcDbEntity
  8
Dimensione
 62
     1
100
AcDbPolyline
 90
       14
 70
     0
 43
0.0
 10
0.1092163110329138
 20
0.1887454170014003
 10
0.1072506162652452
 20
0.1875599037873691
 10
0.1042976610547155
 20
0.1861543877105021
 42
-0.2258459227308503
 10
0.0963139880407692
 20
0.1861543877105021
 42
-0.212361745547246
 10
0.0901353190434632
 20
0.1933712300332199
 42
-0.2169044375856328
 10
0.0913849373490179
 20
0.2023922826054568
 42
-0.1252167909587653
 10
0.0953252985895072
 20
0.2061136375969
 10
0.0951901132139288
 20
0.2098455718740958
 10
0.0946051017801309
 20
0.2102841377159017
 10
0.0944875811890199
 20
0.2109225599681796
 10
0.0942850014593661
 20
0.2111587989455943
 10
0.0940993030701085
 20
0.2112937930254427
 10
0.0928809306439767
 20
0.2115689790731711
 10
0.0927793637669788
 20
0.2124993056567786
  0
LWPOLYLINE
  5
32DD
330
2
100
AcDbEntity
  8
Dimensione
 62
     1
100
AcDbPolyline
 90
       11
 70
     0
 43
0.0
 10
0.1163269054694693
 20
0.2076625860661785
 10
0.1003697123021346
 20
0.2074039341770672
 42
0.2118654709653843
 10
0.095314785092929
 20
0.2050625690917189
 42
0.2431175418820289
 10
0.0928479388588969
 20
0.1950899639017711
 42
0.2466595037213545
 10
0.0987176864344976
 20
0.1883724844307975
 42
0.2727404034403538
 10
0.107734979336086
 20
0.1898605335381722
 42
0.3547035454749422
 10
0.1095214253597157
 20
0.1990014077617365
 42
0.2655221200027686
 10
0.1033208411950738
 20
0.2029149423157623
 42
0.3732391459438842
 10
0.0973140511842983
 20
0.1981510947430311
 42
0.3313017793483049
 10
0.1003780099262592
 20
0.1918725156613746
 42
0.1803135934136621
 10
0.105182915410492
 20
0.1926665691491804
 42
0.700063197032079
  0
LWPOLYLINE
  5
32DE
330
2
100
AcDbEntity
  8
Dimensione
 62
     1
100
AcDbPolyline
 90
        9
 70
     0
 43
0.0
 10
0.105182915410492
 20
0.1926665691491804
 42
-0.0444710235564623
 10
0.1057338233656286
 20
0.1937502771428528
 42
0.3609041157983095
 10
0.1051255574890522
 20
0.1982788218469002
 42
0.2098914672854483
 10
0.1017066787415402
 20
0.1994528888452117
 42
0.3859439230467578
 10
0.09994480479095
 20
0.1975659945562052
 42
0.0557136632951477
 10
0.1001545503880808
 20
0.1954065502534108
 42
0.5183248083268817
 10
0.1034685545145791
 20
0.193980896996661
 42
0.2737039742427261
 10
0.1048319118306205
 20
0.1965596521717325
 42
0.3232616447586275
 10
0.103594403695306
 20
0.1981110972330613
 42
0.0374480795862873
  0
LWPOLYLINE
  5
32DF
330
2
100
AcDbEntity
  8
Dimensione
 62
     1
100
AcDbPolyline
 90
       14
 70
     0
 43
0.0
 10
0.1159110682844372
 20
0.2063259751217379
 10
0.1007018845217215
 20
0.2063259751217379
 42
0.2755477355204203
 10
0.0956603996926049
 20
0.2033193532235233
 42
0.0972775375454994
 10
0.0943047075949274
 20
0.1989576350272786
 42
0.1283573614162396
 10
0.095194381388301
 20
0.1929867386524831
 42
0.3119029357405936
 10
0.1019728473440336
 20
0.1887097139748654
 42
0.2096155853744084
 10
0.1080311017020207
 20
0.1916739884514465
 42
0.3424273582586541
 10
0.1083276596331451
 20
0.1986188609527712
 42
0.1982776825103216
 10
0.1032861748040281
 20
0.2017948698882395
 42
0.3008153853925437
 10
0.0987530747393467
 20
0.1998045702135476
 42
0.2899007990821092
 10
0.098710710101664
 20
0.1947229577712946
 42
0.2228986353551722
 10
0.1020999430795301
 20
0.1925209249623555
 42
0.3535431865252948
 10
0.1054044449595825
 20
0.1945112233124072
 42
0.3502188060622535
 10
0.1041827842634853
 20
0.1981404040813576
 42
-0.2083105596307265
  0
LWPOLYLINE
  5
32E0
330
2
100
AcDbEntity
  8
Dimensione
 62
     1
100
AcDbPolyline
 90
        9
 70
     0
 43
0.0
 10
0.1150672363604723
 20
0.2033679820888487
 10
0.1050266331623698
 20
0.2053159343419072
 42
0.123110337847758
 10
0.0994767635688182
 20
0.205019506364393
 42
0.1315015882154573
 10
0.0955791458265168
 20
0.2003613615152743
 42
0.2980298575714637
 10
0.0968077421886976
 20
0.1918920056786658
 42
0.3795238369530074
 10
0.1057892093977983
 20
0.1907909886118761
 42
0.2678213998912962
 10
0.1082464039446082
 20
0.1959572958973962
 42
0.2969908344538946
 10
0.1046877087711143
 20
0.2005730946495215
 42
0.2262721417943532
 10
0.1004088019998744
 20
0.2001072809593937
 42
6.221562513953721
  0
LWPOLYLINE
  5
32E1
330
2
100
AcDbEntity
  8
Dimensione
 62
     1
100
AcDbPolyline
 90
       26
 70
     0
 43
0.0
 10
0.1274221395638966
 20
0.2082479233635952
 10
0.1398280859047302
 20
0.2093867443362311
 10
0.1416003642137706
 20
0.2091758510238524
 10
0.1426552921692001
 20
0.2084588153513335
 42
-0.2140470619817179
 10
0.1432460516055471
 20
0.1936963285225998
 42
-0.1048166701170666
 10
0.1405871794410875
 20
0.188985704079178
 42
-0.2777815591925589
 10
0.1367441859474854
 20
0.1883661857667835
 42
-0.1289328646360264
 10
0.1329557456270914
 20
0.1927934166919757
 42
-0.1710549700361771
 10
0.1323134910861087
 20
0.1992060699667496
 42
-0.1178304162425118
 10
0.1345499379142321
 20
0.2032552088478724
 42
-0.3918160238437978
 10
0.1410060929191768
 20
0.2038035304003445
 42
-0.2901709589865783
 10
0.142440793626398
 20
0.1997965693869133
 42
-0.1381276603489263
 10
0.1400355589085898
 20
0.1931323603204252
 42
-0.5985902351119428
 10
0.1354782731299493
 20
0.1937228597405889
 42
-0.0591163214538876
 10
0.1345077409418107
 20
0.1976032858263052
 42
-0.2790844140585953
 10
0.1361534265111387
 20
0.2013149964673345
 42
-0.1835769043626846
 10
0.1388544450904272
 20
0.2019932813715777
 42
-0.2526368432090275
 10
0.1405419244000939
 20
0.2008088541071941
 42
-0.2459936400538417
 10
0.1404575304552513
 20
0.196253572865931
 42
-0.2494821404958794
 10
0.1376303260132297
 20
0.1943977175454163
 42
-0.3718084998992912
 10
0.1358580477041894
 20
0.1956630734457671
 42
-0.171544229667971
 10
0.1361956234835599
 20
0.198995176654371
 42
-0.286358184941421
 10
0.1380944927098643
 20
0.2002183546870304
 42
-0.3219561305957532
 10
0.1394869982671127
 20
0.1992482478344412
 42
-0.1911903149861585
 10
0.1394026024998217
 20
0.197054964273833
 42
-0.2461832803507201
 10
0.1375459302459387
 20
0.1955787163857437
 42
-0.9659950723724783
  0
LWPOLYLINE
  5
32E2
330
2
100
AcDbEntity
  8
Dimensione
 62
     1
100
AcDbPolyline
 90
       11
 70
     0
 43
0.0
 10
0.1275104408383097
 20
0.2070214787682737
 10
0.1383550955546581
 20
0.2084133709209797
 42
-0.1592208995920044
 10
0.1418996503502901
 20
0.2077385144407926
 42
-0.2740403236829533
 10
0.1427435934436131
 20
0.206304444420395
 42
-0.1079316700116677
 10
0.1436297316869091
 20
0.1988388439460046
 42
-0.1153448163097164
 10
0.1410566052221988
 20
0.1912415129158407
 42
-0.3299782863487676
 10
0.1373423645716496
 20
0.1897704580065297
 42
-0.1534209598009635
 10
0.1339243988708331
 20
0.1935243478398908
 42
-0.1492733014654253
 10
0.1336689116389606
 20
0.2001076677543237
 42
-0.1620158644954974
 10
0.1358318992132031
 20
0.2031032593738326
 42
-0.2348872444441286
 10
0.139621008372194
 20
0.2039002675474081
 42
-0.3881492162258324
  0
LWPOLYLINE
  5
32E3
330
2
100
AcDbEntity
  8
Dimensione
 62
     1
100
AcDbPolyline
 90
       54
 70
     0
 43
0.0
 10
0.1172895063617634
 20
0.2024952270163626
 10
0.1165798139367229
 20
0.2033228370271736
 10
0.1166389542127894
 20
0.2036775279779784
 10
0.1168755189619524
 20
0.2039139881703015
 10
0.1167572365873709
 20
0.2042686777964662
 10
0.1164023894636265
 20
0.2045642540303503
 10
0.1161658265369119
 20
0.2050962891319173
 10
0.11634324918756
 20
0.2056283242334845
 10
0.1164023894636265
 20
0.2058647844258076
 10
0.1164023894636265
 20
0.2062785900935331
 10
0.1162249668129785
 20
0.2068106251951003
 10
0.1162249668129785
 20
0.207165316145905
 10
0.1164023894636265
 20
0.2074608910551489
 10
0.1166389542127894
 20
0.2077564659643928
 10
0.1168163768634375
 20
0.2082293863490392
 10
0.1168163768634375
 20
0.2086431920167647
 10
0.1168163768634375
 20
0.2089978829675696
 10
0.1171120818886669
 20
0.2092934578768135
 10
0.1173486466378299
 20
0.2094708033522159
 10
0.117585211386993
 20
0.2098254929783805
 10
0.1178809164122224
 20
0.2101801839291854
 10
0.1183540459105485
 20
0.2103575280799477
 10
0.1189454559610074
 20
0.2101801839291854
 10
0.1194777257353998
 20
0.2101210678876245
 10
0.1201874181604404
 20
0.2104757588384293
 10
0.1206605458363179
 20
0.210889564506155
 10
0.1213110979852919
 20
0.2110669086569171
 10
0.1219025080357509
 20
0.2110077939399963
 10
0.1223756375340768
 20
0.2106531043138317
 10
0.1228487652099545
 20
0.210298413363027
 10
0.1237950223841579
 20
0.2100619531707038
 10
0.1254509719834019
 20
0.2103575280799477
 10
0.1256875367325647
 20
0.2102392986461062
 10
0.1265155115321868
 20
0.210002838453783
 10
0.1266337939067683
 20
0.2091752271183319
 10
0.1266337939067683
 20
0.2087023067336855
 10
0.1264563712561203
 20
0.2081111569151977
 10
0.1270477813065793
 20
0.2077564659643928
 10
0.1273434863318089
 20
0.2071062001043442
 10
0.1271069215826459
 20
0.2064559355689357
 10
0.1268703586559312
 20
0.2061603593350516
 10
0.1272252039572274
 20
0.2058056697088869
 10
0.1276391913570384
 20
0.2050371744149967
 10
0.1271660636811609
 20
0.2045051379887895
 10
0.1268112165574164
 20
0.2042095630795454
 10
0.1270477813065793
 20
0.2037957574118199
 10
0.1268112165574164
 20
0.2033228370271736
 10
0.126278946783024
 20
0.2029090326840882
 10
0.1257466788310799
 20
0.2030863768348504
 10
0.1250961266821059
 20
0.203500182502576
 10
0.1245638569077134
 20
0.2033819530687345
 10
0.1239724468572542
 20
0.2030272621179297
 10
0.1237358821080913
 20
0.202376996257881
 10
0.1233218947082804
 20
0.2021996521071187
  0
LWPOLYLINE
  5
32E4
330
2
100
AcDbEntity
  8
Dimensione
 62
     1
100
AcDbPolyline
 90
       15
 70
     0
 43
0.0
 10
0.1191228786116554
 20
0.2023178815409602
 10
0.1182357635359669
 20
0.2022587668240395
 10
0.1180583390628705
 20
0.2014311554885883
 10
0.1181766214374518
 20
0.2004262000023749
 10
0.118590608837263
 20
0.2003670852854542
 10
0.1189454559610074
 20
0.2006626601946982
 10
0.1195368660114664
 20
0.2010764658624237
 10
0.1196551483860479
 20
0.2016085009639907
 10
0.1199508534112775
 20
0.2016676156809114
 10
0.12048312318567
 20
0.2011946952962651
 10
0.1206605458363179
 20
0.2004853147192957
 10
0.1205422652841847
 20
0.2000123943346494
 10
0.1201874181604404
 20
0.199539473950003
 10
0.1197734307606294
 20
0.1993030137576799
 10
0.1195368660114664
 20
0.1992438990407591
  0
LWPOLYLINE
  5
32E5
330
2
100
AcDbEntity
  8
Dimensione
 62
     1
100
AcDbPolyline
 90
       16
 70
     0
 43
0.0
 10
0.1235584594574433
 20
0.1991256696069177
 10
0.1229670475845359
 20
0.199539473950003
 10
0.1224347778101434
 20
0.2001897398100517
 10
0.1225530601847249
 20
0.2007217749116188
 10
0.1230853299591173
 20
0.2007808909531798
 10
0.1235584594574433
 20
0.2003079705685335
 10
0.124031587133321
 20
0.2004262000023749
 10
0.1242090097839689
 20
0.2007808909531798
 10
0.124031587133321
 20
0.2016676156809114
 10
0.1235584594574433
 20
0.2020814213486371
 10
0.1230853299591173
 20
0.202376996257881
 10
0.1227896249338878
 20
0.2025543417332833
 10
0.1224347778101434
 20
0.2027908019256064
 10
0.1220799325088474
 20
0.2031454928764114
 10
0.1216068030105213
 20
0.2031454928764114
 10
0.1214293803598734
 20
0.2031454928764114
  0
LWPOLYLINE
  5
32E6
330
2
100
AcDbEntity
  8
Dimensione
 62
     1
100
AcDbPolyline
 90
        7
 70
     0
 43
0.0
 10
0.1190637383355889
 20
0.2026725724917651
 10
0.118590608837263
 20
0.2031454928764114
 10
0.1181766214374518
 20
0.2036184132610576
 10
0.1178809164122224
 20
0.2034410677856552
 10
0.1177626340376409
 20
0.2031454928764114
 10
0.1174669290124115
 20
0.2033819530687345
 10
0.1172303642632484
 20
0.2036184132610576
  0
LWPOLYLINE
  5
32E7
330
2
100
AcDbEntity
  8
Dimensione
 62
     1
100
AcDbPolyline
 90
        4
 70
     0
 43
0.0
 10
0.1191820207101704
 20
0.2031454928764114
 10
0.1183540459105485
 20
0.2039731028872223
 10
0.117940056688289
 20
0.2043277938380271
 10
0.117585211386993
 20
0.2043277938380271
  0
LWPOLYLINE
  5
32E8
330
2
100
AcDbEntity
  8
Dimensione
 62
     1
100
AcDbPolyline
 90
       17
 70
     0
 43
0.0
 10
0.1197142886621145
 20
0.2033228370271736
 10
0.1188863138624926
 20
0.2041504483626248
 10
0.1184723264626814
 20
0.2046824834641919
 10
0.1182357635359669
 20
0.2049780583734357
 10
0.1180583390628705
 20
0.2046233687472711
 10
0.1178809164122224
 20
0.2044460232718687
 10
0.1175260692884779
 20
0.2045051379887895
 10
0.1170529416126005
 20
0.2047415981811126
 10
0.1168163768634375
 20
0.2049780583734357
 10
0.1167572365873709
 20
0.2053327493242406
 10
0.116993801336534
 20
0.2056874389504053
 10
0.1176443516630594
 20
0.2059830151842892
 10
0.1182949038120334
 20
0.2059238991427284
 10
0.1184723264626814
 20
0.2056283242334845
 10
0.1187088912118443
 20
0.2052736346073199
 10
0.1190045962370739
 20
0.2050962891319173
 10
0.1193003012623035
 20
0.2045642540303503
  0
LWPOLYLINE
  5
32E9
330
2
100
AcDbEntity
  8
Dimensione
 62
     1
100
AcDbPolyline
 90
       16
 70
     0
 43
0.0
 10
0.1195960081099813
 20
0.2041504483626248
 10
0.1186497509357779
 20
0.205450978758082
 10
0.1182949038120334
 20
0.2061603593350516
 10
0.1178217761361558
 20
0.2067515104781795
 10
0.117585211386993
 20
0.206869739912021
 10
0.117585211386993
 20
0.2062785900935331
 10
0.1171120818886669
 20
0.2062194753766125
 10
0.1168755189619524
 20
0.2064559355689357
 10
0.1165798139367229
 20
0.2068106251951003
 10
0.1166980944888559
 20
0.2072244308628258
 10
0.1175260692884779
 20
0.2075200057720697
 10
0.117999198786804
 20
0.2072835455797465
 10
0.1185314685611964
 20
0.206869739912021
 10
0.1187088912118443
 20
0.2064559355689357
 10
0.1191820207101704
 20
0.2056874389504053
 10
0.1196551483860479
 20
0.2052145185657589
  0
LWPOLYLINE
  5
32EA
330
2
100
AcDbEntity
  8
Dimensione
 62
     1
100
AcDbPolyline
 90
       17
 70
     0
 43
0.0
 10
0.1201874181604404
 20
0.2050962891319173
 10
0.119832571036696
 20
0.2061012446181308
 10
0.1195960081099813
 20
0.2072244308628258
 10
0.1193594433608183
 20
0.2082293863490392
 10
0.1188863138624926
 20
0.2087614227752464
 10
0.1185314685611964
 20
0.2085249625829233
 10
0.1182357635359669
 20
0.2081702716321185
 10
0.1176443516630594
 20
0.2084067318244416
 10
0.1177034937615744
 20
0.2089387669260086
 10
0.1182949038120334
 20
0.2094116873106551
 10
0.1191820207101704
 20
0.2094116873106551
 10
0.120069135785859
 20
0.2092934578768135
 10
0.1202465584365069
 20
0.2086431920167647
 10
0.1203057005350219
 20
0.2079338114397953
 10
0.1203057005350219
 20
0.2070470853874235
 10
0.1206014055602514
 20
0.2062785900935331
 10
0.1206014055602514
 20
0.2052736346073199
  0
LWPOLYLINE
  5
32EB
330
2
100
AcDbEntity
  8
Dimensione
 62
     1
100
AcDbPolyline
 90
       20
 70
     0
 43
0.0
 10
0.122316495435562
 20
0.2047415981811126
 10
0.1218433677596843
 20
0.2063968195273747
 10
0.1219616501342658
 20
0.2078155806813136
 10
0.122316495435562
 20
0.2089387669260086
 10
0.1228487652099545
 20
0.2097663782614598
 10
0.1235584594574433
 20
0.2098846076953013
 10
0.1241498695079023
 20
0.2095890327860574
 10
0.1245047148091983
 20
0.2093525725937343
 10
0.1246821392822949
 20
0.2095299180691367
 10
0.1247412795583614
 20
0.2098846076953013
 10
0.1250961266821059
 20
0.2095299180691367
 10
0.1249778443075244
 20
0.2089978829675696
 10
0.1245047148091983
 20
0.2086431920167647
 10
0.1238541644826729
 20
0.2090569976844904
 10
0.1233218947082804
 20
0.2092343431598928
 10
0.1226713425593064
 20
0.2088205374921673
 10
0.1224939199086583
 20
0.2082293863490392
 10
0.1222573551594954
 20
0.2072835455797465
 10
0.1222573551594954
 20
0.2061603593350516
 10
0.122316495435562
 20
0.2055692095165638
  0
LWPOLYLINE
  5
32EC
330
2
100
AcDbEntity
  8
Dimensione
 62
     1
100
AcDbPolyline
 90
       11
 70
     0
 43
0.0
 10
0.1226713425593064
 20
0.2048598289395942
 10
0.1239724468572542
 20
0.2080520408736369
 10
0.1243864342570653
 20
0.2083476171075208
 10
0.1251552669581723
 20
0.2084067318244416
 10
0.1256875367325647
 20
0.2076973512474722
 10
0.1253918317073353
 20
0.2072835455797465
 10
0.1246821392822949
 20
0.2074608910551489
 10
0.1242090097839689
 20
0.2069879706705027
 10
0.1237950223841579
 20
0.2062194753766125
 10
0.1234993173589284
 20
0.2053918640411612
 10
0.1231444720576323
 20
0.2046233687472711
  0
LWPOLYLINE
  5
32ED
330
2
100
AcDbEntity
  8
Dimensione
 62
     1
100
AcDbPolyline
 90
       11
 70
     0
 43
0.0
 10
0.1232627526097654
 20
0.2037957574118199
 10
0.1237358821080913
 20
0.2047415981811126
 10
0.1237950223841579
 20
0.2058056697088869
 10
0.1246229971837798
 20
0.2065150502858564
 10
0.1253918317073353
 20
0.2065150502858564
 10
0.1254509719834019
 20
0.20604212990121
 10
0.1250961266821059
 20
0.2056874389504053
 10
0.1245638569077134
 20
0.205510094799643
 10
0.1243864342570653
 20
0.2049189436565149
 10
0.1241498695079023
 20
0.2043869085549479
 10
0.1237950223841579
 20
0.2041504483626248
  0
LWPOLYLINE
  5
32EE
330
2
100
AcDbEntity
  8
Dimensione
 62
     1
100
AcDbPolyline
 90
       11
 70
     0
 43
0.0
 10
0.11220337518945
 20
0.1982980582714666
 10
0.112144233090935
 20
0.1967610676836861
 10
0.1123807978400979
 20
0.1945738099112167
 10
0.113386195290368
 20
0.1933915089496009
 10
0.1151604272641935
 20
0.1927412430895522
 10
0.1166980944888559
 20
0.193095934040357
 10
0.1171120818886669
 20
0.1936870838588447
 10
0.1171120818886669
 20
0.1945146951942959
 10
0.1171120818886669
 20
0.19705664259293
 10
0.1170529416126005
 20
0.1984754037468689
 10
0.1166980944888559
 20
0.1990074388484359
  0
LWPOLYLINE
  5
32EF
330
2
100
AcDbEntity
  8
Dimensione
 62
     1
100
AcDbPolyline
 90
       13
 70
     0
 43
0.0
 10
0.115692697038586
 20
0.198711863939192
 10
0.1161658265369119
 20
0.1975295629775763
 10
0.1164023894636265
 20
0.1957561108728325
 10
0.1164023894636265
 20
0.1945146951942959
 10
0.1159884020638156
 20
0.193923544051168
 10
0.115101286988127
 20
0.1933915089496009
 10
0.114687299588316
 20
0.1935097397080826
 10
0.114036747439342
 20
0.1938053146173264
 10
0.1135044776649495
 20
0.1943373497188935
 10
0.1130313499890719
 20
0.1950467302958631
 10
0.1128539255159755
 20
0.1961699165405581
 10
0.1129130676144905
 20
0.1971157573098508
 10
0.1129130676144905
 20
0.1984754037468689
  0
LWPOLYLINE
  5
32F0
330
2
100
AcDbEntity
  8
Dimensione
 62
     1
100
AcDbPolyline
 90
        8
 70
     0
 43
0.0
 10
0.1172303642632484
 20
0.1986527492222713
 10
0.1174077887363449
 20
0.1952831904881862
 10
0.1178809164122224
 20
0.1938053146173264
 10
0.1183540459105485
 20
0.1931550487572777
 10
0.1186497509357779
 20
0.1929777032818754
 10
0.1187088912118443
 20
0.1932141634741985
 10
0.1187088912118443
 20
0.1937461999004057
 10
0.1187088912118443
 20
0.194219120285052
  0
LWPOLYLINE
  5
32F1
330
2
100
AcDbEntity
  8
Dimensione
 62
     1
100
AcDbPolyline
 90
       19
 70
     0
 43
0.0
 10
0.1178217761361558
 20
0.1988300933730336
 10
0.117999198786804
 20
0.1972931027852532
 10
0.1180583390628705
 20
0.196465491449802
 10
0.1184723264626814
 20
0.195342305205107
 10
0.1188271735864258
 20
0.1945738099112167
 10
0.1193003012623035
 20
0.1941008895265704
 10
0.1197142886621145
 20
0.1937461999004057
 10
0.1203648408110885
 20
0.1935097397080826
 10
0.1212519577092255
 20
0.1934506236665216
 10
0.121133675334644
 20
0.1936279691419241
 10
0.1205422652841847
 20
0.1941008895265704
 10
0.1198917131352108
 20
0.1946329246281375
 10
0.1195368660114664
 20
0.1952831904881862
 10
0.1193594433608183
 20
0.1958743416313142
 10
0.1191228786116554
 20
0.1967610676836861
 10
0.1190045962370739
 20
0.1974113322190947
 10
0.1190045962370739
 20
0.1979433686453019
 10
0.1190045962370739
 20
0.1985345184637897
 10
0.1190045962370739
 20
0.1988892094145944
  0
LWPOLYLINE
  5
32F2
330
2
100
AcDbEntity
  8
Dimensione
 62
     1
100
AcDbPolyline
 90
       14
 70
     0
 43
0.0
 10
0.1222573551594954
 20
0.1989483241315152
 10
0.1228487652099545
 20
0.1981798288376251
 10
0.1229670475845359
 20
0.1971748720267714
 10
0.1229079073084693
 20
0.1954014212466678
 10
0.1225530601847249
 20
0.1945738099112167
 10
0.1217250853851029
 20
0.1937461999004057
 10
0.1216068030105213
 20
0.1933915089496009
 10
0.1220207904103324
 20
0.1933323942326801
 10
0.122316495435562
 20
0.1934506236665216
 10
0.1229079073084693
 20
0.1936870838588447
 10
0.1233218947082804
 20
0.1942782350019728
 10
0.1237950223841579
 20
0.1951649610543447
 10
0.1239133047587394
 20
0.1966428369252044
 10
0.1236767400095764
 20
0.1990074388484359
  0
LWPOLYLINE
  5
32F3
330
2
100
AcDbEntity
  8
Dimensione
 62
     1
100
AcDbPolyline
 90
       11
 70
     0
 43
0.0
 10
0.124031587133321
 20
0.1989483241315152
 10
0.1239133047587394
 20
0.1971748720267714
 10
0.1242090097839689
 20
0.1943964644358143
 10
0.1242681518824838
 20
0.1938644293342472
 10
0.1245047148091983
 20
0.1935097397080826
 10
0.1246229971837798
 20
0.1935097397080826
 10
0.1246821392822949
 20
0.1939826600927288
 10
0.1246821392822949
 20
0.1945738099112167
 10
0.1246229971837798
 20
0.1955787653974301
 10
0.1246229971837798
 20
0.1980615980791433
 10
0.1246229971837798
 20
0.1990074388484359
  0
LWPOLYLINE
  5
32F4
330
2
100
AcDbEntity
  8
Dimensione
 62
     1
100
AcDbPolyline
 90
       15
 70
     0
 43
0.0
 10
0.1249778443075244
 20
0.1989483241315152
 10
0.1249187022090094
 20
0.1979433686453019
 10
0.1249187022090094
 20
0.1966428369252044
 10
0.1249778443075244
 20
0.1954014212466678
 10
0.1252735493327538
 20
0.1944555804773753
 10
0.1255692543579834
 20
0.1938644293342472
 10
0.1264563712561203
 20
0.1932141634741985
 10
0.1267520762813499
 20
0.1932732795157595
 10
0.1268112165574164
 20
0.1934506236665216
 10
0.1263972291576054
 20
0.1941008895265704
 10
0.1261606662308908
 20
0.1946920406696984
 10
0.1258058191071463
 20
0.1956969961559117
 10
0.1257466788310799
 20
0.19705664259293
 10
0.1257466788310799
 20
0.1984162890299482
 10
0.1261015241323758
 20
0.1990665535653567
  0
LWPOLYLINE
  5
32F5
330
2
100
AcDbEntity
  8
Dimensione
 62
     1
100
AcDbPolyline
 90
       14
 70
     0
 43
0.0
 10
0.1263972291576054
 20
0.1990665535653567
 10
0.1296499880800269
 20
0.1989483241315152
 10
0.1297682704546082
 20
0.1980024833622227
 10
0.1297682704546082
 20
0.1965837222082836
 10
0.1296499880800269
 20
0.195342305205107
 10
0.1293542830547973
 20
0.1945738099112167
 10
0.1288220132804048
 20
0.1939826600927288
 10
0.1278757561062014
 20
0.193095934040357
 10
0.1273434863318089
 20
0.1932141634741985
 10
0.1268703586559312
 20
0.1936870838588447
 10
0.1264563712561203
 20
0.1942782350019728
 10
0.1258649593832128
 20
0.1954014212466678
 10
0.1259832417577944
 20
0.1978842526037409
 10
0.1263380888815388
 20
0.1988892094145944
  0
LWPOLYLINE
  5
32F6
330
2
100
AcDbEntity
  8
Dimensione
 62
     1
100
AcDbPolyline
 90
       13
 70
     1
 43
0.0
 10
0.1299456931052563
 20
0.1989483241315152
 10
0.1301231175783528
 20
0.1960516857820764
 10
0.1297682704546082
 20
0.1952240757712654
 10
0.1292951409562825
 20
0.1938644293342472
 10
0.1289994359310528
 20
0.1934506236665216
 10
0.1291768604041493
 20
0.1930368193234362
 10
0.1295908478039603
 20
0.1933323942326801
 10
0.1300639754798378
 20
0.1940417748096496
 10
0.1304188226035822
 20
0.1947511553866192
 10
0.1307736679048783
 20
0.1956969961559117
 10
0.1307736679048783
 20
0.1968792971175275
 10
0.1307736679048783
 20
0.198120712796064
 10
0.1305962452542303
 20
0.1991256696069177
  0
LWPOLYLINE
  5
32F7
330
2
100
AcDbEntity
  8
Dimensione
 62
     1
100
AcDbPolyline
 90
        8
 70
     0
 43
0.0
 10
0.1287037309058232
 20
0.1995985899915639
 10
0.1353275311252478
 20
0.2047415981811126
 10
0.1374566084003692
 20
0.2055692095165638
 10
0.1384620058506392
 20
0.2058056697088869
 10
0.1398222504246537
 20
0.2055692095165638
 10
0.1409459320719536
 20
0.2049780583734357
 10
0.1415964823984792
 20
0.2044460232718687
 10
0.1421878942713866
 20
0.2036184132610576
  0
LWPOLYLINE
  5
32F8
330
2
100
AcDbEntity
  8
Dimensione
 62
     1
100
AcDbPolyline
 90
        9
 70
     0
 43
0.0
 10
0.1275800510809719
 20
0.2030272621179297
 10
0.1333758746783259
 20
0.205510094799643
 10
0.1356232361504773
 20
0.2062194753766125
 10
0.1378114555241138
 20
0.2069288559535819
 10
0.1401179572723317
 20
0.2071062001043442
 10
0.1408276496973722
 20
0.2069879706705027
 10
0.1415964823984792
 20
0.2065150502858564
 10
0.1420696118968052
 20
0.2059238991427284
 10
0.1425427395726826
 20
0.2053327493242406
  0
LWPOLYLINE
  5
32F9
330
2
100
AcDbEntity
  8
Dimensione
 62
     1
100
AcDbPolyline
 90
        8
 70
     0
 43
0.0
 10
0.1120149285478643
 20
0.1982923371505671
 10
0.1133160310233635
 20
0.198587912059811
 10
0.1157999572446781
 20
0.1986470281013718
 10
0.1171602018186926
 20
0.1988243722521341
 10
0.1194667017444622
 20
0.1990608324444572
 10
0.1226011782923021
 20
0.1990017177275365
 10
0.1248485397644535
 20
0.1988243722521341
 10
0.1262087843384681
 20
0.1990608324444572
  0
LWPOLYLINE
  5
32FA
330
2
100
AcDbEntity
  8
Dimensione
 62
     1
100
AcDbPolyline
 90
       19
 70
     0
 43
0.0
 10
0.1103589789486201
 20
0.1986470281013718
 10
0.1098858494502941
 20
0.1994746381121829
 10
0.1100041318248757
 20
0.1996519835875853
 10
0.1102406965740388
 20
0.1998293290629876
 10
0.1097084267996463
 20
0.2006569390737987
 10
0.1088213117239578
 20
0.2014254343676888
 10
0.1073427847753618
 20
0.2021939309862192
 10
0.1058642578267657
 20
0.2029033115631888
 10
0.1074610671499433
 20
0.2028441955216278
 10
0.1097084267996463
 20
0.2015436651261706
 10
0.1116600814241194
 20
0.2004795935983962
 10
0.1121923511985122
 20
0.1998884437799084
 10
0.1121923511985122
 20
0.1992972926367803
 10
0.1120149285478643
 20
0.1987061428182926
 10
0.1116009411480533
 20
0.198587912059811
 10
0.1114235184974052
 20
0.1988243722521341
 10
0.1116009411480533
 20
0.199179063202939
 10
0.1116009411480533
 20
0.1995928688706645
 10
0.1110095310975941
 20
0.2000657892553109
  0
LWPOLYLINE
  5
32FB
330
2
100
AcDbEntity
  8
Dimensione
 62
     1
100
AcDbPolyline
 90
        7
 70
     0
 43
0.0
 10
0.1008964090290338
 20
0.2036718068570789
 10
0.1037943208277108
 20
0.2039673817663228
 10
0.1056868351761178
 20
0.2038491523324814
 10
0.1079933369243358
 20
0.2034353466647557
 10
0.1122514932970273
 20
0.2019574707938961
 10
0.1161548025459741
 20
0.2004204788814754
 10
0.1180473168943812
 20
0.1996519835875853
  0
LWPOLYLINE
  5
32FC
330
2
100
AcDbEntity
  8
Dimensione
 62
     1
100
AcDbPolyline
 90
        6
 70
     0
 43
0.0
 10
0.1304077986126446
 20
0.1998293290629876
 10
0.130585223085741
 20
0.200302249447634
 10
0.1311174928601335
 20
0.200302249447634
 10
0.1312949155107814
 20
0.2007160537907194
 10
0.1317680431866591
 20
0.2016027798430912
 10
0.1321228903104035
 20
0.2018983547523353
  0
LWPOLYLINE
  5
32FD
330
2
100
AcDbEntity
  8
Dimensione
 62
     1
100
AcDbPolyline
 90
        9
 70
     0
 43
0.0
 10
0.0945091735587724
 20
0.2110020728190968
 10
0.0962834055325979
 20
0.2120661443468712
 10
0.1029663460280888
 20
0.2119479135883895
 10
0.1181064571704474
 20
0.2119479135883895
 10
0.1256173724655606
 20
0.2120661443468712
 10
0.1334013889572366
 20
0.2127837231218602
 10
0.1393746370276871
 20
0.2137886786080737
 10
0.142686536226175
 20
0.2144389444681225
 10
0.1432188060005675
 20
0.2146754046604456
  0
LWPOLYLINE
  5
32FE
330
2
100
AcDbEntity
  8
Dimensione
 62
     1
100
AcDbPolyline
 90
       13
 70
     0
 43
0.0
 10
0.1428639588768231
 20
0.2168626611082748
 10
0.142923100975338
 20
0.2157394761882199
 10
0.1432188060005675
 20
0.2150300956112504
 10
0.1432188060005675
 20
0.2146162899435248
 10
0.1431596657245011
 20
0.2140842548419578
 10
0.143337088375149
 20
0.2136704491742321
 10
0.143573653124312
 20
0.2131384140726651
 10
0.143573653124312
 20
0.2088230145692874
 10
0.1470629749734479
 20
0.2084683249431226
 10
0.1472995397226109
 20
0.212310802737214
 10
0.1480092321476515
 20
0.2130201833141835
 10
0.1483640792713958
 20
0.2133748742649882
 10
0.1484232195474624
 20
0.2138477946496346
  0
LWPOLYLINE
  5
32FF
330
2
100
AcDbEntity
  8
Dimensione
 62
     1
100
AcDbPolyline
 90
        2
 70
     0
 43
0.0
 10
0.1433962286512155
 20
0.2146162899435248
 10
0.1486597842966255
 20
0.213966024083476
  0
LWPOLYLINE
  5
3300
330
2
100
AcDbEntity
  8
Dimensione
 62
     1
100
AcDbPolyline
 90
        9
 70
     0
 43
0.0
 10
0.143337088375149
 20
0.2134931036988298
 10
0.1393154949291721
 20
0.2127837231218602
 10
0.1311336452211323
 20
0.2116589168422359
 10
0.125219539249197
 20
0.2111268804160286
 10
0.119778560953139
 20
0.2110677656991078
 10
0.1087482333618119
 20
0.2108300656435845
 10
0.1011781777906325
 20
0.2110665258359076
 10
0.0966243145702631
 20
0.2109482964020662
 10
0.0947318020443046
 20
0.2100615703496943
  0
LWPOLYLINE
  5
3301
330
2
100
AcDbEntity
  8
Dimensione
 62
     1
100
AcDbPolyline
 90
        6
 70
     0
 43
0.0
 10
0.1480400461067816
 20
0.2128113657129532
 10
0.1493839159810808
 20
0.2109457001073306
 10
0.1512504021201019
 20
0.2094531684176166
 10
0.1549833725756957
 20
0.2082591430658454
 10
0.1630465918214915
 20
0.2063188525315372
 10
0.1647637592880845
 20
0.2056472122776857
  0
LWPOLYLINE
  5
3302
330
2
100
AcDbEntity
  8
Dimensione
 62
     1
100
AcDbPolyline
 90
        3
 70
     0
 43
0.0
 10
0.1522209744021073
 20
0.2037815479967032
 10
0.1597615773831812
 20
0.2018412561377551
 10
0.1632705707413573
 20
0.2004233520260069
  0
LWPOLYLINE
  5
3303
330
2
100
AcDbEntity
  8
Dimensione
 62
     1
100
AcDbPolyline
 90
       50
 70
     0
 43
0.0
 10
0.1530422280116849
 20
0.2005726045326582
 10
0.1590149821985936
 20
0.1998263393501213
 10
0.1625986358042077
 20
0.1981099275757901
 10
0.1643158014483524
 20
0.1949756103650707
 10
0.1649130779605124
 20
0.1911696542251398
 10
0.1644651201207803
 20
0.1874383243385348
 10
0.1633452291663473
 20
0.1856472863108779
 10
0.1617027219471922
 20
0.1843040084524554
 10
0.160060214728037
 20
0.1840055021145126
 10
0.1589403237736038
 20
0.1843040084524554
 10
0.1572231563070106
 20
0.1850502736349923
 10
0.155804626185273
 20
0.1862442989867635
 10
0.15461007680585
 20
0.1901995089579857
 10
0.1549833725756957
 20
0.1943785976891851
 10
0.1555059888404175
 20
0.1958711293788989
 10
0.156551221369861
 20
0.1969905284773445
 10
0.1576711123242942
 20
0.1973636610686129
 10
0.159462938215877
 20
0.1972890348152873
 10
0.1609561285850528
 20
0.1969905284773445
 10
0.1625239755567696
 20
0.1957218768722476
 10
0.1633452291663473
 20
0.1940054650979166
 10
0.1640918243509349
 20
0.1911696542251398
 10
0.1639425056785071
 20
0.1885577234369802
 10
0.1632705707413573
 20
0.1869905654939405
 10
0.1625986358042077
 20
0.1861696727334378
 10
0.1604335123203309
 20
0.1857965401421694
 10
0.1587163448537377
 20
0.1860204202267864
 10
0.1575217936518663
 20
0.1866920591559977
 10
0.1569245189621548
 20
0.1876622044231518
 10
0.1564765611224227
 20
0.1891547361128658
 10
0.1563272424499951
 20
0.1905726415492542
 10
0.1563272424499951
 20
0.1920651732389682
 10
0.1571484960595723
 20
0.1940800913512422
 10
0.1581937285890161
 20
0.1947517302804535
 10
0.1590896424460316
 20
0.1947517302804535
 10
0.1603588520728929
 20
0.1943785976891851
 10
0.1608814683376146
 20
0.1938562112666251
 10
0.1612547659299085
 20
0.1929606922527966
 10
0.1615534032747643
 20
0.1921397994922939
 10
0.1619267008670581
 20
0.1907965216338714
 10
0.1614040846023364
 20
0.189378616197483
 10
0.1608814683376146
 20
0.1885577234369802
 10
0.1598362358081711
 20
0.1884084709303289
 10
0.1592389611184596
 20
0.1886323496903059
 10
0.1581937285890161
 20
0.189378616197483
 10
0.1580444099165881
 20
0.19012488270466
 10
0.1579697496691499
 20
0.1910950279718141
 10
0.1587163448537377
 20
0.192363679576911
 10
0.1591643008710215
 20
0.1927368121681794
 10
0.1596869171357432
 20
0.1927368121681794
  0
LWPOLYLINE
  5
3304
330
2
100
AcDbEntity
  8
Dimensione
 62
     1
100
AcDbPolyline
 90
        5
 70
     0
 43
0.0
 10
0.1493839159810808
 20
0.1902741352113114
 10
0.1535648442764067
 20
0.1842293808744895
 10
0.1551326912481233
 20
0.1828114767627414
 10
0.1584923659338718
 20
0.1818413301709471
 10
0.1611054472574805
 20
0.1816920776642958
  0
LWPOLYLINE
  5
3305
330
2
100
AcDbEntity
  8
Dimensione
 62
     1
100
AcDbPolyline
 90
        9
 70
     0
 43
0.0
 10
0.1384089798892688
 20
0.1880353370144203
 10
0.1466961762324823
 20
0.1869905654939405
 10
0.1487866412913696
 20
0.1896771225354258
 10
0.1500558509182304
 20
0.1942293451825336
 10
0.1505038069355142
 20
0.1980352999978242
 10
0.1502798298380967
 20
0.2032591615741434
 10
0.1488612997163592
 20
0.2077367579679255
 10
0.1476667485144876
 20
0.2089307833196968
 10
0.1471441322497659
 20
0.2090054095730224
  0
LWPOLYLINE
  5
3306
330
2
100
AcDbEntity
  8
Dimensione
 62
     1
100
AcDbPolyline
 90
        6
 70
     0
 43
0.0
 10
0.1095633945260753
 20
0.1883246967119809
 10
0.1101606710382354
 20
0.1892948419791349
 10
0.1111312433202404
 20
0.1901903609929633
 10
0.1129977294592618
 20
0.1908619999221746
 10
0.1162827438975716
 20
0.191533640176026
 42
-0.0831875324428107
 10
0.133006457078875
 20
0.1921306528519116
 42
-0.8538543420328929
  0
LWPOLYLINE
  5
3307
330
2
100
AcDbEntity
  8
Dimensione
 62
     1
100
AcDbPolyline
 90
       13
 70
     0
 43
0.0
 10
0.1138189830688393
 20
0.1860858985150898
 10
0.1141922806611332
 20
0.1865336586843241
 10
0.1147895553508445
 20
0.186757537444301
 10
0.1153121716155663
 20
0.1869067912755926
 10
0.1179999113641651
 20
0.1875038039514782
 10
0.1209862884576191
 20
0.187802310289421
 10
0.1274816589092498
 20
0.1881008166273638
 10
0.1331557757513026
 20
0.1878769365427466
 10
0.135022261890324
 20
0.1879515627960723
 10
0.1398751233003506
 20
0.1874291776981525
 10
0.1440560515956765
 20
0.1865336586843241
 10
0.1456985588148314
 20
0.186309778599707
 10
0.1462958353269914
 20
0.1860112722617641
  0
LINE
  5
3312
330
2
100
AcDbEntity
  8
Dimensione
 62
     1
100
AcDbLine
 10
0.1129138252276371
 20
0.1586112152635449
 30
0.0
 11
0.1129138252276371
 21
0.1854385135278615
 31
0.0
  0
LINE
  5
3313
330
2
100
AcDbEntity
  8
Dimensione
 62
     1
100
AcDbLine
 10
0.1477425751326883
 20
0.1626451091182103
 30
0.0
 11
0.1477425751327012
 21
0.1840342021832258
 31
0.0
  0
LWPOLYLINE
  5
3315
330
2
100
AcDbEntity
  8
Dimensione
 62
     1
100
AcDbPolyline
 90
       30
 70
     0
 43
0.0
 10
0.3089548747961795
 20
0.2273269264875764
 10
0.3099512652293759
 20
0.2279021927724003
 42
0.0531382177770021
 10
0.3258095184710402
 20
0.2287591293254493
 10
0.3280341806401746
 20
0.2285329923147687
 10
0.3280718869334327
 20
0.2282691653597507
 10
0.3277702378051138
 20
0.2280430279065129
 10
0.3276194132409542
 20
0.2277792009514949
 10
0.3275817075565692
 20
0.2276661324461546
 10
0.3277325321207288
 20
0.2273646159893565
 10
0.3281095932266909
 20
0.2270254100307783
 10
0.3289768343183898
 20
0.2265731355668599
 10
0.3302211371249241
 20
0.2262339296082816
 10
0.3316539701800028
 20
0.2259324131514836
 10
0.3327851541067626
 20
0.2257439652000258
 10
0.333463864949917
 20
0.2255555172485681
 10
0.3333920775938306
 20
0.2252794885480318
 10
0.3332876211516317
 20
0.225214231713544
 10
0.3331701074258305
 20
0.2250576160188649
 10
0.3330525943089026
 20
0.2249793081715253
 10
0.33290896662477
 20
0.2249532057032646
 10
0.3328045101825712
 20
0.2249271027924466
 10
0.3327000537403724
 20
0.2248879488687767
 10
0.3327261676987038
 20
0.2247052302632797
 10
0.3326869964567702
 20
0.2245616660240095
 10
0.3325303114890354
 20
0.2243789474185124
 10
0.3324911402471017
 20
0.2243267420394336
 10
0.332451969005168
 20
0.2241570748893455
 10
0.332451969005168
 20
0.2233348420497228
 42
-0.218230656213193
 10
0.3341219837048723
 20
0.2205382449934802
 42
-0.2407029580764583
 10
0.3329248758699668
 20
0.2173942856488236
 42
-0.4096406469384263
  0
LWPOLYLINE
  5
3316
330
2
100
AcDbEntity
  8
Dimensione
 62
     1
100
AcDbPolyline
 90
        7
 70
     0
 43
0.0
 10
0.3329248758699668
 20
0.2173942856488236
 42
-0.2073043949757346
 10
0.3285354792575672
 20
0.2171127369318986
 10
0.3274322620899783
 20
0.2183562435437051
 10
0.327056698811839
 20
0.2184031683298593
 10
0.3267750262010162
 20
0.2182858561431953
 10
0.326715975252409
 20
0.218226469830426
 10
0.3266695595832069
 20
0.2179149605015312
  0
LWPOLYLINE
  5
3317
330
2
100
AcDbEntity
  8
Dimensione
 62
     1
100
AcDbPolyline
 90
       17
 70
     0
 43
0.0
 10
0.3262933065069864
 20
0.2179665593661849
 42
0.2101162436316575
 10
0.3255816489315867
 20
0.2182231617150965
 42
0.0747360872629912
 10
0.3173950274164193
 20
0.2185546260199678
 42
0.0812305427148768
 10
0.3162758437695625
 20
0.2182438782618107
 10
0.3161186296911049
 20
0.2181425994812033
 10
0.3160253290218211
 20
0.2180493402802461
 10
0.315967913506357
 20
0.2184008568534224
 10
0.3155947108292214
 20
0.2184367261172961
 10
0.3154583488277761
 20
0.2185012903497116
 10
0.3152430397314762
 20
0.2186949830469579
 10
0.3151353848788897
 20
0.2188528069228877
 10
0.3151353848788897
 20
0.218974761534944
 10
0.3148554834799111
 20
0.2190321523571419
 10
0.3147693595978421
 20
0.2190751950312332
 10
0.3146401743836113
 20
0.2191684546747476
 10
0.3145181659565954
 20
0.2192760615812543
 10
0.3144463962578289
 20
0.2193908427830929
  0
LWPOLYLINE
  5
3318
330
2
100
AcDbEntity
  8
Dimensione
 62
     1
100
AcDbPolyline
 90
       14
 70
     0
 43
0.0
 10
0.3144463962578289
 20
0.2193908427830929
 10
0.3137896651246655
 20
0.2189947673347393
 10
0.3128030940387121
 20
0.2185251897680579
 42
-0.2258459227308503
 10
0.3101357793001816
 20
0.2185251897680579
 42
-0.212361745547246
 10
0.30807150952708
 20
0.2209363092940467
 42
-0.2169044375856328
 10
0.3084890022422903
 20
0.2239502085908933
 42
-0.1252167909587653
 10
0.3098054619211288
 20
0.2251934991162745
 10
0.3097602970021644
 20
0.2264403241407216
 10
0.3095648469108527
 20
0.226586847317663
 10
0.3095255837290812
 20
0.2268001417599494
 10
0.3094579026131726
 20
0.2268790683023031
 10
0.3093958614887775
 20
0.226924169310093
 10
0.3089888079028448
 20
0.2270161079202619
 10
0.3089548747961795
 20
0.2273269264875764
  0
LWPOLYLINE
  5
3319
330
2
100
AcDbEntity
  8
Dimensione
 62
     1
100
AcDbPolyline
 90
       11
 70
     0
 43
0.0
 10
0.3168220187698239
 20
0.2257109968988256
 10
0.3114907813247958
 20
0.2256245822880606
 42
0.2118654709653843
 10
0.3098019494019754
 20
0.2248423411329531
 42
0.2431175418820289
 10
0.3089777854731385
 20
0.2215105317316628
 42
0.2466595037213545
 10
0.3109388457761475
 20
0.2192662474320172
 42
0.2727404034403538
 10
0.3139514889813537
 20
0.2197633989697648
 42
0.3547035454749422
 10
0.3145483337920182
 20
0.2228173302238349
 42
0.2655221200027686
 10
0.3124767422450001
 20
0.2241248272089277
 42
0.3732391459438842
 10
0.3104698965864903
 20
0.2225332438837261
 42
0.3313017793483049
 10
0.3114935535294044
 20
0.2204355945320709
 42
0.1803135934136621
 10
0.3130988541464202
 20
0.2207008847772383
 42
0.700063197032079
  0
LWPOLYLINE
  5
331A
330
2
100
AcDbEntity
  8
Dimensione
 62
     1
100
AcDbPolyline
 90
        9
 70
     0
 43
0.0
 10
0.3130988541464202
 20
0.2207008847772383
 42
-0.0444710235564623
 10
0.3132829103954353
 20
0.2210629474893179
 42
0.3609041157983095
 10
0.3130796910833839
 20
0.2225759170225264
 42
0.2098914672854483
 10
0.3119374567187552
 20
0.2229681683338148
 42
0.3859439230467578
 10
0.3113488213440808
 20
0.222337764140366
 42
0.0557136632951477
 10
0.3114188965490136
 20
0.2216163020256454
 42
0.5183248083268817
 10
0.3125260927023028
 20
0.2211399967038818
 42
0.2737039742427261
 10
0.3129815851876048
 20
0.22200154898358
 42
0.3232616447586275
 10
0.3125681384341356
 20
0.2225198808680239
 42
0.0374480795862873
  0
LWPOLYLINE
  5
331B
330
2
100
AcDbEntity
  8
Dimensione
 62
     1
100
AcDbPolyline
 90
       14
 70
     0
 43
0.0
 10
0.3166830891505212
 20
0.2252644402743797
 10
0.3116017587978821
 20
0.2252644402743797
 42
0.2755477355204203
 10
0.3099174179230379
 20
0.224259939352525
 42
0.0972775375454994
 10
0.3094644863579891
 20
0.2228027059200137
 42
0.1283573614162396
 10
0.3097617229829616
 20
0.2208078521885408
 42
0.3119029357405936
 10
0.3120263826348247
 20
0.2193789145379456
 42
0.2096155853744084
 10
0.314050422335674
 20
0.2203692673475638
 42
0.3424273582586541
 10
0.3141495012106648
 20
0.2226895227923497
 42
0.1982776825103216
 10
0.3124651603358204
 20
0.2237506152780365
 42
0.3008153853925437
 10
0.3109506688739786
 20
0.223085663739174
 42
0.2899007990821092
 10
0.3109365150099255
 20
0.2213879163816552
 42
0.2228986353551722
 10
0.3120688448358571
 20
0.2206522256092813
 42
0.3535431865252948
 10
0.3131728663248094
 20
0.2213171767055865
 42
0.3502188060622535
 10
0.3127647141404086
 20
0.2225296721743893
 42
-0.2083105596307265
  0
LWPOLYLINE
  5
331C
330
2
100
AcDbEntity
  8
Dimensione
 62
     1
100
AcDbPolyline
 90
        9
 70
     0
 43
0.0
 10
0.3164011681194741
 20
0.2242761860711686
 10
0.3130466408427117
 20
0.2249269894977944
 42
0.123110337847758
 10
0.311192450554865
 20
0.2248279540398097
 42
0.1315015882154573
 10
0.309890271315931
 20
0.223271685591871
 42
0.2980298575714637
 10
0.3103007406799474
 20
0.2204421060725967
 42
0.3795238369530074
 10
0.3133014146577788
 20
0.2200742604651311
 42
0.2678213998912962
 10
0.3141223539946847
 20
0.2218003040471232
 42
0.2969908344538946
 10
0.3129334074947947
 20
0.2233424248253825
 42
0.2262721417943532
 10
0.3115038410438906
 20
0.223186798246123
 42
6.221562513953721
  0
LWPOLYLINE
  5
331D
330
2
100
AcDbEntity
  8
Dimensione
 62
     1
100
AcDbPolyline
 90
       26
 70
     0
 43
0.0
 10
0.3205288942112173
 20
0.2259065558599309
 10
0.3246736736207096
 20
0.226287031608318
 10
0.3252657850519047
 20
0.2262165729560933
 10
0.3256182324628507
 20
0.2259770140695982
 42
-0.2140470619817179
 10
0.3258156029399158
 20
0.2210449234608196
 42
-0.1048166701170666
 10
0.3249272838792851
 20
0.2194711217803559
 42
-0.2777815591925589
 10
0.3236433543937393
 20
0.2192641430723661
 42
-0.1289328646360264
 10
0.3223776509155309
 20
0.2207432640580347
 42
-0.1710549700361771
 10
0.3221630761201881
 20
0.2228857070868274
 42
-0.1178304162425118
 10
0.3229102644852643
 20
0.2242385089609911
 42
-0.3918160238437978
 10
0.3250672412763785
 20
0.2244217011027293
 42
-0.2901709589865783
 10
0.3255465693168764
 20
0.2230829906934763
 42
-0.1381276603489263
 10
0.3247429895608884
 20
0.2208565038330248
 42
-0.5985902351119428
 10
0.3232204177441533
 20
0.2210537874396737
 42
-0.0591163214538876
 10
0.3228961666375362
 20
0.2223502230116377
 42
-0.2790844140585953
 10
0.3234459839166743
 20
0.2235902913962877
 42
-0.1835769043626846
 10
0.324348383933934
 20
0.2238169037987308
 42
-0.2526368432090275
 10
0.3249121643424974
 20
0.2234211911620172
 42
-0.2459936400538417
 10
0.3248839686470414
 20
0.2218992890535832
 42
-0.2494821404958794
 10
0.3239394104137733
 20
0.2212792548612582
 42
-0.3718084998992912
 10
0.3233472989825783
 20
0.2217020054469343
 42
-0.171544229667971
 10
0.3234600817644023
 20
0.2228152484346028
 42
-0.286358184941421
 10
0.3240944867387813
 20
0.2232239075553684
 42
-0.3219561305957532
 10
0.3245597175404244
 20
0.222899798551738
 42
-0.1911903149861585
 10
0.3245315212360953
 20
0.2221670308698994
 42
-0.2461832803507201
 10
0.3239112141094443
 20
0.2216738220745559
 42
-0.9659950723724783
  0
LWPOLYLINE
  5
331E
330
2
100
AcDbEntity
  8
Dimensione
 62
     1
100
AcDbPolyline
 90
       11
 70
     0
 43
0.0
 10
0.320558395330597
 20
0.2254968053930245
 10
0.3241815531564073
 20
0.2259618312585468
 42
-0.1592208995920044
 10
0.3253657754099243
 20
0.2257363642795196
 42
-0.2740403236829533
 10
0.3256477335822304
 20
0.2252572469490866
 42
-0.1079316700116677
 10
0.3259437889933914
 20
0.2227630182723189
 42
-0.1153448163097164
 10
0.3250841172443812
 20
0.2202247789187216
 42
-0.3299782863487676
 10
0.3238432035931892
 20
0.2197333050778042
 42
-0.1534209598009635
 10
0.3227012742739832
 20
0.220987465369922
 42
-0.1492733014654253
 10
0.3226159169631452
 20
0.2231869274728355
 42
-0.1620158644954974
 10
0.3233385628713577
 20
0.2241877432205968
 42
-0.2348872444441286
 10
0.3246044898059933
 20
0.2244540206150234
 42
-0.3881492162258324
  0
LWPOLYLINE
  5
331F
330
2
100
AcDbEntity
  8
Dimensione
 62
     1
100
AcDbPolyline
 90
       54
 70
     0
 43
0.0
 10
0.3171436200607151
 20
0.2239846019263893
 10
0.316906514525227
 20
0.2242611032780522
 10
0.3169262730661539
 20
0.2243796041734487
 10
0.3170053084476076
 20
0.2244586046228606
 10
0.3169657907568808
 20
0.2245771050756998
 10
0.3168472376847002
 20
0.2246758559693826
 10
0.3167682029121195
 20
0.22485360686992
 10
0.3168274791437733
 20
0.2250313577704575
 10
0.3168472376847002
 20
0.2251103582198693
 10
0.3168472376847002
 20
0.2252486091169795
 10
0.3167879614530464
 20
0.2254263600175169
 10
0.3167879614530464
 20
0.2255448609129134
 10
0.3168472376847002
 20
0.2256436113640388
 10
0.3169262730661539
 20
0.2257423618151644
 10
0.3169855492978077
 20
0.2259003627139883
 10
0.3169855492978077
 20
0.2260386136110983
 10
0.3169855492978077
 20
0.2261571145064948
 10
0.3170843432201882
 20
0.2262558649576203
 10
0.3171633786016421
 20
0.2263151154053186
 10
0.3172424139830958
 20
0.2264336158581578
 10
0.3173412079054764
 20
0.2265521167535542
 10
0.3174992786683839
 20
0.2266113667586953
 10
0.3176968665131452
 20
0.2265521167535542
 10
0.3178746958169795
 20
0.2265323663092833
 10
0.3181118013524677
 20
0.2266508672046798
 10
0.3182698715065021
 20
0.2267891181017899
 10
0.3184872185010634
 20
0.2268483681069309
 10
0.3186848063458247
 20
0.2268286181052172
 10
0.3188428771087321
 20
0.226710117652378
 10
0.3190009472627666
 20
0.2265916167569816
 10
0.3193170881797084
 20
0.2265126163075697
 10
0.3198703346321385
 20
0.2266113667586953
 10
0.3199493700135922
 20
0.2265718667552679
 10
0.3202259932398072
 20
0.226492866305856
 10
0.3202655109305341
 20
0.2262163645116358
 10
0.3202655109305341
 20
0.226058363612812
 10
0.3202062346988803
 20
0.2258608627105609
 10
0.3204038225436416
 20
0.2257423618151644
 10
0.3205026164660222
 20
0.2255251104686425
 10
0.3204235810845685
 20
0.2253078595646777
 10
0.3203445463119878
 20
0.2252091086709949
 10
0.3204630987752954
 20
0.2250906082181557
 10
0.3206014103884029
 20
0.2248338568682064
 10
0.3204433402343685
 20
0.2246561055251117
 10
0.3203247871621879
 20
0.2245573550739861
 10
0.3204038225436416
 20
0.224419104176876
 10
0.3203247871621879
 20
0.2242611032780522
 10
0.3201469578583535
 20
0.2241228528234993
 10
0.3199691291633922
 20
0.2241821028286403
 10
0.3197517821688309
 20
0.2243203537257505
 10
0.3195739528649966
 20
0.2242808537223231
 10
0.3193763650202352
 20
0.2241623528269267
 10
0.3192973296387815
 20
0.2239451014804047
 10
0.319159018025674
 20
0.2238858514752637
  0
LWPOLYLINE
  5
3320
330
2
100
AcDbEntity
  8
Dimensione
 62
     1
100
AcDbPolyline
 90
       15
 70
     0
 43
0.0
 10
0.317756142744799
 20
0.223925351478691
 10
0.317459760977657
 20
0.2239056014769774
 10
0.3174004841371302
 20
0.2236290996827571
 10
0.317440001827857
 20
0.2232933478833959
 10
0.3175783134409646
 20
0.2232735978816823
 10
0.3176968665131452
 20
0.2233723483328078
 10
0.3178944543579065
 20
0.2235105992299179
 10
0.3179339720486333
 20
0.2236883501304554
 10
0.318032765971014
 20
0.223708100132169
 10
0.3182105952748484
 20
0.2235500992333452
 10
0.3182698715065021
 20
0.2233130978851096
 10
0.3182303544246483
 20
0.2231550969862858
 10
0.3181118013524677
 20
0.222997096087462
 10
0.3179734897393602
 20
0.2229180956380501
 10
0.3178944543579065
 20
0.2228983456363365
  0
LWPOLYLINE
  5
3321
330
2
100
AcDbEntity
  8
Dimensione
 62
     1
100
AcDbPolyline
 90
       16
 70
     0
 43
0.0
 10
0.3192380534071277
 20
0.2228588456329091
 10
0.3190404649534934
 20
0.222997096087462
 10
0.3188626356496591
 20
0.223214347433984
 10
0.3189021533403859
 20
0.2233920983345214
 10
0.3190799826442203
 20
0.2234118487787924
 10
0.3192380534071277
 20
0.2232538478799686
 10
0.3193961235611622
 20
0.2232933478833959
 10
0.319455399792816
 20
0.2234118487787924
 10
0.3193961235611622
 20
0.223708100132169
 10
0.3192380534071277
 20
0.2238463510292791
 10
0.3190799826442203
 20
0.2239451014804047
 10
0.3189811887218396
 20
0.2240043519281029
 10
0.3188626356496591
 20
0.2240833523775148
 10
0.3187440831863515
 20
0.2242018532729113
 10
0.3185860124234439
 20
0.2242018532729113
 10
0.3185267361917902
 20
0.2242018532729113
  0
LWPOLYLINE
  5
3322
330
2
100
AcDbEntity
  8
Dimensione
 62
     1
100
AcDbPolyline
 90
        7
 70
     0
 43
0.0
 10
0.317736384203872
 20
0.2240438523740875
 10
0.3175783134409646
 20
0.2242018532729113
 10
0.317440001827857
 20
0.224359854171735
 10
0.3173412079054764
 20
0.2243006037240368
 10
0.3173016902147496
 20
0.2242018532729113
 10
0.3172028962923689
 20
0.2242808537223231
 10
0.3171238609109152
 20
0.224359854171735
  0
LWPOLYLINE
  5
3323
330
2
100
AcDbEntity
  8
Dimensione
 62
     1
100
AcDbPolyline
 90
        4
 70
     0
 43
0.0
 10
0.317775901894599
 20
0.2242018532729113
 10
0.3174992786683839
 20
0.2244783546245742
 10
0.3173609664464033
 20
0.2245968555199707
 10
0.3172424139830958
 20
0.2245968555199707
  0
LWPOLYLINE
  5
3324
330
2
100
AcDbEntity
  8
Dimensione
 62
     1
100
AcDbPolyline
 90
       17
 70
     0
 43
0.0
 10
0.3179537305895603
 20
0.2242611032780522
 10
0.3176771073633453
 20
0.2245376050722725
 10
0.3175387957502378
 20
0.2247153559728099
 10
0.317459760977657
 20
0.2248141064239355
 10
0.3174004841371302
 20
0.2246956059710962
 10
0.3173412079054764
 20
0.224636355523398
 10
0.3172226548332957
 20
0.2246561055251117
 10
0.3170645846792614
 20
0.2247351059745236
 10
0.3169855492978077
 20
0.2248141064239355
 10
0.3169657907568808
 20
0.224932607319332
 10
0.3170448261383346
 20
0.2250511077721712
 10
0.3172621725240226
 20
0.2251498586658539
 10
0.3174795195185839
 20
0.225130108221583
 10
0.3175387957502378
 20
0.2250313577704575
 10
0.3176178311316914
 20
0.2249128573176183
 10
0.317716625054072
 20
0.22485360686992
 10
0.3178154189764528
 20
0.2246758559693826
  0
LWPOLYLINE
  5
3325
330
2
100
AcDbEntity
  8
Dimensione
 62
     1
100
AcDbPolyline
 90
       16
 70
     0
 43
0.0
 10
0.3179142135077064
 20
0.2245376050722725
 10
0.3175980725907646
 20
0.2249721073227592
 10
0.3174795195185839
 20
0.2252091086709949
 10
0.3173214493645495
 20
0.2254066100158032
 10
0.3172424139830958
 20
0.2254461100192306
 10
0.3172424139830958
 20
0.2252486091169795
 10
0.3170843432201882
 20
0.2252288591152658
 10
0.3170053084476076
 20
0.2253078595646777
 10
0.316906514525227
 20
0.2254263600175169
 10
0.3169460316070808
 20
0.225564610914627
 10
0.3172226548332957
 20
0.2256633613657526
 10
0.3173807255962033
 20
0.2255843609163407
 10
0.3175585549000377
 20
0.2254461100192306
 10
0.3176178311316914
 20
0.2253078595646777
 10
0.317775901894599
 20
0.2250511077721712
 10
0.3179339720486333
 20
0.2248931068733473
  0
LWPOLYLINE
  5
3326
330
2
100
AcDbEntity
  8
Dimensione
 62
     1
100
AcDbPolyline
 90
       17
 70
     0
 43
0.0
 10
0.3181118013524677
 20
0.22485360686992
 10
0.3179932482802871
 20
0.2251893586692812
 10
0.3179142135077064
 20
0.225564610914627
 10
0.3178351781262527
 20
0.2259003627139883
 10
0.3176771073633453
 20
0.2260781140570829
 10
0.3175585549000377
 20
0.2259991136076711
 10
0.317459760977657
 20
0.2258806127122746
 10
0.3172621725240226
 20
0.2259596131616864
 10
0.3172819316738227
 20
0.2261373640622239
 10
0.3174795195185839
 20
0.2262953649610477
 10
0.317775901894599
 20
0.2262953649610477
 10
0.3180722836617409
 20
0.2262558649576203
 10
0.3181315598933946
 20
0.2260386136110983
 10
0.3181513190431946
 20
0.2258016122628627
 10
0.3181513190431946
 20
0.2255053604669288
 10
0.3182501129655752
 20
0.2252486091169795
 10
0.3182501129655752
 20
0.2249128573176183
  0
LWPOLYLINE
  5
3327
330
2
100
AcDbEntity
  8
Dimensione
 62
     1
100
AcDbPolyline
 90
       20
 70
     0
 43
0.0
 10
0.3188231179589322
 20
0.2247351059745236
 10
0.3186650478048977
 20
0.2252881091204068
 10
0.3187045654956246
 20
0.2257621118168781
 10
0.3188231179589322
 20
0.2261373640622239
 10
0.3190009472627666
 20
0.2264138658564441
 10
0.3192380534071277
 20
0.2264533658598715
 10
0.319435641251889
 20
0.2263546154087459
 10
0.3195541937151965
 20
0.226275614959334
 10
0.3196134705557235
 20
0.2263348654070322
 10
0.3196332290966503
 20
0.2264533658598715
 10
0.3197517821688309
 20
0.2263348654070322
 10
0.319712264478104
 20
0.2261571145064948
 10
0.3195541937151965
 20
0.2260386136110983
 10
0.3193368473295084
 20
0.2261768645082085
 10
0.319159018025674
 20
0.2262361149559067
 10
0.3189416710311128
 20
0.2260978640587966
 10
0.318882394799459
 20
0.2259003627139883
 10
0.3188033594180053
 20
0.2255843609163407
 10
0.3188033594180053
 20
0.2252091086709949
 10
0.3188231179589322
 20
0.2250116077687438
  0
LWPOLYLINE
  5
3328
330
2
100
AcDbEntity
  8
Dimensione
 62
     1
100
AcDbPolyline
 90
       11
 70
     0
 43
0.0
 10
0.3189416710311128
 20
0.2247746064205081
 10
0.3193763650202352
 20
0.22584111226629
 10
0.3195146766333428
 20
0.2259398631599728
 10
0.3197715407097578
 20
0.2259596131616864
 10
0.3199493700135922
 20
0.2257226118134508
 10
0.3198505760912115
 20
0.2255843609163407
 10
0.3196134705557235
 20
0.2256436113640388
 10
0.319455399792816
 20
0.2254856104652152
 10
0.3193170881797084
 20
0.2252288591152658
 10
0.3192182942573278
 20
0.2249523573210456
 10
0.3190997417940203
 20
0.2246956059710962
  0
LWPOLYLINE
  5
3329
330
2
100
AcDbEntity
  8
Dimensione
 62
     1
100
AcDbPolyline
 90
       11
 70
     0
 43
0.0
 10
0.3191392588758741
 20
0.224419104176876
 10
0.3192973296387815
 20
0.2247351059745236
 10
0.3193170881797084
 20
0.2250906082181557
 10
0.3195937114059235
 20
0.2253276095663914
 10
0.3198505760912115
 20
0.2253276095663914
 10
0.3198703346321385
 20
0.2251696086675676
 10
0.3197517821688309
 20
0.2250511077721712
 10
0.3195739528649966
 20
0.2249918577670301
 10
0.3195146766333428
 20
0.2247943564222218
 10
0.319435641251889
 20
0.2246166055216844
 10
0.3193170881797084
 20
0.2245376050722725
  0
LWPOLYLINE
  5
332A
330
2
100
AcDbEntity
  8
Dimensione
 62
     1
100
AcDbPolyline
 90
       11
 70
     0
 43
0.0
 10
0.3154443630126982
 20
0.222582343838689
 10
0.3154246038628982
 20
0.2220688411387903
 10
0.3155036392443519
 20
0.2213380866498124
 10
0.3158395387022208
 20
0.2209430844027529
 10
0.3164323028453777
 20
0.2207258330562309
 10
0.3169460316070808
 20
0.2208443339516274
 10
0.3170843432201882
 20
0.2210418348538785
 10
0.3170843432201882
 20
0.2213183366480987
 10
0.3170843432201882
 20
0.2221675915899159
 10
0.3170645846792614
 20
0.2226415942863871
 10
0.3169460316070808
 20
0.2228193451869246
  0
LWPOLYLINE
  5
332B
330
2
100
AcDbEntity
  8
Dimensione
 62
     1
100
AcDbPolyline
 90
       13
 70
     0
 43
0.0
 10
0.316610132149212
 20
0.222720594735799
 10
0.3167682029121195
 20
0.2223255924887396
 10
0.3168472376847002
 20
0.2217330888968718
 10
0.3168472376847002
 20
0.2213183366480987
 10
0.3167089260715927
 20
0.2211208353032904
 10
0.3164125443044508
 20
0.2209430844027529
 10
0.3162742326913432
 20
0.2209825848487375
 10
0.316056885696782
 20
0.221081335299863
 10
0.3158790563929476
 20
0.2212590862004005
 10
0.3157209862389132
 20
0.2214960875486362
 10
0.3156617093983864
 20
0.2218713397939819
 10
0.3156814685481863
 20
0.2221873415916295
 10
0.3156814685481863
 20
0.2226415942863871
  0
LWPOLYLINE
  5
332C
330
2
100
AcDbEntity
  8
Dimensione
 62
     1
100
AcDbPolyline
 90
        8
 70
     0
 43
0.0
 10
0.3171238609109152
 20
0.2227008447340854
 10
0.317183137751442
 20
0.221575087998048
 10
0.3173412079054764
 20
0.221081335299863
 10
0.3174992786683839
 20
0.220864083953341
 10
0.3175980725907646
 20
0.2208048335056429
 10
0.3176178311316914
 20
0.2208838339550547
 10
0.3176178311316914
 20
0.2210615852981494
 10
0.3176178311316914
 20
0.2212195861969731
  0
LWPOLYLINE
  5
332D
330
2
100
AcDbEntity
  8
Dimensione
 62
     1
100
AcDbPolyline
 90
       19
 70
     0
 43
0.0
 10
0.3173214493645495
 20
0.2227600947392263
 10
0.3173807255962033
 20
0.2222465920393277
 10
0.3174004841371302
 20
0.2219700902451075
 10
0.3175387957502378
 20
0.2215948379997617
 10
0.3176573488224183
 20
0.2213380866498124
 10
0.3178154189764528
 20
0.2211800857509886
 10
0.3179537305895603
 20
0.2210615852981494
 10
0.3181710775841215
 20
0.2209825848487375
 10
0.3184674599601365
 20
0.2209628344044666
 10
0.3184279422694096
 20
0.2210220848521649
 10
0.3182303544246483
 20
0.2211800857509886
 10
0.318013007430087
 20
0.221357836651526
 10
0.3178944543579065
 20
0.221575087998048
 10
0.3178351781262527
 20
0.2217725893428564
 10
0.317756142744799
 20
0.2220688411387903
 10
0.317716625054072
 20
0.2222860920427551
 10
0.317716625054072
 20
0.2224638433858497
 10
0.317716625054072
 20
0.2226613442881008
 10
0.317716625054072
 20
0.2227798451834972
  0
LWPOLYLINE
  5
332E
330
2
100
AcDbEntity
  8
Dimensione
 62
     1
100
AcDbPolyline
 90
       14
 70
     0
 43
0.0
 10
0.3188033594180053
 20
0.2227995951852109
 10
0.3190009472627666
 20
0.2225428438352616
 10
0.3190404649534934
 20
0.2222070915933431
 10
0.3190207064125665
 20
0.2216145884440326
 10
0.3189021533403859
 20
0.2213380866498124
 10
0.3186255301141709
 20
0.2210615852981494
 10
0.3185860124234439
 20
0.2209430844027529
 10
0.3187243240365515
 20
0.2209233344010392
 10
0.3188231179589322
 20
0.2209628344044666
 10
0.3190207064125665
 20
0.2210418348538785
 10
0.319159018025674
 20
0.2212393361986868
 10
0.3193170881797084
 20
0.2215355879946207
 10
0.3193566058704353
 20
0.2220293406928057
 10
0.3192775704889816
 20
0.2228193451869246
  0
LWPOLYLINE
  5
332F
330
2
100
AcDbEntity
  8
Dimensione
 62
     1
100
AcDbPolyline
 90
       11
 70
     0
 43
0.0
 10
0.3193961235611622
 20
0.2227995951852109
 10
0.3193566058704353
 20
0.2222070915933431
 10
0.319455399792816
 20
0.2212788362021141
 10
0.3194751589426159
 20
0.2211010853015767
 10
0.3195541937151965
 20
0.2209825848487375
 10
0.3195937114059235
 20
0.2209825848487375
 10
0.3196134705557235
 20
0.2211405857475612
 10
0.3196134705557235
 20
0.2213380866498124
 10
0.3195937114059235
 20
0.2216738384491736
 10
0.3195937114059235
 20
0.222503343389277
 10
0.3195937114059235
 20
0.2228193451869246
  0
LWPOLYLINE
  5
3330
330
2
100
AcDbEntity
  8
Dimensione
 62
     1
100
AcDbPolyline
 90
       15
 70
     0
 43
0.0
 10
0.319712264478104
 20
0.2227995951852109
 10
0.3196925053283041
 20
0.2224638433858497
 10
0.3196925053283041
 20
0.2220293406928057
 10
0.319712264478104
 20
0.2216145884440326
 10
0.3198110584004847
 20
0.2212985866463851
 10
0.3199098523228653
 20
0.2211010853015767
 10
0.3202062346988803
 20
0.2208838339550547
 10
0.320305028621261
 20
0.2209035843993256
 10
0.3203247871621879
 20
0.2209628344044666
 10
0.3201864755490804
 20
0.2211800857509886
 10
0.3201074407764997
 20
0.2213775870957969
 10
0.3199888877043191
 20
0.2217133388951582
 10
0.3199691291633922
 20
0.2221675915899159
 10
0.3199691291633922
 20
0.2226218442846735
 10
0.3200876816266997
 20
0.2228390951886383
  0
LWPOLYLINE
  5
3331
330
2
100
AcDbEntity
  8
Dimensione
 62
     1
100
AcDbPolyline
 90
       14
 70
     0
 43
0.0
 10
0.3201864755490804
 20
0.2228390951886383
 10
0.3212732099130135
 20
0.2227995951852109
 10
0.3213127276037404
 20
0.2224835933875634
 10
0.3213127276037404
 20
0.222009590691092
 10
0.3212732099130135
 20
0.2215948379997617
 10
0.3211744159906328
 20
0.2213380866498124
 10
0.3209965866867985
 20
0.2211405857475612
 10
0.3206804457698566
 20
0.2208443339516274
 10
0.3205026164660222
 20
0.2208838339550547
 10
0.3203445463119878
 20
0.2210418348538785
 10
0.3202062346988803
 20
0.2212393361986868
 10
0.320008646245246
 20
0.2216145884440326
 10
0.3200481639359729
 20
0.2224440929415788
 10
0.3201667170081534
 20
0.2227798451834972
  0
LWPOLYLINE
  5
3332
330
2
100
AcDbEntity
  8
Dimensione
 62
     1
100
AcDbPolyline
 90
       13
 70
     1
 43
0.0
 10
0.3213720038353942
 20
0.2227995951852109
 10
0.321431280675921
 20
0.2218318393479973
 10
0.3213127276037404
 20
0.2215553379963344
 10
0.3211546568408329
 20
0.2211010853015767
 10
0.3210558629184523
 20
0.2209628344044666
 10
0.3211151397589791
 20
0.2208245839499137
 10
0.3212534513720866
 20
0.2209233344010392
 10
0.321411521526121
 20
0.2211603357492749
 10
0.3215300745983016
 20
0.2213973370975106
 10
0.3216486270616092
 20
0.2217133388951582
 10
0.3216486270616092
 20
0.2221083411422176
 10
0.3216486270616092
 20
0.2225230933909907
 10
0.3215893508299554
 20
0.2228588456329091
  0
LWPOLYLINE
  5
3333
330
2
100
AcDbEntity
  8
Dimensione
 62
     1
100
AcDbPolyline
 90
        8
 70
     0
 43
0.0
 10
0.3209570689960716
 20
0.2230168465317329
 10
0.3231700554146649
 20
0.2247351059745236
 10
0.3238813720211293
 20
0.2250116077687438
 10
0.3242172714789981
 20
0.2250906082181557
 10
0.3246717240090475
 20
0.2250116077687438
 10
0.3250471417665162
 20
0.2248141064239355
 10
0.3252644881522044
 20
0.224636355523398
 10
0.3254620766058387
 20
0.224359854171735
  0
LWPOLYLINE
  5
3334
330
2
100
AcDbEntity
  8
Dimensione
 62
     1
100
AcDbPolyline
 90
        9
 70
     0
 43
0.0
 10
0.320581651847476
 20
0.2241623528269267
 10
0.3225180144309812
 20
0.2249918577670301
 10
0.3232688493370455
 20
0.2252288591152658
 10
0.3239999250933099
 20
0.2254658604635015
 10
0.3247705185403012
 20
0.2255251104686425
 10
0.3250076240757894
 20
0.2254856104652152
 10
0.3252644881522044
 20
0.2253276095663914
 10
0.3254225589151119
 20
0.225130108221583
 10
0.3255806290691463
 20
0.224932607319332
  0
LWPOLYLINE
  5
3335
330
2
100
AcDbEntity
  8
Dimensione
 62
     1
100
AcDbPolyline
 90
        8
 70
     0
 43
0.0
 10
0.3153814037076703
 20
0.2225804324339922
 10
0.3158160970879196
 20
0.2226791828851177
 10
0.3166459673754378
 20
0.2226989333293886
 10
0.3171004199054872
 20
0.2227581833345296
 10
0.3178710127436055
 20
0.2228371837839415
 10
0.3189182294168118
 20
0.2228174337822279
 10
0.3196690643228761
 20
0.2227581833345296
 10
0.3201235168529255
 20
0.2228371837839415
  0
LWPOLYLINE
  5
3336
330
2
100
AcDbEntity
  8
Dimensione
 62
     1
100
AcDbPolyline
 90
       19
 70
     0
 43
0.0
 10
0.3148281572552402
 20
0.2226989333293886
 10
0.3146700864923327
 20
0.2229754346810516
 10
0.3147096041830596
 20
0.2230346851287499
 10
0.3147886395645134
 20
0.2230939355764481
 10
0.314610810260679
 20
0.2233704369281111
 10
0.3143144284935371
 20
0.2236271882780604
 10
0.3138204582727608
 20
0.223883940070567
 10
0.3133264880519845
 20
0.2241209414188026
 10
0.3138599759634876
 20
0.2241011909745317
 10
0.314610810260679
 20
0.223666688724045
 10
0.3152628506354895
 20
0.2233111864804128
 10
0.315440679939324
 20
0.2231136855781617
 10
0.315440679939324
 20
0.2229161842333534
 10
0.3153814037076703
 20
0.2227186833311023
 10
0.3152430920945628
 20
0.2226791828851177
 10
0.315183815862909
 20
0.2227581833345296
 10
0.3152430920945628
 20
0.2228766842299261
 10
0.3152430920945628
 20
0.2230149351270362
 10
0.3150455042498014
 20
0.22317293602586
  0
LWPOLYLINE
  5
3337
330
2
100
AcDbEntity
  8
Dimensione
 62
     1
100
AcDbPolyline
 90
        7
 70
     0
 43
0.0
 10
0.3116667486946944
 20
0.2243776927687519
 10
0.312634929986447
 20
0.2244764432198774
 10
0.3132672118203307
 20
0.2244369432164502
 10
0.3140378052673221
 20
0.22429869231934
 10
0.315460439089124
 20
0.2238049396211551
 10
0.3167645198387453
 20
0.2232914364786991
 10
0.3173968016726291
 20
0.2230346851287499
  0
LWPOLYLINE
  5
3338
330
2
100
AcDbEntity
  8
Dimensione
 62
     1
100
AcDbPolyline
 90
        6
 70
     0
 43
0.0
 10
0.3215263915249275
 20
0.2230939355764481
 10
0.3215856683654544
 20
0.2232519364752719
 10
0.3217634976692887
 20
0.2232519364752719
 10
0.3218227739009424
 20
0.2233901869298247
 10
0.3219808440549769
 20
0.2236864387257586
 10
0.3220993971271575
 20
0.2237851891768842
  0
LWPOLYLINE
  5
3339
330
2
100
AcDbEntity
  8
Dimensione
 62
     1
100
AcDbPolyline
 90
        9
 70
     0
 43
0.0
 10
0.309532797657555
 20
0.2268267067005205
 10
0.3101255618007119
 20
0.2271822089441526
 10
0.312358306760232
 20
0.227142708498168
 10
0.3174165602135559
 20
0.227142708498168
 10
0.3199259283992911
 20
0.2271822089441526
 10
0.3225265386543634
 20
0.2274219492791139
 10
0.3245221780783954
 20
0.2277577010784752
 10
0.3256286709832554
 20
0.2279749524249972
 10
0.3258065002870898
 20
0.228053952874409
  0
LWPOLYLINE
  5
333A
330
2
100
AcDbEntity
  8
Dimensione
 62
     1
100
AcDbPolyline
 90
       13
 70
     0
 43
0.0
 10
0.3256879472149092
 20
0.2287847069208297
 10
0.3257077063647092
 20
0.2284094551180412
 10
0.3258065002870898
 20
0.2281724537698055
 10
0.3258065002870898
 20
0.2280342028726954
 10
0.3257867417461629
 20
0.2278564519721579
 10
0.3258460179778166
 20
0.2277182010750478
 10
0.3259250533592704
 20
0.2275404501745104
 10
0.3259250533592704
 20
0.2260986916408255
 10
0.3270908224957842
 20
0.2259801911879863
 10
0.327169857877238
 20
0.2272639483802902
 10
0.3274069634127261
 20
0.2275009497285259
 10
0.3275255164849067
 20
0.2276194506239222
 10
0.3275452750258336
 20
0.2277774515227461
  0
LWPOLYLINE
  5
333B
330
2
100
AcDbEntity
  8
Dimensione
 62
     1
100
AcDbPolyline
 90
        2
 70
     0
 43
0.0
 10
0.3258657765187435
 20
0.2280342028726954
 10
0.3276243104072874
 20
0.2278169515261734
  0
LWPOLYLINE
  5
333C
330
2
100
AcDbEntity
  8
Dimensione
 62
     1
100
AcDbPolyline
 90
        9
 70
     0
 43
0.0
 10
0.3258460179778166
 20
0.2276589506273496
 10
0.3245024189285954
 20
0.2274219492791139
 10
0.3217688941115627
 20
0.2270461557862701
 10
0.3197930138373308
 20
0.2268684044431754
 10
0.3179752037171331
 20
0.2268486544414618
 10
0.314290013291151
 20
0.2267692397584782
 10
0.311760886564489
 20
0.22684824020789
 10
0.3102394582114333
 20
0.2268087402044628
 10
0.3096071769864226
 20
0.2265124884085289
  0
LWPOLYLINE
  5
333D
330
2
100
AcDbEntity
  8
Dimensione
 62
     1
100
AcDbPolyline
 90
        6
 70
     0
 43
0.0
 10
0.3274172582390794
 20
0.227431184563488
 10
0.3278662400443368
 20
0.2268078727922827
 10
0.3284898259526244
 20
0.2263092236408528
 10
0.3297369971603268
 20
0.2259103043197089
 10
0.3324308879918707
 20
0.2252620606441286
 10
0.3330045871005601
 20
0.2250376681940672
  0
LWPOLYLINE
  5
333E
330
2
100
AcDbEntity
  8
Dimensione
 62
     1
100
AcDbPolyline
 90
        3
 70
     0
 43
0.0
 10
0.3288140904544496
 20
0.2244143568654192
 10
0.331333377182963
 20
0.2237661127472818
 10
0.3325057184957046
 20
0.2232923963853413
  0
LWPOLYLINE
  5
333F
330
2
100
AcDbEntity
  8
Dimensione
 62
     1
100
AcDbPolyline
 90
       50
 70
     0
 43
0.0
 10
0.3290884681566765
 20
0.2233422610792057
 10
0.3310839425760988
 20
0.2230929367247693
 10
0.3322812275930759
 20
0.2225194900899857
 10
0.3328549260928923
 20
0.2214723266507043
 10
0.3330544739001584
 20
0.2202007712039187
 10
0.3329048128924906
 20
0.2189541481040655
 10
0.3325306615910672
 20
0.2183557691223495
 10
0.3319819061866134
 20
0.2179069851073412
 10
0.3314331507821596
 20
0.2178072552770553
 10
0.3310589994807361
 20
0.2179069851073412
 10
0.3304853003720467
 20
0.2181563094617775
 10
0.3300113748625537
 20
0.2185552287829215
 10
0.3296122804657677
 20
0.2198766493661286
 10
0.3297369971603268
 20
0.2212728669901323
 10
0.3299116012633572
 20
0.2217715161415621
 10
0.3302608094694181
 20
0.2221455031157739
 10
0.3306349607708415
 20
0.2222701652929921
 10
0.3312336029748935
 20
0.2222452329460599
 10
0.3317324721886222
 20
0.2221455031157739
 10
0.3322562838888403
 20
0.2217216514476978
 10
0.3325306615910672
 20
0.2211482048129142
 10
0.3327800961979314
 20
0.2202007712039187
 10
0.3327302093983333
 20
0.2193281350782771
 10
0.3325057184957046
 20
0.218804553579915
 10
0.3322812275930759
 20
0.2185302964359893
 10
0.3315578680855917
 20
0.2184056342587711
 10
0.3309841689769022
 20
0.2184804317421249
 10
0.3305850739712432
 20
0.218704823749629
 10
0.3303855267728501
 20
0.2190289455874192
 10
0.3302358657651823
 20
0.219527594738849
 10
0.3301859789655841
 20
0.2200013115433468
 10
0.3301859789655841
 20
0.2204999606947767
 10
0.330460356667811
 20
0.2211731371598463
 10
0.3308095648738718
 20
0.2213975291673505
 10
0.3311088862803344
 20
0.2213975291673505
 10
0.3315329243813561
 20
0.2212728669901323
 10
0.3317075284843864
 20
0.2210983396764925
 10
0.3318322457878186
 20
0.2207991501856346
 10
0.3319320193870151
 20
0.2205248930417088
 10
0.3320567366904473
 20
0.2200761090267006
 10
0.3318821325874169
 20
0.2196023922222028
 10
0.3317075284843864
 20
0.2193281350782771
 10
0.3313583202783257
 20
0.2192782703844127
 10
0.3311587730799326
 20
0.2193530674252093
 10
0.3308095648738718
 20
0.2196023922222028
 10
0.3307596780742736
 20
0.2198517170191964
 10
0.3307347343700379
 20
0.2201758388569865
 10
0.3309841689769022
 20
0.2205996905250627
 10
0.3311338293756971
 20
0.2207243527022808
 10
0.3313084334787274
 20
0.2207243527022808
  0
LWPOLYLINE
  5
3340
330
2
100
AcDbEntity
  8
Dimensione
 62
     1
100
AcDbPolyline
 90
        5
 70
     0
 43
0.0
 10
0.3278662400443368
 20
0.2199015817130608
 10
0.3292630722597069
 20
0.2178820523178518
 10
0.329786883959925
 20
0.2174083359559114
 10
0.3309093384730684
 20
0.217084213675564
 10
0.3317823589882203
 20
0.2170343489816996
  0
LWPOLYLINE
  5
3341
330
2
100
AcDbEntity
  8
Dimensione
 62
     1
100
AcDbPolyline
 90
        9
 70
     0
 43
0.0
 10
0.3241995557073174
 20
0.2191536077646373
 10
0.3269682764338222
 20
0.218804553579915
 10
0.3276666928459438
 20
0.2197021220524888
 10
0.3280907309469653
 20
0.2212230022962679
 10
0.3282403913457601
 20
0.2224945573004962
 10
0.3281655614507994
 20
0.2242398295517795
 10
0.3276916359413064
 20
0.2257357774486263
 10
0.3272925409356473
 20
0.2261346967697703
 10
0.3271179368326169
 20
0.2261596291167025
  0
LWPOLYLINE
  5
3342
330
2
100
AcDbEntity
  8
Dimensione
 62
     1
100
AcDbPolyline
 90
        6
 70
     0
 43
0.0
 10
0.3145623555306089
 20
0.2192502817372176
 10
0.3147619033378751
 20
0.2195744035750077
 10
0.3150861678397001
 20
0.2198735930658656
 10
0.3157097537479879
 20
0.2200979850733698
 10
0.3168072645568954
 20
0.2203223775234312
 42
-0.0831875324428107
 10
0.3223945934183762
 20
0.2205218371840031
 42
-0.8538543420328929
  0
LWPOLYLINE
  5
3343
330
2
100
AcDbEntity
  8
Dimensione
 62
     1
100
AcDbPolyline
 90
       13
 70
     0
 43
0.0
 10
0.3159841314502148
 20
0.2185023077887942
 10
0.3161088487536469
 20
0.2186519027555017
 10
0.3163083959520399
 20
0.2187266997962983
 10
0.3164830000550703
 20
0.2187765649327199
 10
0.317380963665585
 20
0.2189760245932919
 10
0.318378700875296
 20
0.2190757544235779
 10
0.3205487793977487
 20
0.2191754842538638
 10
0.3224444802179744
 20
0.21910068677051
 10
0.3230680661262622
 20
0.2191256191174422
 10
0.3246893886353878
 20
0.2189510922463596
 10
0.326086220850758
 20
0.2186519027555017
 10
0.3266349762552118
 20
0.2185771052721479
 10
0.3268345240624779
 20
0.218477375441862
  0
VIEWPORT
  5
7B
330
79
100
AcDbEntity
 67
     1
  8
0
100
AcDbViewport
 10
145.330337524414
 20
101.8116638660431
 30
0.0
 40
351.1337450215151
 41
222.1517806396485
 68
     1
 69
     1
 12
145.330337524414
 22
101.8116638660431
 13
0.0
 23
0.0
 14
10.0
 24
10.0
 15
10.0
 25
10.0
 16
0.0
 26
0.0
 36
1.0
 17
0.0
 27
0.0
 37
0.0
 42
50.0
 43
0.0
 44
0.0
 45
222.1517806396485
 50
0.0
 51
0.0
 72
  1000
 90
    32800
  1

281
     0
 71
     1
 74
     0
110
0.0
120
0.0
130
0.0
111
1.0
121
0.0
131
0.0
112
0.0
122
1.0
132
0.0
 79
     0
146
0.0
170
     0
  0
VIEWPORT
  5
80
330
79
100
AcDbEntity
 67
     1
  8
Sezione
100
AcDbViewport
 10
145.3303314447403
 20
101.8116623163223
 30
0.0
 40
232.5285303115845
 41
162.8986597061157
 68
     2
 69
     2
 12
0.2100067158578973
 22
0.1484909068076998
 13
0.0
 23
0.0
 14
10.0
 24
10.0
 15
10.0
 25
10.0
 16
0.0
 26
0.0
 36
1.0
 17
0.0
 27
0.0
 37
0.0
 42
50.0
 43
0.0
 44
0.0
 45
0.2752830087467564
 50
0.0
 51
0.0
 72
  1000
 90
    32864
  1

281
     0
 71
     1
 74
     0
110
0.0
120
0.0
130
0.0
111
1.0
121
0.0
131
0.0
112
0.0
122
1.0
132
0.0
 79
     0
146
0.0
170
     0
  0
ENDSEC
  0
SECTION
  2
OBJECTS
  0
DICTIONARY
  5
9
330
0
100
AcDbDictionary
281
     1
  3
ACAD_2007HEADERVARS_RT
350
14A
  3
ACAD_COLOR
350
A1
  3
ACAD_GROUP
350
9C
  3
ACAD_IMAGE_DICT
350
3205
  3
ACAD_IMAGE_VARS
350
3207
  3
ACAD_LAYOUT
350
78
  3
ACAD_MATERIAL
350
B
  3
ACAD_MLINESTYLE
350
9D
  3
ACAD_PLOTSETTINGS
350
9E
  3
ACAD_PLOTSTYLENAME
350
8
  3
ACAD_TABLESTYLE
350
A2
  3
ACAD_VISUALSTYLE
350
7F
  3
AcDbVariableDictionary
350
A9
  3
AEC_CLASSIFICATION_SYSTEM_DEFS
350
1217
  3
AEC_PROPERTY_SET_DEFS
350
10D
  3
ASE_INDEX_DICTIONARY
350
249E
  0
DICTIONARY
  5
8B
330
8A
100
AcDbDictionary
280
     1
281
     1
  3
ACAD_LAYERFILTERS
360
25D9
  3
ACAD_LAYERSTATES
360
8D
  3
ACLYDICTIONARY
360
25D8
  0
DICTIONARY
  5
3
330
2
100
AcDbDictionary
280
     1
281
     1
  3
ACAD_SORTENTS
360
A8
  0
DICTIONARY
  5
30BB
330
30AD
100
AcDbDictionary
280
     1
281
     1
  3
ACAD_DIMASSOC
360
30C6
  0
DICTIONARY
  5
30D5
330
30C7
100
AcDbDictionary
280
     1
281
     1
  3
ACAD_DIMASSOC
360
30E0
  0
DICTIONARY
  5
14A
102
{ACAD_REACTORS
330
9
102
}
330
9
100
AcDbDictionary
281
     1
  3
DIMFXL
350
14B
  0
DICTIONARY
  5
A1
102
{ACAD_REACTORS
330
9
102
}
330
9
100
AcDbDictionary
281
     1
  0
DICTIONARY
  5
9C
102
{ACAD_REACTORS
330
9
102
}
330
9
100
AcDbDictionary
281
     1
  0
DICTIONARY
  5
3205
102
{ACAD_REACTORS
330
9
102
}
330
9
100
AcDbDictionary
281
     1
  3
C3220-COL-CORINZI-55386
350
3206
  0
RASTERVARIABLES
  5
3207
102
{ACAD_REACTORS
330
9
102
}
330
9
100
AcDbRasterVariables
 90
        0
 70
     1
 71
     1
 72
     1
  0
DICTIONARY
  5
78
102
{ACAD_REACTORS
330
9
102
}
330
9
100
AcDbDictionary
281
     1
  3
Layout1
350
82
  3
Layout2
350
89
  3
Model
350
77
  0
DICTIONARY
  5
B
102
{ACAD_REACTORS
330
9
102
}
330
9
100
AcDbDictionary
281
     1
  3
ByBlock
350
A0
  3
ByLayer
350
9F
  3
Global
350
A
  0
DICTIONARY
  5
9D
102
{ACAD_REACTORS
330
9
102
}
330
9
100
AcDbDictionary
281
     1
  3
Standard
350
A3
  0
DICTIONARY
  5
9E
102
{ACAD_REACTORS
330
9
102
}
330
9
100
AcDbDictionary
281
     1
  0
ACDBDICTIONARYWDFLT
  5
8
102
{ACAD_REACTORS
330
9
102
}
330
9
100
AcDbDictionary
281
     1
  3
Normal
350
7
100
AcDbDictionaryWithDefault
340
7
  0
DICTIONARY
  5
A2
102
{ACAD_REACTORS
330
9
102
}
330
9
100
AcDbDictionary
281
     1
  3
Standard
350
A4
  0
DICTIONARY
  5
7F
102
{ACAD_REACTORS
330
9
102
}
330
9
100
AcDbDictionary
281
     1
  3
2dWireframe
350
7E
  3
3D Hidden
350
D8
  3
3dWireframe
350
A6
  3
Basic
350
D7
  3
Brighten
350
DB
  3
ColorChange
350
DF
  3
Conceptual
350
D9
  3
Dim
350
DA
  3
Facepattern
350
DE
  3
Flat
350
D3
  3
FlatWithEdges
350
D4
  3
Gouraud
350
D5
  3
GouraudWithEdges
350
D6
  3
Linepattern
350
DD
  3
Realistic
350
A5
  3
Thicken
350
DC
  0
DICTIONARY
  5
A9
102
{ACAD_REACTORS
330
9
102
}
330
9
100
AcDbDictionary
281
     1
  3
CTABLESTYLE
350
AA
  3
DIMASSOC
350
AE
  3
HIDETEXT
350
AD
  3
INDEXCTL
350
AC
  3
PROJECTNAME
350
16A
  3
SORTENTS
350
AB
  0
DICTIONARY
  5
1217
102
{ACAD_REACTORS
330
9
102
}
330
9
100
AcDbDictionary
281
     1
  0
DICTIONARY
  5
10D
102
{ACAD_REACTORS
330
9
102
}
330
9
100
AcDbDictionary
281
     1
  0
DICTIONARY
  5
249E
102
{ACAD_REACTORS
330
9
102
}
330
9
100
AcDbDictionary
281
     1
  3
ASEBlockHierarchyIndexRecord
350
24A0
1001
DCO15
1040
1602050354.187
  0
DICTIONARY
  5
25D9
102
{ACAD_REACTORS
330
8B
102
}
330
8B
100
AcDbDictionary
281
     1
  0
DICTIONARY
  5
8D
102
{ACAD_REACTORS
330
8B
102
}
330
8B
100
AcDbDictionary
281
     1
  0
DICTIONARY
  5
25D8
102
{ACAD_REACTORS
330
8B
102
}
330
8B
100
AcDbDictionary
281
     1
1001
ACAD
1000
<All
  0
SORTENTSTABLE
  5
A8
102
{ACAD_REACTORS
330
3
102
}
330
3
100
AcDbSortentsTable
330
2
331
110
  5
110
331
2FC6
  5
2FC8
331
3159
  5
315D
331
309B
  5
309D
331
32E3
  5
32E4
331
13
  5
D
331
32EB
  5
32EC
331
32F3
  5
32F4
331
32FB
  5
32FC
331
3152
  5
3156
331
23
  5
24
331
3303
  5
3304
331
32DC
  5
32DD
331
2FC7
  5
2FC9
331
315A
  5
315E
331
309C
  5
309E
331
32E4
  5
32E5
331
14
  5
10
331
32EC
  5
32ED
331
321F
  5
323A
331
32F4
  5
32F5
331
32FC
  5
32FD
331
3153
  5
3157
331
24
  5
18
331
3304
  5
3305
331
32DD
  5
32DE
331
3247
  5
3247
331
2FC8
  5
2FCA
331
315B
  5
315F
331
309D
  5
309F
331
D
  5
13
331
32E5
  5
32E6
331
15
  5
11
331
32ED
  5
32EE
331
1D
  5
1E
331
32F5
  5
32F6
331
32FD
  5
32FE
331
30AD
  5
3151
331
3154
  5
3158
331
25
  5
25
331
3305
  5
3306
331
3201
  5
3155
331
32DE
  5
32DF
331
1CA
  5
1CA
331
2FC9
  5
2FCB
331
309E
  5
30AD
331
32E6
  5
32E7
331
16
  5
12
331
32EE
  5
32EF
331
1E
  5
1F
331
32F6
  5
32F7
331
32FE
  5
32FF
331
3155
  5
3159
331
3306
  5
3307
331
32DF
  5
32E0
331
2FCA
  5
2FCC
331
309F
  5
30C7
331
32E7
  5
32E8
331
17
  5
17
331
32EF
  5
32F0
331
1F
  5
21
331
32F7
  5
32F8
331
32FF
  5
3300
331
3156
  5
315A
331
30C7
  5
3152
331
3307
  5
3310
331
3203
  5
320B
331
2FC3
  5
2FC3
331
2FCB
  5
2FCD
331
32E0
  5
32E1
331
10
  5
14
331
32E8
  5
32E9
331
32F0
  5
32F1
331
3223
  5
323B
331
32F8
  5
32F9
331
3157
  5
315B
331
3300
  5
3301
331
32D9
  5
32D9
331
3204
  5
320C
331
2FC4
  5
2FC6
331
32E1
  5
32E2
331
11
  5
15
331
32E9
  5
32EA
331
32F1
  5
32F2
331
3224
  5
323C
331
32F9
  5
32FA
331
21
  5
22
331
3301
  5
3302
331
32DA
  5
32DA
331
10F
  5
10F
331
2FC5
  5
2FC7
331
2FCD
  5
2FCF
331
3158
  5
315C
331
32E2
  5
32E3
331
12
  5
16
331
32EA
  5
32EB
331
32F2
  5
32F3
331
3225
  5
2FC5
331
32FA
  5
32FB
331
3151
  5
3153
331
22
  5
23
331
3302
  5
3303
331
32DB
  5
32DC
  0
DIMASSOC
  5
30C6
102
{ACAD_REACTORS
330
30BB
102
}
330
30BB
100
AcDbDimAssoc
330
30AD
 90
        3
 70
     0
 71
     0
  1
AcDbOsnapPointRef
 72
     1
331
309E
 73
     2
 91
        0
 40
0.9999999999999998
 10
0.0
 20
0.0
 30
2.000000000000000E+50
 75
     0
  1
AcDbOsnapPointRef
 72
     1
331
309D
 73
     2
 91
        0
 40
0.9999999999999998
 10
0.0
 20
0.0
 30
2.000000000000000E+50
 75
     0
  0
DIMASSOC
  5
30E0
102
{ACAD_REACTORS
330
30D5
102
}
330
30D5
100
AcDbDimAssoc
330
30C7
 90
        3
 70
     0
 71
     0
  1
AcDbOsnapPointRef
 72
     1
331
309B
 73
     2
 91
        0
 40
1.0
 10
0.0
 20
0.0
 30
2.000000000000000E+50
 75
     0
  1
AcDbOsnapPointRef
 72
     1
331
309C
 73
     2
 91
        0
 40
1.0
 10
0.0
 20
0.0
 30
2.000000000000000E+50
 75
     0
  0
XRECORD
  5
14B
102
{ACAD_REACTORS
330
14A
102
}
330
14A
100
AcDbXrecord
280
     1
 40
0.18
  0
IMAGEDEF
  5
3206
102
{ACAD_REACTORS
330
3205
102
}
330
3205
100
AcDbRasterImageDef
 90
        0
  1
\\Commander\f\Lavori\BRIOMEDIA\Amadei\Originali\Website\Classicstyl\COLONNE\C3220-COL-CORINZI-55386.jpg
 10
740.0
 20
2864.0
 11
0.01
 21
0.01
280
     1
281
     0
  0
LAYOUT
  5
82
102
{ACAD_XDICTIONARY
360
83
102
}
102
{ACAD_REACTORS
330
78
102
}
330
78
100
AcDbPlotSettings
  1

  2
C:\Documents and Settings\All Users\Dati applicazioni\Autodesk\ADT 2006\enu\Plotters\Default Windows System Printer.pc3
  4
A4
  6

 40
3.174999952316281
 41
3.174999952316281
 42
3.175003051757812
 43
3.17498779296875
 44
209.9733276367186
 45
297.0106506347656
 46
0.0
 47
0.0
 48
0.0
 49
0.0
140
0.0
141
0.0
142
1.0
143
1.0
 70
   688
 72
     1
 73
     1
 74
     5
  7

 75
    16
147
1.0
 76
     0
 77
     2
 78
   300
148
0.0
149
0.0
100
AcDbLayout
  1
Layout1
 70
     1
 71
     1
 10
-3.17498779296875
 20
-3.174999952316281
 11
293.8356628417969
 21
206.7983276844024
 12
0.0
 22
0.0
 32
0.0
 14
29.06606628894805
 24
20.36233246326446
 34
0.0
 15
261.5945966005325
 25
183.2609921693802
 35
0.0
146
0.0
 13
0.0
 23
0.0
 33
0.0
 16
1.0
 26
0.0
 36
0.0
 17
0.0
 27
1.0
 37
0.0
 76
     0
330
79
331
7B
1001
ACAD_PSEXT
1000
C:\Documents and Settings\All Users\Dati applicazioni\Autodesk\ADT 2006\enu\Plotters\Default Windows System Printer.pc3
1000
Microsoft Office Document Image Writer Driver
1000
Microsoft Document Imaging Writer Port:
1000

1070
     0
  0
LAYOUT
  5
89
102
{ACAD_REACTORS
330
78
102
}
330
78
100
AcDbPlotSettings
  1

  2
C:\Documents and Settings\All Users\Dati applicazioni\Autodesk\ADT 2006\enu\Plotters\Default Windows System Printer.pc3
  4

  6

 40
0.0
 41
0.0
 42
0.0
 43
0.0
 44
0.0
 45
0.0
 46
0.0
 47
0.0
 48
0.0
 49
0.0
140
0.0
141
0.0
142
1.0
143
1.0
 70
   688
 72
     0
 73
     0
 74
     5
  7

 75
    16
147
1.0
 76
     0
 77
     2
 78
   300
148
0.0
149
0.0
100
AcDbLayout
  1
Layout2
 70
     1
 71
     2
 10
0.0
 20
0.0
 11
12.0
 21
9.0
 12
0.0
 22
0.0
 32
0.0
 14
0.0
 24
0.0
 34
0.0
 15
0.0
 25
0.0
 35
0.0
146
0.0
 13
0.0
 23
0.0
 33
0.0
 16
1.0
 26
0.0
 36
0.0
 17
0.0
 27
1.0
 37
0.0
 76
     0
330
86
  0
LAYOUT
  5
77
102
{ACAD_REACTORS
330
78
102
}
330
78
100
AcDbPlotSettings
  1

  2
C:\Documents and Settings\All Users\Dati applicazioni\Autodesk\ADT 2006\enu\Plotters\Default Windows System Printer.pc3
  4

  6

 40
0.0
 41
0.0
 42
0.0
 43
0.0
 44
0.0
 45
0.0
 46
0.0
 47
0.0
 48
0.0
 49
0.0
140
0.0
141
0.0
142
1.0
143
1.0
 70
  1712
 72
     0
 73
     0
 74
     0
  7

 75
     0
147
1.0
 76
     0
 77
     2
 78
   300
148
0.0
149
0.0
100
AcDbLayout
  1
Model
 70
     1
 71
     0
 10
0.0
 20
0.0
 11
12.0
 21
9.0
 12
0.0
 22
0.0
 32
0.0
 14
0.0
 24
0.0
 34
0.0
 15
0.0
 25
0.0
 35
0.0
146
0.0
 13
0.0
 23
0.0
 33
0.0
 16
1.0
 26
0.0
 36
0.0
 17
0.0
 27
1.0
 37
0.0
 76
     0
330
2
  0
MATERIAL
  5
A0
102
{ACAD_XDICTIONARY
360
C7
102
}
102
{ACAD_REACTORS
330
B
102
}
330
B
100
AcDbMaterial
  1
ByBlock
  0
MATERIAL
  5
9F
102
{ACAD_XDICTIONARY
360
C5
102
}
102
{ACAD_REACTORS
330
B
102
}
330
B
100
AcDbMaterial
  1
ByLayer
  0
MATERIAL
  5
A
102
{ACAD_XDICTIONARY
360
B1
102
}
102
{ACAD_REACTORS
330
B
102
}
330
B
100
AcDbMaterial
  1
Global
  0
MLINESTYLE
  5
A3
102
{ACAD_REACTORS
330
9D
102
}
330
9D
100
AcDbMlineStyle
  2
STANDARD
 70
     0
  3

 62
   256
 51
90.0
 52
90.0
 71
     2
 49
0.5
 62
   256
  6
BYLAYER
 49
-0.5
 62
   256
  6
BYLAYER
  0
ACDBPLACEHOLDER
  5
7
102
{ACAD_REACTORS
330
8
102
}
330
8
  0
TABLESTYLE
  5
A4
102
{ACAD_XDICTIONARY
360
155
102
}
102
{ACAD_REACTORS
330
A2
102
}
330
A2
100
AcDbTableStyle
  3
Standard
 70
     0
 71
     0
 40
1.5
 41
1.5
280
     0
281
     0
  7
Standard
140
4.5
170
     2
 62
     0
 63
     7
283
     0
274
    -2
284
     1
 64
     0
275
    -2
285
     1
 65
     0
276
    -2
286
     1
 66
     0
277
    -2
287
     1
 67
     0
278
    -2
288
     1
 68
     0
279
    -2
289
     1
 69
     0
  7
Standard
140
6.0
170
     5
 62
     0
 63
     7
283
     0
274
    -2
284
     1
 64
     0
275
    -2
285
     1
 65
     0
276
    -2
286
     1
 66
     0
277
    -2
287
     1
 67
     0
278
    -2
288
     1
 68
     0
279
    -2
289
     1
 69
     0
  7
Standard
140
4.5
170
     5
 62
     0
 63
     7
283
     0
274
    -2
284
     1
 64
     0
275
    -2
285
     1
 65
     0
276
    -2
286
     1
 66
     0
277
    -2
287
     1
 67
     0
278
    -2
288
     1
 68
     0
279
    -2
289
     1
 69
     0
  0
ACAD_PROXY_OBJECT
  5
7E
102
{ACAD_REACTORS
330
7F
102
}
330
7F
100
AcDbProxyObject
 90
      499
 91
      508
 95
  1310743
 70
     1
100
AcDbVisualStyle
  2
2dWireframe
 70
     4
 71
     0
 72
     2
 73
     0
 90
        0
 40
-0.6
 41
-30.0
 62
     5
 63
     7
 74
     1
 91
        4
 64
     7
 65
   257
 75
     1
175
     1
 42
1.0
 92
        0
 66
   257
 43
1.0
 76
     1
 77
     6
 78
     2
 67
     7
 79
     5
170
     0
171
     0
290
     0
174
     0
 93
        1
 44
0.0
173
     0
291
     0
 45
0.0
1001
ACAD
1000
AcDbSavedByObjectVersion
1070
     0
1000
AcDbSavedByObjectVersion
1070
     0
1000
AcDbSavedByObjectVersion
1070
     0
  0
ACAD_PROXY_OBJECT
  5
D8
102
{ACAD_REACTORS
330
7F
102
}
330
7F
100
AcDbProxyObject
 90
      499
 91
      508
 95
  1310743
 70
     1
100
AcDbVisualStyle
  2
3D Hidden
 70
     6
 71
     1
 72
     2
 73
     2
 90
        0
 40
-0.6
 41
-30.0
 62
     5
 63
     7
 74
     2
 91
        2
 64
     7
 65
   257
 75
     2
175
     1
 42
40.0
 92
        0
 66
   257
 43
1.0
 76
     1
 77
     6
 78
     2
 67
     7
 79
     3
170
     0
171
     0
290
     0
174
     0
 93
        1
 44
0.0
173
     0
291
     0
 45
0.0
1001
ACAD
1000
AcDbSavedByObjectVersion
1070
     0
1000
AcDbSavedByObjectVersion
1070
     0
  0
ACAD_PROXY_OBJECT
  5
A6
102
{ACAD_REACTORS
330
7F
102
}
330
7F
100
AcDbProxyObject
 90
      499
 91
      508
 95
  1310743
 70
     1
100
AcDbVisualStyle
  2
3dWireframe
 70
     5
 71
     0
 72
     2
 73
     0
 90
        0
 40
-0.6
 41
-30.0
 62
     5
 63
     7
 74
     1
 91
        4
 64
     7
 65
   257
 75
     1
175
     1
 42
1.0
 92
        0
 66
   257
 43
1.0
 76
     1
 77
     6
 78
     2
 67
     7
 79
     5
170
     0
171
     0
290
     0
174
     0
 93
        1
 44
0.0
173
     0
291
     0
 45
0.0
1001
ACAD
1000
AcDbSavedByObjectVersion
1070
     0
1000
AcDbSavedByObjectVersion
1070
     0
1000
AcDbSavedByObjectVersion
1070
     0
  0
ACAD_PROXY_OBJECT
  5
D7
102
{ACAD_REACTORS
330
7F
102
}
330
7F
100
AcDbProxyObject
 90
      499
 91
      508
 95
  1310743
 70
     1
100
AcDbVisualStyle
  2
Basic
 70
     7
 71
     1
 72
     0
 73
     1
 90
        0
 40
-0.6
 41
-30.0
 62
     5
 63
     7
 74
     0
 91
        4
 64
     7
 65
   257
 75
     1
175
     1
 42
1.0
 92
        8
 66
     7
 43
1.0
 76
     1
 77
     6
 78
     2
 67
     7
 79
     5
170
     0
171
     0
290
     0
174
     0
 93
        1
 44
0.0
173
     0
291
     1
 45
0.0
1001
ACAD
1000
AcDbSavedByObjectVersion
1070
     0
1000
AcDbSavedByObjectVersion
1070
     0
  0
ACAD_PROXY_OBJECT
  5
DB
102
{ACAD_REACTORS
330
7F
102
}
330
7F
100
AcDbProxyObject
 90
      499
 91
      508
 95
  1310743
 70
     1
100
AcDbVisualStyle
  2
Brighten
 70
    12
 71
     2
 72
     2
 73
     0
 90
        0
 40
-0.6
 41
-30.0
 62
     5
 63
     7
 74
     1
 91
        4
 64
     7
 65
   257
 75
     1
175
     1
 42
1.0
 92
        8
 66
     7
 43
1.0
 76
     1
 77
     6
 78
     2
 67
     7
 79
     5
170
     0
171
     0
290
     0
174
     0
 93
        1
 44
50.0
173
     0
291
     1
 45
0.0
1001
ACAD
1000
AcDbSavedByObjectVersion
1070
     0
1000
AcDbSavedByObjectVersion
1070
     0
  0
ACAD_PROXY_OBJECT
  5
DF
102
{ACAD_REACTORS
330
7F
102
}
330
7F
100
AcDbProxyObject
 90
      499
 91
      508
 95
  1310743
 70
     1
100
AcDbVisualStyle
  2
ColorChange
 70
    16
 71
     2
 72
     2
 73
     3
 90
        0
 40
-0.6
 41
-30.0
 62
     5
 63
     8
 74
     1
 91
        4
 64
     7
 65
   257
 75
     1
175
     1
 42
1.0
 92
        8
 66
     8
 43
1.0
 76
     1
 77
     6
 78
     2
 67
     7
 79
     5
170
     0
171
     0
290
     0
174
     0
 93
        1
 44
0.0
173
     0
291
     1
 45
0.0
1001
ACAD
1000
AcDbSavedByObjectVersion
1070
     0
1000
AcDbSavedByObjectVersion
1070
     0
  0
ACAD_PROXY_OBJECT
  5
D9
102
{ACAD_REACTORS
330
7F
102
}
330
7F
100
AcDbProxyObject
 90
      499
 91
      508
 95
  1310743
 70
     1
100
AcDbVisualStyle
  2
Conceptual
 70
     9
 71
     3
 72
     2
 73
     0
 90
        0
 40
-0.6
 41
-30.0
 62
     5
 63
     7
 74
     2
 91
        2
 64
     7
 65
   257
 75
     1
175
     1
 42
40.0
 92
        8
 66
     7
 43
1.0
 76
     1
 77
     6
 78
     2
 67
     7
 79
     3
170
     0
171
     0
290
     0
174
     0
 93
        1
 44
0.0
173
     0
291
     0
 45
0.0
1001
ACAD
1000
AcDbSavedByObjectVersion
1070
     0
1000
AcDbSavedByObjectVersion
1070
     0
  0
ACAD_PROXY_OBJECT
  5
DA
102
{ACAD_REACTORS
330
7F
102
}
330
7F
100
AcDbProxyObject
 90
      499
 91
      508
 95
  1310743
 70
     1
100
AcDbVisualStyle
  2
Dim
 70
    11
 71
     2
 72
     2
 73
     0
 90
        0
 40
-0.6
 41
-30.0
 62
     5
 63
     7
 74
     1
 91
        4
 64
     7
 65
   257
 75
     1
175
     1
 42
1.0
 92
        8
 66
     7
 43
1.0
 76
     1
 77
     6
 78
     2
 67
     7
 79
     5
170
     0
171
     0
290
     0
174
     0
 93
        1
 44
-50.0
173
     0
291
     1
 45
0.0
1001
ACAD
1000
AcDbSavedByObjectVersion
1070
     0
1000
AcDbSavedByObjectVersion
1070
     0
  0
ACAD_PROXY_OBJECT
  5
DE
102
{ACAD_REACTORS
330
7F
102
}
330
7F
100
AcDbProxyObject
 90
      499
 91
      508
 95
  1310743
 70
     1
100
AcDbVisualStyle
  2
Facepattern
 70
    15
 71
     2
 72
     2
 73
     0
 90
        0
 40
-0.6
 41
-30.0
 62
     5
 63
     7
 74
     1
 91
        4
 64
     7
 65
   257
 75
     1
175
     1
 42
1.0
 92
        8
 66
     7
 43
1.0
 76
     1
 77
     6
 78
     2
 67
     7
 79
     5
170
     0
171
     0
290
     0
174
     0
 93
        1
 44
0.0
173
     0
291
     1
 45
0.0
1001
ACAD
1000
AcDbSavedByObjectVersion
1070
     0
1000
AcDbSavedByObjectVersion
1070
     0
  0
ACAD_PROXY_OBJECT
  5
D3
102
{ACAD_REACTORS
330
7F
102
}
330
7F
100
AcDbProxyObject
 90
      499
 91
      508
 95
  1310743
 70
     1
100
AcDbVisualStyle
  2
Flat
 70
     0
 71
     2
 72
     1
 73
     1
 90
        2
 40
-0.6
 41
30.0
 62
     5
 63
     7
 74
     0
 91
        4
 64
     7
 65
   257
 75
     1
175
     1
 42
1.0
 92
        8
 66
     7
 43
1.0
 76
     1
 77
     6
 78
     2
 67
     7
 79
     5
170
     0
171
     0
290
     0
174
     0
 93
       13
 44
0.0
173
     0
291
     1
 45
0.0
1001
ACAD
1000
AcDbSavedByObjectVersion
1070
     0
1000
AcDbSavedByObjectVersion
1070
     0
  0
ACAD_PROXY_OBJECT
  5
D4
102
{ACAD_REACTORS
330
7F
102
}
330
7F
100
AcDbProxyObject
 90
      499
 91
      508
 95
  1310743
 70
     1
100
AcDbVisualStyle
  2
FlatWithEdges
 70
     1
 71
     2
 72
     1
 73
     1
 90
        2
 40
-0.6
 41
30.0
 62
     5
 63
     7
 74
     1
 91
        4
 64
     7
 65
   257
 75
     1
175
     1
 42
1.0
 92
        0
 66
   257
 43
1.0
 76
     1
 77
     6
 78
     2
 67
     7
 79
     5
170
     0
171
     0
290
     0
174
     0
 93
       13
 44
0.0
173
     0
291
     1
 45
0.0
1001
ACAD
1000
AcDbSavedByObjectVersion
1070
     0
1000
AcDbSavedByObjectVersion
1070
     0
  0
ACAD_PROXY_OBJECT
  5
D5
102
{ACAD_REACTORS
330
7F
102
}
330
7F
100
AcDbProxyObject
 90
      499
 91
      508
 95
  1310743
 70
     1
100
AcDbVisualStyle
  2
Gouraud
 70
     2
 71
     2
 72
     2
 73
     1
 90
        2
 40
-0.6
 41
30.0
 62
     5
 63
     7
 74
     0
 91
        4
 64
     7
 65
   257
 75
     1
175
     1
 42
1.0
 92
        0
 66
     7
 43
1.0
 76
     1
 77
     6
 78
     2
 67
     7
 79
     5
170
     0
171
     0
290
     0
174
     0
 93
       13
 44
0.0
173
     0
291
     1
 45
0.0
1001
ACAD
1000
AcDbSavedByObjectVersion
1070
     0
1000
AcDbSavedByObjectVersion
1070
     0
  0
ACAD_PROXY_OBJECT
  5
D6
102
{ACAD_REACTORS
330
7F
102
}
330
7F
100
AcDbProxyObject
 90
      499
 91
      508
 95
  1310743
 70
     1
100
AcDbVisualStyle
  2
GouraudWithEdges
 70
     3
 71
     2
 72
     2
 73
     1
 90
        2
 40
-0.6
 41
30.0
 62
     5
 63
     7
 74
     1
 91
        4
 64
     7
 65
   257
 75
     1
175
     1
 42
1.0
 92
        0
 66
   257
 43
1.0
 76
     1
 77
     6
 78
     2
 67
     7
 79
     5
170
     0
171
     0
290
     0
174
     0
 93
       13
 44
0.0
173
     0
291
     1
 45
0.0
1001
ACAD
1000
AcDbSavedByObjectVersion
1070
     0
1000
AcDbSavedByObjectVersion
1070
     0
  0
ACAD_PROXY_OBJECT
  5
DD
102
{ACAD_REACTORS
330
7F
102
}
330
7F
100
AcDbProxyObject
 90
      499
 91
      508
 95
  1310743
 70
     1
100
AcDbVisualStyle
  2
Linepattern
 70
    14
 71
     2
 72
     2
 73
     0
 90
        0
 40
-0.6
 41
-30.0
 62
     5
 63
     7
 74
     1
 91
        4
 64
     7
 65
   257
 75
     7
175
     7
 42
1.0
 92
        8
 66
     7
 43
1.0
 76
     1
 77
     6
 78
     2
 67
     7
 79
     5
170
     0
171
     0
290
     0
174
     0
 93
        1
 44
0.0
173
     0
291
     1
 45
0.0
1001
ACAD
1000
AcDbSavedByObjectVersion
1070
     0
1000
AcDbSavedByObjectVersion
1070
     0
  0
ACAD_PROXY_OBJECT
  5
A5
102
{ACAD_REACTORS
330
7F
102
}
330
7F
100
AcDbProxyObject
 90
      499
 91
      508
 95
  1310743
 70
     1
100
AcDbVisualStyle
  2
Realistic
 70
     8
 71
     2
 72
     2
 73
     0
 90
        0
 40
-0.6
 41
-30.0
 62
     5
 63
     7
 74
     1
 91
        0
 64
     7
 65
   257
 75
     1
175
     1
 42
1.0
 92
        8
 66
     8
 43
1.0
 76
     1
 77
     6
 78
     2
 67
     7
 79
     5
170
     0
171
     0
290
     0
174
     0
 93
       13
 44
0.0
173
     0
291
     0
 45
0.0
1001
ACAD
1000
AcDbSavedByObjectVersion
1070
     0
1000
AcDbSavedByObjectVersion
1070
     0
1000
AcDbSavedByObjectVersion
1070
     0
  0
ACAD_PROXY_OBJECT
  5
DC
102
{ACAD_REACTORS
330
7F
102
}
330
7F
100
AcDbProxyObject
 90
      499
 91
      508
 95
  1310743
 70
     1
100
AcDbVisualStyle
  2
Thicken
 70
    13
 71
     2
 72
     2
 73
     0
 90
        0
 40
-0.6
 41
-30.0
 62
     5
 63
     7
 74
     1
 91
        4
 64
     7
 65
   257
 75
     1
175
     1
 42
1.0
 92
       12
 66
     7
 43
1.0
 76
     1
 77
     6
 78
     2
 67
     7
 79
     5
170
     0
171
     0
290
     0
174
     0
 93
        1
 44
0.0
173
     0
291
     1
 45
0.0
1001
ACAD
1000
AcDbSavedByObjectVersion
1070
     0
1000
AcDbSavedByObjectVersion
1070
     0
  0
DICTIONARYVAR
  5
AA
102
{ACAD_REACTORS
330
A9
102
}
330
A9
100
DictionaryVariables
280
     0
  1
STANDARD
  0
DICTIONARYVAR
  5
AE
102
{ACAD_REACTORS
330
A9
102
}
330
A9
100
DictionaryVariables
280
     0
  1
2
  0
DICTIONARYVAR
  5
AD
102
{ACAD_REACTORS
330
A9
102
}
330
A9
100
DictionaryVariables
280
     0
  1
1
  0
DICTIONARYVAR
  5
AC
102
{ACAD_REACTORS
330
A9
102
}
330
A9
100
DictionaryVariables
280
     0
  1
0
  0
DICTIONARYVAR
  5
16A
102
{ACAD_REACTORS
330
A9
102
}
330
A9
100
DictionaryVariables
280
     0
  1

  0
DICTIONARYVAR
  5
AB
102
{ACAD_REACTORS
330
A9
102
}
330
A9
100
DictionaryVariables
280
     0
  1
127
  0
XRECORD
  5
24A0
102
{ACAD_REACTORS
330
249E
102
}
330
249E
100
AcDbXrecord
280
     1
330
0
330
0
330
0
330
0
330
0
330
0
330
0
330
0
330
0
330
0
330
0
330
0
330
0
330
0
330
0
330
0
330
0
330
0
330
0
330
0
330
0
330
0
330
0
330
0
330
0
330
0
  0
DICTIONARY
  5
83
330
82
100
AcDbDictionary
280
     1
281
     1
  3
ADSK_XREC_LAYOUTTHUMBNAIL
360
84
  0
DICTIONARY
  5
C7
330
A0
100
AcDbDictionary
280
     1
281
     1
  3
ACAD_XREC_ROUNDTRIP
360
C8
  0
DICTIONARY
  5
C5
330
9F
100
AcDbDictionary
280
     1
281
     1
  3
ACAD_XREC_ROUNDTRIP
360
C6
  0
DICTIONARY
  5
B1
330
A
100
AcDbDictionary
280
     1
281
     1
  3
ACAD_XREC_ROUNDTRIP
360
B2
  0
DICTIONARY
  5
155
330
A4
100
AcDbDictionary
280
     1
281
     1
  3
ACAD_XREC_ROUNDTRIP
360
156
  0
XRECORD
  5
84
102
{ACAD_REACTORS
330
83
102
}
330
83
100
AcDbXrecord
280
     1
310
28000000B40000007F00000001000800000000004C59000000000000000000000001000000000000FFFFFF0000000000FFFFFF000000000000000000000000000000000000000000000000000000000000000000330000006600000099000000CC000000FF00000000330000333300006633000099330000CC330000FF3300
310
0000660000336600006666000099660000CC660000FF66000000990000339900006699000099990000CC990000FF99000000CC000033CC000066CC000099CC0000CCCC0000FFCC000000FF000033FF000066FF000099FF0000CCFF0000FFFF000000003300330033006600330099003300CC003300FF003300003333003333
310
33006633330099333300CC333300FF33330000663300336633006666330099663300CC663300FF66330000993300339933006699330099993300CC993300FF99330000CC330033CC330066CC330099CC3300CCCC3300FFCC330000FF330033FF330066FF330099FF3300CCFF3300FFFF330000006600330066006600660099
310
006600CC006600FF00660000336600333366006633660099336600CC336600FF33660000666600336666006666660099666600CC666600FF66660000996600339966006699660099996600CC996600FF99660000CC660033CC660066CC660099CC6600CCCC6600FFCC660000FF660033FF660066FF660099FF6600CCFF6600
310
FFFF660000009900330099006600990099009900CC009900FF00990000339900333399006633990099339900CC339900FF33990000669900336699006666990099669900CC669900FF66990000999900339999006699990099999900CC999900FF99990000CC990033CC990066CC990099CC9900CCCC9900FFCC990000FF99
310
0033FF990066FF990099FF9900CCFF9900FFFF99000000CC003300CC006600CC009900CC00CC00CC00FF00CC000033CC003333CC006633CC009933CC00CC33CC00FF33CC000066CC003366CC006666CC009966CC00CC66CC00FF66CC000099CC003399CC006699CC009999CC00CC99CC00FF99CC0000CCCC0033CCCC0066CC
310
CC0099CCCC00CCCCCC00FFCCCC0000FFCC0033FFCC0066FFCC0099FFCC00CCFFCC00FFFFCC000000FF003300FF006600FF009900FF00CC00FF00FF00FF000033FF003333FF006633FF009933FF00CC33FF00FF33FF000066FF003366FF006666FF009966FF00CC66FF00FF66FF000099FF003399FF006699FF009999FF00CC
310
99FF00FF99FF0000CCFF0033CCFF0066CCFF0099CCFF00CCCCFF00FFCCFF0000FFFF0033FFFF0066FFFF0099FFFF00CCFFFF00FFFFFF00000000000D0D0D001A1A1A00282828003535350043434300505050005D5D5D006B6B6B00787878008686860093939300A1A1A100AEAEAE00BBBBBB00C9C9C900D6D6D600E4E4E400
310
F1F1F100FFFFFF0000000000000000000000000000000000000000000000000000000000000000000000000000000000E2E2E2E2E2E2E2E2E2E2E2E2E2E2E2E2E2E2E2E2E2E2E2E2E2E2E2E2E2E2E2E2E2E2E2E2E2E2E2E2E2E2E2E2E2E2E2E2E2E2E2E2E2E2E2E2E2E2E2E2E2E2E2E2E2E2E2E2E2E2E2E2E2E2E2E2E2E2E2
310
E2E2E2E2E2E2E2E2E2E2E2E2E2E2E2E2E2E2E2E2E2E2E2E2E2E2E2E2E2E2E2E2E2E2E2E2E2E2E2E2E2E2E2E2E2E2E2E2E2E2E2E2E2E2E2E2E2E2E2E2E2E2E2E2E2E2E2E2E2E2E2E2E2E2E2E2E2E2E2E2E2E2E2E2E2E2E2E2E2E2E2E2E2E2E2E2E2E2E2E2E2E2F5F5F5F5F5F5F5F5F5F5F5F5F5F5F5F5F5F5F5F5F5F5F5F5F5
310
F5F5F5F5F5F5F5F5F5F5F5F5F5F5F5F5F5F5F5F5F5F5F5F5F5F5F5F5F5F5F5F5F5F5F5F5F5F5F5F5F5F5F5F5F5F5F5F5F5F5F5F5F5F5F5F5F5F5F5F5F5F5F5F5F5F5F5F5F5F5F5F5F5F5F5F5F5F5F5F5F5F5F5F5F5F5F5F5F5F5F5F5F5F5F5F5F5F5F5F5F5F5F5F5F5F5F5F5F5F5F5F5F5F5F5F5F5F5F5F5F5F5F5F5F5F5F5
310
F5F5F5F5F5F5F5F5F5F5F5F5F5F5F5F5F5F5F5F5F5F5F5F5F5F5E2E2F5E2E2E2E2E2E2E2E2E2F5F5F5F5F5F5F5F5F5E2E2E2E2E2E2E2E2E2E2E2E2E2E2E2E2F5F5F5F5F5F5F5F5F5E2E2E2E2E2E2E2E2E2E2E2E2E2E2E2E2F5F5F5F5F5F5F5F5F5E2E2E2E2E2E2E2E2E2E2E2E2E2E2E2E2F5F5F5F5F5F5F5F5F5E2E2E2E2E2
310
E2E2E2E2E2E2E2E2E2E2E2F5F5F5F5F5F5F5F5F5E2E2E2E2E2E2E2E2E2E2E2E2E2E2E2E2F5F5F5F5F5F5F5F5F5E2E2E2E2E2E2E2E2E2E2E2E2E2E2E2E2F5F5F5F5F5F5F5F5F5E2E2E2E2E2E2E2E2F5E2E2F5E2F5F5F5F5F5F5F5F5F5F5F5F5F5F5F5F5F5F5F5F5F5F5F5F5F5F5F5F5F5F5F5F5F5F5F5F5F5F5F5F5F5F5F5F5
310
F5F5F5F5F5F5F5F5F5F5F5F5F5F5F5F5F5F5F5F5F5F5F5F5F5F5F5F5F5F5F5F5F5F5F5F5F5F5F5F5F5F5F5F5F5F5F5F5F5F5F5F5F5F5F5F5F5F5F5F5F5F5F5F5F5F5F5F5F5F5F5F5F5F5F5F5F5F5F5F5F5F5F5F5F5F5F5F5F5F5F5F5F5F5F5F5F5F5F5F5F5F5F5F5F5F5F5F5F5F5F5F5F5F5F5F5F5F5F5F5F5F5F5F5F5F5F5
310
F5F5F5E2F5E2E2F5E2F5F5F5F5F5F5F5F5F5F5F5F5F5F5F5F5F5F5F5F5F5F5F5F5F5F5F5F5F5F5F5F5F5F5F5F5F5F5F5F5F5F5F5F5F5F5F5F5F5F5F5F5F5F5F5F5F5F5F5F5F5F5F5F5F5F5F5F5F5F5F5F5F5F5F5F5F5F5F5F5F5F5F5F5F5F5F5F5F5F5F5F5F5F5F5F5F5F5F5F5F5F5F5F5F5F5F5F5F5F5F5F5F5F5F5F5F5F5
310
F5F5F5F5F5F5F5F5F5F5F5F5F5F5F5F5F5F5F5F5F5F5F5F5F5F5F5F5F5F5F5F5F5F5F5F5F5F5F5F5F5F5F5F5F5F5F5F5F5F5F5F5F5F5F5F5E2F5E2E2F5E2F5F5F5F5F5F5F5F5F5F5F5F5F5F5F5F5F5F5F5F5F5F5F5F5F5F5F5F5F5F5F5F5F5F5F5F5F5F5F5F5F5F5F5F5F5F5F5F5F5F5F5F5F5F5F5F5F5F5F5F5F5F5F5F5F5
310
F5F5F5F5F5F5F5F5F5F5F5F5F5F5F5F5F5F5F5F5F5F5F5F5F5F5F5F5F5F5F5F5F5F5F5F5F5F5F5F5F5F5F5F5F5F5F5F5F5F5F5F5F5F5F5F5F5F5F5F5F5F5F5F5F5F5F5F5F5F5F5F5F5F5F5F5F5F5F5F5F5F5F5F5F5F5F5F5F5F5F5F5F5F5F5F5F5F5F5F5F5F5F5F5F5F5F5F5F5E2F5E2E2F5E2F5F5F5F5F5F5F5F5F5F5F5F5
310
F5F5F5F5F5F5F5F5F5F5F5F5F5F5F5F5F5F5F5F5F5F5F5F5F5F5F5F5F5F5F5F5F5F5F5F5F5F5F5F5F5F5F5F5F5F5F5F5F5F5F5F5F5F5F5F5F5F5F5F5F5F5F5F5F5F5F5F5F5F5F5F5F5F5F5F5F5F5F5F5F5F5F5F5F5F5F5F5F5F5F5F5F5F5F5F5F5F5F5F5F5F5F5F5F5F5F5F5F5F5F5F5F5F5F5F5F5F5F5F5F5F5F5F5F5F5F5
310
F5F5F5F5F5F5F5F5F5F5F5F5F5F5F5F5F5F5F5F5F5F5F5F5F5F5F5F5F5F5F5F5F5F5F5E2F5E2E2F5E2F5F5F5F5F5F5F5F5F5F5F5F5F5F5F5F5F5F5F5F5F5F5F5F5F5F5F5F5F5F5F5F5F5F5F5F5F5F5F5F5F5F5F5F5F5F5F5F5F5F5F5F5F5F5F5F5F5F5F5F5F5F5F5F5F5F5F5F5F5F5F5F5F5F5F5F5F5F5F5F5F5F5F5F5F5F5
310
F5F5F5F5F5F5F5F5F5F5F5F5F5F5F5F5F5F5F5F5F5F5F5F5F5F5F5F5F5F5F5F5F5F5F5F5F5F5F5F5F5F5F5F5F5F5F5F5F5F5F5F5F5F5F5F5F5F5F5F5F5F5F5F5F5F5F5F5F5F5F5F5F5F5F5F5F5F5F5F5F5F5F5F5F5F5F5F5E2F5E2E2F5E2F5F5F5F5F5F5F5F5F5F5F5F5F5F5F5F5F5F5F5F5F5F5F5F5F5F5F5F5F5F5F5F5F5
310
F5F5F5F5F5F5F5F5F5F5F5F5F5F5F5F5F5F5F5F5F5F5F5F5F5F5F5F5F5F5F5F5F5F5F5F5F5F5F5F5F5F5F5F5F5F5F5F5F5F5F5F5F5F5F5F5F5F5F5F5F5F5F5F5F5F5F5F5F5F5F5F5F5F5F5F5F5F5F5F5F5F5F5F5F5F5F5F5F5F5F5F5F5F5F5F5F5F5F5F5F5F5F5F5F5F5F5F5F5F5F5F5F5F5F5F5F5F5F5F5F5F5F5F5F5F5F5
310
F5F5F5F5F5F5F5F5F5F5F5F5F5F5E2F5E2E2F5E2F5F5F5F5F5F5F5F5F5F5F5F5F5F5F5F5F5F5F5F5F5F5F5F5F5F5F5F5F5F5F5F5F5F5F5F5F5F5F5F5F5F5F5F5F5F5F5F5F5F5F5F5F5F5F5F5F5F5F5F5F5F5F5F5F5F5F5F5F5F5F5F5F5F5F5F5F5F5F5F5F5F5F5F5F5F5F5F5F5F5F5F5F5F5F5F5F5F5F5F5F5F5F5F5F5F5F5
310
F5F5F5F5F5F5F5F5F5F5F5F5F5F5F5F5F5F5F5F5F5F5F5F5F5F5F5F5F5F5F5F5F5F5F5F5F5F5F5F5F5F5F5F5F5F5F5F5F5F5F5F5F5F5F5F5F5F5F5F5F5F5F5F5F5F5F5E2F5E2E2F5F5F5F5F5F5F5F5F5F5F5F5F5F5F5F5F5F5F5F5F5F5F5F5F5F5F5F5F5F5F5F5F5F5F5F5F5F5F5F5F5F5F5F5F5F5F5F5F5F5F5F5F5F5F5F5
310
F5F5F5F5F5F5F5F5F5F5F5F5F5F5F5F5F5F5F5F5F5F5F5F5F5F5F5F5F5F5F5F5F5F5F5F5F5F5F5F5F5F5F5F5F5F5F5F5F5F5F5F5F5F5F5F5F5F5F5F5F5F5F5F5F5F5F5F5F5F5F5F5F5F5F5F5F5F5F5F5F5F5F5F5F5F5F5F5F5F5F5F5F5F5F5F5F5F5F5F5F5F5F5F5F5F5F5F5F5F5F5F5F5F5F5F5F5F5F5F5F5F5E2E2F5F5F5
310
F5F5F5F5F5F5F5F5F5F5F5F5F5F5F5F5F5F5F5F5F5F5F5F5F5F5F5F5F5F5F5F5F5F5F5F5F5F5F5F5F5F5F5F5F5F5F5F5F5F5F5F5F5F5F5F5F5F5F5F5F5F5F5F5F5F5F5F5F5F5F5F5F5F5F5F5F5F5F5F5F5F5F5F5F5F5F5F5F5F5F5F5F5F5F5F5F5F5F5F5F5F5F5F5F5F5F5F5F5F5F5F5F5F5F5F5F5F5F5F5F5F5F5F5F5F5F5
310
F5F5F5F5F5F5F5F5F5F5F5F5F5F5F5F5F5F5F5F5F5F5F5F5F5F5F5F5F5F5F5F5F5F5F5F5F5F5F5F5F5F5F5F5F5F5F5F5E2E2F5F5F5F5F5F5F5F5F5F5F5F5F5F5F5F5F5F5F5F5F5F5F5F5F5F5F5F5F5F5F5F5F5F5F5F5F5F5F5F5F5F5F5F5F5F5F5F5F5F5F5F5F5F5F5F5F5F5F5F5F5F5F5F5F5F5F5F5F5F5F5F5F5F5F5F5F5
310
F5F5F5F5F5F5F5F5F5F5F5F5F5F5F5F5F5F5F5F5F5F5F5F5F5F5F5F5F5F5F5F5F5F5F5F5F5F5F5F5F5F5F5F5F5F5F5F5F5F5F5F5F5F5F5F5F5F5F5F5F5F5F5F5F5F5F5F5F5F5F5F5F5F5F5F5F5F5F5F5F5F5F5F5F5F5F5F5F5F5F5F5F5F5F5F5F5F5F5F5F5E2E2F5F5F5F5F5F5F5F5F5F5F5F5F5F5F5F5F5F5F5F5F5F5F5F5
310
F5F5F5F5F5F5F5F5F5F5F5F5F5F5F5F5F5F5F5F5F5F5F5F5F5F5F5F5F5F5F5F5F5F5F5F5F5F5F5F5F5F5F5F5F5F5F5F5F5F5F5F5F5F5F5F5F5F5F5F5F5F5F5F5F5F5F5F5F5F5F5F5F5F5F5F5F5F5F5F5F5F5F5F5F5F5F5F5F5F5F5F5F5F5F5F5F5F5F5F5F5F5F5F5F5F5F5F5F5F5F5F5F5F5F5F5F5F5F5F5F5F5F5F5F5F5F5
310
F5F5F5F5F5F5F5F5F5F5F5F5F5F5F5F5F5F5F5F5F5F5F5F5F5F5F5E2E2F5F5F5F5F5F5F5F5F5F5F5F5F5F5F5F5F5F5F5DCDCDCDCDCDCDCDCDCDCDCDCDCDCDCDCDCDCDCDCDCDCDCDCDCDCDCDCDCDCDCDCDCDCDCDCDCDCDCDCDCDCDCDCDCDCDCDCDCDCDCDCDCDCDCDCDCDCDCDCDCDCDCDCDCDCDCDCDCDCDCDCDCDCDCDCDCDCDC
310
DCDCDCDCDCDCDCDCDCDCDCDCDCDCDCDCDCDCDCDCDCDCDCDCDCDCDCDCDCDCDCDCDCDCDCDCDCDCDCDCDCDCDCDCDCDCDCDCDCDCDCDCDCDCDCDCDCDCDCDCDCF5F5F5F5F5F5F5F5F5F5F5F5F5F5F5F5F5F5F5E2E2F5F5F5F5F5F5F5F5F5F5F5F5F5F5F5F5F5F5F5DCDCDCDCDCDCDCDCDCDCDCDCDCDCDCDCDCDCDCDCDCDCDCDCDCDC
310
DCDCDCDCDCDCDCDCDCDCDCDCDCDCDCDCDCDCDCDCDCDCDCDCDCDCDCDCDCDCDCDCDCDCDCDCDCDCDCDCDCDCDCDCDCDCDCDCDCDCDCDCDCDCDCDCDCDCDCDCDCDCDCDCDCDCDCDCDCDCDCDCDCDCDCDCDCDCDCDCDCDCDCDCDCDCDCDCDCDCDCDCDCDCDCDCDCDCDCDCDCDCDCDCDCDCDCDCDCDCDCDCDCDCF5F5F5F5F5F5F5F5F5F5F5F5F5
310
F5F5F5F5F5F5E2E2F5F5F5F5F5F5F5F5F5F5F5F5F5F5F5F5F5F5F5DCF5F5F5F5F5F5F5F5F5F5F5F5F5F5F5F5F5F5F5F5F5F5F5F5F5F5F5F5F5F5F5F5F5F5F5F5F5F5F5F5F5F5F5F5F5F5F5F5F5F5F5F5F5F5F5F5F5F5F5F5F5F5F5F5F5F5F5F5F5F5F5F5F5F5F5F5F5F5F5F5F5F5F5F5F5F5F5F5F5F5F5F5F5F5F5F5F5F5F5
310
F5F5F5F5F5F5F5F5F5F5F5F5F5F5F5F5F5F5F5F5F5F5F5F5F5F5F5F5F5F5F5F5F5F5F5F5F5F5F5DCF5F5F5F5F5F5F5F5F5F5F5F5F5F5F5F5F5F5F5E2E2F5F5F5F5F5F5F5F5F5F5F5F5F5F5F5F5F5F5F5DCF5282828282828282828282828282828282828282828282828282828282828282828282828282828282828282828
310
28282828282828282828282828282828282828282828282828282828282828282828282828282828282828282828282828282828282828282828282828282828282828282828282828282828282828282828282828282828282828F5DCF5F5F5F5F5F5F5F5F5F5F5F5F5F5F5F5F5F5F5E2E2F5F5F5F5F5F5F5F5F5F5F5F5F5
310
F5F5F5F5F5F5DCF5282D2D2D2D2D2D2D2D2D2D2D2D2D2D2D2D2D2D2D2D2DF5F5F5F5F5F5F5F5F5F5F5F5F5F5F5F5F5F5F5F5F5F5F5F5F5F5F5F5F5F5F5F5F5F5F5F5F5F5F5F5F5F5F5F5F528F5F5F5F5F5F5F5F5F5F5F5F5F5F5F5F5F5F5F5F5F5F5F5F5F5F5F5F5F5F5F5F5F5F5F5F5F5F5F5F5F5F5F5F5F5F5F5F5F5F5F5
310
F5F5F5F5F5F5F5F5F5F5F5F5F5F5F5F528F5DCF5F5F5F5F5F5F5F5F5F5F5F5F5F5F5F5F5F5F5E2E2F5E2F5F5F5F5F5F5F5F5F5F5F5F5F5F5F5F5F5DCF5282D2D2D2D2D2D2D2D2D2D2D2D2D2D2D2D2D2D2D2D2D2D2D2D2D2D2D2D2DF5F5F5F5F5F5F5F5F5F5F5F5F5F5F5F5F5F5F5F5F5F5F5F5F5F5F5F5F5F5F5F5F5F5F5F5
310
F528F5F5F5F5F5F5F5F5F5F5F5F5F5F5F5F5F5F5F5F5F5F5F5F5F5F5F5F5F5F5F5F5F5F5F5F5F5F5F5F5F5F5F5F5F5F5F5F5F5F5F5F5F5F5F5F5F5F5F5F5F5F5F5F5F5F5F528F5DCF5F5F5F5F5F5F5F5F5F5F5F5F5F5F5F5F5E2F5E2E2F5E2F5F5F5F5F5F5F5F5F5F5F5F5F5F5F5F5F5DCF5282D2D2D2D2D2D2D2D2D2D2D2D
310
2D2D2D2D2D2D2D2D2D2D2D2D2D2D2D2D2DF5F5F5F5F5F5F5F5F5F5F5F5F5F5F5F5F5F5F5F5F5F5F5F5F5F5F5F5F5F5F5F5F5F5F5F5F528F5F5F5F5F5F5F5F52D2D2D2D2D2D2D2D2D2D2D2D2D2D2D2D2D2D2D2D2D2D2D2D2D2D2D2D2D2D2D2D2D2D2D2D2D2D2D2D2D2D2D2D2D2D2D2D2D2D2DF5F5F5F5F5F5F5F528F5DCF5F5
310
F5F5F5F5F5F5F5F5F5F5F5F5F5F5F5E2F5E2E2F5E2F5F5F5F5F5F5F5F5F5F5F5F5F5F5F5F5F5DCF5282D2D2D2D2D2D2D2D2D2D2D2D2D2D2D2D2D2D2D2D2D2D2D2D2D2D2D2D2D2D2D2D2D2D2D2D2D2D2D2D2D2D2D2D2D2D2D2D2D2D2D2D2D2D2D2D2D2D2D2D2D2D2D2D2D2D28F5F5F5F5F5F5F5F52D2D2D2D2D2D2D2D2D2D2D
310
2D2D2D2D2D2D2D2D2D2D2D2D2D2D2D2D2D2D2D2D2D2D2D2D2D2D2D2D2D2D2D2D2D2D2D2D2D2D2D2DF5F5F5F5F5F5F5F528F5DCF5F5F5F5F5F5F5F5F5F5F5F5F5F5F5F5F5E2F5E2E2F5E2F5F5F5F5F5F5F5F5F5F5F5F5F5F5F5F5F5DCF5282D2D2D2D2D2D2D2D2D2D2D2D2D2D2D2D2D2D2D2D2D2D2D2D2D2D2D2D2D2D2D2D2D
310
2D2D2D2D2D2D2D2D2D2D2D2D2D2D2D2D2D2D2D2D2D2D2D2D2D2D2D2D2DF5F5F5F528F5F5F5F5F5F5F5F5F5F5F5F52D2D2D2D2D2D2D2D2D2D2D2D2D2D2D2D2D2D2D2D2D2D2D2D2D2D2D2D2D2D2D2D2D2D2D2D2D2D2D2D2D2DF5F5F5F5F5F5F5F5F5F5F5F5F528F5DCF5F5F5F5F5F5F5F5F5F5F5F5F5F5F5F5F5E2F5E2E2F5E2
310
F5F5F5F5F5F5F5F5F5F5F5F5F5F5F5F5F5DCF5282D2D2D2D2D2D2D2D2D2D2D2D2D2D2D2D2D2D2D2D2D2D2D2D2D2D2D2D2D2D2D2D2D2D2D2D2D2D2D2D2D2D2D2D2D2D2D2D2D2D2D2D2D2D2D2D2D2D2D2D2D2DF5F5F5F528F5F5F5F5F5F5F5F5F5F5F5F52D2D2D2D2D2D2D2D2D2D2D2D2D2D2D2D2D2D2D2D2D2D2D2D2D2D2D2D
310
2D2D2D2D2D2D2D2D2D2D2D2D2D2DF5F5F5F5F5F5F5F5F5F5F5F5F528F5DCF5F5F5F5F5F5F5F5F5F5F5F5F5F5F5F5F5E2F5E2E2F5E2F5F5F5F5F5F5F5F5F5F5F5F5F5F5F5F5F5DCF5282D2D2D2D2D2D2D2D2D2D2D2D2D2D2D2D2D2D2D2D2D2D2D2D2D2D2D2D2D2D2D2D2D2D2D2D2D2D2D2D2D2D2D2D2D2D2D2D2D2D2D2D2D2D
310
2D2D2D2D2DF5F5F5F5F5F5F528F5F5F5F5F5F5F5F5F5F5F5F5F5F5F5F5F5F5F5F5F5F5F5F5F5F5F5F52D2D2D2D2D2D2D2D2D2DF5F5F5F5F5F5F5F5F5F5F5F5F5F5F5F5F5F5F5F5F5F5F5F5F5F5F5F5F528F5DCF5F5F5F5F5F5F5F5F5F5F5F5F5F5F5F5F5E2F5E2E2F5E2F5F5F5F5F5F5F5F5F5F5F5F5F5F5F5F5F5DCF5282D
310
2D2D2D2D2D2D2D2D2D2D2D2D2D2D2D2D2D2D2D2D2D2D2D2D2D2D2D2D2D2D2DF5F5F5F5F5F5F5F5F5F5F5F5F5F5F5F5F5F5F5F5F5F5F5F5F5F5F5F5F5F5F5F5F5F528F5F5F5F5F5F5F5F5F5F5F5F5F5F5F5F5F5F5F5F5F5F5F5F5F5F5F5F52D2D2D2D2D2D2D2D2D2DF5F5F5F5F5F5F5F5F5F5F5F5F5F5F5F5F5F5F5F5F5F5F5
310
F5F5F5F5F5F528F5DCF5F5F5F5F5F5F5F5F5F5F5F5F5F5F5F5F5E2F5E2E2F5E2F5F5F5F5F5F5F5F5F5F5F5F5F5F5F5F5F5DCF5282D2D2D2D2D2D2D2D2D2D2D2D2D2D2D2D2D2D2D2D2D2D2D2D2D2D2D2D2D2D2D2DF5F5F5F5F5F5F5F5F5F5F5F5F5F5F5F5F5F5F5F5F5F5F5F5F5F5F5F5F5F5F5F5F5F528F5F5F5F5F5F5F5F5
310
F5F5F5F5F5F5F5F5F5F5F5F5F5F5F5F5F5F5F5F52D2D2D2D2D2D2D2D2D2DF5F5F5F5F5F5F5F5F5F5F5F5F5F5F5F5F5F5F5F5F5F5F5F5F5F5F5F5F528F5DCF5F5F5F5F5F5F5F5F5F5F5F5F5F5F5F5F5E2F5E2E2F5E2F5F5F5F5F5F5F5F5F5F5F5F5F5F5F5F5F5DCF5282D2D2D2D2D2D2D2D2D2D2D2D2D2D2D2D2D2D2D2D2D2D
310
2D2D2D2D2D2D2D2D2D2D2D2D2D2D2D2D2D2D2D2D2D2D2D2D2D2D2D2D2D2D2D2D2D2D2D2D2D2D2D2D2D2DF5F528F5F5F5F5F5F5F5F5F5F5F5F5F5F5F5F5F5F5F5F5F5F5F5F5F5F5F5F5F5F5F5F5F5F5F5F5F5F5F5F5F5F5F5F5F5F5F5F5F5F5F5F5F5F5F5F5F5F5F5F5F5F5F5F5F5F5F528F5DCF5F5F5F5F5F5F5F5F5F5F5F5
310
F5F5F5F5F5E2F5E2E2F5E2F5F5F5F5F5F5F5F5F5F5F5F5F5F5F5F5F5DCF528F5F5F5F5F5F5F5F5F5F5F5F5F5F5F5F5F5F5F5F5F5F5F5F5F5F5F5F5F5F5F5F5F5F5F5F5F5F5F5F5F5F5F5F5F5F5F5F5F5F5F5F5F5F5F5F5F5F5F5F5F5F5F5F5F5F528F5F5F5F5F5F5F5F5F5F5F5F5F5F5F5F5F5F5F5F5F5F5F5F5F5F5F5F5F5
310
F5F5F5F5F5F5F5F5F5F5F5F5F5F5F5F5F5F5F5F5F5F5F5F5F5F5F5F5F5F5F5F5F5F5F5F5F5F528F5DCF5F5F5F5F5F5F5F5F5F5F5F5F5F5F5F5F5E2F5E2E2F5E2F5F5F5F5F5F5F5F5F5F5F5F5F5F5F5F5F5DCF52828282828282828282828282828282828282828282828282828282828282828282828282828282828282828
310
2828282828282828282828282828282828282828282828282828282828282828282828282828282828282828282828282828282828282828282828282828282828282828282828282828282828282828282828282828282828282828F5DCF5F5F5F5F5F5F5F5F5F5F5F5F5F5F5F5F5E2F5E2E2F5E2F5F5F5F5F5F5F5F5F5F5
310
F5F5F5F5F5F5F5DCF528F5F5F5F5F5F5F5F5F5F5F5F5F5F5F5F5F5F5F5F5F5F5F5F5F5F5F5F5F5F5F5F5F5F5F5F5F5F5F5F5F5F5F5F5F5F5F5F5F5F5F5F5F5F5F5F5F5F5F5F5F5F5F5F5F5F5F5F5F5F5F5F5F5F5F5F5F5F5F5F5F5F5F5F5F5F5F5F5F5F5F5F5F5F5F5F5F5F5F5F5F5F5F5F5F5F5F5F5F5F5F5F5F5F5F5F5F5
310
F5F5F5F5F5F5F5F5F5F5F5F5F5F5F5F5F528F5DCF5F5F5F5F5F5F5F5F5F5F5F5F5F5F5F5F5E2F5E2E2F5E2F5F5F5F5F5F5F5F5F5F5F5F5F5F5F5F5F5DCF528F5F5F5F5F5F5F5F5F5F5F5F5F5F5F5F5F5F5F5F5F5F5F5F5F5F5F5F5F5F5F5F5F5F5F5F5F5F5F5F5F5F5F5F5F5F5F5F5F5F5F5F5F5F5F5F5F5F5F5F5F5F5F5F5
310
F5F5F5F5F5F5F5F5F5F5F5F5F5F5F5F5F5F5F5F5F5F5F5F5F5F5F5F5F5F5F5F5F5F5F5F5F5F5F5F5F5F5F5F5F5F5F5F5F5F5F5F5F5F5F5F5F5F5F5F5F5F5F5F5F5F5F5F5F5F528F5DCF5F5F5F5F5F5F5F5F5F5F5F5F5F5F5F5F5E2F5E2E2F5E2F5F5F5F5F5F5F5F5F5F5F5F5F5F5F5F5F5DCF528F5F5F5F5F5F5F5F5F5F5F5
310
F5F5F5F5F5F5F5F5F5F5F5F5F5F5F5F5F5F5F5F5F5F5F5F5F5F5F5F5F5F5F5F5F5F5F5F5F5F5F5F5F5F5F5F5F5F5F5F5F5F5F5F5F5F5F5F5F5F5F5F5F5F5F5F5F5F5F5F5F5F5F5F5F5F5F5F5F5F5F5F5F5F5F5F5F5F5F5F5F5F5F5F5F5F5F5F5F5F5F5F5F5F5F5F5F5F5F5F5F5F5F5F5F5F5F5F5F5F5F5F5F5F5F528F5DCF5
310
F5F5F5F5F5F5F5F5F5F5F5F5F5F5F5F5E2F5E2E2F5E2F5F5F5F5F5F5F5F5F5F5F5F5F5F5F5F5F5DCF528F5F5F5F5F5F5F5F5F5F5F5F5F5F5F5F5F5F5F5F5F5F5F5F5F5F5F5F5F5F5F5F5F5F5F5F5F5F5F5F5F5F5F5F5F5F5F5F5F5F5F5F5F5F5F5F5F5F5F5F5F5F5F5F5F5F5F5F5F5F5F5F5F5F5F5F5F5F5F5F5F5F5F5F5F5
310
F5F5F5F5F5F5F5F5F5F5F5F5F5F5F5F5F5F5F5F5F5F5F5F5F5F5F5F5F5F5F5F5F5F5F5F5F5F5F5F5F5F5F5F5F5F5F5F5F528F5DCF5F5F5F5F5F5F5F5F5F5F5F5F5F5F5F5F5E2F5E2E2F5E2F5F5F5F5F5F5F5F5F5F5F5F5F5F5F5F5F5DCF528F5F5F5F5F5F5F5F5F5F5F5F5F5F5F5F5F5F5F5F5F5F5F5F5F5F5F5F5F5F5F5F5
310
F5F5F5F5F5F5F5F5F5F5F5F5F5F5F5F5F5F5F5F5F5F5F5F5F5F5F5F5F5F5F5F5F5F5F5F5F5F5F5F5F5F5F5F5F5F5F5F5F5F5F5F5F5F5F5F5F5F5F5F5F5F5F5F5F5F5F5F5F5F5F5F5F5F5F5F5F5F5F5F5F5F5F5F5F5F5F5F5F5F5F5F5F5F5F5F5F5F5F5F5F5F528F5DCF5F5F5F5F5F5F5F5F5F5F5F5F5F5F5F5F5E2F5E2E2F5
310
F5F5F5F5F5F5F5F5F5F5F5F5F5F5F5F5F5F5DCF528F5F5F5F5F5F5F5F5F5F5F5F5F5F5F5F5F5F5F5F5F5F5F5F5F5F5F5F5F5F5F5F5F5F5F5F5F5F5F5F5F5F5F5F5F5F5F5F5F5F5F5F5F5F5F5F5F5F5F5F5F5F5F5F5F5F5F5F5F5F5F5F5F5F5F5F5F5F5F5F5F5F5F5F5F5F5F5F5F5F5F5F5F5F5F5F5F5F5F5F5F5F5F5F5F5F5
310
F5F5F5F5F5F5F5F5F5F5F5F5F5F5F5F5F5F5F5F5F5F5F5F5F5F5F5F528F5DCF5F5F5F5F5F5F5F5F5F5F5F5F5F5F5F5F5F5F5E2E2F5F5F5F5F5F5F5F5F5F5F5F5F5F5F5F5F5F5F5DCF528F5F5F5F5F5F5F5F5F5F5F5F5F5F5F5F5F5F5F5F5F5F5F5F5F5F5F5F5F5F5F5F5F5F5F5F5F5F5F5F5F5F5F5F5F5F5F5F5F5F5F5F5F5
310
F5F5F5F5F5F5F5F5F5F5F5F5F5F5F5F5F5F5F5F5F5F5F5F5F5F5F5F5F5F5F5F5F5F5F5F5F5F5F5F5F5F5F5F5F5F5F5F5F5F5F5F5F5F5F5F5F5F5F5F5F5F5F5F5F5F5F5F5F5F5F5F5F5F5F5F5F5F5F5F5F528F5DCF5F5F5F5F5F5F5F5F5F5F5F5F5F5F5F5F5F5F5E2E2F5F5F5F5F5F5F5F5F5F5F5F5F5F5F5F5F5F5F5DCF528
310
F5F5F5F5F5F5F5F5F5F5F5F5F5F5F5F5F5F5F5F5F5F5F5F5F5F5F5F5F5F5F5F5F5F5F5F5F5F5F5F5F5F5F5F5F5F5F5F5F5F5F5F5F5F5F5F5F5F5F5F5F5F5F5F5F5F5F5F5F5F5F5F5F5F5F5F5F5F5F5F5F5F5F5F5F5F5F5F5F5F5F5F5F5F5F5F5F5F5F5F5F5F5F5F5F5F5F5F5F5F5F5F5F5F5F5F5F5F5F5F5F5F5F5F5F5F5F5
310
F5F5F5F5F5F5F528F5DCF5F5F5F5F5F5F5F5F5F5F5F5F5F5F5F5F5F5F5E2E2F5F5F5F5F5F5F5F5F5F5F5F5F5F5F5F5F5F5F5DCF528F5F5F5F5F5F5F5F5F5F5F5F5F5F5F5F5F5F5F5F5F5F5F5F5F5F5F5F5F5F5F5F5F5F5F5F5F5F5F5F5F5F5F5F5F5F5F5F5F5F5F5F5F5F5F5F5F5F5F5F5F5F5F5F5F5F5F5F5F5F5F5F5F5F5
310
F5F5F5F5F5F5F5F5F5F5F5F5F5F5F5F5F5F5F5F5F5F5F5F5F5F5F5F5F5F5F5F5F5F5F5F5F5F5F5F5F5F5F5F5F5F5F5F5F5F5F5F5F5F5F5F5F5F5F5F528F5DCF5F5F5F5F5F5F5F5F5F5F5F5F5F5F5F5F5F5F5E2E2F5F5F5F5F5F5F5F5F5F5F5F5F5F5F5F5F5F5F5DCF528F5F5F5F5F5F5F5F5F5F5F5F5F5F5F5F5F5F5F5F5F5
310
F5F5F5F5F5F5F5F5F5F5F5F5F5F5F5F5F5F5F5F5F5F5F5F5F5F5F5F5F5F5F5F5F5F5F5F5F5F5F5F5F5F5F5F5F5F5F5F5F5F5F5F5F5F5F5F5F5F5F5F5F5F5F5F5F5F5F5F5F5F5F5F5F5F5F5F5F5F5F5F5F5F5F5F5F5F5F5F5F5F5F5F5F5F5F5F5F5F5F5F5F5F5F5F5F5F5F5F5F5F5F5F5F528F5DCF5F5F5F5F5F5F5F5F5F5F5
310
F5F5F5F5F5F5F5F5E2E2F5F5F5F5F5F5F5F5F5F5F5F5F5F5F5F5F5F5F5DCF528F5F5F5F5F5F5F5F5F5F5F5F5F5F5F5F5F5F5F5F5F5F5F5F5F5F5F5F5F5F5F5F5F5F5F5F5F5F5F5F5F5F5F5F5F5F5F5F5F5F5F5F5F5F5F5F5F5F5F5F5F5F5F5F5F5F5F5F5F5F5F5F5F5F5F5F5F5F5F5F5F5F5F5F5F5F5F5F5F5F5F5F5F5F5F5
310
F5F5F5F5F5F5F5F5F5F5F5F5F5F5F5F5F5F5F5F5F5F5F5F5F5F5F5F5F5F5F5F5F5F5F5F5F5F5F528F5DCF5F5F5F5F5F5F5F5F5F5F5F5F5F5F5F5F5F5F5E2E2F5F5F5F5F5F5F5F5F5F5F5F5F5F5F5F5F5F5F5DCF528F5F5F5F5F5F5F5F5F5F5F5F5F5F5F5F5F5F5F5F5F5F5F5F5F5F5F5F5F5F5F5F5F5F5F5F5F5F5F5F5F5F5
310
F5F5F5F5F5F5F5F5F5F5F5F5F5F5F5F5F5F5F5F5F5F5F5F5F5F5F5F5F5F5F5F5F5F5F5F5F5F5F5F5F5F5F5F5F5F5F5F5F5F5F5F5F5F5F5F5F5F5F5F5F5F5F5F5F5F5F5F5F5F5F5F5F5F5F5F5F5F5F5F5F5F5F5F5F5F5F5F5F5F5F5F528F5DCF5F5F5F5F5F5F5F5F5F5F5F5F5F5F5F5F5F5F5E2E2F5F5F5F5F5F5F5F5F5F5F5
310
F5F5F5F5F5F5F5F5DCF528F5F5F5F5F5F5F5F5F5F5F5F5F5F5F52D2D2D2D2D2D2D2D2D2DF5F5F5F5F5F5F5F5F5F5F5F5F5F5F5F5F5F5F5F5F5F5F5F5F5F5F5F5F5F5F5F5F5F5F5F5F5F5F5F5F5F5F5F5F5F5F5F5F5F5F5F5F5F5F5F5F5F5F5F5F5F5F5F5F5F5F5F5F5F5F5F5F5F5F5F5F5F5F5F5F5F5F5F5F5F5F5F5F5F5F5
310
F5F5F5F5F5F5F5F5F5F5F5F5F5F5F5F5F5F528F5DCF5F5F5F5F5F5F5F5F5F5F5F5F5F5F5F5F5F5F5E2E2F5E2F5F5F5F5F5F5F5F5F5F5F5F5F5F5F5F5F5DCF528F5F5F5F5F5F5F5F5F5F5F5F5F5F5F52D2D2D2D2D2D2D2D2D2DF5F5F5F5F5F5F5F5F5F5F5F5F5F5F5F5F5F5F5F5F5F5F5F5F5F5F5F5F5F5F5F5F5F5F5F5F5F5
310
F5F5F5F5F5F5F5F5F5F5F5F5F5F5F5F5F5F5F5F5F5F5F5F5F5F5F5F5F5F5F5F5F5F5F5F5F5F5F5F5F5F5F5F5F5F5F5F5F5F5F5F5F5F5F5F5F5F5F5F5F5F5F5F5F5F5F5F5F5F5F528F5DCF5F5F5F5F5F5F5F5F5F5F5F5F5F5F5F5F5E2F5E2E2F5E2F5F5F5F5F5F5F5F5F5F5F5F5F5F5F5F5F5DCF528F5F5F5F5F5F5F5F5F5F5
310
F5F5F5F5F5F5F5F5F5F5F5F5F5F5F5F5F5F5F5F5F5F5F5F5F5F5F5F5F5F5F5F5F5F5F5F5F5F5F5F5F5F5F5F5F5F5F5F5F5F5F5F5F5F5F5F5F5F5F5F5F5F5F5F5F5F5F5F5F5F5F5F5F5F5F5F5F5F5F5F5F5F5F5F5F5F5F5F5F5F5F5F5F5F5F5F5F5F5F5F5F5F5F5F5F5F5F5F5F5F5F5F5F5F5F5F5F5F5F5F5F5F5F5F528F5DC
310
F5F5F5F5F5F5F5F5F5F5F5F5F5F5F5F5F5E2F5E2E2F5E2F5F5F5F5F5F5F5F5F5F5F5F5F5F5F5F5F5DCF528F5F5F5F5F5F5F5F5F5F5F5F5F5F5F5F5F5F5F5F5F5F5F5F5F5F5F5F5F5F5F5F5F5F5F5F5F5F5F5F5F5F5F5F5F5F5F5F5F5F5F5F5F5F5F5F5F5F5F5F5F5F5F5F5F5F5F5F5F5F5F5F5F5F5F5F5F5F5F5F5F5F5F5F5
310
F5F5F5F5F5F5F5F5F5F5F5F5F5F5F5F5F5F5F5F5F5F5F5F5F5F5F5F5F5F5F5F5F5F5F5F5F5F5F5F5F5F5F5F5F5F5F5F5F5F528F5DCF5F5F5F5F5F5F5F5F5F5F5F5F5F5F5F5F5E2F5E2E2F5E2F5F5F5F5F5F5F5F5F5F5F5F5F5F5F5F5F5DCF528F5F5F5F5F5F5F5F5F5F5F5F5F5F5F5F5F5F5F5F5F5F5F5F5F5F5F5F5F5F5F5
310
F5F5F5F5F5F5F5F5F5F5F5F5F5F5F5F5F5F5F5F5F5F5F5F5F5F5F5F5F5F5F5F5F5F5F5F5F5F5F5F5F5F5F5F5F5F5F5F5F5F5F5F5F5F5F5F5F5F5F5F5F5F5F5F5F5F5F5F5F5F5F5F5F5F5F5F5F5F5F5F5F5F5F5F5F5F5F5F5F5F5F5F5F5F5F5F5F5F5F5F5F5F5F528F5DCF5F5F5F5F5F5F5F5F5F5F5F5F5F5F5F5F5E2F5E2E2
310
F5E2F5F5F5F5F5F5F5F5F5F5F5F5F5F5F5F5F5DCF528F5F5F5F5F5F5F5F5F5F5F5F5F5F5F5F5F5F5F5F5F5F5F5F5F5F5F5F5F5F5F5F5F5F5F5F5F5F5F5F5F5F5F5F5F5F5F5F5F5F5F5F5F5F5F5F5F5F5F5F5F5F5F5F5F5F5F5F5F5F5F5F5F5F5F5F5F5F5F5F5F5F5F5F5F5F5F5F5F5F5F5F5F5F5F5F5F5F5F5F5F5F5F5F5F5
310
F5F5F5F5F5F5F5F5F5F5F5F5F5F5F5F5F5F5F5F5F5F5F5F5F5F5F5F5F528F5DCF5F5F5F5F5F5F5F5F5F5F5F5F5F5F5F5F5E2F5E2E2F5E2F5F5F5F5F5F5F5F5F5F5F5F5F5F5F5F5F5DCF528F5F5F5F5F5F5F5F5F5F5F5F5F5F5F5F5F5F5F5F5F5F5F5F5F5F5F5F5F5F5F5F5F5F5F5F5F5F5F5F5F5F5F5F5F5F5F5F5F5F5F5F5
310
F5F5F5F5F5F5F5F5F5F5F5F5F5F5F5F5F5F5F5F5F5F5F5F5F5F5F5F5F5F5F5F5F5F5F5F5F5F5F5F5F5F5F5F5F5F5F5F5F5F5F5F5F5F5F5F5F5F5F5F5F5F5F5F5F5F5F5F5F5F5F5F5F5F5F5F5F5F5F5F5F5F528F5DCF5F5F5F5F5F5F5F5F5F5F5F5F5F5F5F5F5E2F5E2E2F5E2F5F5F5F5F5F5F5F5F5F5F5F5F5F5F5F5F5DCF5
310
28F5F5F5F5F5F5F5F5F5F5F5F5F5F5F5F5F5F5F5F5F5F5F5F5F5F5F5F5F5F5F5F5F5F5F5F5F5F5F5F5F5F5F5F5F5F5F5F5F5F5F5F5F5F5F5F5F5F5F5F5F5F5F5F5F5F5F5F5F5F5F5F5F5F5F5F5F5F5F5F5F5F5F5F5F5F5F5F5F5F5F5F5F5F5F5F5F5F5F5F5F5F5F5F5F5F5F5F5F5F5F5F5F5F5F5F5F5F5F5F5F5F5F5F5F5F5
310
F5F5F5F5F5F5F5F528F5DCF5F5F5F5F5F5F5F5F5F5F5F5F5F5F5F5F5E2F5E2E2F5E2F5F5F5F5F5F5F5F5F5F5F5F5F5F5F5F5F5DCF528F5F5F5F5F5F5F5F5F5F5F5F5F5F5F5F5F5F5F5F5F5F5F5F5F5F5F5F5F5F5F5F5F5F5F5F5F5F5F5F5F5F5F5F5F5F5F5F5F5F5F5F5F5F5F5F5F5F5F5F5F5F5F5F5F5F5F5F5F5F5F5F5F5
310
F5F5F5F5F5F5F5F5F5F5F5F5F5F5F5F5F5F5F5F5F5F5F5F5F5F5F5F5F5F5F5F5F5F5F5F5F5F5F5F5F5F5F5F5F5F5F5F5F5F5F5F5F5F5F5F5F5F5F5F5F528F5DCF5F5F5F5F5F5F5F5F5F5F5F5F5F5F5F5F5E2F5E2E2F5E2F5F5F5F5F5F5F5F5F5F5F5F5F5F5F5F5F5DCF528F5F5F5F5F5F5F5F5F5F5F5F5F5F5F5F5F5F5F5F5
310
F5F5F5F5F5F5F5F5F5F5F5F5F5F5F5F5F5F5F5F5F5F5F5F5F5F5F5F5F5F5F5F5F5F5F5F5F5F5F5F5F5F5F5F5F5F5F5F5F5F5F5F5F5F5F5F5F5F5F5F5F5F5F5F5F5F5F5F5F5F5F5F5F5F5F5F5F5F5F5F5F5F5F5F5F5F5F5F5F5F5F5F5F5F5F5F5F5F5F5F5F5F5F5F5F5F5F5F5F5F5F5F5F5F528F5DCF5F5F5F5F5F5F5F5F5F5
310
F5F5F5F5F5F5F5E2F5E2E2F5E2F5F5F5F5F5F5F5F5F5F5F5F5F5F5F5F5F5DCF528F5F5F5F5F5F5F5F5F5DCF5F5F5F5F5F5F5F5F5F5F5F5F5F5F5F5F5F5F5F5F5F5F5F5F5F5F5F5F5F5F5F5F5F5F5F5F5F5F5F5F5F5F5F5F5F5F5F5F5F5F5F5F5F5F5F5F5F5F5F5F5F5F5F5F5F5F5F5F5F5F5F5F5F5F5F5F5F5F5F5F5F5F5F5
310
F5F5F5F5F5F5F5F5F5F5F5F5F5F5F5F5F5F5F5F5F5F5F5F5F5F5F5F5F5F5F5F5F5F5F5F5F5F5F5F528F5DCF5F5F5F5F5F5F5F5F5F5F5F5F5F5F5F5F5E2F5E2E2F5E2F5F5F5F5F5F5F5F5F5F5F5F5F5F5F5F5F5DCF528F5F5F5F5F5F5F5F50FDCF5F5F5F5F52D2D2D2D2D2D2D2DF5F5F5F5F50FF5F5F5F5F5F5F5F5F5F5F5F5
310
F5F5F5F5F5F5F5F5F5F5F5F5F5F5F5F5F5F5F5F5F5F5F5F5F5F5F5F5F5F5F5F5F5F5F5F5F5F5F5F5F5F5F5F5F5F5F5F5F5F5F5F5F5F5F5F5F5F5F5F5F5F5F5F5F5F5F5F5F5F5F5F5F5F5F5F5F5F5F5F5F5F5F5F5F5F5F5F5F5F5F5F5F528F5DCF5F5F5F5F5F5F5F5F5F5F5F5F5F5F5F5F5E2F5E2E2F5E2F5F5F5F5F5F5F5F5
310
F5F5F5F5F5F5F5F5F5DCF528F5F5F5F5DCF5F5DC0FDC0F0F0F0F0F2D2D2D2D2D2D2D2D0F0F0F0F0F0F0FF5F5F5F5F5F5F5F5F5F5F5F5F5F5F5F5F5F5F5F5F5F5F5F5F5F5F5F5F5F5F5F5F5F5F5F5F5F5F5F5F5F5F5F5F5F5F5F5F5F5F5F5F5F5F5F5F5F5F5F5F5F5F5F5F5F5F5F5F5F5F5F5F5F5F5F5F5F5F5F5F5F5F5F5F5
310
F5F5F5F5F5F5F5F5F5F5F5F5F5F5F5F5F5F5F528F5DCF5F5F5F5F5F5F5F5F5F5F5F5F5F5F5F5F5E2F5E2E2F5E2F5F5F5F5F5F5F5F5F5F5F5F5F5F5F5F5F5DCF528F5F5F5DCF5F5DCF5F5DCF5F5F5F5F5F5F5F5F5F5F5F5F5F5F5F5F5F50FF5F5F5F5F5F5F5F5F5F5F5F5F5F5F5F5F5F5F5F5F5F5F5F5F5F5F5F5F5F5F5F5F5
310
F5F5F5F5F5F5F5F5F5F5F5F5F5F5F5F5F5F5F5F5F5F5F5F5F5F5F5F5F5F5F5F5F5F5F5F5F5F5F5F5F5F5F5F5F5F5F5F5F5F5F5F5F5F5F5F5F5F5F5F5F5F5F5F5F5F5F5F5F5F5F5F528F5DCF5F5F5F5F5F5F5F5F5F5F5F5F5F5F5F5F5E2F5E2E2F5E2F5F5F5F5F5F5F5F5F5F5F5F5F5F5F5F5F5DCF528F5F5F5F5F5DCF5F5DC
310
DCF5F5F5F5F5F5F5F5F5F5F5F5F5F5F5F5F5F50FF5F5F5F5F5F5F5F5F5F5F5F5F5F5F5F5F5F5F5F5F5F5F5F5F5F5F5F5F5F5F5F5F5F5F5F5F5F5F5F5F5F5F5F5F5F5F5F5F5F5F5F5F5F5F5F5F5F5F5F5F5F5F5F5F5F5F5F5F5F5F5F5F5F5F5F5F5F5F5F5F5F5F5F5F5F5F5F5F5F5F5F5F5F5F5F5F5F5F5F5F5F5F5F5F528F5
310
DCF5F5F5F5F5F5F5F5F5F5F5F5F5F5F5F5F5E2F5E2E2F5E2F5F5F5F5F5F5F5F5F5F5F5F5F5F5F5F5F5DCF528F5F5F5F5DCF5F5DCF5DCF5F5F5F5F5F5F5F5F5F5F5F5F5F5F5F5F5F50FF5F5F5F5F5F5F5F5F5F5F5F5F5F5F5F5F5F5F5F5F5F5F5F5F5F5F5F5F5F5F5F5F5F5F5F5F5F5F5F5F5F5F5F5F5F5F5F5F5F5F5F5F5F5
310
F5F5F5F5F5F5F5F5F5F5F5F5F5F5F5F5F5F5F5F5F5F5F5F5F5F5F5F5F5F5F5F5F5F5F5F5F5F5F5F5F5F5F5F5F5F5F5F5F5F5F528F5DCF5F5F5F5F5F5F5F5F5F5F5F5F5F5F5F5F5E2F5E2E2F5E2F5F5F5F5F5F5F5F5F5F5F5F5F5F5F5F5F5DCF528F5F5F5DCF5F5DCF5F5DCF5F5F5F5F5F5F5F5F5F5F5F5F5F5F5F5F5F50FF5
310
F5F5F5F5F5F5F5F5F5F5F5F5F5F5F5F5F5F5F5F5F5F5F5F5F5F5F5F5F5F5F5F5F5F5F5F5F5F5F5F5F5F5F5F5F5F5F5F5F5F5F5F5F5F5F5F5F5F5F5F5F5F5F5F5F5F5F5F5F5F5F5F5F5F5F5F5F5F5F5F5F5F5F5F5F5F5F5F5F5F5F5F5F5F5F5F5F5F5F5F5F5F5F5F528F5DCF5F5F5F5F5F5F5F5F5F5F5F5F5F5F5F5F5E2F5E2
310
E2F5F5F5F5F5F5F5F5F5F5F5F5F5F5F5F5F5F5F5DCF528F5F5F5F5F5DCF5F5F5DC1B0F0F0F0F0F0F0F0F0F0F0F0F0F0F0F0F0F0F0F0F0F0F0F0F0FF5F5F5F5F5F5F5F5F5F5F5F5F5F5F5F5F5F5F5F5F5F5F5F5F5F5F5F5F5F5F5F5F5F5F5F5F5F5F5F5F5F5F5F5F5F5F5F5F5F5F5F5F5F5F5F5F5F5F5F5F5F5F5F5F5F5F5F5
310
F5F5F5F5F5F5F5F5F5F5F5F5F5F5F5F5F5F5F5F5F5F5F5F5F5F5F5F5F5F528F5DCF5F5F5F5F5F5F5F5F5F5F5F5F5F5F5F5F5F5F5E2E2F5F5F5F5F5F5F5F5F5F5F5F5F5F5F5F5F5F5F5DCF528F5F5F5F5DCF5F5F5DCDCBEF5F5F5F5F5F5F5F5F5F5F5F5F5F5F5F5F50FF5F5F5F5F50FF5F5F5F5F5F5F5F5F5F5F5F5F5F5F5F5
310
F5F5F5F5F5F5F5F5F5F5F5F5F5F5F5F5F5F5F5F5F5F5F5F5F5F5F5F5F5F5F5F5F5F5F5F5F5F5F5F5F5F5F5F5F5F5F5F5F5F5F5F5F5F5F5F5F5F5F5F5F5F5F5F5F5F5F5F5F5F5F5F5F5F5F5F5F5F5F5F5F5F5F528F5DCF5F5F5F5F5F5F5F5F5F5F5F5F5F5F5F5F5F5F5E2E2F5F5F5F5F5F5F5F5F5F5F5F5F5F5F5F5F5F5F5DC
310
F528F5F5F5DCF5F5F5DCF5DCF5BEBEF5F5F5F5F5F5F5F5F5F5F5F5F5F5F50FF5F5F5F5F50FF5F5F5F5F5F5F5F5F5F5F5F5F5F5F5F5F5F5F5F5F5F5F5F5F5F5F5F5F5F5F5F5F5F5F5F5F5F5F5F5F5F5F5F5F5F5F5F5F5F5F5F5F5F5F5F5F5F5F5F5F5F5F5F5F5F5F5F5F5F5F5F5F5F5F5F5F5F5F5F5F5F5F5F5F5F5F5F5F5F5
310
F5F5F5F5F5F5F5F5F528F5DCF5F5F5F5F5F5F5F5F5F5F5F5F5F5F5F5F5F5F5E2E2F5F5F5F5F5F5F5F5F5F5F5F5F5F5F5F5F5F5F5DCF528F5F5F5F5F5DCDCF5F5DCF5F5BEBEF5F5F5F5F5F5F5F5F5F5F5F5F5F50FF5F5F5F5F50FF5F5F5F5F5F5F5F5F5F5F5F5F5F5F5F5F5F5F5F5F5F5F5F5F5F5F5F5F5F5F5F5F5F5F5F5F5
310
F5F5F5F5F5F5F5F5F5F5F5F5F5F5F5F5F5F5F5F5F5F5F5F5F5F5F5F5F5F5F5F5F5F5F5F5F5F5F5F5F5F5F5F5F5F5F5F5F5F5F5F5F5F5F5F5F5F5F5F5F5F528F5DCF5F5F5F5F5F5F5F5F5F5F5F5F5F5F5F5F5F5F5E2E2F5F5F5F5F5F5F5F5F5F5F5F5F5F5F5F5F5F5F5DCF528F5F5F5F5DCF5F5F5DCDCF5F5F5BEF5F5F5F5F5
310
F5F5F5F5F5F5F5F5F50FF5F5F5F5F50FF5F5F5F5F5F5F5F5F5F5F5F5F5F5F5F5F5F5F5F5F5F5F5F5F5F5F5F5F5F5F5F5F5F5F5F5F5F5F5F5F5F5F5F5F5F5F5F5F5F5F5F5F5F5F5F5F5F5F5F5F5F5F5F5F5F5F5F5F5F5F5F5F5F5F5F5F5F5F5F5F5F5F5F5F5F5F5F5F5F5F5F5F5F5F5F5F5F5F528F5DCF5F5F5F5F5F5F5F5F5
310
F5F5F5F5F5F5F5F5F5F5E2E2F5F5F5F5F5F5F5F5F5F5F5F5F5F5F5F5F5F5F5DCF528F5F5F5DCF5F5F5DCF5DCF5F5F5BEBEBEF5F5F5F5F5F5F5F5F5F5F5F50FF5F5F5F5F50FF5F5F5F5F5F5F5F5F5F5F5F5F5F5F5F5F5F5F5F5F5F5F5F5F5F5F5F5F5F5F5F5F5F5F5F5F5F5F5F5F5F5F5F5F5F5F5F5F5F5F5F5F5F5F5F5F5F5
310
F5F5F5F5F5F5F5F5F5F5F5F5F5F5F5F5F5F5F5F5F5F5F5F5F5F5F5F5F5F5F5F5F5F5F5F5F5F5F5F5F528F5DCF5F5F5F5F5F5F5F5F5F5F5F5F5F5F5F5F5F5F5E2E2F5F5F5F5F5F5F5F5F5F5F5F5F5F5F5F5F5F5F5DCF528F5F5F5F5F5DCDCF5F5DCF5F5F5F5BEBEF5F5F5F5F5F5F5F5F5F5F5F50FF5F5F5F5F50FF5F5F5F5F5
310
F5F5F5F5F5F5F5F5F5F5F5F5F5F5F5F5F5F5F5F5F5F5F5F5F5F5F5F5F5F5F5F5F5F5F5F5F5F5F5F5F5F5F5F5F5F5F5F5F5F5F5F5F5F5F5F5F5F5F5F5F5F5F5F5F5F5F5F5F5F5F5F5F5F5F5F5F5F5F5F5F5F5F5F5F5F5F5F5F5F5F5F5F5F528F5DCF5F5F5F5F5F5F5F5F5F5F5F5F5F5F5F5F5F5F5E2E2F5F5F5F5F5F5F5F5F5
310
F5F5F5F5F5F5F5F5F5F5DCF528F5F5F5F5DCF5F5F5DCDCF5F5F5F5BEF5F5F5F5F5F5F5F5F5F5F5F5F50FF5F5F5F5F50FF5F5F5F5F5F5F5F5F5F5F5F5F5F5F5F5F5F5F5F5F5F5F5F5F5F5F5F5F5F5F5F5F5F5F5F5F5F5F5F5F5F5F5F5F5F5F5F5F5F5F5F5F5F5F5F5F5F5F5F5F5F5F5F5F5F5F5F5F5F5F5F5F5F5F5F5F5F5F5
310
F5F5F5F5F5F5F5F5F5F5F5F5F5F5F5F5F5F5F5F528F5DCF5F5F5F5F5F5F5F5F5F5F5F5F5F5F5F5F5F5F5E2E2F5F5F5F5F5F5F5F5F5F5F5F5F5F5F5F5F5F5F5DCF528F5F5F5DCF5F5F5DCF5DCF5F5F5F5BEF5F5F5F5F5F5F5F5F5F5F5F5F50FF5F5F5F5F50FF5F5F5F5F5F5F5F5F5F5F5F5F5F5F5F5F5F5F5F5F5F5F5F5F5F5
310
F5F5F5F5F5F5F5F5F5F5F5F5F5F5F5F5F5F5F5F5F5F5F5F5F5F5F5F5F5F5F5F5F5F5F5F5F5F5F5F5F5F5F5F5F5F5F5F5F5F5F5F5F5F5F5F5F5F5F5F5F5F5F5F5F5F5F5F5F5F5F5F5F528F5DCF5F5F5F5F5F5F5F5F5F5F5F5F5F5F5F5F5F5F5E2E2F5E2F5F5F5F5F5F5F5F5F5F5F5F5F5F5F5F5F5DCF528F5F5F5F5F5F5DCF5
310
F5DCBEBEF5F5BEF5F5F5F5F5F5F5F5F5F5F5F5F50FF5F52D2D2D2D2D2D2D2DF5F5F5F5F5F5F5F5F5F5F5F5F5F5F5F5F5F5F5F5F5F5F5F5F5F5F5F5F5F5F5F5F5F5F5F5F5F5F5F5F5F5F5F5F5F5F5F5F5F5F5F5F5F5F5F5F5F5F5F5F5F5F5F5F5F5F5F5F5F5F5F5F5F5F5F5F5F5F5F5F5F5F5F5F5F5F5F5F5F5F5F5F5F5F528
310
F5DCF5F5F5F5F5F5F5F5F5F5F5F5F5F5F5F5F5E2F5E2E2F5E2F5F5F5F5F5F5F5F5F5F5F5F5F5F5F5F5F5DCF528F5F5F5F5F5DCF5F5DCDCF5BEF5F5BEF5F5F5F5F5F5F5F5F5F5F5F5F50FF5F52D2D2D2D2D2D2D2DF5F5F5F5F5F5F5F5F5F5F5F5F5F5F5F5F5F5F5F5F5F5F5F5F5F5F5F5F5F5F5F5F5F5F5F5F5F5F5F5F5F5F5
310
F5F5F5F5F5F5F5F5F5F5F5F5F5F5F5F5F5F5F5F5F5F5F5F5F5F5F5F5F5F5F5F5F5F5F5F5F5F5F5F5F5F5F5F5F5F5F5F5F5F5F5F528F5DCF5F5F5F5F5F5F5F5F5F5F5F5F5F5F5F5F5E2F5E2E2F5E2F5F5F5F5F5F5F5F5F5F5F5F5F5F5F5F5F5DCF528F5F5F5F5DCF5F5DCF5DCF5BEF5F5BEBEF5F5F5F5F5F5F5F5F5F5F5F50F
310
F5F5F5F5F50FF5F5F5F5F5F5F5F5F5F5F5F5F5F5F5F5F5F5F5F5F5F5F5F5F5F5F5F5F5F5F5F5F5F5F5F5F5F5F5F5F5F5F5F5F5F5F5F5F5F5F5F5F5F5F5F5F5F5F5F5F5F5F5F5F5F5F5F5F5F5F5F5F5F5F5F5F5F5F5F5F5F5F5F5F5F5F5F5F5F5F5F5F5F5F5F5F5F5F528F5DCF5F5F5F5F5F5F5F5F5F5F5F5F5F5F5F5F5E2F5
310
E2E2F5E2F5F5F5F5F5F5F5F5F5F5F5F5F5F5F5F5F5DCF528F5F5F5DCF5F5DCF5F5DCF5F5BEF5F5BEF5F5F5F5F5F5F5F5F5F5F5F50FF5F5F5F5F50FF5F5F5F5F5F5F5F5F5F5F5F5F5F5F5F5F5F5F5F5F5F5F5F5F5F5F5F5F5F5F5F5F5F5F5F5F5F5F5F5F5F5F5F5F5F5F5F5F5F5F5F5F5F5F5F5F5F5F5F5F5F5F5F5F5F5F5F5
310
F5F5F5F5F5F5F5F5F5F5F5F5F5F5F5F5F5F5F5F5F5F5F5F5F5F5F5F5F5F5F528F5DCF5F5F5F5F5F5F5F5F5F5F5F5F5F5F5F5F5E2F5E2E2F5E2F5F5F5F5F5F5F5F5F5F5F5F5F5F5F5F5F5DCF528F5F5F5F5F5DCF5F5DCDCF5F5BEF5F5F5BEBEF5F5F5F5BEBEF5F5F5F50FF5F5F5F5F50FF5F5F5F5F5F5F5F5F5F5F5F5F5F5F5
310
F5F5F5F5F5F5F5F5F5F5F5F5F5F5F5F5F5F5F5F5F5F5F5F5F5F5F5F5F5F5F5F5F5F5F5F5F5F5F5F5F5F5F5F5F5F5F5F5F5F5F5F5F5F5F5F5F5F5F5F5F5F5F5F5F5F5F5F5F5F5F5F5F5F5F5F5F5F5F5F5F5F5F5F528F5DCF5F5F5F5F5F5F5F5F5F5F5F5F5F5F5F5F5E2F5E2E2F5E2F5F5F5F5F5F5F5F5F5F5F5F5F5F5F5F5F5
310
DCF528F5F5F5F5DCF5F5DCF5DCF5F5F5BEF5F5F5BEBEBEBEBEF5BEF5F5F5F50FF5F5F5F5F50FF5F5F5F5F5F5F5F5F5F5F5F5F5F5F5F5F5F5F5F5F5F5F5F5F5F5F5F5F5F5F5F5F5F5F5F5F5F5F5F5F5F5F5F5F5F5F5F5F5F5F5F5F5F5F5F5F5F5F5F5F5F5F5F5F5F5F5F5F5F5F5F5F5F5F5F5F5F5F5F5F5F5F5F5F5F5F5F5F5
310
F5F5F5F5F5F5F5F5F5F528F5DCF5F5F5F5F5F5F5F5F5F5F5F5F5F5F5F5F5E2F5E2E2F5E2F5F5F5F5F5F5F5F5F5F5F5F5F5F5F5F5F5DCF528F5F5F5DCF5F5DCF5F5DCF5F5F5F5BEF5F5F5F5F5F5F5F5BEBEF5F5F50FF5F5F5F5F50FF5F5F5F5F5F5F5F5F5F5F5F5F5F5F5F5F5F5F5F5F5F5F5F5F5F5F5F5F5F5F5F5F5F5F5F5
310
F5F5F5F5F5F5F5F5F5F5F5F5F5F5F5F5F5F5F5F5F5F5F5F5F5F5F5F5F5F5F5F5F5F5F5F5F5F5F5F5F5F5F5F5F5F5F5F5F5F5F5F5F5F5F5F5F5F5F5F5F5F5F528F5DCF5F5F5F5F5F5F5F5F5F5F5F5F5F5F5F5F5E2F5E2E2F5E2F5F5F5F5F5F5F5F5F5F5F5F5F5F5F5F5F5DCF528F5F5F5F5F5DCF5F5F5DCF5F5F5F5F5BEBEBE
310
F5F5F5F5F5F5F5BEBEF50FF5F5F5F5F50FF5F5F5F5F5F5F5F5F5F5F5F5F5F5F5F5F5F5F5F5F5F5F5F5F5F5F5F5F5F5F5F5F5F5F5F5F5F5F5F5F5F5F5F5F5F5F5F5F5F5F5F5F5F5F5F5F5F5F5F5F5F5F5F5F5F5F5F5F5F5F5F5F5F5F5F5F5F5F5F5F5F5F5F5F5F5F5F5F5F5F5F5F5F5F5F5F5F5F528F5DCF5F5F5F5F5F5F5F5
310
F5F5F5F5F5F5F5F5F5E2F5E2E2F5E2F5F5F5F5F5F5F5F5F5F5F5F5F5F5F5F5F5DCF528F5F5F5F5DCF5F5F5DCDCF5F5F5F5F5F5F5F5BEBEF5F5F5F5F5F5BEF50FF5F5F5F5F50FF5F5F5F5F5F5F5F5F5F5F5F5F5F5F5F5F5F5F5F5F5F5F5F5F5F5F5F5F5F5F5F5F5F5F5F5F5F5F5F5F5F5F5F5F5F5F5F5F5F5F5F5F5F5F5F5F5
310
F5F5F5F5F5F5F5F5F5F5F5F5F5F5F5F5F5F5F5F5F5F5F5F5F5F5F5F5F5F5F5F5F5F5F5F5F5F5F5F5F5F528F5DCF5F5F5F5F5F5F5F5F5F5F5F5F5F5F5F5F5E2F5E2E2F5E2F5F5F5F5F5F5F5F5F5F5F5F5F5F5F5F5F5DCF528F5F5F5DCF5F5F5DCF5DCF5F5F5F5F5F5F5F5F5BEBEF5F5F5F5F5F5BE1BF5F5F5F5F50FF5F5F5F5
310
F5F5F5F5F5F5F5F5F5F5F5F5F5F5F5F5F5F5F5F5F5F5F5F5F5F5F5F5F5F5F5F5F5F5F5F5F5F5F5F5F5F5F5F5F5F5F5F5F5F5F5F5F5F5F5F5F5F5F5F5F5F5F5F5F5F5F5F5F5F5F5F5F5F5F5F5F5F5F5F5F5F5F5F5F5F5F5F5F5F5F5F5F5F5F528F5DCF5F5F5F5F5F5F5F5F5F5F5F5F5F5F5F5F5E2F5E2E2F5E2F5F5F5F5F5F5
310
F5F5F5F5F5F5F5F5F5F5F5DCF528F5F5F5F5F5DCDCF5F5DCF5F5F5F5F5F5F5F5F5F5BEF5F5F5F5F5F5F5BEF5F5F5F5F50F0FF5F5F5F5F5F5F5F5F5F5F5F5F5F5F5F5F5F5F5F5F5F5F5F5F5F5F5F5F5F5F5F5F5F5F5F5F5F5F5F5F5F5F5F5F5F5F5F5F5F5F5F5F5F5F5F5F5F5F5F5F5F5F5F5F5F5F5F5F5F5F5F5F5F5F5F5F5
310
F5F5F5F5F5F5F5F5F5F5F5F5F5F5F5F5F5F5F5F5F528F5DCF5F5F5F5F5F5F5F5F5F5F5F5F5F5F5F5F5E2F5E2E2F5E2F5F5F5F5F5F5F5F5F5F5F5F5F5F5F5F5F5DCF528F5F5F5F5DCF5F5F5DCDCDCDCDCDCDCDCDCDCDCDCDCDCDCDCDCDCDCDCDCDCDCDCDCDCDCDCDCF5F5F5F5F5F5F5F5F5F5F5F5F5F5F5F5F5F5F5F5F5F5F5
310
F5F5F5F5F5F5F5F5F5F5F5F5F5F5F5F5F5F5F5F5F5F5F5F5F5F5F5F5F5F5F5F5F5F5F5F5F5F5F5F5F5F5F5F5F5F5F5F5F5F5F5F5F5F5F5F5F5F5F5F5F5F5F5F5F5F5F5F5F5F5F5F5F5F528F5DCF5F5F5F5F5F5F5F5F5F5F5F5F5F5F5F5F5E2F5E2E2F5E2F5F5F5F5F5F5F5F5F5F5F5F5F5F5F5F5F5DCF528F5F5F5DCF5F5F5
310
DCF5F5DCF5F5DCF5F5F5DCF5F5DCF5F5DCF5F5DCF5F5DCF5F5DCF5F5F5F5F5F5F5F5F5F5F5F5F5F5F5F5F5F5F5F5F5F5F5F5F5F5F5F5F5F5F5F5F5F5F5F5F5F5F5F5F5F5F5F5F5F5F5F5F5F5F5F5F5F5F5F5F5F5F5F5F5F5F5F5F5F5F5F5F5F5F5F5F5F5F5F5F5F5F5F5F5F5F5F5F5F5F5F5F5F5F5F5F5F5F5F5F5F5F5F5F5
310
28F5DCF5F5F5F5F5F5F5F5F5F5F5F5F5F5F5F5F5E2F5E2E2F5E2F5F5F5F5F5F5F5F5F5F5F5F5F5F5F5F5F5DCF528F5F5F5F5F5DCDCF5F5DCF5F5DCF5F5F5DCF5F5DCF5F5DCF5F5DCF5F5DCF5F5DCF5F5F5F5F5F5F5F5F5F5F5F5F5F5F5F5F5F5F5F5F5F5F5F5F5F5F5F5F5F5F5F5F5F5F5F5F5F5F5F5F5F5F5F5F5F5F5F5F5
310
F5F5F5F5F5F5F5F5F5F5F5F5F5F5F5F5F5F5F5F5F5F5F5F5F5F5F5F5F5F5F5F5F5F5F5F5F5F5F5F5F5F5F5F5F5F5F5F5F5F5F5F5F528F5DCF5F5F5F5F5F5F5F5F5F5F5F5F5F5F5F5F5E2F5E2E2F5E2F5F5F5F5F5F5F5F5F5F5F5F5F5F5F5F5F5DCF528F5F5F5F5DCF5F5F5DCF5F5DCF5F5DCDCF5DCDCF5DCDCF5F5DCF5F5DC
310
F5F5DCF5F5F5F5F5F5F5F5F5F5F5F5F5F5F5F5F5F5F5F5F5F5F5F5F5F5F5F5F5F5F5F5F5F5F5F5F5F5F5F5F5F5F5F5F5F5F5F5F5F5F5F5F5F5F5F5F5F5F5F5F5F5F5F5F5F5F5F5F5F5F5F5F5F5F5F5F5F5F5F5F5F5F5F5F5F5F5F5F5F5F5F5F5F5F5F5F5F5F5F5F5F5F528F5DCF5F5F5F5F5F5F5F5F5F5F5F5F5F5F5F5F5E2
310
F5E2E2F5E2F5F5F5F5F5F5F5F5F5F5F5F5F5F5F5F5F5DCF528F5F5F5DCF5F5F5DCF5F5DCF5F5DCF5F5DCF5F5DCF5F5F5DCF5F5DCF5F5DCF5F5F5DCF5F5F5F5F5F5F5F5F5F5F5F5F5F5F5F5F5F5F5F5F5F5F5F5F5F5F5F5F5F5F5F5F5F5F5F5F5F5F5F5F5F5F5F5F5F5F5F5F5F5F5F5F5F5F5F5F5F5F5F5F5F5F5F5F5F5F5F5
310
F5F5F5F5F5F5F5F5F5F5F5F5F5F5F5F5F5F5F5F5F5F5F5F5F5F5F5F5F5F5F5F528F5DCF5F5F5F5F5F5F5F5F5F5F5F5F5F5F5F5F5E2F5E2E2F5F5F5F5F5F5F5F5F5F5F5F5F5F5F5F5F5F5F5DCF528F5F5F5F5F5F5DCF5F5DCF5F5DCF5F5DCF5F5DCF5F5F5DCF5F5DCF5F5DCF5F5DCDCF5F5F5F5F5F5F5F5F5F5F5F5F5F5F5F5
310
F5F5F5F5F5F5F5F5F5F5F5F5F5F5F5F5F5F5F5F5F5F5F5F5F5F5F5F5F5F5F5F5F5F5F5F5F5F5F5F5F5F5F5F5F5F5F5F5F5F5F5F5F5F5F5F5F5F5F5F5F5F5F5F5F5F5F5F5F5F5F5F5F5F5F5F5F5F5F5F5F5F5F5F5F528F5DCF5F5F5F5F5F5F5F5F5F5F5F5F5F5F5F5F5F5F5E2E2F5F5F5F5F5F5F5F5F5F5F5F5F5F5F5F5F5F5
310
F5DCF528F5F5F5F5F5F5F5F5F5F5F5F5F5F5F5F5F5F5F5F5F5F5F5F5F5F5F5F5F5F5F5F5F5F5F5F5F5F5F5F5F5F5F5F5F5F5F5F5F5F5F5F5F5F5F5F5F5F5F5F5F5F5F5F5F5F5F5F5F5F5F5F5F5F5F5F5F5F5F5F5F5F5F5F5F5F5F5F5F5F5F5F5F5F5F5F5F5F5F5F5F5F5F5F5F5F5F5F5F5F5F5F5F5F5F5F5F5F5F5F5F5F5F5
310
F5F5F5F5F5F5F5F5F5F5F528F5DCF5F5F5F5F5F5F5F5F5F5F5F5F5F5F5F5F5F5F5E2E2F5F5F5F5F5F5F5F5F5F5F5F5F5F5F5F5F5F5F5DCF528F5F5F5F5F5F5F5F5F5F5F5F5F5F5F5F5F5F5F5F5F5F5F5F5F5F5F5F5F5F5F5F5F5F5F5F5F5F5F5F5F5F5F5F5F5F5F5F5F5F5F5F5F5F5F5F5F5F5F5F5F5F5F5F5F5F5F5F5F5F5
310
F5F5F5F5F5F5F5F5F5F5F5F5F5F5F5F5F5F5F5F5F5F5F5F5F5F5F5F5F5F5F5F5F5F5F5F5F5F5F5F5F5F5F5F5F5F5F5F5F5F5F5F5F5F5F5F5F5F5F5F5F5F5F5F528F5DCF5F5F5F5F5F5F5F5F5F5F5F5F5F5F5F5F5F5F5E2E2F5F5F5F5F5F5F5F5F5F5F5F5F5F5F5F5F5F5F5DCF528F5F5F5F5F5F5F5F5F5F5F5F5F5F5F5F5F5
310
F5F5F5F5F5F5F5F5F5F5F5F5F5F5F5F5F5F5F5F5F5F5F5F5F5F5F5F5F5F5F5F5F5F5F5F5F5F5F5F5F5F5F5F5F5F5F5F5F5F5F5F5F5F5F5F5F5F5F5F5F5F5F5F5F5F5F5F5F5F5F5F5F5F5F5F5F5F5F5F5F5F5F5F5F5F5F5F5F5F5F5F5F5F5F5F5F5F5F5F5F5F5F5F5F5F5F5F5F5F5F5F5F5F5F5F5F528F5DCF5F5F5F5F5F5F5
310
F5F5F5F5F5F5F5F5F5F5F5F5E2E2F5F5F5F5F5F5F5F5F5F5F5F5F5F5F5F5F5F5F5DCF528F5F5F5F5F5F5F5F5F5F5F5F5F5F5F5F5F5F5F5F5F5F5F5F5F5F5F5F5F5F5F5F5F5F5F5F5F5F5F5F5F5F5F5F5F5F5F5F5F5F5F5F5F5F5F5F5F5F5F5F5F5F5F5F5F5F5F5F5F5F5F5F5F5F5F5F5F5F5F5F5F5F5F5F5F5F5F5F5F5F5F5
310
F5F5F5F5F5F5F5F5F5F5F5F5F5F5F5F5F5F5F5F5F5F5F5F5F5F5F5F5F5F5F5F5F5F5F5F5F5F5F5F5F5F5F528F5DCF5F5F5F5F5F5F5F5F5F5F5F5F5F5F5F5F5F5F5E2E2F5F5F5F5F5F5F5F5F5F5F5F5F5F5F5F5F5F5F5DCF528F5F5F5F5F5F5F5F5F5F5F5F5F5F5F5F5F5F5F5F5F5F5F5F5F5F5F5F5F5F5F5F5F5F5F5F5F5F5
310
F5F5F5F5F5F5F5F5F5F5F5F5F5F5F5F5F5F5F5F5F5F5F5F5F5F5F5F5F5F5F5F5F5F5F5F5F5F5F5F5F5F5F5F5F5F5F5F5F5F5F5F5F5F5F5F5F5F5F5F5F5F5F5F5F5F5F5F5F5F5F5F5F5F5F5F5F5F5F5F5F5F5F5F5F5F5F5F5F5F5F5F5F5F5F5F528F5DCF5F5F5F5F5F5F5F5F5F5F5F5F5F5F5F5F5F5F5E2E2F5F5F5F5F5F5F5
310
F5F5F5F5F5F5F5F5F5F5F5F5DCF528F5F5F5F5F5F5F5F5F5F5F5F5F5F5F5F5F5F5F5F5F5F5F5F5F5F5F5F5F5F5F5F5F5F5F5F5F5F5F5F5F5F5F5F5F5F5F5F5F5F5F5F5F5F5F5F5F5F5F5F5F5F5F5F5F5F5F5F5F5F5F5F5F5F5F5F5F5F5F5F5F5F5F5F5F5F5F5F5F5F5F5F5F5F5F5F5F5F5F5F5F5F5F5F5F5F5F5F5F5F5F5F5
310
F5F5F5F5F5F5F5F5F5F5F5F5F5F5F5F5F5F5F5F5F5F528F5DCF5F5F5F5F5F5F5F5F5F5F5F5F5F5F5F5F5F5F5E2E2F5F5F5F5F5F5F5F5F5F5F5F5F5F5F5F5F5F5F5DCF528F5F5F5F5F5F5F5F5F5F5F5F5F5F5F5F5F5F5F5F5F5F5F5F5F5F5F5F5F5F5F5F5F5F5F5F5F5F5F5F5F5F5F5F5F5F5F5F5F5F5F5F5F5F5F5F5F5F5F5
310
F5F5F5F5F5F5F5F5F5F5F5F5F5F5F5F5F5F5F5F5F5F5F5F5F5F5F5F5F5F5F5F5F5F5F5F5F5F5F5F5F5F5F5F5F5F5F5F5F5F5F5F5F5F5F5F5F5F5F5F5F5F5F5F5F5F5F5F5F5F5F5F5F5F5F528F5DCF5F5F5F5F5F5F5F5F5F5F5F5F5F5F5F5F5F5F5E2E2F5E2F5F5F5F5F5F5F5F5F5F5F5F5F5F5F5F5F5DCF528F5F5F5F5F5F5
310
F5F5F5F5F5F5F5F5F5F5F5F5F5F5F5F5F5F5F5F5F5F5F5F5F5F5F5F5F5F5F5F5F5F5F5F5F5F5F5F5F5F5F5F5F5F5F5F5F5F5F5F5F5F5F5F5F5F5F5F5F5F5F5F5F5F5F5F5F5F5F5F5F5F5F5F5F5F5F5F5F5F5F5F5F5F5F5F5F5F5F5F5F5F5F5F5F5F5F5F5F5F5F5F5F5F5F5F5F5F5F5F5F5F5F5F5F5F5F5F5F5F5F5F5F5F5F5
310
F528F5DCF5F5F5F5F5F5F5F5F5F5F5F5F5F5F5F5F5E2F5E2E2F5E2F5F5F5F5F5F5F5F5F5F5F5F5F5F5F5F5F5DCF528F5F5F5F5F5F5F5F5F5F5F5F5F5F5F5F5F5F5F5F5F5F5F5F5F5F5F5F5F5F5F5F5F5F5F5F5F5F5F5F5F5F5F5F5F5F5F5F5F5F5F5F5F5F5F5F5F5F5F5F5F5F5F5F5F5F5F5F5F5F5F5F5F5F5F5F5F5F5F5F5
310
F5F5F5F5F5F5F5F5F5F5F5F5F5F5F5F5F5F5F5F5F5F5F5F5F5F5F5F5F5F5F5F5F5F5F5F5F5F5F5F5F5F5F5F5F5F5F5F5F5F5F5F5F5F528F5DCF5F5F5F5F5F5F5F5F5F5F5F5F5F5F5F5F5E2F5E2E2F5E2F5F5F5F5F5F5F5F5F5F5F5F5F5F5F5F5F5DCF528F5F5F5F5F5F5F5F5F5F5F5F5F5F5F5F5F5F5F5F5F5F5F5F5F5F5F5
310
F5F5F5F5F5F5F5F5F5F5F5F5F5F5F5F5F5F5F5F5F5F5F5F5F5F5F5F5F5F5F5F5F5F5F5F5F5F5F5F5F5F5F5F5F5F5F5F5F5F5F5F5F5F5F5F5F5F5F5F5F5F5F5F5F5F5F5F5F5F5F5F5F5F5F5F5F5F5F5F5F5F5F5F5F5F5F5F5F5F5F5F5F5F5F5F5F5F5F5F5F5F5F5F5F5F5F528F5DCF5F5F5F5F5F5F5F5F5F5F5F5F5F5F5F5F5
310
E2F5E2E2F5E2F5F5F5F5F5F5F5F5F5F5F5F5F5F5F5F5F5DCF528F5F5F5F5F5F5F5F5F5F5F5F5F5F5F5F5F5F5F5F5F5F5F5F5F5F5F5F5F5F5F5F5F5F5F5F5F5F5F5F5F5F5F5F5F5F5F5F5F5F5F5F5F5F5F5F5F5F5F5F5F5F5F5F5F5F5F5F5F5F5F5F5F5F5F5F5F5F5F5F5F5F5F5F5F5F5F5F5F5F5F5F5F5F5F5F5F5F5F5F5F5
310
F5F5F5F5F5F5F5F5F5F5F5F5F5F5F5F5F5F5F5F5F5F5F5F5F5F5F5F5F5F5F5F5F528F5DCF5F5F5F5F5F5F5F5F5F5F5F5F5F5F5F5F5E2F5E2E2F5E2F5F5F5F5F5F5F5F5F5F5F5F5F5F5F5F5F5DCF528F5F5F5F5F5F5F5F5F5F5F5F5F5F5F5F5F5F5F5F5F5F5F5F5F5F5F5F5F5F5F5F5F5F5F5F5F5F5F5F5F5F5F5F5F5F5F5F5
310
F5F5F5F5F5F5F5F5F5F5F5F5F5F5F5F5F5F5F5F5F5F5F5F5F5F5F5F5F5F5F5F5F5F5F5F5F5F5F5F5F5F5F5F5F5F5F5F5F5F5F5F5F5F5F5F5F5F5F5F5F5F5F5F5F5F5F5F5F5F5F5F5F5F5F5F5F5F5F5F5F5F5F5F5F5F528F5DCF5F5F5F5F5F5F5F5F5F5F5F5F5F5F5F5F5E2F5E2E2F5E2F5F5F5F5F5F5F5F5F5F5F5F5F5F5F5
310
F5F5DCF528F5F5F5F5F5F5F5F5F5F5F5F5F5F5F5F5F5F5F5F5F5F5F5F5F5F5F5F5F5F5F5F5F5F5F5F5F5F5F5F5F5F5F5F5F5F5F5F5F5F5F5F5F5F5F5F5F5F5F5F5F5F5F5F5F5F5F5F5F5F5F5F5F5F5F5F5F5F5F5F5F5F5F5F5F5F5F5F5F5F5F5F5F5F5F5F5F5F5F5F5F5F5F5F5F5F5F5F5F5F5F5F5F5F5F5F5F5F5F5F5F5F5
310
F5F5F5F5F5F5F5F5F5F5F5F528F5DCF5F5F5F5F5F5F5F5F5F5F5F5F5F5F5F5F5E2F5E2E2F5E2F5F5F5F5F5F5F5F5F5F5F5F5F5F5F5F5F5DCF528F5F5F5F5F5F5F5F5F5F5F5F5F5F5F5F5F5F5F5F5F5F5F5F5F5F5F5F5F5F5F5F5F5F5F5F5F5F5F5F5F5F5F5F5F5F5F5F5F5F5F5F5F5F5F5F5F5F5F5F5F5F5F5F5F5F5F5F5F5
310
F5F5F5F5F5F5F5F5F5F5F5F5F5F5F5F5F5F5F5F5F5F5F5F5F5F5F5F5F5F5F5F5F5F5F5F5F5F5F5F5F5F5F5F5F5F5F5F5F5F5F5F5F5F5F5F5F5F5F5F5F5F5F5F5F528F5DCF5F5F5F5F5F5F5F5F5F5F5F5F5F5F5F5F5E2F5E2E2F5E2F5F5F5F5F5F5F5F5F5F5F5F5F5F5F5F5F5DCF528F5F5F5F5F5F5F5F5F5F5F5F5F5F5F5F5
310
F5F5F5F5F5F5F5F5F5F5F5F5F5F5F5F5F5F5F5F5F5F5F5F5F5F5F5F5F5F5F5F5F5F5F5F5F5F5F5F5F5F5F5F5F5F5F5F5F5F5F5F5F5F5F5F5F5F5F5F5F5F5F5F5F5F5F5F5F5F5F5F5F5F5F5F5F5F5F5F5F5F5F5F5F5F5F5F5F5F5F5F5F5F5F5F5F5F5F5F5F5F5F5F5F5F5F5F5F5F5F5F5F5F5F5F5F5F528F5DCF5F5F5F5F5F5
310
F5F5F5F5F5F5F5F5F5F5F5E2F5E2E2F5E2F5F5F5F5F5F5F5F5F5F5F5F5F5F5F5F5F5DCF528282828282828282828282828282828282828282828282828282828282828282828282828282828282828282828282828282828282828282828282828282828282828282828282828282828282828282828282828282828282828
310
282828282828282828282828282828282828282828282828282828282828282828282828282828282828282828F5DCF5F5F5F5F5F5F5F5F5F5F5F5F5F5F5F5F5E2F5E2E2F5E2F5F5F5F5F5F5F5F5F5F5F5F5F5F5F5F5F5DCF528F5F5F5F5F5F5F5F5F5F5F5F5F5F5F5F5F5F5F5F5F5F5F5F5F5F5F5F5F5F5F5F5F5F5F5F5F5
310
F5F5F5F5F5F5F5F5F5F5F5F5F5F5F5F5F5F5F5F5F5F5F5F5F5F5F5F5F528F5F5F5F5F5F5F5F5F5F5F5F5F5F5F5F5F5F5F5F5F5F5F5F5F5F5F5F5F5F5F5F5F5F5F5F5F5F5F5F5F5F5F5F5F5F5F5F5F5F5F5F5F5F5F5F5F5F5F5F5F5F5F5F5F5F5F528F5DCF5F5F5F5F5F5F5F5F5F5F5F5F5F5F5F5F5E2F5E2E2F5E2F5F5F5F5
310
F5F5F5F5F5F5F5F5F5F5F5F5F5DCF528F5F5F5F5F5F5F5F5F5F5F5F5F52D2D2D2D2D2D2D2D2D2D2D2D2D2D2D2D2D2D2D2D2D2D2D2D2D2D2D2D2D2D2D2D2D2D2D2D2D2DF5F5F5F5F5F5F5F5F5F5F5F5F5F5F528F5F5F52D2D2D2DF52D2D2D2D2D2DF5F5F5F5F5F5F5F5F5F5F5F5F5F5F5F5F5F5F5F5F5F5F5F5F5F5F5F5F5F5
310
F5F5F5F5F5F5F5F5F5F5F5F5F5F5F5F5F5F5F5F5F5F5F528F5DCF5F5F5F5F5F5F5F5F5F5F5F5F5F5F5F5F5E2F5E2E2F5E2F5F5F5F5F5F5F5F5F5F5F5F5F5F5F5F5F5DCF528F5F5F5F5F5F5F5F5F5F5F5F5F52D2D2D2D2D2D2D2D2D2D2D2D2D2D2D2D2D2D2D2D2D2D2D2D2D2D2D2D2D2D2D2D2D2D2D2D2D2DF5F5F5F5F5F5F5
310
F5F5F5F5F5F5F5F528F5F5F52D2D2D2DF52D2D2D2DF52DF5F5F5F5F5F5F5F5F5F5F5F5F5F5F5F5F5F5F5F5F5F5F5F5F5F5F5F5F5F5F5F5F5F5F5F5F5F5F5F5F5F5F5F5F5F5F5F5F5F5F5F5F528F5DCF5F5F5F5F5F5F5F5F5F5F5F5F5F5F5F5F5E2F5E2E2F5E2F5F5F5F5F5F5F5F5F5F5F5F5F5F5F5F5F5DCF528F5F5F5F5F5
310
F5F5F5F5F5F5F5F5F5F5F5F5F5F5F5F5F5F5F5F5F5F5F5F5F5F5F5F5F5F5F5F5F5F5F5F5F5F5F5F5F5F5F5F5F5F5F5F5F5F5F5F5F5F5F5F5F5F5F5F5F528F5F5F5F5F5F5F5F5F5F5F5F5F5F5F5F5F5F5F5F5F5F5F5F5F5F5F5F5F5F5F5F5F5F5F5F5F5F5F5F5F5F5F5F5F5F5F5F5F5F5F5F5F5F5F5F5F5F5F5F5F5F5F5F5F5
310
F5F528F5DCF5F5F5F5F5F5F5F5F5F5F5F5F5F5F5F5F5E2F5E2E2F5E2F5F5F5F5F5F5F5F5F5F5F5F5F5F5F5F5F5DCF52828282828282828282828282828282828282828282828282828282D2D2D2D2D2D2D2D2D2D2D2D2D28282828282828282828282828282828282828282828282828282828282828282828282828282828
310
2828282828282828282828282828282828282828282828282828282828282828282828282828282828282828282828282828282828282828F5DCF5F5F5F5F5F5F5F5F5F5F5F5F5F5F5F5F5E2F5E2E2F5E2F5F5F5F5F5F5F5F5F5F5F5F5F5F5F5F5F5DCF528F5F5F5F5F5F5F5F5F5F5F5F5F5F5F5F5F5F5F5F5F5F5F5F5F5F5
310
2D2D2D2D2D2D2D2D2D2D2D2D2DF5F5F5F5F5F5F5F5F5F5F5F5F5F5F5F5F5F5F5F5F5F5F5F5F5F5F528F5F5F52D2D2D2D2D2D2D2D2D2D2DF5F52D2D2D2D2D2D2D2D2D2DF5F5F5F5F5F5F5F5F5F5F5F5F5F5F5F5F5F5F5F5F5F5F5F5F5F5F5F5F5F5F5F5F5F5F5F5F5F5F5F5F528F5DCF5F5F5F5F5F5F5F5F5F5F5F5F5F5F5F5
310
F5E2F5E2E2F5E2F5F5F5F5F5F5F5F5F5F5F5F5F5F5F5F5F5DCF528F5F5F5F5F5F5F5F5F5F5F5F5F5F5F5F5F5F5F5F5F5F5F5F5F5F52D2D2D2D2D2D2D2D2D2D2D2D2DF5F5F5F5F5F5F5F5F5F5F5F5F5F5F5F5F5F5F5F5F5F5F5F5F5F5F528F5F5F52D2D2D2D2D2D2D2D2D2D2DF52D2D2D2D2D2D2D2D2D2D2DF5F5F5F5F5F5F5
310
F5F5F5F5F5F5F5F5F5F5F5F5F5F5F5F5F5F5F5F5F5F5F5F5F5F5F5F5F5F5F5F5F5F528F5DCF5F5F5F5F5F5F5F5F5F5F5F5F5F5F5F5F5E2F5E2E2F5F5F5F5F5F5F5F5F5F5F5F5F5F5F5F5F5F5F5DCF528F5F5F5F5F5F5F5F5F5F5F5F5F5F5F5F5F5F5F5F5F5F5F5F5F5F5F5F5F5F5F5F5F5F5F5F5F5F5F5F5F5F5F5F5F5F5F5
310
F5F5F5F5F5F5F5F5F5F5F5F5F5F5F5F5F5F5F528F5F5F5F5F5F5F5F5F5F5F5F5F5F5F5F5F5F5F5F5F5F5F5F5F5F5F5F5F5F5F5F5F5F5F5F5F5F5F5F5F5F5F5F5F5F5F5F5F5F5F5F5F5F5F5F5F5F5F5F5F5F5F5F5F5F5F528F5DCF5F5F5F5F5F5F5F5F5F5F5F5F5F5F5F5F5F5F5E2E2F5F5F5F5F5F5F5F5F5F5F5F5F5F5F5F5
310
F5F5F5DCF52828282828282828282828282828282828282828282828282828282828282828282828282828282828282828282828282828282828282828282828282828282828282828282828282828282828282828282828282828282828282828282828282828282828282828282828282828282828282828282828282828
310
2828282828282828282828282828F5DCF5F5F5F5F5F5F5F5F5F5F5F5F5F5F5F5F5F5F5E2E2F5F5F5F5F5F5F5F5F5F5F5F5F5F5F5F5F5F5F5DCF5F5F5F5F5F5F5F5F5F5F5F5F5F5F5F5F5F5F5F5F5F5F5F5F5F5F5F5F5F5F5F5F5F5F5F5F5F5F5F5F5F5F5F5F5F5F5F5F5F5F5F5F5F5F5F5F5F5F5F5F5F5F5F5F5F5F5F5F5F5
310
F5F5F5F5F5F5F5F5F5F5F5F5F5F5F5F5F5F5F5F5F5F5F5F5F5F5F5F5F5F5F5F5F5F5F5F5F5F5F5F5F5F5F5F5F5F5F5F5F5F5F5F5F5F5F5F5F5F5F5F5F5F5F5F5F5F5F5F5DCF5F5F5F5F5F5F5F5F5F5F5F5F5F5F5F5F5F5F5E2E2F5F5F5F5F5F5F5F5F5F5F5F5F5F5F5F5F5F5F5DCDCDCDCDCDCDCDCDCDCDCDCDCDCDCDCDCDC
310
DCDCDCDCDCDCDCDCDCDCDCDCDCDCDCDCDCDCDCDCDCDCDCDCDCDCDCDCDCDCDCDCDCDCDCDCDCDCDCDCDCDCDCDCDCDCDCDCDCDCDCDCDCDCDCDCDCDCDCDCDCDCDCDCDCDCDCDCDCDCDCDCDCDCDCDCDCDCDCDCDCDCDCDCDCDCDCDCDCDCDCDCDCDCDCDCDCDCDCDCDCDCDCDCDCDCDCDCDCDCDCDCDCDCDCDCDCDCDCDCDCDCF5F5F5F5F5
310
F5F5F5F5F5F5F5F5F5F5F5F5F5F5E2E2F5F5F5F5F5F5F5F5F5F5F5F5F5F5F5F5F5F5F5DCDCDCDCDCDCDCDCDCDCDCDCDCDCDCDCDCDCDCDCDCDCDCDCDCDCDCDCDCDCDCDCDCDCDCDCDCDCDCDCDCDCDCDCDCDCDCDCDCDCDCDCDCDCDCDCDCDCDCDCDCDCDCDCDCDCDCDCDCDCDCDCDCDCDCDCDCDCDCDCDCDCDCDCDCDCDCDCDCDCDCDC
310
DCDCDCDCDCDCDCDCDCDCDCDCDCDCDCDCDCDCDCDCDCDCDCDCDCDCDCDCDCDCDCDCDCDCDCDCDCDCDCDCDCDCDCDCDCDCDCDCF5F5F5F5F5F5F5F5F5F5F5F5F5F5F5F5F5F5F5E2E2F5F5F5F5F5F5F5F5F5F5F5F5F5F5F5F5F5F5F5F5F5F5F5F5F5F5F5F5F5F5F5F5F5F5F5F5F5F5F5F5F5F5F5F5F5F5F5F5F5F5F5F5F5F5F5F5F5F5
310
F5F5F5F5F5F5F5F5F5F5F5F5F5F5F5F5F5F5F5F5F5F5F5F5F5F5F5F5F5F5F5F5F5F5F5F5F5F5F5F5F5F5F5F5F5F5F5F5F5F5F5F5F5F5F5F5F5F5F5F5F5F5F5F5F5F5F5F5F5F5F5F5F5F5F5F5F5F5F5F5F5F5F5F5F5F5F5F5F5F5F5F5F5F5F5F5F5F5F5F5F5F5F5F5F5F5F5F5F5F5F5F5F5F5F5F5F5F5F5F5E2E2F5F5F5F5F5
310
F5F5F5F5F5F5F5F5F5F5F5F5F5F5F5F5F5F5F5F5F5F5F5F5F5F5F5F5F5F5F5F5F5F5F5F5F5F5F5F5F5F5F5F5F5F5F5F5F5F5F5F5F5F5F5F5F5F5F5F5F5F5F5F5F5F5F5F5F5F5F5F5F5F5F5F5F5F5F5F5F5F5F5F5F5F5F5F5F5F5F5F5F5F5F5F5F5F5F5F5F5F5F5F5F5F5F5F5F5F5F5F5F5F5F5F5F5F5F5F5F5F5F5F5F5F5F5
310
F5F5F5F5F5F5F5F5F5F5F5F5F5F5F5F5F5F5F5F5F5F5F5F5F5F5F5F5F5F5F5F5F5F5F5F5F5F5F5F5F5F5F5F5F5F5E2E2F5F5F5F5F5F5F5F5F5F5F5F5F5F5F5F5F5F5F5F5F5F5F5F5F5F5F5F5F5F5F5F5F5F5F5F5F5F5F5F5F5F5F5F5F5F5F5F5F5F5F5F5F5F5F5F5F5F5F5F5F5F5F5F5F5F5F5F5F5F5F5F5F5F5F5F5F5F5F5
310
F5F5F5F5F5F5F5F5F5F5F5F5F5F5F5F5F5F5F5F5F5F5F5F5F5F5F5F5F5F5F5F5F5F5F5F5F5F5F5F5F5F5F5F5F5F5F5F5F5F5F5F5F5F5F5F5F5F5F5F5F5F5F5F5F5F5F5F5F5F5F5F5F5F5F5F5F5F5F5F5F5F5F5F5F5F5F5F5F5F5F5F5F5F5F5F5F5F5F5E2E2F5F5F5F5F5F5F5F5F5F5F5F5F5F5F5F5F5F5F5F5F5F5F5F5F5F5
310
F5F5F5F5F5F5F5F5F5F5F5F5F5F5F5F5F5F5F5F5F5F5F5F5F5F5F5F5F5F5F5F5F5F5F5F5F5F5F5F5F5F5F5F5F5F5F5F5F5F5F5F5F5F5F5F5F5F5F5F5F5F5F5F5F5F5F5F5F5F5F5F5F5F5F5F5F5F5F5F5F5F5F5F5F5F5F5F5F5F5F5F5F5F5F5F5F5F5F5F5F5F5F5F5F5F5F5F5F5F5F5F5F5F5F5F5F5F5F5F5F5F5F5F5F5F5F5
310
F5F5F5F5F5F5F5F5F5F5F5F5F5F5F5F5F5F5F5F5F5F5F5F5F5E2E2F5E2F5F5F5F5F5F5F5F5F5F5F5F5F5F5F5F5F5F5F5F5F5F5F5F5F5F5F5F5F5F5F5F5F5F5F5F5F5F5F5F5F5F5F5F5F5F5F5F5F5F5F5F5F5F5F5F5F5F5F5F5F5F5F5F5F5F5F5F5F5F5F5F5F5F5F5F5F5F5F5F5F5F5F5F5F5F5F5F5F5F5F5F5F5F5F5F5F5F5
310
F5F5F5F5F5F5F5F5F5F5F5F5F5F5F5F5F5F5F5F5F5F5F5F5F5F5F5F5F5F5F5F5F5F5F5F5F5F5F5F5F5F5F5F5F5F5F5F5F5F5F5F5F5F5F5F5F5F5F5F5F5F5F5F5F5F5F5F5F5F5F5F5F5F5F5F5E2F5E2E2F5E2F5F5F5F5F5F5F5F5F5F5F5F5F5F5F5F5F5F5F5F5F5F5F5F5F5F5F5F5F5F5F5F5F5F5F5F5F5F5F5F5F5F5F5F5F5
310
F5F5F5F5F5F5F5F5F5F5F5F5F5F5F5F5F5F5F5F5F5F5F5F5F5F5F5F5F5F5F5F5F5F5F5F5F5F5F5F5F5F5F5F5F5F5F5F5F5F5F5F5F5F5F5F5F5F5F5F5F5F5F5F5F5F5F5F5F5F5F5F5F5F5F5F5F5F5F5F5F5F5F5F5F5F5F5F5F5F5F5F5F5F5F5F5F5F5F5F5F5F5F5F5F5F5F5F5F5F5F5F5F5F5F5F5F5F5F5F5F5F5F5F5F5F5F5
310
F5F5E2F5E2E2F5E2F5F5F5F5F5F5F5F5F5F5F5F5F5F5F5F5F5F5F5F5F5F5F5F5F5F5F5F5F5F5F5F5F5F5F5F5F5F5F5F5F5F5F5F5F5F5F5F5F5F5F5F5F5F5F5F5F5F5F5F5F5F5F5F5F5F5F5F5F5F5F5F5F5F5F5F5F5F5F5F5F5F5F5F5F5F5F5F5F5F5F5F5F5F5F5F5F5F5F5F5F5F5F5F5F5F5F5F5F5F5F5F5F5F5F5F5F5F5F5
310
F5F5F5F5F5F5F5F5F5F5F5F5F5F5F5F5F5F5F5F5F5F5F5F5F5F5F5F5F5F5F5F5F5F5F5F5F5F5F5F5F5F5F5F5F5F5F5F5F5F5F5F5F5F5F5E2F5E2E2F5E2F5F5F5F5F5F5F5F5F5F5F5F5F5F5F5F5F5F5F5F5F5F5F5F5F5F5F5F5F5F5F5F5F5F5F5F5F5F5F5F5F5F5F5F5F5F5F5F5F5F5F5F5F5F5F5F5F5F5F5F5F5F5F5F5F5F5
310
F5F5F5F5F5F5F5F5F5F5F5F5F5F5F5F5F5F5F5F5F5F5F5F5F5F5F5F5F5F5F5F5F5F5F5F5F5F5F5F5F5F5F5F5F5F5F5F5F5F5F5F5F5F5F5F5F5F5F5F5F5F5F5F5F5F5F5F5F5F5F5F5F5F5F5F5F5F5F5F5F5F5F5F5F5F5F5F5F5F5F5F5F5F5F5F5F5F5F5F5F5F5F5F5F5F5F5F5E2F5E2E2F5E2F5F5F5F5F5F5F5F5F5F5F5F5F5
310
F5F5F5F5F5F5F5F5F5F5F5F5F5F5F5F5F5F5F5F5F5F5F5F5F5F5F5F5F5F5F5F5F5F5F5F5F5F5F5F5F5F5F5F5F5F5F5F5F5F5F5F5F5F5F5F5F5F5F5F5F5F5F5F5F5F5F5F5F5F5F5F5F5F5F5F5F5F5F5F5F5F5F5F5F5F5F5F5F5F5F5F5F5F5F5F5F5F5F5F5F5F5F5F5F5F5F5F5F5F5F5F5F5F5F5F5F5F5F5F5F5F5F5F5F5F5F5
310
F5F5F5F5F5F5F5F5F5F5F5F5F5F5F5F5F5F5F5F5F5F5F5F5F5F5F5F5F5F5F5F5F5F5E2F5E2E2F5E2F5F5F5F5F5F5F5F5F5F5F5F5F5F5F5F5F5F5F5F5F5F5F5F5F5F5F5F5F5F5F5F5F5F5F5F5F5F5F5F5F5F5F5F5F5F5F5F5F5F5F5F5F5F5F5F5F5F5F5F5F5F5F5F5F5F5F5F5F5F5F5F5F5F5F5F5F5F5F5F5F5F5F5F5F5F5F5
310
F5F5F5F5F5F5F5F5F5F5F5F5F5F5F5F5F5F5F5F5F5F5F5F5F5F5F5F5F5F5F5F5F5F5F5F5F5F5F5F5F5F5F5F5F5F5F5F5F5F5F5F5F5F5F5F5F5F5F5F5F5F5F5F5F5F5F5F5F5F5F5F5F5F5F5F5F5F5F5F5F5F5F5F5F5F5F5E2F5E2E2F5E2F5F5F5F5F5F5F5F5F5F5F5F5F5F5F5F5F5F5F5F5F5F5F5F5F5F5F5F5F5F5F5F5F5F5
310
F5F5F5F5F5F5F5F5F5F5F5F5F5F5F5F5F5F5F5F5F5F5F5F5F5F5F5F5F5F5F5F5F5F5F5F5F5F5F5F5F5F5F5F5F5F5F5F5F5F5F5F5F5F5F5F5F5F5F5F5F5F5F5F5F5F5F5F5F5F5F5F5F5F5F5F5F5F5F5F5F5F5F5F5F5F5F5F5F5F5F5F5F5F5F5F5F5F5F5F5F5F5F5F5F5F5F5F5F5F5F5F5F5F5F5F5F5F5F5F5F5F5F5F5F5F5F5
310
F5F5F5F5F5F5F5F5F5F5F5F5F5E2F5E2E2F5E2E2E2E2E2E2E2E2E2F5F5F5F5F5F5F5F5F5E2E2E2E2E2E2E2E2E2E2E2E2E2E2E2E2F5F5F5F5F5F5F5F5F5E2E2E2E2E2E2E2E2E2E2E2E2E2E2E2E2F5F5F5F5F5F5F5F5F5E2E2E2E2E2E2E2E2E2E2E2E2E2E2E2E2F5F5F5F5F5F5F5F5F5E2E2E2E2E2E2E2E2E2E2E2E2E2E2E2E2
310
F5F5F5F5F5F5F5F5F5E2E2E2E2E2E2E2E2E2E2E2E2E2E2E2E2F5F5F5F5F5F5F5F5F5E2E2E2E2E2E2E2E2E2E2E2E2E2E2E2E2F5F5F5F5F5F5F5F5F5E2E2E2E2E2E2E2E2F5E2E2F5F5F5F5F5F5F5F5F5F5F5F5F5F5F5F5F5F5F5F5F5F5F5F5F5F5F5F5F5F5F5F5F5F5F5F5F5F5F5F5F5F5F5F5F5F5F5F5F5F5F5F5F5F5F5F5F5
310
F5F5F5F5F5F5F5F5F5F5F5F5F5F5F5F5F5F5F5F5F5F5F5F5F5F5F5F5F5F5F5F5F5F5F5F5F5F5F5F5F5F5F5F5F5F5F5F5F5F5F5F5F5F5F5F5F5F5F5F5F5F5F5F5F5F5F5F5F5F5F5F5F5F5F5F5F5F5F5F5F5F5F5F5F5F5F5F5F5F5F5F5F5F5F5F5F5F5F5F5F5F5F5F5F5F5F5F5F5F5F5F5F5F5F5F5F5F5F5F5F5E2E2E2E2E2E2
310
E2E2E2E2E2E2E2E2E2E2E2E2E2E2E2E2E2E2E2E2E2E2E2E2E2E2E2E2E2E2E2E2E2E2E2E2E2E2E2E2E2E2E2E2E2E2E2E2E2E2E2E2E2E2E2E2E2E2E2E2E2E2E2E2E2E2E2E2E2E2E2E2E2E2E2E2E2E2E2E2E2E2E2E2E2E2E2E2E2E2E2E2E2E2E2E2E2E2E2E2E2E2E2E2E2E2E2E2E2E2E2E2E2E2E2E2E2E2E2E2E2E2E2E2E2E2E2
310
E2E2E2E2E2E2E2E2E2E2E2E2E2E2E2E2E2E2E2E2E2E2E2E2E2E2E2E2E2E2E2E2E2E2E2E2E2E2E2E2E2E2E2E2E2E2E2E2
  0
XRECORD
  5
C8
102
{ACAD_REACTORS
330
C7
102
}
330
C7
100
AcDbXrecord
280
     1
102
MATERIAL
148
0.0
149
0.0
149
0.0
 93
        0
 94
       63
282
     0
 72
     1
 77
     1
171
     1
175
     1
179
     1
273
     0
  0
XRECORD
  5
C6
102
{ACAD_REACTORS
330
C5
102
}
330
C5
100
AcDbXrecord
280
     1
102
MATERIAL
148
0.0
149
0.0
149
0.0
 93
        0
 94
       63
282
     0
 72
     1
 77
     1
171
     1
175
     1
179
     1
273
     0
  0
XRECORD
  5
B2
102
{ACAD_REACTORS
330
B1
102
}
330
B1
100
AcDbXrecord
280
     1
102
MATERIAL
148
0.0
149
0.0
149
0.0
 93
        0
 94
       63
282
     0
 72
     1
 77
     1
171
     1
175
     1
179
     1
273
     0
  0
XRECORD
  5
156
102
{ACAD_REACTORS
330
155
102
}
330
155
100
AcDbXrecord
280
     1
102
ACAD_ROUNDTRIP_PRE2007_TABLESTYLE
 90
        4
 91
        0
  1

 92
        4
 93
        0
  2

 94
        4
 95
        0
  3

  0
ENDSEC
  0
EOF
