  0
SECTION
  2
HEADER
  9
$ACADVER
  1
AC1015
  9
$ACADMAINTVER
 70
    20
  9
$DWGCODEPAGE
  3
ANSI_1252
  9
$INSBASE
 10
0.0
 20
0.0
 30
0.0
  9
$EXTMIN
 10
0.0149993919942055
 20
-0.0966796864483968
 30
-0.0015258207003583
  9
$EXTMAX
 10
1.131942751505345
 20
0.5683746350328143
 30
0.0000000349246037
  9
$LIMMIN
 10
0.0
 20
0.0
  9
$LIMMAX
 10
1.0
 20
0.5
  9
$ORTHOMODE
 70
     0
  9
$REGENMODE
 70
     1
  9
$FILLMODE
 70
     1
  9
$QTEXTMODE
 70
     0
  9
$MIRRTEXT
 70
     0
  9
$LTSCALE
 40
1.0
  9
$ATTMODE
 70
     1
  9
$TEXTSIZE
 40
0.008
  9
$TRACEWID
 40
1.0
  9
$TEXTSTYLE
  7
style1
  9
$CLAYER
  8
Text
  9
$CELTYPE
  6
ACAD_ISO10W100
  9
$CECOLOR
 62
   256
  9
$CELTSCALE
 40
1.0
  9
$DISPSILH
 70
     0
  9
$DIMSCALE
 40
0.001
  9
$DIMASZ
 40
1.5
  9
$DIMEXO
 40
0.0625
  9
$DIMDLI
 40
0.38
  9
$DIMRND
 40
0.0
  9
$DIMDLE
 40
0.0
  9
$DIMEXE
 40
0.18
  9
$DIMTP
 40
0.0
  9
$DIMTM
 40
0.0
  9
$DIMTXT
 40
3.0
  9
$DIMCEN
 40
0.0
  9
$DIMTSZ
 40
0.0
  9
$DIMTOL
 70
     0
  9
$DIMLIM
 70
     0
  9
$DIMTIH
 70
     1
  9
$DIMTOH
 70
     1
  9
$DIMSE1
 70
     0
  9
$DIMSE2
 70
     0
  9
$DIMTAD
 70
     0
  9
$DIMZIN
 70
     0
  9
$DIMBLK
  1
ArchTick
  9
$DIMASO
 70
     1
  9
$DIMSHO
 70
     1
  9
$DIMPOST
  1

  9
$DIMAPOST
  1

  9
$DIMALT
 70
     0
  9
$DIMALTD
 70
     2
  9
$DIMALTF
 40
25.4
  9
$DIMLFAC
 40
1.0
  9
$DIMTOFL
 70
     0
  9
$DIMTVP
 40
0.0
  9
$DIMTIX
 70
     0
  9
$DIMSOXD
 70
     0
  9
$DIMSAH
 70
     0
  9
$DIMBLK1
  1

  9
$DIMBLK2
  1

  9
$DIMSTYLE
  2
Bovelacci
  9
$DIMCLRD
 70
     5
  9
$DIMCLRE
 70
     5
  9
$DIMCLRT
 70
     4
  9
$DIMTFAC
 40
1.0
  9
$DIMGAP
 40
2.0
  9
$DIMJUST
 70
     0
  9
$DIMSD1
 70
     0
  9
$DIMSD2
 70
     0
  9
$DIMTOLJ
 70
     1
  9
$DIMTZIN
 70
     0
  9
$DIMALTZ
 70
     0
  9
$DIMALTTZ
 70
     0
  9
$DIMUPT
 70
     0
  9
$DIMDEC
 70
     2
  9
$DIMTDEC
 70
     2
  9
$DIMALTU
 70
     2
  9
$DIMALTTD
 70
     2
  9
$DIMTXSTY
  7
ROMANS
  9
$DIMAUNIT
 70
     0
  9
$DIMADEC
 70
     0
  9
$DIMALTRND
 40
0.0
  9
$DIMAZIN
 70
     0
  9
$DIMDSEP
 70
    46
  9
$DIMATFIT
 70
     3
  9
$DIMFRAC
 70
     0
  9
$DIMLDRBLK
  1

  9
$DIMLUNIT
 70
     2
  9
$DIMLWD
 70
    -2
  9
$DIMLWE
 70
    -2
  9
$DIMTMOVE
 70
     2
  9
$LUNITS
 70
     2
  9
$LUPREC
 70
     2
  9
$SKETCHINC
 40
1.0
  9
$FILLETRAD
 40
0.0
  9
$AUNITS
 70
     0
  9
$AUPREC
 70
     0
  9
$MENU
  1
.
  9
$ELEVATION
 40
0.0
  9
$PELEVATION
 40
0.0
  9
$THICKNESS
 40
0.0
  9
$LIMCHECK
 70
     0
  9
$CHAMFERA
 40
0.0
  9
$CHAMFERB
 40
0.0
  9
$CHAMFERC
 40
0.0
  9
$CHAMFERD
 40
0.0
  9
$SKPOLY
 70
     0
  9
$TDCREATE
 40
2454297.625402373
  9
$TDUCREATE
 40
2454297.542069039
  9
$TDUPDATE
 40
2454311.563875498
  9
$TDUUPDATE
 40
2454311.480542164
  9
$TDINDWG
 40
0.1438908796
  9
$TDUSRTIMER
 40
0.1438888773
  9
$USRTIMER
 70
     1
  9
$ANGBASE
 50
0.0
  9
$ANGDIR
 70
     0
  9
$PDMODE
 70
     0
  9
$PDSIZE
 40
0.0
  9
$PLINEWID
 40
0.0
  9
$SPLFRAME
 70
     0
  9
$SPLINETYPE
 70
     6
  9
$SPLINESEGS
 70
     8
  9
$HANDSEED
  5
1416
  9
$SURFTAB1
 70
     6
  9
$SURFTAB2
 70
     6
  9
$SURFTYPE
 70
     6
  9
$SURFU
 70
     6
  9
$SURFV
 70
     6
  9
$UCSBASE
  2

  9
$UCSNAME
  2

  9
$UCSORG
 10
0.0
 20
0.0
 30
0.0
  9
$UCSXDIR
 10
1.0
 20
0.0
 30
0.0
  9
$UCSYDIR
 10
0.0
 20
1.0
 30
0.0
  9
$UCSORTHOREF
  2

  9
$UCSORTHOVIEW
 70
     0
  9
$UCSORGTOP
 10
0.0
 20
0.0
 30
0.0
  9
$UCSORGBOTTOM
 10
0.0
 20
0.0
 30
0.0
  9
$UCSORGLEFT
 10
0.0
 20
0.0
 30
0.0
  9
$UCSORGRIGHT
 10
0.0
 20
0.0
 30
0.0
  9
$UCSORGFRONT
 10
0.0
 20
0.0
 30
0.0
  9
$UCSORGBACK
 10
0.0
 20
0.0
 30
0.0
  9
$PUCSBASE
  2

  9
$PUCSNAME
  2

  9
$PUCSORG
 10
0.0
 20
0.0
 30
0.0
  9
$PUCSXDIR
 10
1.0
 20
0.0
 30
0.0
  9
$PUCSYDIR
 10
0.0
 20
1.0
 30
0.0
  9
$PUCSORTHOREF
  2

  9
$PUCSORTHOVIEW
 70
     0
  9
$PUCSORGTOP
 10
0.0
 20
0.0
 30
0.0
  9
$PUCSORGBOTTOM
 10
0.0
 20
0.0
 30
0.0
  9
$PUCSORGLEFT
 10
0.0
 20
0.0
 30
0.0
  9
$PUCSORGRIGHT
 10
0.0
 20
0.0
 30
0.0
  9
$PUCSORGFRONT
 10
0.0
 20
0.0
 30
0.0
  9
$PUCSORGBACK
 10
0.0
 20
0.0
 30
0.0
  9
$USERI1
 70
     0
  9
$USERI2
 70
     0
  9
$USERI3
 70
     0
  9
$USERI4
 70
     0
  9
$USERI5
 70
     0
  9
$USERR1
 40
0.0
  9
$USERR2
 40
0.0
  9
$USERR3
 40
0.0
  9
$USERR4
 40
0.0
  9
$USERR5
 40
0.0
  9
$WORLDVIEW
 70
     1
  9
$SHADEDGE
 70
     3
  9
$SHADEDIF
 70
    70
  9
$TILEMODE
 70
     1
  9
$MAXACTVP
 70
    64
  9
$PINSBASE
 10
0.0
 20
0.0
 30
0.0
  9
$PLIMCHECK
 70
     0
  9
$PEXTMIN
 10
1.000000000000000E+20
 20
1.000000000000000E+20
 30
1.000000000000000E+20
  9
$PEXTMAX
 10
-1.000000000000000E+20
 20
-1.000000000000000E+20
 30
-1.000000000000000E+20
  9
$PLIMMIN
 10
0.0
 20
0.0
  9
$PLIMMAX
 10
420.0
 20
297.0
  9
$UNITMODE
 70
     0
  9
$VISRETAIN
 70
     1
  9
$PLINEGEN
 70
     0
  9
$PSLTSCALE
 70
     1
  9
$TREEDEPTH
 70
  3020
  9
$CMLSTYLE
  2
Standard
  9
$CMLJUST
 70
     0
  9
$CMLSCALE
 40
20.0
  9
$PROXYGRAPHICS
 70
     1
  9
$MEASUREMENT
 70
     1
  9
$CELWEIGHT
370
    -1
  9
$ENDCAPS
280
     0
  9
$JOINSTYLE
280
     0
  9
$LWDISPLAY
290
     0
  9
$INSUNITS
 70
     4
  9
$HYPERLINKBASE
  1

  9
$STYLESHEET
  1

  9
$XEDIT
290
     1
  9
$CEPSNTYPE
380
     0
  9
$PSTYLEMODE
290
     1
  9
$FINGERPRINTGUID
  2
{904A8C64-524F-4709-A9C6-320D2C273A6D}
  9
$VERSIONGUID
  2
{CA137B14-0E84-4B1F-A991-390A15C9BFEE}
  9
$EXTNAMES
290
     1
  9
$PSVPSCALE
 40
0.0
  9
$OLESTARTUP
290
     0
  0
ENDSEC
  0
SECTION
  2
CLASSES
  0
CLASS
  1
ACDBDICTIONARYWDFLT
  2
AcDbDictionaryWithDefault
  3
ObjectDBX Classes
 90
        0
280
     0
281
     0
  0
CLASS
  1
TABLESTYLE
  2
AcDbTableStyle
  3
ObjectDBX Classes
 90
     2047
280
     0
281
     0
  0
CLASS
  1
SORTENTSTABLE
  2
AcDbSortentsTable
  3
ObjectDBX Classes
 90
        0
280
     0
281
     0
  0
CLASS
  1
DICTIONARYVAR
  2
AcDbDictionaryVar
  3
ObjectDBX Classes
 90
        0
280
     0
281
     0
  0
CLASS
  1
ACDBPLACEHOLDER
  2
AcDbPlaceHolder
  3
ObjectDBX Classes
 90
        0
280
     0
281
     0
  0
CLASS
  1
LAYOUT
  2
AcDbLayout
  3
ObjectDBX Classes
 90
        0
280
     0
281
     0
  0
CLASS
  1
DIMASSOC
  2
AcDbDimAssoc
  3
"AcDbDimAssoc|Product Desc:     AcDim ARX App For Dimension|Company:          Autodesk, Inc.|WEB Address:      www.autodesk.com"
 90
        0
280
     0
281
     0
  0
CLASS
  1
MATERIAL
  2
AcDbMaterial
  3
ObjectDBX Classes
 90
        0
280
     0
281
     0
  0
CLASS
  1
VISUALSTYLE
  2
AcDbVisualStyle
  3
ObjectDBX Classes
 90
     4095
280
     0
281
     0
  0
ENDSEC
  0
SECTION
  2
TABLES
  0
TABLE
  2
VPORT
  5
177
330
0
100
AcDbSymbolTable
 70
     7
  0
VPORT
  5
140B
330
177
100
AcDbSymbolTableRecord
100
AcDbViewportTableRecord
  2
*Active
 70
     0
 10
0.0
 20
0.0
 11
1.0
 21
1.0
 12
0.2062866365721048
 22
0.1480630267199492
 13
0.0
 23
0.0
 14
10.0
 24
10.0
 15
10.0
 25
10.0
 16
0.0
 26
0.0
 36
1.0
 17
0.0
 27
0.0
 37
0.0
 40
0.2789058391079155
 41
1.546526867627784
 42
50.0
 43
0.0
 44
0.0
 50
0.0
 51
0.0
 71
     0
 72
  1000
 73
     1
 74
     3
 75
     0
 76
     0
 77
     0
 78
     0
281
     0
 65
     1
110
0.0
120
0.0
130
0.0
111
1.0
121
0.0
131
0.0
112
0.0
122
1.0
132
0.0
 79
     0
146
0.0
  0
ENDTAB
  0
TABLE
  2
LTYPE
  5
172
330
0
100
AcDbSymbolTable
 70
     2
  0
LTYPE
  5
173
330
172
100
AcDbSymbolTableRecord
100
AcDbLinetypeTableRecord
  2
ByBlock
 70
     0
  3

 72
    65
 73
     0
 40
0.0
  0
LTYPE
  5
174
330
172
100
AcDbSymbolTableRecord
100
AcDbLinetypeTableRecord
  2
ByLayer
 70
     0
  3

 72
    65
 73
     0
 40
0.0
  0
LTYPE
  5
C
330
172
100
AcDbSymbolTableRecord
100
AcDbLinetypeTableRecord
  2
Continuous
 70
     0
  3
Solid line
 72
    65
 73
     0
 40
0.0
  0
LTYPE
  5
14E
330
172
100
AcDbSymbolTableRecord
100
AcDbLinetypeTableRecord
  2
ACAD_ISO10W100
 70
     0
  3
ISO dash dot __ . __ . __ . __ . __ . __ . __ .
 72
    65
 73
     4
 40
18.0
 49
12.0
 74
     0
 49
-3.0
 74
     0
 49
0.0
 74
     0
 49
-3.0
 74
     0
  0
ENDTAB
  0
TABLE
  2
LAYER
  5
16D
102
{ACAD_XDICTIONARY
360
16E
102
}
330
0
100
AcDbSymbolTable
 70
     7
  0
LAYER
  5
6
330
16D
100
AcDbSymbolTableRecord
100
AcDbLayerTableRecord
  2
0
 70
     0
 62
     7
  6
Continuous
370
    -3
390
7
  0
LAYER
  5
15F
330
16D
100
AcDbSymbolTableRecord
100
AcDbLayerTableRecord
  2
Defpoints
 70
     0
 62
     7
  6
Continuous
290
     0
370
    -3
390
7
  0
LAYER
  5
28
330
16D
100
AcDbSymbolTableRecord
100
AcDbLayerTableRecord
  2
Profilo
 70
     0
 62
     1
  6
Continuous
370
    -3
390
7
1001
AcAecLayerStandard
1000

1000

  0
LAYER
  5
14D
330
16D
100
AcDbSymbolTableRecord
100
AcDbLayerTableRecord
  2
Sezione
 70
     0
 62
     2
  6
Continuous
370
    -3
390
7
1001
AcAecLayerStandard
1000

1000

  0
LAYER
  5
E
330
16D
100
AcDbSymbolTableRecord
100
AcDbLayerTableRecord
  2
Table
 70
     0
 62
     3
  6
Continuous
370
    -3
390
7
1001
AcAecLayerStandard
1000

1000

  0
LAYER
  5
19
330
16D
100
AcDbSymbolTableRecord
100
AcDbLayerTableRecord
  2
Text
 70
     0
 62
     4
  6
Continuous
370
    -3
390
7
1001
AcAecLayerStandard
1000

1000

  0
LAYER
  5
23D
330
16D
100
AcDbSymbolTableRecord
100
AcDbLayerTableRecord
  2
Bovelacci
 70
     0
 62
     9
  6
Continuous
370
    -3
390
7
1001
AcAecLayerStandard
1000

1000

  0
ENDTAB
  0
TABLE
  2
STYLE
  5
170
330
0
100
AcDbSymbolTable
 70
     3
  0
STYLE
  5
1A
330
170
100
AcDbSymbolTableRecord
100
AcDbTextStyleTableRecord
  2
Standard
 70
     0
 40
0.0
 41
1.0
 50
0.0
 71
     0
 42
2.5
  3
txt
  4

  0
STYLE
  5
20
330
170
100
AcDbSymbolTableRecord
100
AcDbTextStyleTableRecord
  2
ROMANS
 70
     0
 40
0.0
 41
1.0
 50
0.0
 71
     0
 42
2.5
  3
romans
  4

  0
STYLE
  5
26
330
170
100
AcDbSymbolTableRecord
100
AcDbTextStyleTableRecord
  2
style1
 70
     0
 40
0.0
 41
1.0
 50
0.0
 71
     0
 42
0.008
  3
TIMES.TTF
  4

1001
ACAD
1000
Times New Roman
1071
       18
  0
ENDTAB
  0
TABLE
  2
VIEW
  5
175
330
0
100
AcDbSymbolTable
 70
     3
  0
ENDTAB
  0
TABLE
  2
UCS
  5
176
330
0
100
AcDbSymbolTable
 70
     0
  0
ENDTAB
  0
TABLE
  2
APPID
  5
17B
330
0
100
AcDbSymbolTable
 70
    10
  0
APPID
  5
1B
330
17B
100
AcDbSymbolTableRecord
100
AcDbRegAppTableRecord
  2
ACAD
 70
     0
  0
APPID
  5
157
330
17B
100
AcDbSymbolTableRecord
100
AcDbRegAppTableRecord
  2
ACAD_DSTYLE_DIMJOGGED_JOGANGLE_SYMBOL
 70
     0
  0
APPID
  5
F
330
17B
100
AcDbSymbolTableRecord
100
AcDbRegAppTableRecord
  2
AcAecLayerStandard
 70
     0
  0
APPID
  5
19C
330
17B
100
AcDbSymbolTableRecord
100
AcDbRegAppTableRecord
  2
ACAD_DSTYLE_DIMFLIPARROW_WHICH_SYMBOL
 70
     0
  0
APPID
  5
1A7
330
17B
100
AcDbSymbolTableRecord
100
AcDbRegAppTableRecord
  2
ACAD_DSTYLE_DIMEXT_LENGTH
 70
     0
  0
APPID
  5
1D2
330
17B
100
AcDbSymbolTableRecord
100
AcDbRegAppTableRecord
  2
ACAD_EXEMPT_FROM_CAD_STANDARDS
 70
     0
  0
APPID
  5
1D3
330
17B
100
AcDbSymbolTableRecord
100
AcDbRegAppTableRecord
  2
ACAD_DSTYLE_DIM_LINETYPE
 70
     0
  0
APPID
  5
1D4
330
17B
100
AcDbSymbolTableRecord
100
AcDbRegAppTableRecord
  2
ACAD_DSTYLE_DIM_EXT1_LINETYPE
 70
     0
  0
APPID
  5
1D5
330
17B
100
AcDbSymbolTableRecord
100
AcDbRegAppTableRecord
  2
ACAD_DSTYLE_DIM_EXT2_LINETYPE
 70
     0
  0
APPID
  5
243
330
17B
100
AcDbSymbolTableRecord
100
AcDbRegAppTableRecord
  2
ACAD_PSEXT
 70
     0
  0
ENDTAB
  0
TABLE
  2
DIMSTYLE
  5
17C
330
0
100
AcDbSymbolTable
 70
     7
100
AcDbDimStyleTable
 71
     2
340
156
340
17D
  0
DIMSTYLE
105
17D
330
17C
100
AcDbSymbolTableRecord
100
AcDbDimStyleTableRecord
  2
ISO-25
 70
     0
 41
2.5
 42
0.625
 43
3.75
 44
1.25
 73
     0
 74
     0
 77
     1
 78
     8
140
2.5
141
2.5
143
0.03937007874016
147
0.625
171
     3
172
     1
271
     2
272
     2
274
     3
278
    44
283
     0
284
     8
340
1A
  0
DIMSTYLE
105
156
102
{ACAD_REACTORS
330
13EC
102
}
330
17C
100
AcDbSymbolTableRecord
100
AcDbDimStyleTableRecord
  2
Bovelacci
 70
     0
 40
0.001
 41
1.5
140
3.0
141
0.0
147
2.0
176
     5
177
     5
178
     4
271
     2
272
     2
279
     2
340
20
342
152
1001
ACAD_DSTYLE_DIMJOGGED_JOGANGLE_SYMBOL
1070
   384
1040
0.7853981633974483
1001
ACAD_DSTYLE_DIMEXT_LENGTH
1070
   378
1040
0.18
  0
DIMSTYLE
105
23E
330
17C
100
AcDbSymbolTableRecord
100
AcDbDimStyleTableRecord
  2
Dim 1-100
 70
     0
 40
0.1
 41
1.5
 42
0.0
 43
5.0
 44
1.25
 45
0.005
 46
1.25
 73
     0
 74
     0
 77
     1
 78
     9
140
2.0
141
2.5
147
1.0
172
     1
174
     1
179
     2
279
     2
289
     2
340
20
342
152
  0
DIMSTYLE
105
23F
330
17C
100
AcDbSymbolTableRecord
100
AcDbDimStyleTableRecord
  2
Standard
 70
     0
 42
0.0
 73
     0
 74
     0
 77
     1
271
     2
272
     2
340
20
  0
DIMSTYLE
105
240
330
17C
100
AcDbSymbolTableRecord
100
AcDbDimStyleTableRecord
  2
Dim 1-50
 70
     0
 40
0.05
 41
1.5
 42
0.0
 43
5.0
 44
1.25
 45
0.005
 46
1.25
 73
     0
 74
     0
 77
     1
 78
     9
140
2.0
141
2.5
147
1.0
172
     1
174
     1
179
     2
279
     2
289
     2
340
20
342
152
  0
DIMSTYLE
105
241
330
17C
100
AcDbSymbolTableRecord
100
AcDbDimStyleTableRecord
  2
Dim 1-200
 70
     0
 40
0.2
 41
1.5
 42
0.0
 43
5.0
 44
1.25
 45
0.005
 46
1.25
 73
     0
 74
     0
 77
     1
 78
     9
140
2.0
141
2.5
147
1.0
172
     1
174
     1
179
     2
271
     2
272
     2
279
     2
289
     2
340
20
342
152
  0
DIMSTYLE
105
242
330
17C
100
AcDbSymbolTableRecord
100
AcDbDimStyleTableRecord
  2
AEC Scale - Italiano
 70
     0
 41
1.0
 42
10.0
 43
10.0
 44
10.0
 73
     0
 74
     0
 75
     1
 76
     1
 77
     1
140
10.0
141
1.0
147
10.0
173
     1
271
     0
272
     0
279
     2
340
1A
343
238
344
232
  0
ENDTAB
  0
TABLE
  2
BLOCK_RECORD
  5
1
330
0
100
AcDbSymbolTable
 70
    15
  0
BLOCK_RECORD
  5
2
102
{ACAD_XDICTIONARY
360
3
102
}
330
1
100
AcDbSymbolTableRecord
100
AcDbBlockTableRecord
  2
*Model_Space
340
163
  0
BLOCK_RECORD
  5
165
330
1
100
AcDbSymbolTableRecord
100
AcDbBlockTableRecord
  2
*Paper_Space
340
168
  0
BLOCK_RECORD
  5
169
330
1
100
AcDbSymbolTableRecord
100
AcDbBlockTableRecord
  2
*Paper_Space0
340
16C
  0
BLOCK_RECORD
  5
152
330
1
100
AcDbSymbolTableRecord
100
AcDbBlockTableRecord
  2
_ArchTick
340
0
310
2800000020000000200000000100080000000000000400000000000000000000000000000000000000000000000080000080000000808000800000008000800080800000C0C0C000C0DCC000F0CAA6000020400000206000002080000020A0000020C0000020E00000400000004020000040400000406000004080000040A0
310
000040C0000040E00000600000006020000060400000606000006080000060A0000060C0000060E00000800000008020000080400000806000008080000080A0000080C0000080E00000A0000000A0200000A0400000A0600000A0800000A0A00000A0C00000A0E00000C0000000C0200000C0400000C0600000C0800000C0
310
A00000C0C00000C0E00000E0000000E0200000E0400000E0600000E0800000E0A00000E0C00000E0E00040000000400020004000400040006000400080004000A0004000C0004000E00040200000402020004020400040206000402080004020A0004020C0004020E000404000004040200040404000404060004040800040
310
40A0004040C0004040E00040600000406020004060400040606000406080004060A0004060C0004060E00040800000408020004080400040806000408080004080A0004080C0004080E00040A0000040A0200040A0400040A0600040A0800040A0A00040A0C00040A0E00040C0000040C0200040C0400040C0600040C08000
310
40C0A00040C0C00040C0E00040E0000040E0200040E0400040E0600040E0800040E0A00040E0C00040E0E00080000000800020008000400080006000800080008000A0008000C0008000E00080200000802020008020400080206000802080008020A0008020C0008020E00080400000804020008040400080406000804080
310
008040A0008040C0008040E00080600000806020008060400080606000806080008060A0008060C0008060E00080800000808020008080400080806000808080008080A0008080C0008080E00080A0000080A0200080A0400080A0600080A0800080A0A00080A0C00080A0E00080C0000080C0200080C0400080C0600080C0
310
800080C0A00080C0C00080C0E00080E0000080E0200080E0400080E0600080E0800080E0A00080E0C00080E0E000C0000000C0002000C0004000C0006000C0008000C000A000C000C000C000E000C0200000C0202000C0204000C0206000C0208000C020A000C020C000C020E000C0400000C0402000C0404000C0406000C0
310
408000C040A000C040C000C040E000C0600000C0602000C0604000C0606000C0608000C060A000C060C000C060E000C0800000C0802000C0804000C0806000C0808000C080A000C080C000C080E000C0A00000C0A02000C0A04000C0A06000C0A08000C0A0A000C0A0C000C0A0E000C0C00000C0C02000C0C04000C0C06000
310
C0C08000C0C0A000F0FBFF00A4A0A000808080000000FF0000FF000000FFFF00FF000000FF00FF00FFFF0000FFFFFF00000000FF000000000000000000000000000000000000000000000000000000000000FF00FF00000000000000000000000000000000000000000000000000000000FF000000FF000000000000000000
310
0000000000000000000000000000000000FF0000000000FF0000000000000000000000000000000000000000000000000000FF0000000000FF0000000000000000000000000000000000000000000000000000FF0000000000FF0000000000000000000000000000000000000000000000000000FF0000000000FF00000000
310
00000000000000000000000000000000000000000000FF0000000000FF0000000000000000000000000000000000000000000000000000FF0000000000FF0000000000000000000000000000000000000000000000000000FF0000000000FF0000000000000000000000000000000000000000000000000000FF0000000000
310
FF0000000000000000000000000000000000000000000000000000FF0000000000FF0000000000000000000000000000000000000000000000000000FF0000000000FF0000000000000000000000000000000000000000000000000000FF0000000000FF0000000000000000000000000000000000000000000000000000FF
310
0000000000FF0000000000000000000000000000000000000000000000000000FF0000000000FF0000000000000000000000000000000000000000000000000000FF0000000000FF0000000000000000000000000000000000000000000000000000FF0000000000FF00000000000000000000000000000000000000000000
310
00000000FF0000000000FF0000000000000000000000000000000000000000000000000000FF0000000000FF0000000000000000000000000000000000000000000000000000FF0000000000FF0000000000000000000000000000000000000000000000000000FF0000000000FF0000000000000000000000000000000000
310
000000000000000000FF0000000000FF0000000000000000000000000000000000000000000000000000FF0000000000FF0000000000000000000000000000000000000000000000000000FF0000000000FF0000000000000000000000000000000000000000000000000000FF0000000000FF000000000000000000000000
310
0000000000000000000000000000FF0000000000FF0000000000000000000000000000000000000000000000000000FF0000000000FF0000000000000000000000000000000000000000000000000000FF0000000000FF0000000000000000000000000000000000000000000000000000FF000000FF000000000000000000
310
00000000000000000000000000000000000000FF00FF000000000000000000000000000000000000000000000000000000000000FF000000
102
{BLKREFS
331
8C4
331
8D8
331
B3A
331
F28
331
F3D
331
1135
331
1153
331
1407
102
}
  0
BLOCK_RECORD
  5
232
330
1
100
AcDbSymbolTableRecord
100
AcDbBlockTableRecord
  2
_Arrivo
340
0
310
2800000020000000200000000100080000000000000400000000000000000000000000000000000000000000000080000080000000808000800000008000800080800000C0C0C000C0DCC000F0CAA6000020400000206000002080000020A0000020C0000020E00000400000004020000040400000406000004080000040A0
310
000040C0000040E00000600000006020000060400000606000006080000060A0000060C0000060E00000800000008020000080400000806000008080000080A0000080C0000080E00000A0000000A0200000A0400000A0600000A0800000A0A00000A0C00000A0E00000C0000000C0200000C0400000C0600000C0800000C0
310
A00000C0C00000C0E00000E0000000E0200000E0400000E0600000E0800000E0A00000E0C00000E0E00040000000400020004000400040006000400080004000A0004000C0004000E00040200000402020004020400040206000402080004020A0004020C0004020E000404000004040200040404000404060004040800040
310
40A0004040C0004040E00040600000406020004060400040606000406080004060A0004060C0004060E00040800000408020004080400040806000408080004080A0004080C0004080E00040A0000040A0200040A0400040A0600040A0800040A0A00040A0C00040A0E00040C0000040C0200040C0400040C0600040C08000
310
40C0A00040C0C00040C0E00040E0000040E0200040E0400040E0600040E0800040E0A00040E0C00040E0E00080000000800020008000400080006000800080008000A0008000C0008000E00080200000802020008020400080206000802080008020A0008020C0008020E00080400000804020008040400080406000804080
310
008040A0008040C0008040E00080600000806020008060400080606000806080008060A0008060C0008060E00080800000808020008080400080806000808080008080A0008080C0008080E00080A0000080A0200080A0400080A0600080A0800080A0A00080A0C00080A0E00080C0000080C0200080C0400080C0600080C0
310
800080C0A00080C0C00080C0E00080E0000080E0200080E0400080E0600080E0800080E0A00080E0C00080E0E000C0000000C0002000C0004000C0006000C0008000C000A000C000C000C000E000C0200000C0202000C0204000C0206000C0208000C020A000C020C000C020E000C0400000C0402000C0404000C0406000C0
310
408000C040A000C040C000C040E000C0600000C0602000C0604000C0606000C0608000C060A000C060C000C060E000C0800000C0802000C0804000C0806000C0808000C080A000C080C000C080E000C0A00000C0A02000C0A04000C0A06000C0A08000C0A0A000C0A0C000C0A0E000C0C00000C0C02000C0C04000C0C06000
310
C0C08000C0C0A000F0FBFF00A4A0A000808080000000FF0000FF000000FFFF00FF000000FF00FF00FFFF0000FFFFFF00000000000000000000000000000000000000000000000000000000000000000000000000000000000000FF0000000000000000000000000000000000000000000000000000000000000000FF000000
310
00000000000000000000000000000000000000000000000000000000FF0000000000000000000000000000000000000000000000000000000000000000FF00000000000000000000000000000000000000000000000000000000000000FF0000000000000000000000000000000000000000000000000000000000000000FF
310
0000000000000000000000000000000000000000000000000000000000000000FF00000000000000000000000000000000000000000000000000000000000000FF0000000000000000000000000000000000000000000000000000000000000000FF0000000000000000000000000000000000000000000000000000000000
310
0000FF0000000000000000000000000000000000000000000000000000000000000000FF00000000000000000000000000000000000000000000000000000000000000FF0000000000000000000000000000000000000000000000000000000000000000FF0000FF0000000000000000000000000000000000000000000000
310
000000000000FFFF000000000000000000000000000000000000000000000000000000000000FFFF00000000000000000000000000000000000000000000000000000000FFFFFFFFFFFF00000000000000000000000000000000000000000000000000000000FFFF0000000000000000000000000000000000000000000000
310
000000000000FF0000FF000000000000000000000000000000000000000000000000000000FF00000000000000000000000000000000000000000000000000000000000000FF000000000000000000000000000000000000000000000000000000000000FF0000000000000000000000000000000000000000000000000000
310
0000000000FF000000000000000000000000000000000000000000000000000000000000FF00000000000000000000000000000000000000000000000000000000000000FF000000000000000000000000000000000000000000000000000000000000FF000000000000000000000000000000000000000000000000000000
310
000000FF00000000000000000000000000000000000000000000000000000000000000FF000000000000000000000000000000000000000000000000000000000000FF00000000000000000000000000000000000000000000000000000000000000FF00000000000000000000000000000000000000000000000000000000
310
0000FF0000000000000000000000000000000000000000000000000000000000000000000000000000000000000000000000000000000000
  0
BLOCK_RECORD
  5
238
330
1
100
AcDbSymbolTableRecord
100
AcDbBlockTableRecord
  2
_Partenza
340
0
310
2800000020000000200000000100080000000000000400000000000000000000000000000000000000000000000080000080000000808000800000008000800080800000C0C0C000C0DCC000F0CAA6000020400000206000002080000020A0000020C0000020E00000400000004020000040400000406000004080000040A0
310
000040C0000040E00000600000006020000060400000606000006080000060A0000060C0000060E00000800000008020000080400000806000008080000080A0000080C0000080E00000A0000000A0200000A0400000A0600000A0800000A0A00000A0C00000A0E00000C0000000C0200000C0400000C0600000C0800000C0
310
A00000C0C00000C0E00000E0000000E0200000E0400000E0600000E0800000E0A00000E0C00000E0E00040000000400020004000400040006000400080004000A0004000C0004000E00040200000402020004020400040206000402080004020A0004020C0004020E000404000004040200040404000404060004040800040
310
40A0004040C0004040E00040600000406020004060400040606000406080004060A0004060C0004060E00040800000408020004080400040806000408080004080A0004080C0004080E00040A0000040A0200040A0400040A0600040A0800040A0A00040A0C00040A0E00040C0000040C0200040C0400040C0600040C08000
310
40C0A00040C0C00040C0E00040E0000040E0200040E0400040E0600040E0800040E0A00040E0C00040E0E00080000000800020008000400080006000800080008000A0008000C0008000E00080200000802020008020400080206000802080008020A0008020C0008020E00080400000804020008040400080406000804080
310
008040A0008040C0008040E00080600000806020008060400080606000806080008060A0008060C0008060E00080800000808020008080400080806000808080008080A0008080C0008080E00080A0000080A0200080A0400080A0600080A0800080A0A00080A0C00080A0E00080C0000080C0200080C0400080C0600080C0
310
800080C0A00080C0C00080C0E00080E0000080E0200080E0400080E0600080E0800080E0A00080E0C00080E0E000C0000000C0002000C0004000C0006000C0008000C000A000C000C000C000E000C0200000C0202000C0204000C0206000C0208000C020A000C020C000C020E000C0400000C0402000C0404000C0406000C0
310
408000C040A000C040C000C040E000C0600000C0602000C0604000C0606000C0608000C060A000C060C000C060E000C0800000C0802000C0804000C0806000C0808000C080A000C080C000C080E000C0A00000C0A02000C0A04000C0A06000C0A08000C0A0A000C0A0C000C0A0E000C0C00000C0C02000C0C04000C0C06000
310
C0C08000C0C0A000F0FBFF00A4A0A000808080000000FF0000FF000000FFFF00FF000000FF00FF00FFFF0000FFFFFF0000000000000000000000000000000000000000000000000000000000000000000000000000000000000000000000000000000000000000000000000000000000000000000000000000000000000000
310
000000000000000000000000000000000000000000000000000000000000000000000000000000000000000000000000000000000000000000000000000000000000000000000000000000000000000000000000000000000000000000000000000000000000000000000000000000000000FFFFFFFFFFFFFFFFFFFFFFFFFF
310
FFFFFFFFFFFFFFFFFFFFFFFFFFFFFFFFFF0000000000000000000000000000000000000000000000000000000000000000000000000000000000000000000000000000000000000000000000000000000000000000000000000000000000000000000000000000000000000000000000000000000000000000000000000000
310
00000000000000000000000000000000000000000000000000000000000000000000000000000000000000000000000000000000000000000000000000000000000000000000000000000000000000000000000000000000000000000000000000000000000000000000000000000000000000000000000000000000000000
310
00000000000000000000000000000000000000000000000000000000000000000000000000000000000000000000000000000000000000000000000000000000000000000000000000000000000000000000000000000000000000000000000000000000000000000000000000000000000000000000000000000000000000
310
00000000000000000000000000000000000000000000000000000000000000000000000000000000000000000000000000000000000000000000000000000000000000000000000000000000000000000000000000000000000000000000000000000000000000000000000000000000000000000000000000000000000000
310
000000000000000000000000000000000000000000000000000000000000000000000000000000000000000000000000000000000000000000000000000000000000000000000000000000000000000000000000000000FFFFFFFFFFFFFFFFFFFFFFFFFFFFFFFFFFFFFFFFFFFFFFFFFFFFFFFFFFFF00000000000000000000
310
00000000000000000000000000000000000000000000000000000000000000000000000000000000000000000000000000000000000000000000000000000000000000000000000000000000000000000000000000000000000000000000000000000000000000000000000000000000000000000000000000000000000000
310
0000000000000000000000000000000000000000000000000000000000000000000000000000000000000000000000000000000000000000
  0
BLOCK_RECORD
  5
B2E
330
1
100
AcDbSymbolTableRecord
100
AcDbBlockTableRecord
  2
*D6
340
0
  0
BLOCK_RECORD
  5
F0E
330
1
100
AcDbSymbolTableRecord
100
AcDbBlockTableRecord
  2
*D8
340
0
  0
BLOCK_RECORD
  5
F38
330
1
100
AcDbSymbolTableRecord
100
AcDbBlockTableRecord
  2
*D9
340
0
  0
BLOCK_RECORD
  5
1129
330
1
100
AcDbSymbolTableRecord
100
AcDbBlockTableRecord
  2
*D11
340
0
  0
BLOCK_RECORD
  5
1139
330
1
100
AcDbSymbolTableRecord
100
AcDbBlockTableRecord
  2
*D12
340
0
  0
BLOCK_RECORD
  5
13ED
330
1
100
AcDbSymbolTableRecord
100
AcDbBlockTableRecord
  2
*D14
340
0
  0
ENDTAB
  0
ENDSEC
  0
SECTION
  2
BLOCKS
  0
BLOCK
  5
5
330
2
100
AcDbEntity
  8
0
100
AcDbBlockBegin
  2
*Model_Space
 70
     0
 10
0.0
 20
0.0
 30
0.0
  3
*Model_Space
  1

  0
ENDBLK
  5
162
330
2
100
AcDbEntity
  8
0
100
AcDbBlockEnd
  0
BLOCK
  5
166
330
165
100
AcDbEntity
 67
     1
  8
0
100
AcDbBlockBegin
  2
*Paper_Space
 70
     0
 10
0.0
 20
0.0
 30
0.0
  3
*Paper_Space
  1

  0
ENDBLK
  5
167
330
165
100
AcDbEntity
 67
     1
  8
0
100
AcDbBlockEnd
  0
BLOCK
  5
16A
330
169
100
AcDbEntity
 67
     1
  8
0
100
AcDbBlockBegin
  2
*Paper_Space0
 70
     0
 10
0.0
 20
0.0
 30
0.0
  3
*Paper_Space0
  1

  0
ENDBLK
  5
16B
330
169
100
AcDbEntity
 67
     1
  8
0
100
AcDbBlockEnd
  0
BLOCK
  5
153
330
152
100
AcDbEntity
  8
0
 62
     1
100
AcDbBlockBegin
  2
_ArchTick
 70
     0
 10
0.0
 20
0.0
 30
0.0
  3
_ArchTick
  1

  0
LWPOLYLINE
  5
154
330
152
100
AcDbEntity
  8
0
  6
ByBlock
 62
     0
100
AcDbPolyline
 90
        2
 70
     0
 43
0.15
 10
-0.5
 20
-0.5
 10
0.5
 20
0.5
  0
ENDBLK
  5
155
330
152
100
AcDbEntity
  8
0
 62
     1
100
AcDbBlockEnd
  0
BLOCK
  5
233
330
232
100
AcDbEntity
  8
0
100
AcDbBlockBegin
  2
_Arrivo
 70
     0
 10
0.0
 20
0.0
 30
0.0
  3
_Arrivo
  1

  0
LINE
  5
234
330
232
100
AcDbEntity
  8
0
  6
ByBlock
 62
     0
370
    -2
100
AcDbLine
 10
0.025
 20
-0.0433012701891858
 30
0.0
 11
-0.15
 21
0.2598076211353328
 31
0.0
  0
LINE
  5
235
330
232
100
AcDbEntity
  8
0
  6
ByBlock
 62
     0
370
    -2
100
AcDbLine
 10
0.025
 20
0.0433012701892585
 30
0.0
 11
-0.15
 21
-0.2598076211353328
 31
0.0
  0
LINE
  5
236
330
232
100
AcDbEntity
  8
0
  6
ByBlock
 62
     0
370
    -2
100
AcDbLine
 10
-0.05
 20
0.0
 30
0.0
 11
0.05
 21
0.0
 31
0.0
  0
ENDBLK
  5
237
330
232
100
AcDbEntity
  8
0
100
AcDbBlockEnd
  0
BLOCK
  5
239
330
238
100
AcDbEntity
  8
0
100
AcDbBlockBegin
  2
_Partenza
 70
     0
 10
0.0
 20
0.0
 30
0.0
  3
_Partenza
  1

  0
LINE
  5
23A
330
238
100
AcDbEntity
  8
0
  6
ByBlock
 62
     0
370
    -2
100
AcDbLine
 10
-0.05
 20
0.05
 30
0.0
 11
0.1
 21
0.05
 31
0.0
  0
LINE
  5
23B
330
238
100
AcDbEntity
  8
0
  6
ByBlock
 62
     0
370
    -2
100
AcDbLine
 10
-0.05
 20
-0.05
 30
0.0
 11
0.1
 21
-0.05
 31
0.0
  0
ENDBLK
  5
23C
330
238
100
AcDbEntity
  8
0
100
AcDbBlockEnd
  0
BLOCK
  5
B35
330
B2E
100
AcDbEntity
  8
0
100
AcDbBlockBegin
  2
*D6
 70
     1
 10
0.0
 20
0.0
 30
0.0
  3
*D6
  1

  0
LINE
  5
B37
330
B2E
100
AcDbEntity
  8
Sezione
  6
ACAD_ISO10W100
 62
     5
370
    -2
100
AcDbLine
 10
0.2490382717523074
 20
0.2002746873852521
 30
0.0
 11
0.2475382717523074
 21
0.2002746873852521
 31
0.0
  0
LINE
  5
B38
330
B2E
100
AcDbEntity
  8
Sezione
  6
ACAD_ISO10W100
 62
     5
370
    -2
100
AcDbLine
 10
0.2475382717523074
 20
0.2002746873852521
 30
0.0
 11
0.2453598399951405
 21
0.1982120591881776
 31
0.0
  0
MTEXT
  5
B39
330
B2E
100
AcDbEntity
  8
Sezione
  6
ACAD_ISO10W100
 62
     4
100
AcDbMText
 10
0.2634668431808787
 20
0.2002746873852521
 30
0.0
 40
0.003
 41
0.0
 71
     5
 72
     1
  1
\A1;d 400 mm
  7
ROMANS
 73
     1
 44
1.0
1001
ACAD
1000
MTEXTBEGIN
1070
    73
1070
     1
1070
    44
1040
1.0
1070
    74
1070
     0
1000
MTEXTEND
  0
INSERT
  5
B3A
330
B2E
100
AcDbEntity
  8
Sezione
  6
ACAD_ISO10W100
 62
     5
370
    -2
100
AcDbBlockReference
  2
_ArchTick
 10
0.2453598399951405
 20
0.1982120591881776
 30
0.0
 41
0.0015
 42
0.0015
 43
0.0015
 50
223.4359082248928
  0
POINT
  5
B3B
330
B2E
100
AcDbEntity
  8
Defpoints
  6
ACAD_ISO10W100
 62
     0
100
AcDbPoint
 10
0.2453598399951405
 20
0.1982120591881776
 30
0.0
  0
POINT
  5
B3C
330
B2E
100
AcDbEntity
  8
Defpoints
  6
ACAD_ISO10W100
 62
     0
100
AcDbPoint
 10
0.1727454480895762
 20
0.1294577859523623
 30
0.0
  0
ENDBLK
  5
B36
330
B2E
100
AcDbEntity
  8
0
100
AcDbBlockEnd
  0
BLOCK
  5
F15
330
F0E
100
AcDbEntity
  8
0
100
AcDbBlockBegin
  2
*D8
 70
     1
 10
0.0
 20
0.0
 30
0.0
  3
*D8
  1

  0
LINE
  5
F25
330
F0E
100
AcDbEntity
  8
Text
  6
ACAD_ISO10W100
 62
     5
370
    -2
100
AcDbLine
 10
0.2547820556108338
 20
0.1949596782512033
 30
0.0
 11
0.2532820556108338
 21
0.1949596782512033
 31
0.0
  0
LINE
  5
F26
330
F0E
100
AcDbEntity
  8
Text
  6
ACAD_ISO10W100
 62
     5
370
    -2
100
AcDbLine
 10
0.2532820556108338
 20
0.1949596782512033
 30
0.0
 11
0.2509836868545414
 21
0.1930315960278271
 31
0.0
  0
MTEXT
  5
F27
330
F0E
100
AcDbEntity
  8
Text
  6
ACAD_ISO10W100
 62
     4
100
AcDbMText
 10
0.2692106270394052
 20
0.1949596782512033
 30
0.0
 40
0.003
 41
0.0
 71
     5
 72
     1
  1
\A1;d 435 mm
  7
ROMANS
 73
     1
 44
1.0
1001
ACAD
1000
MTEXTBEGIN
1070
    73
1070
     1
1070
    44
1040
1.0
1070
    74
1070
     0
1000
MTEXTEND
  0
INSERT
  5
F28
330
F0E
100
AcDbEntity
  8
Text
  6
ACAD_ISO10W100
 62
     5
370
    -2
100
AcDbBlockReference
  2
_ArchTick
 10
0.2509836868545414
 20
0.1930315960278271
 30
0.0
 41
0.0015
 42
0.0015
 43
0.0015
 50
219.9930044538004
  0
POINT
  5
F29
330
F0E
100
AcDbEntity
  8
Defpoints
  6
ACAD_ISO10W100
 62
     0
100
AcDbPoint
 10
0.2509836868545414
 20
0.1930315960278271
 30
0.0
  0
POINT
  5
F2A
330
F0E
100
AcDbEntity
  8
Defpoints
  6
ACAD_ISO10W100
 62
     0
100
AcDbPoint
 10
0.1676678194389444
 20
0.1231386154304406
 30
0.0
  0
ENDBLK
  5
F16
330
F0E
100
AcDbEntity
  8
0
100
AcDbBlockEnd
  0
BLOCK
  5
F39
330
F38
100
AcDbEntity
  8
0
100
AcDbBlockBegin
  2
*D9
 70
     1
 10
0.0
 20
0.0
 30
0.0
  3
*D9
  1

  0
LINE
  5
F3A
330
F38
100
AcDbEntity
  8
Sezione
  6
ACAD_ISO10W100
 62
     5
370
    -2
100
AcDbLine
 10
0.2558514754556142
 20
0.211046886970545
 30
0.0
 11
0.2543514754556142
 21
0.211046886970545
 31
0.0
  0
LINE
  5
F3B
330
F38
100
AcDbEntity
  8
Sezione
  6
ACAD_ISO10W100
 62
     5
370
    -2
100
AcDbLine
 10
0.2543514754556142
 20
0.211046886970545
 30
0.0
 11
0.252220121576662
 21
0.2089356478456055
 31
0.0
  0
MTEXT
  5
F3C
330
F38
100
AcDbEntity
  8
Sezione
  6
ACAD_ISO10W100
 62
     4
100
AcDbMText
 10
0.2702800468841856
 20
0.211046886970545
 30
0.0
 40
0.003
 41
0.0
 71
     5
 72
     1
  1
\A1;d 500 mm
  7
ROMANS
 73
     1
 44
1.0
1001
ACAD
1000
MTEXTBEGIN
1070
    73
1070
     1
1070
    44
1040
1.0
1070
    74
1070
     0
1000
MTEXTEND
  0
INSERT
  5
F3D
330
F38
100
AcDbEntity
  8
Sezione
  6
ACAD_ISO10W100
 62
     5
370
    -2
100
AcDbBlockReference
  2
_ArchTick
 10
0.252220121576662
 20
0.2089356478456055
 30
0.0
 41
0.0015
 42
0.0015
 43
0.0015
 50
224.7283543638229
  0
POINT
  5
F3E
330
F38
100
AcDbEntity
  8
Defpoints
  6
ACAD_ISO10W100
 62
     0
100
AcDbPoint
 10
0.252220121576662
 20
0.2089356478456055
 30
0.0
  0
POINT
  5
F3F
330
F38
100
AcDbEntity
  8
Defpoints
  6
ACAD_ISO10W100
 62
     0
100
AcDbPoint
 10
0.1634137099536523
 20
0.1209673509731266
 30
0.0
  0
ENDBLK
  5
F40
330
F38
100
AcDbEntity
  8
0
100
AcDbBlockEnd
  0
BLOCK
  5
1130
330
1129
100
AcDbEntity
  8
0
100
AcDbBlockBegin
  2
*D11
 70
     1
 10
0.0
 20
0.0
 30
0.0
  3
*D11
  1

  0
LINE
  5
1132
330
1129
100
AcDbEntity
  8
Sezione
  6
ACAD_ISO10W100
 62
     5
370
    -2
100
AcDbLine
 10
0.2569794242119316
 20
0.2103688405289794
 30
0.0
 11
0.2554794242119315
 21
0.2103688405289794
 31
0.0
  0
LINE
  5
1133
330
1129
100
AcDbEntity
  8
Sezione
  6
ACAD_ISO10W100
 62
     5
370
    -2
100
AcDbLine
 10
0.2554794242119315
 20
0.2103688405289794
 30
0.0
 11
0.2533480703329793
 21
0.2082576014040399
 31
0.0
  0
MTEXT
  5
1134
330
1129
100
AcDbEntity
  8
Sezione
  6
ACAD_ISO10W100
 62
     4
100
AcDbMText
 10
0.271407995640503
 20
0.2103688405289795
 30
0.0
 40
0.003
 41
0.0
 71
     5
 72
     1
  1
\A1;d 500 mm
  7
ROMANS
 73
     1
 44
1.0
1001
ACAD
1000
MTEXTBEGIN
1070
    73
1070
     1
1070
    44
1040
1.0
1070
    74
1070
     0
1000
MTEXTEND
  0
INSERT
  5
1135
330
1129
100
AcDbEntity
  8
Sezione
  6
ACAD_ISO10W100
 62
     5
370
    -2
100
AcDbBlockReference
  2
_ArchTick
 10
0.2533480703329793
 20
0.2082576014040399
 30
0.0
 41
0.0015
 42
0.0015
 43
0.0015
 50
224.7283543638228
  0
POINT
  5
1136
330
1129
100
AcDbEntity
  8
Defpoints
  6
ACAD_ISO10W100
 62
     0
100
AcDbPoint
 10
0.2533480703329793
 20
0.2082576014040399
 30
0.0
  0
POINT
  5
1137
330
1129
100
AcDbEntity
  8
Defpoints
  6
ACAD_ISO10W100
 62
     0
100
AcDbPoint
 10
0.1645416587099697
 20
0.120289304531561
 30
0.0
  0
ENDBLK
  5
1131
330
1129
100
AcDbEntity
  8
0
100
AcDbBlockEnd
  0
BLOCK
  5
1140
330
1139
100
AcDbEntity
  8
0
100
AcDbBlockBegin
  2
*D12
 70
     1
 10
0.0
 20
0.0
 30
0.0
  3
*D12
  1

  0
LINE
  5
1150
330
1139
100
AcDbEntity
  8
Text
  6
ACAD_ISO10W100
 62
     5
370
    -2
100
AcDbLine
 10
0.2562544646025093
 20
0.2110893748364945
 30
0.0
 11
0.2547544646025093
 21
0.2110893748364945
 31
0.0
  0
LINE
  5
1151
330
1139
100
AcDbEntity
  8
Text
  6
ACAD_ISO10W100
 62
     5
370
    -2
100
AcDbLine
 10
0.2547544646025093
 20
0.2110893748364945
 30
0.0
 11
0.2526563149804772
 21
0.2089451341402184
 31
0.0
  0
MTEXT
  5
1152
330
1139
100
AcDbEntity
  8
Text
  6
ACAD_ISO10W100
 62
     4
100
AcDbMText
 10
0.2706830360310807
 20
0.2110893748364945
 30
0.0
 40
0.003
 41
0.0
 71
     5
 72
     1
  1
\A1;d 495 mm
  7
ROMANS
 73
     1
 44
1.0
1001
ACAD
1000
MTEXTBEGIN
1070
    73
1070
     1
1070
    44
1040
1.0
1070
    74
1070
     0
1000
MTEXTEND
  0
INSERT
  5
1153
330
1139
100
AcDbEntity
  8
Text
  6
ACAD_ISO10W100
 62
     5
370
    -2
100
AcDbBlockReference
  2
_ArchTick
 10
0.2526563149804772
 20
0.2089451341402184
 30
0.0
 41
0.0015
 42
0.0015
 43
0.0015
 50
225.6224604369279
  0
POINT
  5
1154
330
1139
100
AcDbEntity
  8
Defpoints
  6
ACAD_ISO10W100
 62
     0
100
AcDbPoint
 10
0.2526563149804772
 20
0.2089451341402184
 30
0.0
  0
POINT
  5
1155
330
1139
100
AcDbEntity
  8
Defpoints
  6
ACAD_ISO10W100
 62
     0
100
AcDbPoint
 10
0.1652334140624719
 20
0.1196017717953826
 30
0.0
  0
ENDBLK
  5
1141
330
1139
100
AcDbEntity
  8
0
100
AcDbBlockEnd
  0
BLOCK
  5
13F4
330
13ED
100
AcDbEntity
  8
0
100
AcDbBlockBegin
  2
*D14
 70
     1
 10
0.0
 20
0.0
 30
0.0
  3
*D14
  1

  0
LINE
  5
1404
330
13ED
100
AcDbEntity
  8
Text
  6
ACAD_ISO10W100
 62
     5
370
    -2
100
AcDbLine
 10
0.2771070431431383
 20
0.2101073953097928
 30
0.0
 11
0.2756070431431383
 21
0.2101073953097928
 31
0.0
  0
LINE
  5
1405
330
13ED
100
AcDbEntity
  8
Text
  6
ACAD_ISO10W100
 62
     5
370
    -2
100
AcDbLine
 10
0.2756070431431383
 20
0.2101073953097928
 30
0.0
 11
0.2733237719895916
 21
0.2081614577878304
 31
0.0
  0
MTEXT
  5
1406
330
13ED
100
AcDbEntity
  8
Text
  6
ACAD_ISO10W100
 62
     4
100
AcDbMText
 10
0.2915356145717098
 20
0.2101073953097928
 30
0.0
 40
0.003
 41
0.0
 71
     5
 72
     1
  1
\A1;d 665 mm
  7
ROMANS
 73
     1
 44
1.0
1001
ACAD
1000
MTEXTBEGIN
1070
    73
1070
     1
1070
    44
1040
1.0
1070
    74
1070
     0
1000
MTEXTEND
  0
INSERT
  5
1407
330
13ED
100
AcDbEntity
  8
Text
  6
ACAD_ISO10W100
 62
     5
370
    -2
100
AcDbBlockReference
  2
_ArchTick
 10
0.2733237719895916
 20
0.2081614577878304
 30
0.0
 41
0.0015
 42
0.0015
 43
0.0015
 50
220.4395817020944
  0
POINT
  5
1408
330
13ED
100
AcDbEntity
  8
Defpoints
  6
ACAD_ISO10W100
 62
     0
100
AcDbPoint
 10
0.2733237719895916
 20
0.2081614577878304
 30
0.0
  0
POINT
  5
1409
330
13ED
100
AcDbEntity
  8
Defpoints
  6
ACAD_ISO10W100
 62
     0
100
AcDbPoint
 10
0.1467924955638738
 20
0.1003240867790813
 30
0.0
  0
ENDBLK
  5
13F5
330
13ED
100
AcDbEntity
  8
0
100
AcDbBlockEnd
  0
ENDSEC
  0
SECTION
  2
ENTITIES
  0
LINE
  5
D
330
2
100
AcDbEntity
  8
Table
100
AcDbLine
 10
0.02
 20
0.02
 30
0.0
 11
0.4
 21
0.02
 31
0.0
  0
LINE
  5
10
330
2
100
AcDbEntity
  8
Table
100
AcDbLine
 10
0.4
 20
0.02
 30
0.0
 11
0.4
 21
0.2769999999999999
 31
0.0
  0
LINE
  5
11
330
2
100
AcDbEntity
  8
Table
100
AcDbLine
 10
0.4
 20
0.2769999999999999
 30
0.0
 11
0.02
 21
0.277
 31
0.0
  0
LINE
  5
12
330
2
100
AcDbEntity
  8
Table
100
AcDbLine
 10
0.02
 20
0.277
 30
0.0
 11
0.02
 21
0.02
 31
0.0
  0
LINE
  5
13
330
2
100
AcDbEntity
  8
Table
 62
     2
100
AcDbLine
 10
0.015
 20
0.015
 30
0.0
 11
0.4050000000000001
 21
0.015
 31
0.0
  0
LINE
  5
14
330
2
100
AcDbEntity
  8
Table
 62
     2
100
AcDbLine
 10
0.4050000000000001
 20
0.015
 30
0.0
 11
0.4050000000000001
 21
0.2819999999999998
 31
0.0
  0
LINE
  5
15
330
2
100
AcDbEntity
  8
Table
 62
     2
100
AcDbLine
 10
0.4050000000000001
 20
0.2819999999999998
 30
0.0
 11
0.0149999999999999
 21
0.282
 31
0.0
  0
LINE
  5
16
330
2
100
AcDbEntity
  8
Table
 62
     2
100
AcDbLine
 10
0.0149999999999999
 20
0.282
 30
0.0
 11
0.015
 21
0.015
 31
0.0
  0
LINE
  5
17
330
2
100
AcDbEntity
  8
Table
100
AcDbLine
 10
0.21
 20
0.2769999999999999
 30
0.0
 11
0.21
 21
0.2532994226089223
 31
0.0
  0
MTEXT
  5
18
102
{ACAD_XDICTIONARY
360
140E
102
}
330
2
100
AcDbEntity
  8
Text
100
AcDbMText
 10
0.305
 20
0.0471738284815141
 30
0.0
 40
0.005
 41
0.1900000000000001
 71
     2
 72
     5
  3
{\fTimes New Roman|b0|i0|c238|p18;\H1.6x;\C4;Bovelacci\P\H0.4375x;\T0.95;via del Commercio, 5  47100 Forli - Italy  \fTimes New Roman|b0|i0|c0|p18;\P\fTimes New Roman|b0|i0|c238|p18;tel.+39-0543721386  fax +39-0543721127\fTimes New Roman|b0|i0|c0|p18
  1
; \fTimes New Roman|b0|i0|c238|p18;www.bovelacci.it\fTimes New Roman|b0|i0|c0|p18; \fTimes New Roman|b0|i0|c238|p18;e-mail: bovelacci@bovelacci\fTimes New Roman|b0|i0|c0|p18;.it}
 73
     1
 44
1.0
1001
ACAD
1000
ACAD_MTEXT_DEFINED_HEIGHT_BEGIN
1070
    46
1040
0.0271738284815141
1000
ACAD_MTEXT_DEFINED_HEIGHT_END
1000
MTEXTBEGIN
1070
    73
1070
     1
1070
    44
1040
1.0
1070
    74
1070
     0
1000
MTEXTEND
  0
MTEXT
  5
1C
330
2
100
AcDbEntity
  8
Text
100
AcDbMText
 10
0.0219676065851835
 20
0.0500313976452307
 30
0.0
 40
0.002
 41
0.1863544980601608
 71
     1
 72
     5
  3
{\fArial|b0|i0|c0|p34;\H1.25x;Le caratteristiche tecniche indicate vengono fornite a titolo indicativo e potranno essere modificate senza preavviso. Non devono quindi essere considerate a scopo di specifica.\P\fArial|b0|i1|c0|p34;The given values are
  3
 indicative and can be changed without notice. They cannot be considered like a state.\PThis lealfet and designs embodied within are protected by copyright law and international treaties. Unauthorized repro- duction of the leaflet or any portion of i
  1
t or reproduction of any of the designs embodied therein may result in severe civil penalties and will be prosecuted to the maximum.\PAll right reserved, Bovelacci Forlì Italy.}
 73
     1
 44
1.0
1001
ACAD
1000
MTEXTBEGIN
1070
    73
1070
     1
1070
    44
1040
1.0
1070
    74
1070
     0
1000
MTEXTEND
  0
LINE
  5
1D
330
2
100
AcDbEntity
  8
Table
100
AcDbLine
 10
0.02
 20
0.0528099428524846
 30
0.0
 11
0.4
 21
0.0528099428524846
 31
0.0
  0
MTEXT
  5
1E
330
2
100
AcDbEntity
  8
Text
100
AcDbMText
 10
0.1133313047219695
 20
0.2610796890771976
 30
0.0
 40
0.003
 41
0.1103605678262056
 71
     2
 72
     5
  1
{\fTimes New Roman|b0|i0|c0|p18;Rosoni\fTimes New Roman|b0|i1|c0|p18;   Ceiling centres}
 73
     1
 44
1.0
1001
ACAD
1000
ACAD_MTEXT_DEFINED_HEIGHT_BEGIN
1070
    46
1040
0.0141952763113409
1000
ACAD_MTEXT_DEFINED_HEIGHT_END
1000
MTEXTBEGIN
1070
    73
1070
     1
1070
    44
1040
1.0
1070
    74
1070
     0
1000
MTEXTEND
  0
TEXT
  5
1F
330
2
100
AcDbEntity
  8
Text
100
AcDbText
 10
0.2180556919891047
 20
0.269976982173197
 30
0.0
 40
0.003
  1
Rosone - Ceiling centre : D 665 mm
  7
ROMANS
100
AcDbText
  0
TEXT
  5
21
330
2
100
AcDbEntity
  8
Text
100
AcDbText
 10
0.2184542410678115
 20
0.2576348370183962
 30
0.0
 40
0.003
  1
File : C - R3311
  7
ROMANS
100
AcDbText
  0
LINE
  5
22
330
2
100
AcDbEntity
  8
Table
100
AcDbLine
 10
0.4
 20
0.2654452889427402
 30
0.0
 11
0.02
 21
0.2654452889427403
 31
0.0
  0
LINE
  5
23
330
2
100
AcDbEntity
  8
Table
100
AcDbLine
 10
0.4
 20
0.2532994226089223
 30
0.0
 11
0.02
 21
0.2532994226089225
 31
0.0
  0
LINE
  5
24
330
2
100
AcDbEntity
  8
Table
100
AcDbLine
 10
0.21
 20
0.0528099428524846
 30
0.0
 11
0.21
 21
0.02
 31
0.0
  0
TEXT
  5
25
330
2
100
AcDbEntity
  8
Text
100
AcDbText
 10
0.0896473531074035
 20
0.2687784133392506
 30
0.0
 40
0.005
  1
CLASSICSTYL
  7
style1
 72
     1
 11
0.1140561490699125
 21
0.2687784133392506
 31
0.0
100
AcDbText
  0
TEXT
  5
252
330
2
100
AcDbEntity
  8
Text
  6
ACAD_ISO10W100
100
AcDbText
 10
0.2964823317099042
 20
0.0761045299615402
 30
0.0
 40
0.005
  1
scala 1 : 4
  7
style1
100
AcDbText
  0
CIRCLE
  5
12AA
330
2
100
AcDbEntity
  8
Profilo
  6
Continuous
370
     0
100
AcDbCircle
 10
0.2100581337767328
 20
0.1542427722834559
 30
0.0
 40
0.0478227683384781
  0
CIRCLE
  5
12AB
330
2
100
AcDbEntity
  8
Profilo
  6
Continuous
370
     0
100
AcDbCircle
 10
0.2100581337767328
 20
0.1542427722834559
 30
0.0
 40
0.0519847381090065
  0
CIRCLE
  5
12AC
330
2
100
AcDbEntity
  8
Profilo
  6
Continuous
370
     0
100
AcDbCircle
 10
0.2100581337767328
 20
0.1542427722834559
 30
0.0
 40
0.0426933091872654
  0
CIRCLE
  5
12AD
330
2
100
AcDbEntity
  8
Profilo
  6
Continuous
370
     0
100
AcDbCircle
 10
0.2100581337767328
 20
0.1542427722834559
 30
0.0
 40
0.0692999071246042
  0
CIRCLE
  5
12AE
330
2
100
AcDbEntity
  8
Profilo
  6
Continuous
370
     0
100
AcDbCircle
 10
0.2100581337767328
 20
0.1542427722834559
 30
0.0
 40
0.0739288150664787
  0
CIRCLE
  5
12AF
330
2
100
AcDbEntity
  8
Profilo
  6
Continuous
370
     0
100
AcDbCircle
 10
0.2100581337767328
 20
0.1542427722834559
 30
0.0
 40
0.0815475296109797
  0
CIRCLE
  5
12B0
102
{ACAD_REACTORS
330
13FD
102
}
330
2
100
AcDbEntity
  8
Profilo
  6
Continuous
370
     0
100
AcDbCircle
 10
0.2100581337767328
 20
0.1542427722834559
 30
0.0
 40
0.083125
  0
CIRCLE
  5
12B1
330
2
100
AcDbEntity
  8
Profilo
  6
Continuous
370
     0
100
AcDbCircle
 10
0.2100581337767328
 20
0.1542427722834559
 30
0.0
 40
0.0610320767800849
  0
LWPOLYLINE
  5
12B2
330
2
100
AcDbEntity
  8
Profilo
  6
Continuous
370
     0
100
AcDbPolyline
 90
       23
 70
   129
 43
0.0
 10
0.204360165178916
 20
0.2214289114490961
 10
0.2048346156674804
 20
0.2220513393695187
 10
0.2059629771595802
 20
0.2223356303181871
 10
0.2077718249649124
 20
0.2225030388185347
 10
0.2104515996529315
 20
0.2225030388185347
 10
0.212994673426192
 20
0.2223452848250646
 10
0.2137307199495479
 20
0.2217321968359736
 10
0.2146507778310419
 20
0.2199542412444133
 10
0.2153254861442137
 20
0.2189119918040233
 10
0.2160001955481911
 20
0.2184215212716855
 10
0.2174109503847185
 20
0.21811497727714
 10
0.2191283908181427
 20
0.21811497727714
 10
0.2199257744608784
 20
0.2179923598203866
 10
0.2200484486996368
 20
0.2170727278367498
 10
0.2191897279375227
 20
0.216888801298956
 10
0.2157548459798688
 20
0.217256654374542
 10
0.2125039764711588
 20
0.2174405809123341
 10
0.2113385701121463
 20
0.217869742363633
 10
0.2104185122306522
 20
0.2197090063309063
 10
0.2093757801103997
 20
0.2208738739333755
 10
0.2081490366320089
 20
0.2211191088468825
 10
0.2067996189148617
 20
0.2211191088468825
 10
0.2048981660324935
 20
0.220996491390129
  0
LWPOLYLINE
  5
12B3
330
2
100
AcDbEntity
  8
Profilo
  6
Continuous
370
     0
100
AcDbPolyline
 90
       23
 70
   129
 43
0.0
 10
0.1946385060148585
 20
0.2198833026119943
 10
0.1950172742271554
 20
0.2205681780923365
 10
0.1960922180920538
 20
0.2210137302078817
 10
0.1978574147989772
 20
0.2214427250501715
 10
0.200508632114503
 20
0.2218329033740138
 10
0.2030475744522676
 20
0.2220471050178102
 10
0.2038650435258828
 20
0.2215477197150645
 10
0.2050341690994956
 20
0.2199226726437518
 10
0.2058534400301085
 20
0.2189897683902986
 10
0.2065923723865603
 20
0.2186027630989952
 10
0.2080327264916261
 20
0.218504893382554
 10
0.2097318647944996
 20
0.2187549547151757
 10
0.210538604258139
 20
0.2187497439370432
 10
0.2107938706933926
 20
0.2178577736453766
 10
0.2099710809210461
 20
0.2175507763992756
 10
0.2065192433987598
 20
0.2174145865759653
 10
0.2032762372911589
 20
0.2171232226797218
 10
0.2020607638303022
 20
0.2173781261886391
 10
0.200882711685593
 20
0.219063828294872
 10
0.1996814854945663
 20
0.2200644593177161
 10
0.1984321084801149
 20
0.22012846557005
 10
0.1970970710108916
 20
0.2199319887746707
 10
0.1952337344569014
 20
0.2195338242469563
  0
LWPOLYLINE
  5
12B4
330
2
100
AcDbEntity
  8
Profilo
  6
Continuous
370
     0
100
AcDbPolyline
 90
       23
 70
   129
 43
0.0
 10
0.1852454894457559
 20
0.2169386798327606
 10
0.1855205025949375
 20
0.2176714059412061
 10
0.1865191182704188
 20
0.2182687230538311
 10
0.1882030417757708
 20
0.2189501609577986
 10
0.1907691956246368
 20
0.2197222016319182
 10
0.1932498933789625
 20
0.2203037935768295
 10
0.1941313620687781
 20
0.219928754491149
 10
0.1955246374526877
 20
0.218491250997082
 10
0.1964710096632335
 20
0.21768757516507
 10
0.1972584159118779
 20
0.2174122834606845
 10
0.1986976706384053
 20
0.2175251739454388
 10
0.2003422926277584
 20
0.2180199669875203
 10
0.2011411936612565
 20
0.2181322739466962
 10
0.2015236117321181
 20
0.2172869761451723
 10
0.2007542892850499
 20
0.2168634513040705
 10
0.1973590661220121
 20
0.2162261212315028
 10
0.1941930424603598
 20
0.2154656768168203
 10
0.1929534076042313
 20
0.215540889557615
 10
0.1915424693324955
 20
0.2170371019890433
 10
0.1902083511214475
 20
0.2178521697192588
 10
0.1889629688728921
 20
0.2177335831282745
 10
0.1876707656574233
 20
0.2173448170992965
 10
0.1858852592154274
 20
0.2166795916862538
  0
LWPOLYLINE
  5
12B5
330
2
100
AcDbEntity
  8
Profilo
  6
Continuous
370
     0
100
AcDbPolyline
 90
       23
 70
   129
 43
0.0
 10
0.176381311312089
 20
0.2126578026336263
 10
0.1765467079703463
 20
0.2134227625852968
 10
0.1774477116970318
 20
0.2141591139177795
 10
0.1790144720948427
 20
0.2150784712175798
 10
0.1814408693629862
 20
0.2162159195353875
 10
0.1838104507681039
 20
0.217152506158837
 10
0.1847371320993598
 20
0.2169098065972088
 10
0.1863248620476917
 20
0.2156904845716445
 10
0.1873781652575478
 20
0.215033166116128
 10
0.1881972632012524
 20
0.2148754553633916
 10
0.1896047433335067
 20
0.2151966999846512
 10
0.191159796746949
 20
0.215925679081539
 10
0.1919338321617879
 20
0.2161531101501692
 10
0.1924352512910133
 20
0.2153725008938645
 10
0.1917357929415243
 20
0.214841475154448
 10
0.1884695474248347
 20
0.2137165884166193
 10
0.1854479845067861
 20
0.2125032710359483
 10
0.1842106089201526
 20
0.2123971899796323
 10
0.1825968562210524
 20
0.2136720235659312
 10
0.1811582804034203
 20
0.214284156249925
 10
0.1799434360812196
 20
0.2139855042829265
 10
0.1787216081875859
 20
0.2134127348933008
 10
0.1770519868274868
 20
0.2124946267196793
  0
LWPOLYLINE
  5
12B6
330
2
100
AcDbEntity
  8
Profilo
  6
Continuous
370
     0
100
AcDbPolyline
 90
       23
 70
   129
 43
0.0
 10
0.1682348961812331
 20
0.2071319104798475
 10
0.1682871512059493
 20
0.2079128004814565
 10
0.1690713396536844
 20
0.2087724919835603
 10
0.1704875441662023
 20
0.2099101741744915
 10
0.1727224704084476
 20
0.2113887873998736
 10
0.1749304319506535
 20
0.2126604069840398
 10
0.1758825753196322
 20
0.2125552196662578
 10
0.177630920125078
 20
0.2115800668412405
 10
0.1787687050050166
 20
0.2110831153638975
 10
0.179602036993187
 20
0.2110463468936965
 10
0.1809477445357456
 20
0.2115690988800898
 10
0.1823800861095773
 20
0.2125167271079488
 10
0.1831127586847313
 20
0.2128544349876611
 10
0.1837224919941186
 20
0.2121551516076173
 10
0.1831078054825647
 20
0.2115279428615801
 10
0.1800401519647207
 20
0.2099394744663341
 10
0.1772274491579865
 20
0.2082991438731455
 10
0.1760187053532068
 20
0.2080140299532588
 10
0.1742365325638042
 20
0.2090403138298392
 10
0.1727241598855587
 20
0.2094364649222085
 10
0.171565745787288
 20
0.208964112827366
 10
0.1704403343557644
 20
0.2082195476622203
 10
0.1689221831581404
 20
0.2070681246097666
  0
LWPOLYLINE
  5
12B7
330
2
100
AcDbEntity
  8
Profilo
  6
Continuous
370
     0
100
AcDbPolyline
 90
       23
 70
   129
 43
0.0
 10
0.1609798707483038
 20
0.2004787781689012
 10
0.1609178704143471
 20
0.201258954905806
 10
0.1615685299678365
 20
0.2022236637457188
 10
0.1628039946546247
 20
0.2035554231070682
 10
0.1647998162982817
 20
0.205343687166219
 10
0.1667990991106593
 20
0.2069232373473885
 10
0.1677564112345163
 20
0.2069578041585105
 10
0.1696281079629331
 20
0.2062476042234962
 10
0.1708261246036063
 20
0.2059216113822808
 10
0.1716559296117052
 20
0.2060065688507225
 10
0.1729111831446496
 20
0.2067196866512361
 10
0.1741902850049833
 20
0.207865766959613
 10
0.1748659790965438
 20
0.208306553993263
 10
0.1755710311791931
 20
0.2077035005006645
 10
0.1750542174813769
 20
0.2069934766135023
 10
0.1722505376712026
 20
0.2049752820068643
 10
0.1697066428528328
 20
0.202942898999889
 10
0.168552293105546
 20
0.2024848289246365
 10
0.1666396841447311
 20
0.2032406896324508
 10
0.1650857482038014
 20
0.2034124158604387
 10
0.1640084539147829
 20
0.202776431002582
 10
0.1630034451361489
 20
0.2018759391757313
 10
0.161669120858039
 20
0.2005157418277675
  0
LWPOLYLINE
  5
12B8
330
2
100
AcDbEntity
  8
Profilo
  6
Continuous
370
     0
100
AcDbPolyline
 90
       23
 70
   129
 43
0.0
 10
0.1547708632845869
 20
0.1928402056651573
 10
0.1545959290214353
 20
0.1936030410247183
 10
0.1550991920019404
 20
0.194652206108393
 10
0.1561275850781499
 20
0.1961496585015085
 10
0.1578417646499313
 20
0.1982094596507045
 10
0.1595897574903899
 20
0.2000632750591018
 10
0.1605318349232413
 20
0.2002368592675596
 10
0.1624869916084116
 20
0.1998067489011505
 10
0.1637197063650602
 20
0.1996586626675015
 10
0.1645282985400049
 20
0.1998635353536437
 10
0.1656663445135881
 20
0.2007518201004386
 10
0.166764944824984
 20
0.2020719257773295
 10
0.1673692591864961
 20
0.2026063973545673
 10
0.1681546030813398
 20
0.202112426787619
 10
0.1677466771839658
 20
0.2013347206857761
 10
0.1652667266490093
 20
0.1989298141818975
 10
0.1630458585204754
 20
0.1965486954764081
 10
0.1619705057914187
 20
0.1959274322141633
 10
0.1599682245986118
 20
0.1963967598945125
 10
0.158405844841714
 20
0.196340401211713
 10
0.1574326310193745
 20
0.1955543385039205
 10
0.1565694449109011
 20
0.1945171124352685
 10
0.1554473863577045
 20
0.1929771310367548
  0
LWPOLYLINE
  5
12B9
330
2
100
AcDbEntity
  8
Profilo
  6
Continuous
370
     0
100
AcDbPolyline
 90
       23
 70
   129
 43
0.0
 10
0.1497402080044033
 20
0.1843789958798245
 10
0.1494560682321645
 20
0.1851082313507487
 10
0.1498012084629935
 20
0.1862194915459386
 10
0.1506006115156521
 20
0.1878507213728603
 10
0.1519966142540586
 20
0.1901381585267315
 10
0.1534560616899823
 20
0.1922267283054273
 10
0.1543628256869337
 20
0.192535630265188
 10
0.1563597715585602
 20
0.1923947765231045
 10
0.1576009112563231
 20
0.192427753097994
 10
0.1583710568597416
 20
0.1927481744962228
 10
0.1593676397998579
 20
0.1937926939421155
 10
0.1602623238040132
 20
0.195258689226919
 10
0.1607823785240389
 20
0.1958754540139998
 10
0.1616312759894383
 20
0.1955010944977281
 10
0.1613409321247879
 20
0.1946722816365503
 10
0.1592375667051309
 20
0.1919319196422835
 10
0.1573870592148311
 20
0.1892528146495076
 10
0.1564136227804508
 20
0.1884815993481003
 10
0.1543643445030164
 20
0.1886543910963008
 10
0.1528268203421427
 20
0.18837114869019
 10
0.1519784293494596
 20
0.187451761694354
 10
0.1512754632244285
 20
0.186299908056772
 10
0.1503895851261444
 20
0.1846129646375828
  0
LWPOLYLINE
  5
12BA
330
2
100
AcDbEntity
  8
Profilo
  6
Continuous
370
     0
100
AcDbPolyline
 90
       23
 70
   129
 43
0.0
 10
0.145995124591077
 20
0.1752754848095473
 10
0.1456078352556859
 20
0.1759555780038325
 10
0.1457874966720362
 20
0.1771052487287905
 10
0.1463408718129572
 20
0.1788354891578221
 10
0.1473889443432917
 20
0.181301809564764
 10
0.1485287407864025
 20
0.1835806194749975
 10
0.1493808652471394
 20
0.1840182554770875
 10
0.1513770388709642
 20
0.1841696604123025
 10
0.1526001507719891
 20
0.1843829969572885
 10
0.1533154354874345
 20
0.1848121378417982
 10
0.1541493149589311
 20
0.1859906298682441
 10
0.1548210140196041
 20
0.1875712696166518
 10
0.1552457250346809
 20
0.1882571823429345
 10
0.1561400832949706
 20
0.1880104127004848
 10
0.1559735096384384
 20
0.187148157787166
 10
0.1542915589162445
 20
0.1841307463607355
 10
0.1528508524185765
 20
0.181210755552267
 10
0.1520000793864405
 20
0.1803060253269005
 10
0.1499474808330071
 20
0.1801785983868323
 10
0.1484675819262734
 20
0.179674509077544
 10
0.1477620957443219
 20
0.1786413929312908
 10
0.1472343321052304
 20
0.1773994614852715
 10
0.146603515415509
 20
0.1756015103155973
  0
LWPOLYLINE
  5
12BB
330
2
100
AcDbEntity
  8
Profilo
  6
Continuous
370
     0
100
AcDbPolyline
 90
       23
 70
   129
 43
0.0
 10
0.1436154329955358
 20
0.1657236979877253
 10
0.1431332484967835
 20
0.1663401538996795
 10
0.1431436019274849
 20
0.167503731918905
 10
0.1434391549262831
 20
0.1692961058792557
 10
0.1441169594021712
 20
0.1718887442016993
 10
0.1449128120701414
 20
0.1743092253665895
 10
0.1456921354412007
 20
0.1748662679594295
 10
0.1476449918420898
 20
0.1753067046386088
 10
0.1488240074397112
 20
0.1756958542556157
 10
0.1494691862153158
 20
0.1762245682335086
 10
0.1501225895249981
 20
0.1775119153290017
 10
0.1505569875428803
 20
0.179173510949007
 10
0.1508773028750835
 20
0.1799139525755776
 10
0.1517980602366871
 20
0.1798000322734473
 10
0.1517588070165655
 20
0.1789227127744608
 10
0.1505341188513584
 20
0.1756925628017453
 10
0.1495339195040363
 20
0.1725939207121215
 10
0.1488239426242533
 20
0.1715749583168007
 10
0.1468117713693687
 20
0.1711500285724597
 10
0.1454210391926451
 20
0.1704358361484485
 10
0.1448734940345638
 20
0.169311009928788
 10
0.1445321812471051
 20
0.1680054702869258
 10
0.1441698707284925
 20
0.1661348315744365
  0
LWPOLYLINE
  5
12BC
330
2
100
AcDbEntity
  8
Profilo
  6
Continuous
370
     0
100
AcDbPolyline
 90
       23
 70
   129
 43
0.0
 10
0.1426518522126362
 20
0.1559272151671278
 10
0.1420850494759705
 20
0.1564668951092498
 10
0.1419258742556203
 20
0.1576195807774061
 10
0.1419573059132525
 20
0.1594358869299441
 10
0.1422503961090616
 20
0.162099585583257
 10
0.1426853427839941
 20
0.164610149649092
 10
0.1433752551407402
 20
0.1652747264369223
 10
0.145243172574962
 20
0.1659948077169143
 10
0.1463529631986667
 20
0.1665514763574825
 10
0.1469142851689548
 20
0.1671684948082435
 10
0.1473732861596816
 20
0.1685372594044728
 10
0.1475611246952021
 20
0.1702443968702125
 10
0.1477702173793431
 20
0.1710235861693183
 10
0.1486977494976703
 20
0.1710449432209673
 10
0.1487866533281971
 20
0.1701712576782758
 10
0.1480453298219765
 20
0.166797214197916
 10
0.147506955137591
 20
0.1635859630035705
 10
0.1469529063347296
 20
0.1624744858526812
 10
0.1450240483152577
 20
0.161761109943824
 10
0.1437521239103717
 20
0.160852036176661
 10
0.1433741897505837
 20
0.1596594736015993
 10
0.143226602304252
 20
0.1583181510747478
 10
0.1431405199764278
 20
0.1564146942358873
  0
LWPOLYLINE
  5
12BD
330
2
100
AcDbEntity
  8
Profilo
  6
Continuous
370
     0
100
AcDbPolyline
 90
       23
 70
   129
 43
0.0
 10
0.1431249192938456
 20
0.1460948313709124
 10
0.1424855787355409
 20
0.146546233002197
 10
0.1421602674076102
 20
0.147663458825508
 10
0.1419269078128636
 20
0.1494649857579687
 10
0.1418290370199181
 20
0.1521429726299362
 10
0.1418938075685688
 20
0.1546901112823713
 10
0.1424796046269127
 20
0.1554480579647643
 10
0.1442227716773406
 20
0.1564324365632545
 10
0.1452396840667455
 20
0.1571447598017678
 10
0.1457051856284605
 20
0.157836932048359
 10
0.1459600014910113
 20
0.159257941304335
 10
0.1458972770919019
 20
0.1609742359445745
 10
0.1459906906804339
 20
0.1617755658490967
 10
0.1469052288187179
 20
0.161931745066048
 10
0.1471203948690939
 20
0.1610803145701416
 10
0.146878236045345
 20
0.1576342894610763
 10
0.146813160545597
 20
0.154378871406002
 10
0.1464268484079757
 20
0.1531985687053236
 10
0.1446224138838168
 20
0.1522119510009229
 10
0.1434964061112066
 20
0.1511273712196664
 10
0.1432961379601768
 20
0.1498924896900223
 10
0.1433454214251568
 20
0.1485439722391027
 10
0.1435374019834857
 20
0.1466482661517069
  0
LWPOLYLINE
  5
12BE
330
2
100
AcDbEntity
  8
Profilo
  6
Continuous
370
     0
100
AcDbPolyline
 90
       23
 70
   129
 43
0.0
 10
0.1450245516356404
 20
0.1364361067891969
 10
0.144326299689708
 20
0.136789609267578
 10
0.1438417857003625
 20
0.1378475635172879
 10
0.1433486085078507
 20
0.1395959148108289
 10
0.1428618626721849
 20
0.1422311132606629
 10
0.1425550766227619
 20
0.1447605386615357
 10
0.1430242731354337
 20
0.1455957009208655
 10
0.1446055372227881
 20
0.1468233965170561
 10
0.145507897655828
 20
0.1476761924203887
 10
0.1458676574513625
 20
0.1484287660130859
 10
0.1459128572280254
 20
0.1498717335836047
 10
0.1456009067559528
 20
0.1515606055578323
 10
0.1455766503004153
 20
0.1523669971120834
 10
0.1464587026660141
 20
0.1526546698054779
 10
0.146795545045438
 20
0.1518436411191689
 10
0.1470577120990669
 20
0.1483990804237783
 10
0.1474673227552498
 20
0.1451688790919255
 10
0.1472569808553875
 20
0.1439449069443404
 10
0.1456154282156551
 20
0.1427060754878467
 10
0.1446593359760733
 20
0.1414691056275422
 10
0.1446410022017452
 20
0.1402182244991784
 10
0.1448861061865444
 20
0.138891253432429
 10
0.1453520578987344
 20
0.1370437017805194
  0
LWPOLYLINE
  5
12BF
330
2
100
AcDbEntity
  8
Profilo
  6
Continuous
370
     0
100
AcDbPolyline
 90
       23
 70
   129
 43
0.0
 10
0.148310261872706
 20
0.1271569003674449
 10
0.1475679805671025
 20
0.1274049694013284
 10
0.1469345904908373
 20
0.1283811036193728
 10
0.1461921069161879
 20
0.1300390162015744
 10
0.1453268601802237
 20
0.1325752615494152
 10
0.1446550561447449
 20
0.1350330633877688
 10
0.1449976520026749
 20
0.1359276411904463
 10
0.1463833112282441
 20
0.1373724875841687
 10
0.1471518874589223
 20
0.1383475802882197
 10
0.1473982378328288
 20
0.1391445154274776
 10
0.1472328581688388
 20
0.1405786869639814
 10
0.1466783303065238
 20
0.142204140898202
 10
0.1465369207911536
 20
0.1429984072662221
 10
0.147367687969269
 20
0.1434114421920425
 10
0.147819027467233
 20
0.1426581009837103
 10
0.1485799327626499
 20
0.139288419532945
 10
0.1494554994347766
 20
0.1361522810575844
 10
0.149425610845081
 20
0.1349107263044181
 10
0.1479819269343076
 20
0.1334460846375292
 10
0.147216127673924
 20
0.1320830885631841
 10
0.1473801190288676
 20
0.1308428681956367
 10
0.1478158195675875
 20
0.1295657255975239
 10
0.1485458114818535
 20
0.1278057057369334
  0
LWPOLYLINE
  5
12C0
330
2
100
AcDbEntity
  8
Profilo
  6
Continuous
370
     0
100
AcDbPolyline
 90
       23
 70
   129
 43
0.0
 10
0.1529120207958252
 20
0.1184549822804409
 10
0.152141530567868
 20
0.1185923307090554
 10
0.1513727640144954
 20
0.1194658402892915
 10
0.1503967988060414
 20
0.1209979786318477
 10
0.1491714924017583
 20
0.1233812152114108
 10
0.148148988716886
 20
0.1257150097081744
 10
0.1483576820841578
 20
0.1266499366814556
 10
0.1495182035272656
 20
0.1282811394802979
 10
0.150136614687585
 20
0.1293577465769903
 10
0.1502643051093483
 20
0.1301820579739124
 10
0.1498918707851179
 20
0.1315768666000379
 10
0.1491065843312008
 20
0.1331042587656777
 10
0.148851035654311
 20
0.1338694715387954
 10
0.1496128112848812
 20
0.1343990655746881
 10
0.1501690283835771
 20
0.1337194680042773
 10
0.1514124545454586
 20
0.130496484707984
 10
0.1527353160500241
 20
0.1275212504359127
 10
0.1528865177938962
 20
0.1262885746612037
 10
0.1516714722281883
 20
0.1246293390782124
 10
0.1511122876286927
 20
0.1231693666847821
 10
0.1514551089218931
 20
0.121966240221977
 10
0.152072119813991
 20
0.1207661461696673
 10
0.1530505934200574
 20
0.1191311698680667
  0
LWPOLYLINE
  5
12C1
330
2
100
AcDbEntity
  8
Profilo
  6
Continuous
370
     0
100
AcDbPolyline
 90
       23
 70
   129
 43
0.0
 10
0.1587317499028956
 20
0.1105158188043706
 10
0.1579494724141054
 20
0.1105395192844166
 10
0.1570617143080185
 20
0.1112917868866879
 10
0.1558730684697548
 20
0.1126654961208501
 10
0.1543138176758444
 20
0.1148449293820973
 10
0.1529624072324002
 20
0.1170049757593904
 10
0.1530327501722163
 20
0.1179603255580136
 10
0.1539433993331397
 20
0.1197431185063326
 10
0.1543984650628766
 20
0.12089829398455
 10
0.1544047740328452
 20
0.1217324128728424
 10
0.1538332228393927
 20
0.1230581306643198
 10
0.1528339148112651
 20
0.124454907349148
 10
0.1524696735492313
 20
0.1251747573456302
 10
0.1531462217072449
 20
0.1258096231141766
 10
0.1537954616048925
 20
0.1252182536240137
 10
0.1554949071633702
 20
0.1222106607755712
 10
0.1572368690040936
 20
0.1194597426598448
 10
0.1575659384788723
 20
0.1182622182076214
 10
0.1566054278449593
 20
0.1164437524342956
 10
0.1562647759552637
 20
0.1149179204986189
 10
0.1567791205460435
 20
0.1137775304922989
 10
0.1575642912755777
 20
0.1126800629069758
 10
0.1587703921073097
 20
0.1112049768456692
  0
LWPOLYLINE
  5
12C2
330
2
100
AcDbEntity
  8
Profilo
  6
Continuous
370
     0
100
AcDbPolyline
 90
       23
 70
   129
 43
0.0
 10
0.1656454117719236
 20
0.1035086194251483
 10
0.164868019908824
 20
0.1034181668220412
 10
0.1638801912727716
 20
0.1040331591684548
 10
0.1625041987270732
 20
0.1052191610668603
 10
0.1606442362671148
 20
0.1071483401736543
 10
0.1589927220324503
 20
0.1090886007931067
 10
0.1589232153071736
 20
0.1100440117947478
 10
0.1595645832800699
 20
0.1119403977560448
 10
0.1598466046432554
 20
0.1131495210560277
 10
0.1597313976966896
 20
0.1139756696397401
 10
0.1589729112554047
 20
0.1152040412234916
 10
0.1577808801687376
 20
0.1164404325574849
 10
0.1573157094916827
 20
0.1170995774244253
 10
0.1578926107277415
 20
0.117826183863989
 10
0.1586210360030983
 20
0.1173356464680522
 10
0.1607402802265899
 20
0.1146075456873926
 10
0.1628642155111412
 20
0.1121395747716402
 10
0.1633641391722849
 20
0.1110027247965181
 10
0.1626786350867411
 20
0.1090637862736879
 10
0.16256377631045
 20
0.1075046152543964
 10
0.1632386818368364
 20
0.1064512671376621
 10
0.164175277852883
 20
0.105479816635536
 10
0.1655832999650223
 20
0.1041960597129484
  0
LWPOLYLINE
  5
12C3
330
2
100
AcDbEntity
  8
Profilo
  6
Continuous
370
     0
100
AcDbPolyline
 90
       23
 70
   129
 43
0.0
 10
0.1735056537033256
 20
0.0975827304319906
 10
0.1727497162238113
 20
0.0973800525859271
 10
0.1716828709101524
 20
0.0978446621823351
 10
0.1701488585492017
 20
0.0988176791736005
 10
0.1680278262938523
 20
0.1004554870226207
 10
0.1661114074266025
 20
0.1021346085977167
 10
0.1659035324514083
 20
0.1030697178756103
 10
0.1662619495914485
 20
0.1050392786755313
 10
0.166364915792358
 20
0.1062765794333603
 10
0.1661306483653062
 20
0.1070771497897499
 10
0.1652013924978393
 20
0.1081819945581045
 10
0.1638420444256985
 20
0.1092316490065414
 10
0.163285858638999
 20
0.1098160402154731
 10
0.1637508173048435
 20
0.1106189009712956
 10
0.1645429028378222
 20
0.1102396506225328
 10
0.1670367777150269
 20
0.1078491866414019
 10
0.1694974184502883
 20
0.1057167634409231
 10
0.1701575412929025
 20
0.1046648179263815
 10
0.1697616540851703
 20
0.1026467317623726
 10
0.1698750364376904
 20
0.101087452682788
 10
0.1706961184601257
 20
0.1001435967419751
 10
0.1717641778446728
 20
0.0993188681039171
 10
0.1733441116904374
 20
0.0982538013700573
  0
LWPOLYLINE
  5
12C4
330
2
100
AcDbEntity
  8
Profilo
  6
Continuous
370
     0
100
AcDbPolyline
 90
       23
 70
   129
 43
0.0
 10
0.1821449482868979
 20
0.0928644518605505
 10
0.1814265766859212
 20
0.09255386849794
 10
0.180303452650313
 20
0.0928581929974303
 10
0.1786441152843058
 20
0.0935974869136881
 10
0.1763072193536609
 20
0.0949090164741168
 10
0.1741667409947913
 20
0.0962912114436875
 10
0.1738249282638717
 20
0.0971860887670647
 10
0.1738927555319812
 20
0.0991868466366138
 10
0.1738144720248096
 20
0.100425953934777
 10
0.1734661371207523
 20
0.1011838832966073
 10
0.1723859173025922
 20
0.1021416534015042
 10
0.1708882243891034
 20
0.102982199402173
 10
0.1702528776271802
 20
0.1034793816690708
 10
0.170595983936086
 20
0.1043413851580254
 10
0.1714348477987312
 20
0.1040815049191855
 10
0.1742502007163836
 20
0.1020796263271367
 10
0.1769951026171242
 20
0.100328199740246
 10
0.1778013552688894
 20
0.0993835790785901
 10
0.1777035225874844
 20
0.0973293572762862
 10
0.1780427295208192
 20
0.0958032034628494
 10
0.1789924881015165
 20
0.0949889563486589
 10
0.1801692470230954
 20
0.0943285272337341
 10
0.1818874190555658
 20
0.0935048507369213
  0
LWPOLYLINE
  5
12C5
330
2
100
AcDbEntity
  8
Profilo
  6
Continuous
370
     0
100
AcDbPolyline
 90
       23
 70
   129
 43
0.0
 10
0.1913791639577028
 20
0.0894543456269413
 10
0.1907136690787369
 20
0.0890424762929395
 10
0.1895582037600868
 20
0.0891800295471558
 10
0.1878089072841228
 20
0.0896698436221072
 10
0.1853059545577399
 20
0.0906271419183745
 10
0.1829870372872752
 20
0.0916829511963445
 10
0.1825185719455531
 20
0.0925185238086989
 10
0.1822943637212714
 20
0.0945078360675026
 10
0.1820364989830584
 20
0.0957223404852147
 10
0.1815815207557196
 20
0.096421474904017
 10
0.1803733599968645
 20
0.097211757138502
 10
0.1787692429662586
 20
0.0978252799127147
 10
0.1780682765422846
 20
0.0982246566607411
 10
0.1782822177789612
 20
0.099127430775032
 10
0.1791499810444329
 20
0.0989924595422124
 10
0.1822268076429702
 20
0.0974218329058739
 10
0.1851974678907389
 20
0.0960887315495277
 10
0.1861326664761592
 20
0.0952715686901594
 10
0.1863349734548326
 20
0.0932249934208392
 10
0.1868927753621116
 20
0.0917644921924491
 10
0.1879509680458476
 20
0.0910972081684679
 10
0.1892113459310732
 20
0.0906151544766579
 10
0.1910311362963818
 20
0.0900504234513938
  0
LWPOLYLINE
  5
12C6
330
2
100
AcDbEntity
  8
Profilo
  6
Continuous
370
     0
100
AcDbPolyline
 90
       23
 70
   129
 43
0.0
 10
0.2010114894407015
 20
0.0874250922250762
 10
0.2004130551516948
 20
0.0869207151994661
 10
0.199249875287207
 20
0.0868885654996109
 10
0.1974479029186299
 20
0.0871184601966376
 10
0.1948322394883692
 20
0.0877011240775733
 10
0.1923843070019434
 20
0.0884080449222246
 10
0.1917991735748509
 20
0.0891665040440045
 10
0.1912877084672189
 20
0.0911019719550118
 10
0.1908557584371689
 20
0.0922659884391709
 10
0.190303833957551
 20
0.0928914270786115
 10
0.1889934821070288
 20
0.0934973779489062
 10
0.1873171299288241
 20
0.0938708013238962
 10
0.1865654837251424
 20
0.0941638605310465
 10
0.1866457001035656
 20
0.095088164207776
 10
0.1875238679044288
 20
0.0950809786584756
 10
0.1907965909667346
 20
0.0939750791577573
 10
0.1939296950958632
 20
0.0930887157729031
 10
0.1949739074807358
 20
0.0924164271234506
 10
0.1954720422974717
 20
0.0904211175858186
 10
0.1962365505994679
 20
0.0890573969905112
 10
0.1973806238463717
 20
0.0885512980572038
 10
0.1986977579288273
 20
0.0882578939260316
 10
0.2005803809547676
 20
0.087964144633662
  0
LWPOLYLINE
  5
12C7
330
2
100
AcDbEntity
  8
Profilo
  6
Continuous
370
     0
100
AcDbPolyline
 90
       23
 70
   129
 43
0.0
 10
0.2108366284413909
 20
0.0868199416681225
 10
0.2103180093302415
 20
0.0862338068715359
 10
0.2091719060792723
 20
0.0860326394326424
 10
0.2073556637306212
 20
0.0859977149454113
 10
0.2046830379213159
 20
0.0861933259419835
 10
0.202158263649898
 20
0.0865362915628324
 10
0.2014689332405541
 20
0.087201471954658
 10
0.2006811122403595
 20
0.0890418443796072
 10
0.2000842831834351
 20
0.0901305639397619
 10
0.1994471757635957
 20
0.090668976661097
 10
0.1980625606961321
 20
0.0910776813764215
 10
0.1963497019066097
 20
0.0912030464812715
 10
0.1955633959570812
 20
0.0913835420993393
 10
0.1955081778044121
 20
0.0923096754103688
 10
0.1963780335186226
 20
0.0924304286920946
 10
0.1997769006345632
 20
0.091812826654846
 10
0.203005671970076
 20
0.0913920925381727
 10
0.2041366425803276
 20
0.0908790067640065
 10
0.2049199883563454
 20
0.0889774895166983
 10
0.2058749088859057
 20
0.087739614891338
 10
0.2070804787610008
 20
0.0874054876688028
 10
0.2084262966144611
 20
0.0873069864979314
 10
0.2103316274597489
 20
0.0872904796946293
  0
LWPOLYLINE
  5
12C8
330
2
100
AcDbEntity
  8
Profilo
  6
Continuous
370
     0
100
AcDbPolyline
 90
       23
 70
   129
 43
0.0
 10
0.2206451751798848
 20
0.0876517916895746
 10
0.2202174247125448
 20
0.0869963915675803
 10
0.2191128252760838
 20
0.0866304939243526
 10
0.2173210229997522
 20
0.0863314946076727
 10
0.2146483971904471
 20
0.0861358836111005
 10
0.2121005923142443
 20
0.0861075842913791
 10
0.2113217568035432
 20
0.0866653087880486
 10
0.2102743709476308
 20
0.0883713613838665
 10
0.2095253832389926
 20
0.0893615798527733
 10
0.2088166717174759
 20
0.0898014913236117
 10
0.2073873040993319
 20
0.0900042390525339
 10
0.2056744453098095
 20
0.0898788739476856
 10
0.2048702383606045
 20
0.0899429590259394
 10
0.2046807625558999
 20
0.0908511830476498
 10
0.205523766719108
 20
0.0910973015138491
 10
0.2089763369370512
 20
0.0909811600552458
 10
0.2122319598235664
 20
0.0910350224239923
 10
0.2134255839841728
 20
0.090692075057592
 10
0.2144774450642623
 20
0.0889248776394168
 10
0.2156024253481827
 20
0.0878392321325051
 10
0.2168437972226325
 20
0.0876841979623971
 10
0.2181896150760928
 20
0.0877826991332703
 10
0.2200770449217043
 20
0.0880437866328922
  0
LWPOLYLINE
  5
12C9
330
2
100
AcDbEntity
  8
Profilo
  6
Continuous
370
     0
100
AcDbPolyline
 90
       23
 70
   129
 43
0.0
 10
0.2302280775115664
 20
0.0899029128504384
 10
0.2299003124466088
 20
0.0891922161187636
 10
0.2288607594438909
 20
0.088669386744214
 10
0.2271315863945621
 20
0.0881126852494144
 10
0.2245159229643014
 20
0.0875300213684787
 10
0.2219993895208787
 20
0.0871310602590568
 10
0.2211476484355551
 20
0.0875694419312182
 10
0.2198630209350253
 20
0.0891048131487874
 10
0.218977837947329
 20
0.0899754257389499
 10
0.2182126272797821
 20
0.0903074600100428
 10
0.2167689716001433
 20
0.0902999295367205
 10
0.2150926194219406
 20
0.0899265061617306
 10
0.2142876517479565
 20
0.0898728148379881
 10
0.2139679566390339
 20
0.0907437723521724
 10
0.2147661420810846
 20
0.0911100104150357
 10
0.2181988298610155
 20
0.0914978048886265
 10
0.2214119163489563
 20
0.092025115759916
 10
0.2226427540332458
 20
0.0918596161289919
 10
0.2239407118246737
 20
0.0902644032847963
 10
0.2252117748613385
 20
0.0893541255454703
 10
0.2264624910488465
 20
0.0893814887119621
 10
0.2277796251313021
 20
0.0896748928431343
 10
0.2296089266869403
 20
0.0902080100189117
  0
LWPOLYLINE
  5
12CA
330
2
100
AcDbEntity
  8
Profilo
  6
Continuous
370
     0
100
AcDbPolyline
 90
       23
 70
   129
 43
0.0
 10
0.2393810925105917
 20
0.0935253264114567
 10
0.2391602985913267
 20
0.0927744803370604
 10
0.2382079482897862
 20
0.0921058624315975
 10
0.2365782587889002
 20
0.0913033238845201
 10
0.2340753060625173
 20
0.0903460255882528
 10
0.2316436795931399
 20
0.0895849058525197
 10
0.2307371863156777
 20
0.0898946013559271
 10
0.2292426967753966
 20
0.0912265674233811
 10
0.2282401846472133
 20
0.091959018538952
 10
0.2274347839704971
 20
0.0921760988762756
 10
0.2260076092437735
 20
0.0919584506996724
 10
0.2244034922131658
 20
0.0913449279254596
 10
0.2236149203028297
 20
0.0911746045370708
 10
0.2231718196358983
 20
0.0919897325964271
 10
0.223908174419864
 20
0.092468284527489
 10
0.227247817981415
 20
0.093351749767341
 10
0.2303498867106917
 20
0.0943412704254431
 10
0.2315917047503423
 20
0.0943567458672919
 10
0.2331080955362336
 20
0.0929675167893215
 10
0.2344981508237724
 20
0.0922520078072174
 10
0.2357315544802344
 20
0.0924611851119216
 10
0.2369919323654599
 20
0.0929432388037316
 10
0.2387241172444065
 20
0.0937370231886351
  0
LWPOLYLINE
  5
12CB
330
2
100
AcDbEntity
  8
Profilo
  6
Continuous
370
     0
100
AcDbPolyline
 90
       23
 70
   129
 43
0.0
 10
0.2479091395532673
 20
0.0984418269166297
 10
0.2478000226187519
 20
0.0976668344800064
 10
0.2469551727116428
 20
0.0968666784734619
 10
0.2454597007615264
 20
0.0958354075899141
 10
0.2431228048308815
 20
0.0945238780294854
 10
0.2408279112320749
 20
0.0934168216131887
 10
0.2398859860928749
 20
0.093591230325866
 10
0.2382134869627357
 20
0.0946914026989695
 10
0.2371150124995659
 20
0.0952700814160671
 10
0.2362865875308068
 20
0.0953675811291116
 10
0.2349063115085073
 20
0.094944454042243
 10
0.2334086185950167
 20
0.0941039080415741
 10
0.2326532494895168
 20
0.0938205827358562
 10
0.2320961871860048
 20
0.0945625083009807
 10
0.2327550171880854
 20
0.0951431745966708
 10
0.2359304378268651
 20
0.0965034810750228
 10
0.23885537358817
 20
0.0979341216050652
 10
0.2400817047876512
 20
0.0981302422875149
 10
0.2417842093310856
 20
0.0969766059816567
 10
0.2432636302543906
 20
0.0964711155884955
 10
0.244453433522241
 20
0.0968576487803264
 10
0.2456301924438201
 20
0.0975180778952513
 10
0.2472283421327138
 20
0.0985556113532439
  0
LWPOLYLINE
  5
12CC
330
2
100
AcDbEntity
  8
Profilo
  6
Continuous
370
     0
100
AcDbPolyline
 90
       23
 70
   129
 43
0.0
 10
0.2556304581228472
 20
0.1045476276934716
 10
0.2556353438110976
 20
0.103765006512906
 10
0.2549160008074026
 20
0.1028503663413708
 10
0.2535866197963078
 20
0.1016123428697898
 10
0.2514655875409603
 20
0.0999745350207678
 10
0.2493563384855059
 20
0.0985451369094072
 10
0.2483990569835858
 20
0.0985805416124431
 10
0.2465841946788361
 20
0.0994254720271278
 10
0.2454131699567472
 20
0.0998380448135709
 10
0.2445793771358859
 20
0.0998138858652286
 10
0.2432754180050577
 20
0.0991942980873378
 10
0.2419160699329169
 20
0.098144643638901
 10
0.2412100030133029
 20
0.0977543550028496
 10
0.240550851889062
 20
0.0984072652184188
 10
0.2411181152915941
 20
0.099077669984765
 10
0.244061634429694
 20
0.1008858251307291
 10
0.2467470972954037
 20
0.1027270939136226
 10
0.2479318045342919
 20
0.1030996798648217
 10
0.2497841369067303
 20
0.1022062240860474
 10
0.2513213921773162
 20
0.1019215259319522
 10
0.2524422364655806
 20
0.1024771767270042
 10
0.2535102958501278
 20
0.103301905365064
 10
0.2549403485629779
 20
0.1045610746718025
  0
LWPOLYLINE
  5
12CD
330
2
100
AcDbEntity
  8
Profilo
  6
Continuous
370
     0
100
AcDbPolyline
 90
       23
 70
   129
 43
0.0
 10
0.2623804817193889
 20
0.1117125941990135
 10
0.2624992659004437
 20
0.1109390244862204
 10
0.2619207613473999
 20
0.1099293941169971
 10
0.260785804723574
 20
0.1085110043782871
 10
0.2589258422636157
 20
0.1065818252714951
 10
0.2570471927331547
 20
0.104860550604161
 10
0.2560949576617454
 20
0.1047561967077782
 10
0.2541764128215388
 20
0.1053278769391809
 10
0.2529577961994062
 20
0.1055655505223135
 10
0.2521364063728261
 20
0.1054202478186257
 10
0.2509365557584776
 20
0.1046174047875016
 10
0.2497445246718088
 20
0.1033810134535084
 10
0.2491028085286357
 20
0.1028920798117997
 10
0.2483556172454946
 20
0.1034420590301198
 10
0.248819223813906
 20
0.1041879137534521
 10
0.2514681054512886
 20
0.1064053798793206
 10
0.2538568594427887
 20
0.1086180334676757
 10
0.2549746927431159
 20
0.1091591436649387
 10
0.2569373736959698
 20
0.1085449108720012
 10
0.2584996993866494
 20
0.1084870728038477
 10
0.2595276958452758
 20
0.1091999984701185
 10
0.2604642918613222
 20
0.1101714489722446
 10
0.2616957685073415
 20
0.111625417120064
  0
LWPOLYLINE
  5
12CE
330
2
100
AcDbEntity
  8
Profilo
  6
Continuous
370
     0
100
AcDbPolyline
 90
       23
 70
   129
 43
0.0
 10
0.2680153453089911
 20
0.1197840176116474
 10
0.2682454963042555
 20
0.1190359866620209
 10
0.2678201600220411
 20
0.1179528846135592
 10
0.266903817415465
 20
0.1163843591224644
 10
0.2653445666215566
 20
0.1142049258612153
 10
0.2637365567692125
 20
0.1122284606190549
 10
0.2628096633656358
 20
0.1119865722453791
 10
0.2608283264423603
 20
0.112272817921892
 10
0.2595880906177833
 20
0.1123305267019275
 10
0.2587966102835847
 20
0.112067177117754
 10
0.2577264409184367
 20
0.1110981900387502
 10
0.256727132890309
 20
0.1097014133539221
 10
0.2561634445890516
 20
0.1091242554782701
 10
0.2553441382319751
 20
0.1095595818471465
 10
0.255694206997151
 20
0.1103649899289528
 10
0.2579919948205739
 20
0.1129445055941068
 10
0.2600331277937674
 20
0.1154813851181881
 10
0.2610602624794669
 20
0.1161794867371074
 10
0.2630914608757322
 20
0.1158575682355876
 10
0.264645558726843
 20
0.1160278229713834
 10
0.265558797396072
 20
0.1168828287360429
 10
0.2663439681256061
 20
0.1179802963213659
 10
0.2673506219181128
 20
0.1195980745035028
  0
LWPOLYLINE
  5
12CF
330
2
100
AcDbEntity
  8
Profilo
  6
Continuous
370
     0
100
AcDbPolyline
 90
       23
 70
   129
 43
0.0
 10
0.2724149515572083
 20
0.1285898695545359
 10
0.272751564097798
 20
0.1278833203490751
 10
0.2724884613908187
 20
0.1267498310611109
 10
0.2718102630532442
 20
0.1250646002152758
 10
0.2705849566489611
 20
0.1226813636357128
 10
0.2692818584129923
 20
0.1204918327439187
 10
0.2684000618009203
 20
0.1201175653236808
 10
0.266398161551195
 20
0.1201122756156742
 10
0.2651627399975396
 20
0.1199887896301571
 10
0.2644180381849164
 20
0.1196130060046708
 10
0.2635003588710123
 20
0.1184985271550679
 10
0.262715072417097
 20
0.1169711349894298
 10
0.2622414259952481
 20
0.1163180539979179
 10
0.2613674666567991
 20
0.1166294492915912
 10
0.2615965365107822
 20
0.1174772448569188
 10
0.2634942571620911
 20
0.1203638321633803
 10
0.2651442659113714
 20
0.1231708684405365
 10
0.2660588103898742
 20
0.1240110826571171
 10
0.2681152347622013
 20
0.123988339580973
 10
0.2696279818761933
 20
0.1243830584366128
 10
0.2704069986593101
 20
0.1253619213362045
 10
0.2710240095514083
 20
0.1265620153885144
 10
0.271784385412517
 20
0.1283091234717225
  0
LWPOLYLINE
  5
12D0
330
2
100
AcDbEntity
  8
Profilo
  6
Continuous
370
     0
100
AcDbPolyline
 90
       23
 70
   129
 43
0.0
 10
0.2754855304952377
 20
0.137942468581799
 10
0.2759214302692576
 20
0.1372924599901416
 10
0.2758261687149275
 20
0.1361327418189396
 10
0.2754005692664654
 20
0.1343667233880295
 10
0.2745353225305027
 20
0.1318304780401887
 10
0.2735649091874339
 20
0.1294745475483668
 10
0.2727470033307202
 20
0.1289758779418451
 10
0.2707672067827689
 20
0.1286791655902607
 10
0.2695629303655744
 20
0.128377116728582
 10
0.2688808791007478
 20
0.1278969082373438
 10
0.2681352485794359
 20
0.1266606907989188
 10
0.267580720717121
 20
0.1250352368646964
 10
0.2672072111258419
 20
0.1243201520448142
 10
0.2662972257319935
 20
0.12450097941323
 10
0.2664004144485466
 20
0.1253730931715015
 10
0.2678576213067874
 20
0.1285052295223866
 10
0.2690813387603252
 20
0.1315225954478044
 10
0.2698638011038603
 20
0.1324870145547559
 10
0.2719016223370143
 20
0.132763931633174
 10
0.2733407771355096
 20
0.1333747018615386
 10
0.273968968642271
 20
0.1344565591328123
 10
0.2744046691809909
 20
0.1357337017309251
 10
0.2749025610193483
 20
0.1375729031396516
  0
LWPOLYLINE
  5
12D1
330
2
100
AcDbEntity
  8
Profilo
  6
Continuous
370
     0
100
AcDbPolyline
 90
       23
 70
   129
 43
0.0
 10
0.2771616380640003
 20
0.1476424802826886
 10
0.2776875346245553
 20
0.1470628661094518
 10
0.277762144557518
 20
0.1459016364343856
 10
0.2775982149115075
 20
0.1440924700351839
 10
0.2771114690758416
 20
0.1414572715853498
 10
0.2764944233012965
 20
0.1389851540616834
 10
0.2757578404432717
 20
0.1383727105457765
 10
0.2738423435232906
 20
0.1377908994592519
 10
0.2726948793035813
 20
0.1373167253684953
 10
0.27209001532512
 20
0.1367423268217812
 10
0.2715323254164346
 20
0.1354107186229739
 10
0.271220374944362
 20
0.1337218466487463
 10
0.2709549628921219
 20
0.1329599987919351
 10
0.2700283462016741
 20
0.1330064042136768
 10
0.2700034544924523
 20
0.1338842485742573
 10
0.2709890897233744
 20
0.137195177921103
 10
0.2717604344682047
 20
0.1403585635786842
 10
0.2723941378503916
 20
0.1414266326571179
 10
0.2743699233227506
 20
0.1419973078833411
 10
0.2757048127198078
 20
0.1428111119774043
 10
0.276168790138885
 20
0.1439729057108884
 10
0.276413894123684
 20
0.1452998767776377
 10
0.2766386902391715
 20
0.1471919721269855
  0
LWPOLYLINE
  5
12D2
330
2
100
AcDbEntity
  8
Profilo
  6
Continuous
370
     0
100
AcDbPolyline
 90
       23
 70
   129
 43
0.0
 10
0.2774075509406451
 20
0.1574831657484745
 10
0.2780122357155832
 20
0.1569862994634645
 10
0.27825512695465
 20
0.1558483078789895
 10
0.2783563609868895
 20
0.15403455275231
 10
0.2782584901939442
 20
0.1513565658803425
 10
0.2780079632473231
 20
0.1488209502178811
 10
0.2773684023727856
 20
0.1481077859628367
 10
0.2755580305720329
 20
0.1472532764345678
 10
0.2744918347574845
 20
0.1466170833122407
 10
0.2739770496909528
 20
0.1459607370178332
 10
0.273619186587063
 20
0.1445621189755296
 10
0.2735564621879536
 20
0.1428458243352902
 10
0.2734048044718509
 20
0.1420534509059347
 10
0.2724813057108146
 20
0.1419644453300047
 10
0.2723288640993864
 20
0.1428293105644186
 10
0.2728219205992495
 20
0.1462484661964672
 10
0.2731244527613075
 20
0.1494904495130323
 10
0.2735958908947598
 20
0.1506394045248732
 10
0.2754675301692433
 20
0.1514916749472298
 10
0.2766697033149308
 20
0.1524911680856134
 10
0.2769595777731684
 20
0.1537081366649274
 10
0.2770088612381487
 20
0.155056654115845
 10
0.2769557704918444
 20
0.1569613166784078
  0
LWPOLYLINE
  5
12D3
330
2
100
AcDbEntity
  8
Profilo
  6
Continuous
370
     0
100
AcDbPolyline
 90
       23
 70
   129
 43
0.0
 10
0.2762180279191453
 20
0.1672547878533618
 10
0.2768886131023123
 20
0.166851259298812
 10
0.2772946088424184
 20
0.1657607601198263
 10
0.2776588489252674
 20
0.1639810733072418
 10
0.2779519391210767
 20
0.1613173746539288
 10
0.2780732705492948
 20
0.1587723030983091
 10
0.2775443627879113
 20
0.1579736179620613
 10
0.2758777010382447
 20
0.1568646223790866
 10
0.2749154977415678
 20
0.1560799695770668
 10
0.2745017633369136
 20
0.1553556644167128
 10
0.2743513542685771
 20
0.1539198456462759
 10
0.2745391928040977
 20
0.1522127081805361
 10
0.2745045217450517
 20
0.1514066972426021
 10
0.2736038236861844
 20
0.1511841776683261
 10
0.2733270812008335
 20
0.1520176306756361
 10
0.2733170503263664
 20
0.1554721392267603
 10
0.2731443219578586
 20
0.1587236229564875
 10
0.2734434469572491
 20
0.1599289759204128
 10
0.275171049292166
 20
0.1610446768745223
 10
0.2762148839530392
 20
0.1622085565962505
 10
0.2763244772796254
 20
0.1634547624489668
 10
0.2761768898332955
 20
0.1647960849758183
 10
0.2758470437622824
 20
0.1666727201758505
  0
LWPOLYLINE
  5
12D4
330
2
100
AcDbEntity
  8
Profilo
  6
Continuous
370
     0
100
AcDbPolyline
 90
       23
 70
   129
 43
0.0
 10
0.2736184216175157
 20
0.176749081437193
 10
0.2743406148499676
 20
0.1764474911236542
 10
0.2749010619967833
 20
0.1754277264468882
 10
0.2755205449852527
 20
0.1737200388830055
 10
0.2761983494611406
 20
0.1711274005605617
 10
0.2766889532954539
 20
0.1686271168933623
 10
0.276281971397897
 20
0.1677599334629543
 10
0.2747945417009321
 20
0.166420088140744
 10
0.2739568386148654
 20
0.1655036991712278
 10
0.2736529729026216
 20
0.1647268724519213
 10
0.2737132235779967
 20
0.163284454937643
 10
0.2741476215958787
 20
0.1616228593176377
 10
0.2742306761473159
 20
0.1608203895949148
 10
0.2733719756059958
 20
0.1604690986406903
 10
0.2729768305323332
 20
0.1612533758170445
 10
0.2724639260742101
 20
0.1646696104350225
 10
0.2718196185804274
 20
0.1678612948472766
 10
0.2719400551157196
 20
0.169097355757537
 10
0.2734867996666803
 20
0.1704527080145858
 10
0.2743500483191947
 20
0.171756168244058
 10
0.2742770247226456
 20
0.1730050506560258
 10
0.2739357119351868
 20
0.174310590297888
 10
0.2733361406358081
 20
0.1761192009142248
  0
LWPOLYLINE
  5
12D5
330
2
100
AcDbEntity
  8
Profilo
  6
Continuous
370
     0
100
AcDbPolyline
 90
       23
 70
   129
 43
0.0
 10
0.2696641381307667
 20
0.1857636921157448
 10
0.2704225471175909
 20
0.1855704679171443
 10
0.271125500713201
 20
0.1846431722562186
 10
0.2719870234029063
 20
0.183043880336661
 10
0.2730350959332408
 20
0.1805775599297173
 10
0.2738845158046839
 20
0.1781753533564395
 10
0.2736081338835177
 20
0.1772581541411311
 10
0.2723316382208452
 20
0.1757160155565538
 10
0.2716362895322912
 20
0.1746874216594393
 10
0.2714487688825542
 20
0.1738746300940113
 10
0.2717183951630993
 20
0.1724563564609563
 10
0.2723900942237722
 20
0.1708757167125467
 10
0.2725891042221267
 20
0.1700938914539635
 10
0.2717907029095581
 20
0.1696213162765856
 10
0.2712855770787985
 20
0.170339702115597
 10
0.2702807307050612
 20
0.1736448516906417
 10
0.2691785763816226
 20
0.1767087115734193
 10
0.2691177575571622
 20
0.1779491359376975
 10
0.2704506781494416
 20
0.1795152525174215
 10
0.2711149421473002
 20
0.1809305122628535
 10
0.2708608579987952
 20
0.182155453473709
 10
0.2703330943597038
 20
0.1833973849197282
 10
0.2694765766532601
 20
0.1850994235571005
  0
LWPOLYLINE
  5
12D6
330
2
100
AcDbEntity
  8
Profilo
  6
Continuous
370
     0
100
AcDbPolyline
 90
       23
 70
   129
 43
0.0
 10
0.2644394561461893
 20
0.1941064891131221
 10
0.2652179167165449
 20
0.194025749267788
 10
0.2660483945254917
 20
0.1932106863197918
 10
0.2671335950560347
 20
0.1917538761752118
 10
0.2685295977944413
 20
0.1894664390213423
 10
0.2697197297931761
 20
0.1872135084045032
 10
0.2695798384492078
 20
0.18626584191317
 10
0.2685414831096908
 20
0.1845542780727712
 10
0.2680033089687146
 20
0.1834354019411828
 10
0.2679361300585732
 20
0.1826039687707235
 10
0.2684093853282288
 20
0.1812400670590443
 10
0.269304069332384
 20
0.1797740717742408
 10
0.2696147932250497
 20
0.1790295542278183
 10
0.2688937076790683
 20
0.1784457669467328
 10
0.2682893669713173
 20
0.1790829503014643
 10
0.2668139952378616
 20
0.1822065713086216
 10
0.2652774845906627
 20
0.1850773058078418
 10
0.2650367066541033
 20
0.1862956561343773
 10
0.2661273943994284
 20
0.1880391579808931
 10
0.2665785161087786
 20
0.189536053437913
 10
0.2661487867708139
 20
0.1907109459524295
 10
0.265445820645781
 20
0.1918627995900116
 10
0.2643506117201386
 20
0.1934219902498605
  0
LWPOLYLINE
  5
12D7
330
2
100
AcDbEntity
  8
Profilo
  6
Continuous
370
     0
100
AcDbPolyline
 90
       23
 70
   129
 43
0.0
 10
0.2580557306894534
 20
0.2015996601956785
 10
0.2588376513078047
 20
0.2016331255332355
 10
0.2597779531374255
 20
0.2009476669498325
 10
0.2610637023435689
 20
0.1996643879592215
 10
0.2627778819153501
 20
0.1976045868100256
 10
0.2642833604440706
 20
0.1955489494542961
 10
0.2642829412184262
 20
0.1945910135529115
 10
0.2635048569433838
 20
0.1927465034684195
 10
0.2631353275974504
 20
0.1915611920045625
 10
0.263189922228739
 20
0.1907288377836071
 10
0.2638567198730761
 20
0.1894483771903497
 10
0.2649553201844703
 20
0.1881282715134588
 10
0.2653711354311408
 20
0.187436929778106
 10
0.2647427343382442
 20
0.186754372805665
 10
0.2640520592264621
 20
0.1872967732191588
 10
0.2621376071203201
 20
0.1901722910997358
 10
0.2601994882061928
 20
0.1927887154935731
 10
0.2597838829212237
 20
0.193959024760395
 10
0.2606090917039026
 20
0.1958427521588275
 10
0.2608374562487234
 20
0.1973893795996017
 10
0.2602412406560637
 20
0.198489182623624
 10
0.2593780545475903
 20
0.199526408692276
 10
0.2580674968795539
 20
0.2009095199326748
  0
LWPOLYLINE
  5
12D8
330
2
100
AcDbEntity
  8
Profilo
  6
Continuous
370
     0
100
AcDbPolyline
 90
       23
 70
   129
 43
0.0
 10
0.2506490197855599
 20
0.2080835014310543
 10
0.2514177351714588
 20
0.2082304586959358
 10
0.2524478201207616
 20
0.2076892138367716
 10
0.2539067144904309
 20
0.2066068168638492
 10
0.2559025361340881
 20
0.2048185528046982
 10
0.2576912745316883
 20
0.2030040210514228
 10
0.2578303363594355
 20
0.2020562324806016
 10
0.2573291066643194
 20
0.20011808868212
 10
0.2571360979898775
 20
0.198891604741969
 10
0.257311302572817
 20
0.198076069655646
 10
0.2581574309577065
 20
0.1969063409752831
 10
0.2594365328180403
 20
0.1957602606669058
 10
0.2599485770386485
 20
0.195136829491438
 10
0.2594262536771329
 20
0.1943700503444878
 10
0.2586639647022126
 20
0.1948061074936182
 10
0.2563512354462486
 20
0.1973722355763215
 10
0.2540528159049832
 20
0.1996785853213287
 10
0.2534712411767019
 20
0.2007759104182485
 10
0.2540133831042145
 20
0.202759714989532
 10
0.254014123290708
 20
0.2043231107353405
 10
0.2532641287435924
 20
0.2053243838768308
 10
0.2522591199649583
 20
0.2062248757036818
 10
0.2507611458158978
 20
0.2074024289098295
  0
LWPOLYLINE
  5
12D9
330
2
100
AcDbEntity
  8
Profilo
  6
Continuous
370
     0
100
AcDbPolyline
 90
       23
 70
   129
 43
0.0
 10
0.2423771846182641
 20
0.2134198210002448
 10
0.2431163109378669
 20
0.2136771380534883
 10
0.2442142245345387
 20
0.213291642613055
 10
0.2458151702671029
 20
0.2124331970700953
 10
0.2480500965093462
 20
0.2109545838447131
 10
0.2500839709224047
 20
0.209419831287911
 10
0.2503595499421136
 20
0.20850239051554
 10
0.2501458576676674
 20
0.206511921173223
 10
0.2501334833095211
 20
0.2052704051326042
 10
0.2504255636626054
 20
0.2044890708953853
 10
0.2514329890305306
 20
0.2034550048639145
 10
0.2528653306043606
 20
0.2025073766360573
 10
0.2534626904653328
 20
0.2019651433736103
 10
0.2530575772508169
 20
0.2011304846184236
 10
0.2522399212788099
 20
0.201450904702118
 10
0.2495782066818685
 20
0.2036529504220478
 10
0.2469684733355855
 20
0.2056000696775805
 10
0.2462333244196244
 20
0.2066010230252778
 10
0.2464808446780278
 20
0.2086426234191566
 10
0.2462539447304061
 20
0.2101894664039667
 10
0.2453661560605011
 20
0.2110708692642786
 10
0.2442407446289757
 20
0.2118154344294245
 10
0.2425872807171696
 20
0.2127623320991433
  0
LWPOLYLINE
  5
12DA
330
2
100
AcDbEntity
  8
Profilo
  6
Continuous
370
     0
100
AcDbPolyline
 90
       23
 70
   129
 43
0.0
 10
0.233416524993008
 20
0.2174948845162818
 10
0.2341103090520463
 20
0.2178570770916393
 10
0.2352526511739164
 20
0.2176355472359708
 10
0.2369615268905684
 20
0.2170193493993323
 10
0.2393879241587136
 20
0.2158819010815245
 10
0.2416235860852243
 20
0.214659638307384
 10
0.2420298088085415
 20
0.2137920989907095
 10
0.2421082084345895
 20
0.2117917275028355
 10
0.2422767321307002
 20
0.2105616401206935
 10
0.2426794630682998
 20
0.2098311595153328
 10
0.2438267138965837
 20
0.2089547954549229
 10
0.2453817673100262
 20
0.208225816358035
 10
0.2460517111230291
 20
0.2077763377691993
 10
0.2457724423403433
 20
0.2068915887080529
 10
0.2449168462887216
 20
0.2070895425285243
 10
0.2419628761763013
 20
0.2088805731042428
 10
0.2390974509603854
 20
0.2104269624038588
 10
0.238224396279558
 20
0.2113102104195308
 10
0.2381720194042786
 20
0.2133660934681378
 10
0.2377223153009894
 20
0.2148634154192815
 10
0.2367156541824603
 20
0.215606162426691
 10
0.2354938262888264
 20
0.2161789318163168
 10
0.2337201133268918
 20
0.216874992469731
  0
LWPOLYLINE
  5
12DB
330
2
100
AcDbEntity
  8
Profilo
  6
Continuous
370
     0
100
AcDbPolyline
 90
       23
 70
   129
 43
0.0
 10
0.2239580218126535
 20
0.2202218390752462
 10
0.2245916768084236
 20
0.220681187666794
 10
0.2257541004164406
 20
0.2206283449201533
 10
0.2275344843981457
 20
0.2202675279769108
 10
0.2301006382470118
 20
0.2194954873027913
 10
0.2324904384344578
 20
0.2186117647203103
 10
0.2330186469292945
 20
0.217812616953691
 10
0.2333874675039247
 20
0.2158449777655803
 10
0.2337332974642895
 20
0.214652536218849
 10
0.2342380954756704
 20
0.2139884781712247
 10
0.2355007201047091
 20
0.213288494260321
 10
0.2371453420940641
 20
0.2127937012182378
 10
0.2378735911698468
 20
0.2124465571587716
 10
0.2377261189482425
 20
0.2115305746818441
 10
0.2368508183613994
 20
0.2116018431970863
 10
0.2336675514779101
 20
0.2129436859213713
 10
0.2306075059560325
 20
0.2140563866619132
 10
0.229615153155108
 20
0.2148031044475608
 10
0.2292639954683055
 20
0.2168294525730348
 10
0.2286010718715594
 20
0.2182453406726976
 10
0.227496993538433
 20
0.2188336014642643
 10
0.2262047903229644
 20
0.2192223674932423
 10
0.224348631923253
 20
0.2196527558059928
  0
LWPOLYLINE
  5
12DC
330
2
100
AcDbEntity
  8
Profilo
  6
Continuous
370
     0
100
AcDbPolyline
 90
       23
 70
   129
 43
0.0
 10
0.2142032666511067
 20
0.221542564375114
 10
0.214763287327492
 20
0.2220892787651207
 10
0.2159210173805953
 20
0.2222062493789131
 10
0.2177349638337977
 20
0.2221085035157798
 10
0.2203861811493234
 20
0.2217183251919375
 10
0.2228791851557605
 20
0.2211919778136879
 10
0.2235181215751032
 20
0.220478254044326
 10
0.2241695023280926
 20
0.218585283969154
 10
0.2246852677875219
 20
0.2174559030791458
 10
0.2252813739794765
 20
0.2168724208336395
 10
0.2266324617574067
 20
0.2163637360140267
 10
0.2283316000602785
 20
0.216113674681405
 10
0.2291026330341443
 20
0.2158762639242413
 10
0.2290901004879877
 20
0.2149485706077447
 10
0.2282137508782815
 20
0.2148916348530898
 10
0.2248690330307167
 20
0.2157556906779118
 10
0.2216795867604755
 20
0.2164109875749131
 10
0.220589086116532
 20
0.2170052601373458
 10
0.2199466319346372
 20
0.2189588852474378
 10
0.2190846179099627
 20
0.220263162298969
 10
0.2179066538750642
 20
0.2206843991172328
 10
0.216571616405841
 20
0.220880875912612
 10
0.2146725733620751
 20
0.2210364189050288
  0
LWPOLYLINE
  5
12DD
330
2
100
AcDbEntity
  8
Profilo
  6
Continuous
370
     0
100
AcDbPolyline
 90
        6
 70
   128
 43
0.0
 10
0.2095327132972169
 20
0.22027319686648
 10
0.2085804428199606
 20
0.2203388401778498
 10
0.2075953358058331
 20
0.2203388401778498
 10
0.206708739493119
 20
0.2203388401778498
 10
0.2057236324789916
 20
0.2203060185221649
 10
0.2050668941059727
 20
0.2202403752107953
  0
LWPOLYLINE
  5
12DE
330
2
100
AcDbEntity
  8
Profilo
  6
Continuous
370
     0
100
AcDbPolyline
 90
        5
 70
   128
 43
0.0
 10
0.2099267561028694
 20
0.2195182973750738
 10
0.208777464222785
 20
0.2193870107523343
 10
0.207562499268964
 20
0.2193870107523343
 10
0.206643065328575
 20
0.2193870107523343
 10
0.2057893055527299
 20
0.2193870107523343
  0
LWPOLYLINE
  5
12DF
330
2
100
AcDbEntity
  8
Profilo
  6
Continuous
370
     0
100
AcDbPolyline
 90
        6
 70
   128
 43
0.0
 10
0.1999242055845468
 20
0.219493033100485
 10
0.1989725253604683
 20
0.21941932518176
 10
0.197997916269199
 20
0.2192758924501588
 10
0.1971207680870542
 20
0.2191468029917188
 10
0.1961509378671796
 20
0.2189708983727358
 10
0.1955107558560599
 20
0.2188103327239661
  0
LWPOLYLINE
  5
12E0
330
2
100
AcDbEntity
  8
Profilo
  6
Continuous
370
     0
100
AcDbPolyline
 90
        5
 70
   128
 43
0.0
 10
0.200423963468526
 20
0.2188035513877411
 10
0.1993060346545626
 20
0.2185063255984075
 10
0.1981040171350558
 20
0.2183294252823745
 10
0.1971943812637498
 20
0.2181955546269973
 10
0.1963497196915868
 20
0.2180712462066703
  0
LWPOLYLINE
  5
12E1
330
2
100
AcDbEntity
  8
Profilo
  6
Continuous
370
     0
100
AcDbPolyline
 90
        6
 70
   128
 43
0.0
 10
0.1905316849572721
 20
0.217322173309431
 10
0.1896008783980897
 20
0.2171106851169275
 10
0.1886575393303864
 20
0.2168268766733793
 10
0.1878085341694565
 20
0.2165714490741868
 10
0.1868746509911973
 20
0.2162562105934631
 10
0.1862646697100939
 20
0.216004144785331
  0
LWPOLYLINE
  5
12E2
330
2
100
AcDbEntity
  8
Profilo
  6
Continuous
370
     0
100
AcDbPolyline
 90
        5
 70
   128
 43
0.0
 10
0.1911265064479374
 20
0.2167128044810083
 10
0.1900637674118702
 20
0.216255974376753
 10
0.1889003162432229
 20
0.2159059440677982
 10
0.1880198657503297
 20
0.2156410559776463
 10
0.1872023048768029
 20
0.2153950885551508
  0
LWPOLYLINE
  5
12E3
330
2
100
AcDbEntity
  8
Profilo
  6
Continuous
370
     0
100
AcDbPolyline
 90
        6
 70
   128
 43
0.0
 10
0.1815553366857336
 20
0.213806885600822
 10
0.1806652423172366
 20
0.213462124638192
 10
0.1797732789075529
 20
0.2130439893669368
 10
0.1789705118388383
 20
0.2126676676228056
 10
0.178092479800779
 20
0.2122198140412595
 10
0.1775256999416815
 20
0.211881620418839
  0
LWPOLYLINE
  5
12E4
330
2
100
AcDbEntity
  8
Profilo
  6
Continuous
370
     0
100
AcDbPolyline
 90
        5
 70
   128
 43
0.0
 10
0.1822325441957123
 20
0.213290617295347
 10
0.1812476453750208
 20
0.2126839194167163
 10
0.1801475574989668
 20
0.2121682194031668
 10
0.1793150576581499
 20
0.2117779595079953
 10
0.1785420223738691
 20
0.211415575451908
  0
LWPOLYLINE
  5
12E5
330
2
100
AcDbEntity
  8
Profilo
  6
Continuous
370
     0
100
AcDbPolyline
 90
        6
 70
   128
 43
0.0
 10
0.1731864760490546
 20
0.2090220922291025
 10
0.172356064687368
 20
0.2085514064777056
 10
0.1715344875871992
 20
0.2080078562061045
 10
0.1707950681970454
 20
0.2075186609616618
 10
0.1699916010276813
 20
0.2069477375008395
 10
0.1694801025192704
 20
0.2065306240740403
  0
LWPOLYLINE
  5
12E6
330
2
100
AcDbEntity
  8
Profilo
  6
Continuous
370
     0
100
AcDbPolyline
 90
        5
 70
   128
 43
0.0
 10
0.1739316360760029
 20
0.2086099278091861
 10
0.1730455688791171
 20
0.2078662928681441
 10
0.1720322907588184
 20
0.2071959144004591
 10
0.1712654848588401
 20
0.2066886004123818
 10
0.1705534510687832
 20
0.2062175233097028
  0
LWPOLYLINE
  5
12E7
330
2
100
AcDbEntity
  8
Profilo
  6
Continuous
370
     0
100
AcDbPolyline
 90
        6
 70
   128
 43
0.0
 10
0.165603470782103
 20
0.2030697727578703
 10
0.1648504412036854
 20
0.2024831940673168
 10
0.1641167609025363
 20
0.2018258136257236
 10
0.1634564486315043
 20
0.2012341712282888
 10
0.1627446708386103
 20
0.2005523461305493
 10
0.1622993553835535
 20
0.2000652029478908
  0
LWPOLYLINE
  5
12E8
330
2
100
AcDbEntity
  8
Profilo
  6
Continuous
370
     0
100
AcDbPolyline
 90
        5
 70
   128
 43
0.0
 10
0.1664007015337593
 20
0.2027704967925433
 10
0.1656323509446346
 20
0.2019057740767945
 10
0.1647274788440204
 20
0.201095005108134
 10
0.1640427100213476
 20
0.2004814495440365
 10
0.1634068534895537
 20
0.1999117195853505
  0
LWPOLYLINE
  5
12E9
330
2
100
AcDbEntity
  8
Profilo
  6
Continuous
370
     0
100
AcDbPolyline
 90
        6
 70
   128
 43
0.0
 10
0.1589679394769083
 20
0.196076790542535
 10
0.1583083411998495
 20
0.1953868208192243
 10
0.1576781948195646
 20
0.1946296211304395
 10
0.1571110630773081
 20
0.1939481414105328
 10
0.1565061449687864
 20
0.193169946594085
 10
0.1561365036928731
 20
0.1926231562667507
  0
LWPOLYLINE
  5
12EA
330
2
100
AcDbEntity
  8
Profilo
  6
Continuous
370
     0
100
AcDbPolyline
 90
        5
 70
   128
 43
0.0
 10
0.1598002493639122
 20
0.1958967815794078
 10
0.1591659914413865
 20
0.1949294011523532
 10
0.1583888111382866
 20
0.1939955218156663
 10
0.157800674051514
 20
0.1932888015471715
 10
0.1572545469560137
 20
0.192632561537411
  0
LWPOLYLINE
  5
12EB
330
2
100
AcDbEntity
  8
Profilo
  6
Continuous
370
     0
100
AcDbPolyline
 90
        6
 70
   128
 43
0.0
 10
0.1534213069629641
 20
0.188192188858145
 10
0.1528691981793767
 20
0.187413533608839
 10
0.1523560161960206
 20
0.1865726530696187
 10
0.1518941524110006
 20
0.185815860584321
 10
0.1514089867661078
 20
0.1849578819206111
 10
0.1511228979313824
 20
0.1843630983351198
  0
LWPOLYLINE
  5
12EC
330
2
100
AcDbEntity
  8
Profilo
  6
Continuous
370
     0
100
AcDbPolyline
 90
        5
 70
   128
 43
0.0
 10
0.1542709567450878
 20
0.1881352834757477
 10
0.1537843095956103
 20
0.1870858633716698
 10
0.1531513853388863
 20
0.1860487776836656
 10
0.152672415108923
 20
0.1852639552263228
 10
0.1522276572006005
 20
0.184535191781964
  0
LWPOLYLINE
  5
12ED
330
2
100
AcDbEntity
  8
Profilo
  6
Continuous
370
     0
100
AcDbPolyline
 90
        6
 70
   128
 43
0.0
 10
0.1490817900825146
 20
0.1795840143007535
 10
0.14864893803258
 20
0.1787332692102295
 10
0.1482636580291662
 20
0.1778266297293713
 10
0.1479169060260944
 20
0.1770106541965976
 10
0.1475618333082299
 20
0.1760911780112666
 10
0.1473653944015102
 20
0.1754610779471095
  0
LWPOLYLINE
  5
12EE
330
2
100
AcDbEntity
  8
Profilo
  6
Continuous
370
     0
100
AcDbPolyline
 90
        5
 70
   128
 43
0.0
 10
0.1499306709497724
 20
0.1796514253385135
 10
0.1496020066124445
 20
0.178542332124981
 10
0.1491268280837737
 20
0.1774241437665626
 10
0.1487672331295088
 20
0.1765779462484813
 10
0.1484333236510115
 20
0.175792191697096
  0
LWPOLYLINE
  5
12EF
330
2
100
AcDbEntity
  8
Profilo
  6
Continuous
370
     0
100
AcDbPolyline
 90
        6
 70
   128
 43
0.0
 10
0.1460418781038147
 20
0.1704357351659675
 10
0.14573750827748
 20
0.1695310323888063
 10
0.1454883418283782
 20
0.1685779574127817
 10
0.1452640920241873
 20
0.1677201899343598
 10
0.1450466799918721
 20
0.1667588132659475
 10
0.1449440777674099
 20
0.1661068262120427
  0
LWPOLYLINE
  5
12F0
330
2
100
AcDbEntity
  8
Profilo
  6
Continuous
370
     0
100
AcDbPolyline
 90
        5
 70
   128
 43
0.0
 10
0.1468718976343081
 20
0.1706260258746495
 10
0.1467082210188647
 20
0.169480897947957
 10
0.1464009158236077
 20
0.168305439162638
 10
0.1461683602871798
 20
0.167415901814791
 10
0.1459524159393241
 20
0.1665899031504568
  0
LWPOLYLINE
  5
12F1
330
2
100
AcDbEntity
  8
Profilo
  6
Continuous
370
     0
100
AcDbPolyline
 90
        6
 70
   128
 43
0.0
 10
0.1443663614729481
 20
0.1609423311407554
 10
0.1441969609846286
 20
0.1600029528459546
 10
0.1440892186401122
 20
0.1590237555131973
 10
0.1439922505300463
 20
0.1581424779137145
 10
0.1439171329432892
 20
0.1571596908368145
 10
0.1439105541893636
 20
0.1564997127652683
  0
LWPOLYLINE
  5
12F2
330
2
100
AcDbEntity
  8
Profilo
  6
Continuous
370
     0
100
AcDbPolyline
 90
        5
 70
   128
 43
0.0
 10
0.1451598292414208
 20
0.1612514458042798
 10
0.1451646288307546
 20
0.1600946895780693
 10
0.1450317466456185
 20
0.158887013229088
 10
0.144931187044535
 20
0.1579730949956728
 10
0.1448378103061864
 20
0.1571244569458612
  0
LWPOLYLINE
  5
12F3
330
2
100
AcDbEntity
  8
Profilo
  6
Continuous
370
     0
100
AcDbPolyline
 90
        6
 70
   128
 43
0.0
 10
0.1440909509179516
 20
0.1513061376499404
 10
0.1440601302449512
 20
0.1503521050549522
 10
0.1440961083460345
 20
0.1493676552565751
 10
0.144128488637011
 20
0.1484816504380353
 10
0.144197266496758
 20
0.1474983993529256
 10
0.1442868514280889
 20
0.1468444965505116
  0
LWPOLYLINE
  5
12F4
330
2
100
AcDbEntity
  8
Profilo
  6
Continuous
370
     0
100
AcDbPolyline
 90
        5
 70
   128
 43
0.0
 10
0.1448309555364976
 20
0.1517274880259221
 10
0.1450041290356968
 20
0.1505837577508525
 10
0.145048502013755
 20
0.1493696033628807
 10
0.1450820816013241
 20
0.1484507828243436
 10
0.1451132626355446
 20
0.1475975926357239
  0
LWPOLYLINE
  5
12F5
330
2
100
AcDbEntity
  8
Profilo
  6
Continuous
370
     0
100
AcDbPolyline
 90
        6
 70
   128
 43
0.0
 10
0.1452215163366499
 20
0.1417325334279012
 10
0.1453299323681055
 20
0.1407841800811421
 10
0.1455088641040277
 20
0.1398154596554458
 10
0.14566990266636
 20
0.1389436112723184
 10
0.1458811100919408
 20
0.1379808524688047
 10
0.146064949361249
 20
0.1373469617384862
  0
LWPOLYLINE
  5
12F6
330
2
100
AcDbEntity
  8
Profilo
  6
Continuous
370
     0
100
AcDbPolyline
 90
        5
 70
   128
 43
0.0
 10
0.1458922858915849
 20
0.1422571391646033
 10
0.1462301424081688
 20
0.1411508114658019
 10
0.1464508248164308
 20
0.1399560566316636
 10
0.1466178279020455
 20
0.139051916852572
 10
0.1467729021392231
 20
0.1382123587927487
  0
LWPOLYLINE
  5
12F7
330
2
100
AcDbEntity
  8
Profilo
  6
Continuous
370
     0
100
AcDbPolyline
 90
        6
 70
   128
 43
0.0
 10
0.1477339616899752
 20
0.1324255632274119
 10
0.1479793037264024
 20
0.1315031016339861
 10
0.1482973754778677
 20
0.1305707571749997
 10
0.148583640054185
 20
0.1297316471619122
 10
0.1489327755260107
 20
0.1288099001724002
 10
0.1492069509184429
 20
0.1282095317945596
  0
LWPOLYLINE
  5
12F8
330
2
100
AcDbEntity
  8
Profilo
  6
Continuous
370
     0
100
AcDbPolyline
 90
        5
 70
   128
 43
0.0
 10
0.1483211998927921
 20
0.1330422432643533
 10
0.1488165386016796
 20
0.1319968975959674
 10
0.1492088269777526
 20
0.1308470064406776
 10
0.1495056941805853
 20
0.1299768175907028
 10
0.1497813564825873
 20
0.1291687853821211
  0
LWPOLYLINE
  5
12F9
330
2
100
AcDbEntity
  8
Profilo
  6
Continuous
370
     0
100
AcDbPolyline
 90
        6
 70
   128
 43
0.0
 10
0.1515747385672065
 20
0.1235835889600018
 10
0.1519517775690485
 20
0.1227066797872399
 10
0.1524022101888914
 20
0.1218305825984177
 10
0.15280759954675
 20
0.121042095128476
 10
0.1532872218483899
 20
0.1201810053897541
 10
0.1536458897914671
 20
0.1196269551740388
  0
LWPOLYLINE
  5
12FA
330
2
100
AcDbEntity
  8
Profilo
  6
Continuous
370
     0
100
AcDbPolyline
 90
        5
 70
   128
 43
0.0
 10
0.1520659294551468
 20
0.1242791998328424
 10
0.1527081930717377
 20
0.1233171159229168
 10
0.1532637264699561
 20
0.1222365963800689
 10
0.1536841305809852
 20
0.1214189050237673
 10
0.1540745056844369
 20
0.1206596204700868
  0
LWPOLYLINE
  5
12FB
330
2
100
AcDbEntity
  8
Profilo
  6
Continuous
370
     0
100
AcDbPolyline
 90
        6
 70
   128
 43
0.0
 10
0.1566619874773697
 20
0.1153950619561828
 10
0.1571626875128985
 20
0.1145823950006558
 10
0.157735880811848
 20
0.1137812175725399
 10
0.1582517547809017
 20
0.1130601578872357
 10
0.1588516415956914
 20
0.1122780780321043
 10
0.1592871577049067
 20
0.1117821545969458
  0
LWPOLYLINE
  5
12FC
330
2
100
AcDbEntity
  8
Profilo
  6
Continuous
370
     0
100
AcDbPolyline
 90
        5
 70
   128
 43
0.0
 10
0.157046662169436
 20
0.1161547779268545
 10
0.1578221619598112
 20
0.1152964609236067
 10
0.1585291001502814
 20
0.1143083423913103
 10
0.1590640809857637
 20
0.1135605762003077
 10
0.1595608487230845
 20
0.1128662221335591
  0
LWPOLYLINE
  5
12FD
330
2
100
AcDbEntity
  8
Profilo
  6
Continuous
370
     0
100
AcDbPolyline
 90
        6
 70
   128
 43
0.0
 10
0.1628872825421713
 20
0.1080345064525288
 10
0.1635009720594213
 20
0.1073034022994835
 10
0.1641847094174577
 20
0.10659422033799
 10
0.1648000730396902
 20
0.1059559565726459
 10
0.1655074388216694
 20
0.1052695552754069
 10
0.1660105208272773
 20
0.1048423283678314
  0
LWPOLYLINE
  5
12FE
330
2
100
AcDbEntity
  8
Profilo
  6
Continuous
370
     0
100
AcDbPolyline
 90
        5
 70
   128
 43
0.0
 10
0.163157242365158
 20
0.1088421354940962
 10
0.1640494498976687
 20
0.1081058789342829
 10
0.1648927257202118
 20
0.1072312214435334
 10
0.1655308810924464
 20
0.1065693177559562
 10
0.1661234537217782
 20
0.1059546931275711
  0
LWPOLYLINE
  5
12FF
330
2
100
AcDbEntity
  8
Profilo
  6
Continuous
370
     0
100
AcDbPolyline
 90
        6
 70
   128
 43
0.0
 10
0.170117942405354
 20
0.1016587999105695
 10
0.1708315416777218
 20
0.1010248407757209
 10
0.1716112504201304
 20
0.1004227692631129
 10
0.172312988288298
 20
0.0998809049017658
 10
0.1731127567639142
 20
0.0993048116143768
 10
0.1736726823463915
 20
0.0989553868341854
  0
LWPOLYLINE
  5
1300
330
2
100
AcDbEntity
  8
Profilo
  6
Continuous
370
     0
100
AcDbPolyline
 90
        5
 70
   128
 43
0.0
 10
0.1702674336343229
 20
0.1024971288121775
 10
0.1712573330544211
 20
0.101898624726121
 10
0.1722189735489339
 20
0.1011560700827953
 10
0.1729467022840961
 20
0.1005941362265804
 10
0.1736224501486392
 20
0.1000723406934291
  0
LWPOLYLINE
  5
1301
330
2
100
AcDbEntity
  8
Profilo
  6
Continuous
370
     0
100
AcDbPolyline
 90
        6
 70
   128
 43
0.0
 10
0.1781998581054465
 20
0.0964038294460635
 10
0.1789981580033569
 20
0.0958805270677213
 10
0.1798572199919847
 20
0.0953983981130043
 10
0.1806303757817503
 20
0.0949644820537589
 10
0.1815055012744641
 20
0.0945109752044547
 10
0.182110336592136
 20
0.0942467999341857
  0
LWPOLYLINE
  5
1302
330
2
100
AcDbEntity
  8
Profilo
  6
Continuous
370
     0
100
AcDbPolyline
 90
        5
 70
   128
 43
0.0
 10
0.178225694594391
 20
0.0972549906826387
 10
0.1792921879145507
 20
0.0968069951458396
 10
0.1803516973834459
 20
0.0962123696129737
 10
0.1811534892069887
 20
0.0957623822326649
 10
0.1818980099142128
 20
0.0953445369606235
  0
LWPOLYLINE
  5
1303
330
2
100
AcDbEntity
  8
Profilo
  6
Continuous
370
     0
100
AcDbPolyline
 90
        6
 70
   128
 43
0.0
 10
0.1869607776407179
 20
0.0923815956310438
 10
0.1878267637878171
 20
0.0919801032908715
 10
0.1887468696078373
 20
0.0916281926356649
 10
0.1895749648458559
 20
0.0913114730459795
 10
0.1905067955751399
 20
0.0909902183458985
 10
0.191143649613294
 20
0.0908169230227883
  0
LWPOLYLINE
  5
1304
330
2
100
AcDbEntity
  8
Profilo
  6
Continuous
370
     0
100
AcDbPolyline
 90
        5
 70
   128
 43
0.0
 10
0.1868624087297367
 20
0.0932274481785732
 10
0.1879827654964294
 20
0.0929395094381099
 10
0.1891175623348439
 20
0.0925054864265792
 10
0.1899763284460832
 20
0.0921770362219398
 10
0.1907737538297106
 20
0.0918720468575379
  0
LWPOLYLINE
  5
1305
330
2
100
AcDbEntity
  8
Profilo
  6
Continuous
370
     0
100
AcDbPolyline
 90
        6
 70
   128
 43
0.0
 10
0.1962139772215509
 20
0.0896778253960743
 10
0.1971291926265949
 20
0.0894067002062516
 10
0.1980907318198949
 20
0.0891925082152031
 10
0.1989561170938651
 20
0.0889997354232605
 10
0.1999247927055226
 20
0.0888175798585876
 10
0.2005800920260111
 20
0.0887388579715803
  0
LWPOLYLINE
  5
1306
330
2
100
AcDbEntity
  8
Profilo
  6
Continuous
370
     0
100
AcDbPolyline
 90
        5
 70
   128
 43
0.0
 10
0.1959934994731938
 20
0.0905003413760329
 10
0.1971438412270466
 20
0.0903785963462546
 10
0.198329739210547
 20
0.0901144263030186
 10
0.1992271765007673
 20
0.0899145136199248
 10
0.2000605108231984
 20
0.0897288804819577
  0
LWPOLYLINE
  5
1307
330
2
100
AcDbEntity
  8
Profilo
  6
Continuous
370
     0
100
AcDbPolyline
 90
        6
 70
   128
 43
0.0
 10
0.2057622409638221
 20
0.0883501449095611
 10
0.2067071793994008
 20
0.0882151654327955
 10
0.207689658427454
 20
0.0881432572363245
 10
0.2085738895527002
 20
0.0880785398595016
 10
0.2095587644078368
 20
0.0880393657598485
 10
0.2102185424433384
 20
0.0880568951292961
  0
LWPOLYLINE
  5
1308
330
2
100
AcDbEntity
  8
Profilo
  6
Continuous
370
     0
100
AcDbPolyline
 90
        5
 70
   128
 43
0.0
 10
0.2054243534785137
 20
0.0891317938218502
 10
0.2065801626822105
 20
0.0891788372866983
 10
0.2077918864541751
 20
0.0890901505375911
 10
0.2087088676056216
 20
0.0890230361678032
 10
0.2095603497925652
 20
0.0889607157043201
  0
LWPOLYLINE
  5
1309
330
2
100
AcDbEntity
  8
Profilo
  6
Continuous
370
     0
100
AcDbPolyline
 90
        6
 70
   128
 43
0.0
 10
0.2154020642030837
 20
0.088426851376025
 10
0.2163565859470013
 20
0.0884308944655185
 10
0.2173390649750544
 20
0.0885028026619895
 10
0.2182232961003007
 20
0.0885675200388124
 10
0.2192033793012689
 20
0.0886721623321015
 10
0.2198535740284332
 20
0.0887855693499261
  0
LWPOLYLINE
  5
130A
330
2
100
AcDbEntity
  8
Profilo
  6
Continuous
370
     0
100
AcDbPolyline
 90
        5
 70
   128
 43
0.0
 10
0.2149539684659495
 20
0.0891509737311359
 10
0.216090611052972
 20
0.0893658030408321
 10
0.2173023348249383
 20
0.0894544897899375
 10
0.218219315976383
 20
0.0895216041597272
 10
0.2190707981633268
 20
0.0895839246232085
  0
LWPOLYLINE
  5
130B
330
2
100
AcDbEntity
  8
Profilo
  6
Continuous
370
     0
100
AcDbPolyline
 90
        6
 70
   128
 43
0.0
 10
0.2249279908431745
 20
0.0899063099303038
 10
0.2258717519216509
 20
0.0900492894146236
 10
0.2268332911149526
 20
0.0902634814056721
 10
0.2276986763889228
 20
0.0904562541976165
 10
0.2286530791638634
 20
0.090702482615039
 10
0.2292798328109179
 20
0.0909093502075474
  0
LWPOLYLINE
  5
130C
330
2
100
AcDbEntity
  8
Profilo
  6
Continuous
370
     0
100
AcDbPolyline
 90
        5
 70
   128
 43
0.0
 10
0.2243792372368913
 20
0.0905574723174257
 10
0.225472487643878
 20
0.0909355087582081
 10
0.2266583856273785
 20
0.0911996788014423
 10
0.2275558229175986
 20
0.0913995914845379
 10
0.228389157240028
 20
0.0915852246225032
  0
LWPOLYLINE
  5
130D
330
2
100
AcDbEntity
  8
Profilo
  6
Continuous
370
     0
100
AcDbPolyline
 90
        6
 70
   128
 43
0.0
 10
0.2341369922961992
 20
0.0927569884818783
 10
0.2350498780803594
 20
0.0930358570015503
 10
0.2359699839003796
 20
0.0933877676567551
 10
0.2367980791383963
 20
0.0937044872464404
 10
0.2377064600491507
 20
0.0940870538567725
 10
0.2382964144502455
 20
0.0943829730003812
  0
LWPOLYLINE
  5
130E
330
2
100
AcDbEntity
  8
Profilo
  6
Continuous
370
     0
100
AcDbPolyline
 90
        5
 70
   128
 43
0.0
 10
0.2334992765511669
 20
0.0933213125052418
 10
0.2345258340437395
 20
0.0938544988867057
 10
0.2356606308821537
 20
0.0942885218982365
 10
0.236519396993393
 20
0.0946169721028741
 10
0.2373168223770205
 20
0.094921961467276
  0
LWPOLYLINE
  5
130F
330
2
100
AcDbEntity
  8
Profilo
  6
Continuous
370
     0
100
AcDbPolyline
 90
        6
 70
   128
 43
0.0
 10
0.2428327946843972
 20
0.0969181297666239
 10
0.243695348598657
 20
0.0973269437233092
 10
0.2445544105872848
 20
0.0978090726780262
 10
0.2453275663770506
 20
0.0982429887372735
 10
0.2461705648615905
 20
0.0987537397974051
 10
0.2467111461629149
 20
0.099132403489331
  0
LWPOLYLINE
  5
1310
330
2
100
AcDbEntity
  8
Profilo
  6
Continuous
370
     0
100
AcDbPolyline
 90
        5
 70
   128
 43
0.0
 10
0.2421197086045489
 20
0.097383587839425
 10
0.2430576938920134
 20
0.0980605602195396
 10
0.2441172033609085
 20
0.0986551857524055
 10
0.2449189951844514
 20
0.0991051731327143
 10
0.2456635158916755
 20
0.0995230184047574
  0
LWPOLYLINE
  5
1311
330
2
100
AcDbEntity
  8
Profilo
  6
Continuous
370
     0
100
AcDbPolyline
 90
        6
 70
   128
 43
0.0
 10
0.2508300620770845
 20
0.1023010462824266
 10
0.2516239002822838
 20
0.102831092516401
 10
0.2524036090246921
 20
0.1034331640290073
 10
0.2531053468928598
 20
0.1039750283903543
 10
0.2538649959020604
 20
0.1046030781281814
 10
0.2543446825517081
 20
0.1050564158092487
  0
LWPOLYLINE
  5
1312
330
2
100
AcDbEntity
  8
Profilo
  6
Continuous
370
     0
100
AcDbPolyline
 90
        5
 70
   128
 43
0.0
 10
0.2500568038541883
 20
0.1026577179739486
 10
0.2508862254086236
 20
0.1034640478617571
 10
0.2518478659031364
 20
0.1042066025050828
 10
0.2525755946382969
 20
0.1047685363612976
 10
0.2532513425028417
 20
0.105290331894449
  0
LWPOLYLINE
  5
1313
330
2
100
AcDbEntity
  8
Profilo
  6
Continuous
370
     0
100
AcDbPolyline
 90
        6
 70
   128
 43
0.0
 10
0.2579583466042416
 20
0.1087910105093029
 10
0.2586665498172608
 20
0.1094309920053265
 10
0.2593502871752972
 20
0.11014017396682
 10
0.2599656507975298
 20
0.1107784377321642
 10
0.2606257597316233
 20
0.1115104003579123
 10
0.2610343280414635
 20
0.1120287499225113
  0
LWPOLYLINE
  5
1314
330
2
100
AcDbEntity
  8
Profilo
  6
Continuous
370
     0
100
AcDbPolyline
 90
        5
 70
   128
 43
0.0
 10
0.2571413968948243
 20
0.1090312939816754
 10
0.2578445770357999
 20
0.1099497958555303
 10
0.2586878528583449
 20
0.1108244533462797
 10
0.2593260082305776
 20
0.111486357033857
 10
0.2599185808599093
 20
0.1121009816622421
  0
LWPOLYLINE
  5
1315
330
2
100
AcDbEntity
  8
Profilo
  6
Continuous
370
     0
100
AcDbPolyline
 90
        6
 70
   128
 43
0.0
 10
0.2640657212569433
 20
0.1162497001273081
 10
0.2646731953558443
 20
0.1169859767908994
 10
0.265246388654792
 20
0.1177871542190153
 10
0.2657622626238456
 20
0.1185082139043195
 10
0.2663087624069513
 20
0.1193284889054197
 10
0.2666375044527978
 20
0.119900802632512
  0
LWPOLYLINE
  5
1316
330
2
100
AcDbEntity
  8
Profilo
  6
Continuous
370
     0
100
AcDbPolyline
 90
        5
 70
   128
 43
0.0
 10
0.2632224919257176
 20
0.1163684741554852
 10
0.2637844435893537
 20
0.1173795717426024
 10
0.264491381779824
 20
0.1183676902748987
 10
0.2650263626153062
 20
0.1191154564659015
 10
0.2655231303526273
 20
0.1198098105326482
  0
LWPOLYLINE
  5
1317
330
2
100
AcDbEntity
  8
Profilo
  6
Continuous
370
     0
100
AcDbPolyline
 90
        6
 70
   128
 43
0.0
 10
0.2690220179477911
 20
0.1245181461166399
 10
0.2695158156768211
 20
0.1253350254890019
 10
0.269966248296664
 20
0.1262111226778259
 10
0.2703716376545227
 20
0.1269996101477658
 10
0.2707928805925686
 20
0.1278907147866884
 10
0.2710347898084577
 20
0.1285047948028036
  0
LWPOLYLINE
  5
1318
330
2
100
AcDbEntity
  8
Profilo
  6
Continuous
370
     0
100
AcDbPolyline
 90
        5
 70
   128
 43
0.0
 10
0.2681704809639764
 20
0.1245128792384228
 10
0.2685792271261949
 20
0.1255950227491499
 10
0.2691347605244132
 20
0.1266755422919977
 10
0.2695551646354424
 20
0.1274932336482993
 10
0.2699455397388941
 20
0.1282525182019781
  0
LWPOLYLINE
  5
1319
330
2
100
AcDbEntity
  8
Profilo
  6
Continuous
370
     0
100
AcDbPolyline
 90
        6
 70
   128
 43
0.0
 10
0.2727216018176939
 20
0.133420120906302
 10
0.2730911987355646
 20
0.1343001926218373
 10
0.2734092704870299
 20
0.1352325370808237
 10
0.2736955350633472
 20
0.1360716470939113
 10
0.2739825430944502
 20
0.1370145890223703
 10
0.2741324636054372
 20
0.1376573472781014
  0
LWPOLYLINE
  5
131A
330
2
100
AcDbEntity
  8
Profilo
  6
Continuous
370
     0
100
AcDbPolyline
 90
        5
 70
   128
 43
0.0
 10
0.2718799062137041
 20
0.1332909253760547
 10
0.2721267351597028
 20
0.1344210508002251
 10
0.2725190235357757
 20
0.1355709419555132
 10
0.2728158907386085
 20
0.1364411308054879
 10
0.2730915530406106
 20
0.1372491630140696
  0
LWPOLYLINE
  5
131B
330
2
100
AcDbEntity
  8
Profilo
  6
Continuous
370
     0
100
AcDbPolyline
 90
        6
 70
   128
 43
0.0
 10
0.2750856226594969
 20
0.142765894358818
 10
0.27532314144958
 20
0.1436904012168468
 10
0.275502073185504
 20
0.1446591216425431
 10
0.2756631117478363
 20
0.1455309700256687
 10
0.2758097677941016
 20
0.1465056520735475
 10
0.2758645043047805
 20
0.1471633892925981
  0
LWPOLYLINE
  5
131C
330
2
100
AcDbEntity
  8
Profilo
  6
Continuous
370
     0
100
AcDbPolyline
 90
        5
 70
   128
 43
0.0
 10
0.2742717077158214
 20
0.1425155237549652
 10
0.2743513587151483
 20
0.1436695444312273
 10
0.2745720411234105
 20
0.1448642992653656
 10
0.2747390442090267
 20
0.1457684390444572
 10
0.2748941184462046
 20
0.1466079971042805
  0
LWPOLYLINE
  5
131D
330
2
100
AcDbEntity
  8
Profilo
  6
Continuous
370
     0
100
AcDbPolyline
 90
        6
 70
   128
 43
0.0
 10
0.2760636954732518
 20
0.1523562775387141
 10
0.2761640738349065
 20
0.1533055152806383
 10
0.2762000519359915
 20
0.1542899650790153
 10
0.2762324322269662
 20
0.155175969897555
 10
0.2762356105693875
 20
0.1561616184091975
 10
0.2761939964660616
 20
0.1568203160646738
  0
LWPOLYLINE
  5
131E
330
2
100
AcDbEntity
  8
Profilo
  6
Continuous
370
     0
100
AcDbPolyline
 90
        5
 70
   128
 43
0.0
 10
0.2752949083738378
 20
0.1519900680759934
 10
0.2752056838037271
 20
0.1531433880571892
 10
0.2752500567817853
 20
0.1543575424451609
 10
0.2752836363693563
 20
0.1552763629836981
 10
0.2753148174035747
 20
0.1561295531723178
  0
LWPOLYLINE
  5
131F
330
2
100
AcDbEntity
  8
Profilo
  6
Continuous
370
     0
100
AcDbPolyline
 90
        6
 70
   128
 43
0.0
 10
0.2756349743350173
 20
0.1619868680788548
 10
0.2755960728777367
 20
0.1629406053502268
 10
0.2754883305332203
 20
0.1639198026829858
 10
0.2753913624231545
 20
0.1648010802824665
 10
0.2752509953208788
 20
0.165776687871081
 10
0.2751139175359141
 20
0.1664223069660542
  0
LWPOLYLINE
  5
1320
330
2
100
AcDbEntity
  8
Profilo
  6
Continuous
370
     0
100
AcDbPolyline
 90
        5
 70
   128
 43
0.0
 10
0.2749277004421584
 20
0.1615126248761712
 10
0.2746715019694157
 20
0.1626406631492373
 10
0.2745386197842794
 20
0.1638483394982185
 10
0.2744380601831962
 20
0.1647622577316338
 10
0.2743446834448473
 20
0.1656108957814438
  0
LWPOLYLINE
  5
1321
330
2
100
AcDbEntity
  8
Profilo
  6
Continuous
370
     0
100
AcDbPolyline
 90
        6
 70
   128
 43
0.0
 10
0.2738085966915278
 20
0.1714524066620298
 10
0.2736312445323346
 20
0.1723903162087418
 10
0.2733820780832346
 20
0.1733433911847663
 10
0.2731578282790437
 20
0.1742011586631883
 10
0.2728769074131569
 20
0.175145931946825
 10
0.2726472875215513
 20
0.1757647122311773
  0
LWPOLYLINE
  5
1322
330
2
100
AcDbEntity
  8
Profilo
  6
Continuous
370
     0
100
AcDbPolyline
 90
        5
 70
   128
 43
0.0
 10
0.2731779103203162
 20
0.1708802373898938
 10
0.2727601983705898
 20
0.1719589517774825
 10
0.2724528931753329
 20
0.1731344105627998
 10
0.272220337638905
 20
0.1740239479106468
 10
0.2720043932910492
 20
0.174849946574981
  0
LWPOLYLINE
  5
1323
330
2
100
AcDbEntity
  8
Profilo
  6
Continuous
370
     0
100
AcDbPolyline
 90
        6
 70
   128
 43
0.0
 10
0.2706234886113907
 20
0.180551151766937
 10
0.2703114657036483
 20
0.1814532436753522
 10
0.2699261857002344
 20
0.1823598831562103
 10
0.2695794336971644
 20
0.1831758586889843
 10
0.269163946408203
 20
0.1840696614653695
 10
0.2688466783592911
 20
0.1846484147116376
  0
LWPOLYLINE
  5
1324
330
2
100
AcDbEntity
  8
Profilo
  6
Continuous
370
     0
100
AcDbPolyline
 90
        5
 70
   128
 43
0.0
 10
0.2700828317468626
 20
0.179893251220009
 10
0.2695125091251487
 20
0.1808996507977598
 10
0.2690373305964797
 20
0.1820178391561782
 10
0.2686777356422147
 20
0.1828640366742595
 10
0.2683438261637174
 20
0.1836497912256451
  0
LWPOLYLINE
  5
1325
330
2
100
AcDbEntity
  8
Profilo
  6
Continuous
370
     0
100
AcDbPolyline
 90
        6
 70
   128
 43
0.0
 10
0.2661475351435072
 20
0.1890891794384517
 10
0.2657074917137752
 20
0.1899362271857088
 10
0.265194309730419
 20
0.1907771077249311
 10
0.2647324459453972
 20
0.1915339002102288
 10
0.2641912476235777
 20
0.1923576826249613
 10
0.2637930934349988
 20
0.1928840737125013
  0
LWPOLYLINE
  5
1326
330
2
100
AcDbEntity
  8
Profilo
  6
Continuous
370
     0
100
AcDbPolyline
 90
        5
 70
   128
 43
0.0
 10
0.2657084309480673
 20
0.1883595696246772
 10
0.2649976530908844
 20
0.189272204732851
 10
0.2643647288341604
 20
0.1903092904208556
 10
0.2638857586041972
 20
0.191094112878198
 10
0.2634410006958727
 20
0.1918228763225568
  0
LWPOLYLINE
  5
1327
330
2
100
AcDbEntity
  8
Profilo
  6
Continuous
370
     0
100
AcDbPolyline
 90
        6
 70
   128
 43
0.0
 10
0.2604761334651175
 20
0.1968845164400568
 10
0.2599174482751189
 20
0.1976584666740253
 10
0.259287301894834
 20
0.19841566636281
 10
0.2587201701525758
 20
0.1990971460827148
 10
0.2580647955005259
 20
0.1998333506438348
 10
0.2575942411375526
 20
0.2002961604605095
  0
LWPOLYLINE
  5
1328
330
2
100
AcDbEntity
  8
Profilo
  6
Continuous
370
     0
100
AcDbPolyline
 90
        5
 70
   128
 43
0.0
 10
0.2601479406823416
 20
0.1960987477259008
 10
0.2593118565856959
 20
0.1968981671316401
 10
0.2585346762825979
 20
0.1978320464683252
 10
0.2579465391958252
 20
0.1985387667368218
 10
0.257400412100325
 20
0.1991950067465823
  0
LWPOLYLINE
  5
1329
330
2
100
AcDbEntity
  8
Profilo
  6
Continuous
370
     0
100
AcDbPolyline
 90
        6
 70
   128
 43
0.0
 10
0.2537301596565901
 20
0.2037710186974353
 10
0.2530647401111893
 20
0.2044553760125725
 10
0.2523310598100421
 20
0.2051127564541658
 10
0.2516707475390082
 20
0.2057043988516006
 10
0.2509151647296076
 20
0.2063373346370493
 10
0.2503822392415342
 20
0.2067266991951255
  0
LWPOLYLINE
  5
132A
330
2
100
AcDbEntity
  8
Profilo
  6
Continuous
370
     0
100
AcDbPolyline
 90
        5
 70
   128
 43
0.0
 10
0.2535198731458522
 20
0.2029458383788318
 10
0.2525763024906976
 20
0.203615003845413
 10
0.2516714303900835
 20
0.2044257728140737
 10
0.2509866615674107
 20
0.2050393283781711
 10
0.250350805035615
 20
0.2056090583368588
  0
LWPOLYLINE
  5
132B
330
2
100
AcDbEntity
  8
Profilo
  6
Continuous
370
     0
100
AcDbPolyline
 90
        6
 70
   128
 43
0.0
 10
0.2460533924376315
 20
0.209601912370977
 10
0.2452954207991691
 20
0.2101820908792566
 10
0.2444738436989988
 20
0.2107256411508596
 10
0.2437344243088464
 20
0.2112148363953005
 10
0.2428947372778713
 20
0.2117310134776822
 10
0.2423107990462376
 20
0.212038634147599
  0
LWPOLYLINE
  5
132C
330
2
100
AcDbEntity
  8
Profilo
  6
Continuous
370
     0
100
AcDbPolyline
 90
        5
 70
   128
 43
0.0
 10
0.2459654940908188
 20
0.2087549077337778
 10
0.2449345474474878
 20
0.2092795571610545
 10
0.243921269327189
 20
0.2099499356287398
 10
0.2431544634272107
 20
0.210457249616815
 10
0.2424424296371539
 20
0.210928326719494
  0
LWPOLYLINE
  5
132D
330
2
100
AcDbEntity
  8
Profilo
  6
Continuous
370
     0
100
AcDbPolyline
 90
        6
 70
   128
 43
0.0
 10
0.2376094487734928
 20
0.2142529220853353
 10
0.2367750798914895
 20
0.2147165562891323
 10
0.2358831164818074
 20
0.2151346915603893
 10
0.2350803494130931
 20
0.2155110133045185
 10
0.2341744546317849
 20
0.215899430265483
 10
0.2335519492861921
 20
0.2161187506467365
  0
LWPOLYLINE
  5
132E
330
2
100
AcDbEntity
  8
Profilo
  6
Continuous
370
     0
100
AcDbPolyline
 90
        5
 70
   128
 43
0.0
 10
0.2376458119912612
 20
0.2134021455628553
 10
0.2365494621975805
 20
0.2137710969591558
 10
0.2354493743215266
 20
0.2142867969727033
 10
0.2346168744807099
 20
0.2146770568678766
 10
0.2338438391964289
 20
0.215039440923964
  0
LWPOLYLINE
  5
132F
330
2
100
AcDbEntity
  8
Profilo
  6
Continuous
370
     0
100
AcDbPolyline
 90
        6
 70
   128
 43
0.0
 10
0.2285782966634188
 20
0.2176249196433035
 10
0.2276853136620066
 20
0.2179621279845003
 10
0.2267419745943051
 20
0.2182459364280503
 10
0.2258929694333735
 20
0.2185013640272428
 10
0.2249401744762298
 20
0.2187537424336173
 10
0.2242923696373581
 20
0.2188800880930561
  0
LWPOLYLINE
  5
1330
330
2
100
AcDbEntity
  8
Profilo
  6
Continuous
370
     0
100
AcDbPolyline
 90
        5
 70
   128
 43
0.0
 10
0.2287381464269139
 20
0.2167885040600438
 10
0.2275997602753081
 20
0.216993893866907
 10
0.2264363091066606
 20
0.2173439241758635
 10
0.2255558586137675
 20
0.2176088122660155
 10
0.2247382977402407
 20
0.217854779688511
  0
LWPOLYLINE
  5
1331
330
2
100
AcDbEntity
  8
Profilo
  6
Continuous
370
     0
100
AcDbPolyline
 90
        6
 70
   128
 43
0.0
 10
0.2191524194352012
 20
0.2196460367712243
 10
0.2182198546967013
 20
0.2198496322394741
 10
0.2172452456054303
 20
0.2199930649710753
 10
0.2163680974232872
 20
0.220122154429517
 10
0.2153887094606215
 20
0.2202331152737368
 10
0.2147294119639253
 20
0.2202637933729815
  0
LWPOLYLINE
  5
1332
330
2
100
AcDbEntity
  8
Profilo
  6
Continuous
370
     0
100
AcDbPolyline
 90
        5
 70
   128
 43
0.0
 10
0.2194323488242371
 20
0.218841808873198
 10
0.2182761890391153
 20
0.218879259563482
 10
0.2170741715196102
 20
0.219056159879515
 10
0.2161645356483026
 20
0.219190030534892
 10
0.2153198740761412
 20
0.2193143389552192
  0
ARC
  5
1333
330
2
100
AcDbEntity
  8
Profilo
  6
Continuous
370
     0
100
AcDbCircle
 10
0.1935985697109047
 20
0.185676034483044
 30
0.0
 40
0.0049186754066102
100
AcDbArc
 50
258.2662958180573
 51
168.2599830093993
  0
ARC
  5
1334
330
2
100
AcDbEntity
  8
Profilo
  6
Continuous
370
     0
100
AcDbCircle
 10
0.1935985697109047
 20
0.185676034483044
 30
0.0
 40
0.0036088378986661
100
AcDbArc
 50
255.4282291076159
 51
171.0980497197954
  0
ARC
  5
1335
330
2
100
AcDbEntity
  8
Profilo
  6
Continuous
370
     0
100
AcDbCircle
 10
0.1935985697109047
 20
0.185676034483044
 30
0.0
 40
0.0023252560698673
100
AcDbArc
 50
237.0708524929439
 51
189.4554263345121
  0
LWPOLYLINE
  5
1336
330
2
100
AcDbEntity
  8
Profilo
  6
Continuous
370
     0
100
AcDbPolyline
 90
       10
 70
   128
 43
0.0
 10
0.1918903029570175
 20
0.1850663327656871
 10
0.1927074258274438
 20
0.1858096437454053
 10
0.1929747693197247
 20
0.1862104729431423
 10
0.1934648979647652
 20
0.1863440822055038
 10
0.194133255604659
 20
0.18625500936393
 10
0.1944451552548479
 20
0.1857651073246175
 10
0.194311484599514
 20
0.185275205285305
 10
0.1939104693610936
 20
0.1848298396667803
 10
0.1930638838171504
 20
0.1847853032459943
 10
0.1922554001312581
 20
0.1844553995485513
  0
ARC
  5
1337
330
2
100
AcDbEntity
  8
Profilo
  6
Continuous
370
     0
100
AcDbCircle
 10
0.187782510374581
 20
0.1818609515100187
 30
0.0
 40
0.0049186754066102
100
AcDbArc
 50
269.5162958180897
 51
179.5099830094128
  0
ARC
  5
1338
330
2
100
AcDbEntity
  8
Profilo
  6
Continuous
370
     0
100
AcDbCircle
 10
0.187782510374581
 20
0.1818609515100187
 30
0.0
 40
0.0036088378986661
100
AcDbArc
 50
266.6782291076565
 51
182.3480497198407
  0
ARC
  5
1339
330
2
100
AcDbEntity
  8
Profilo
  6
Continuous
370
     0
100
AcDbCircle
 10
0.187782510374581
 20
0.1818609515100187
 30
0.0
 40
0.0023252560698673
100
AcDbArc
 50
248.3208524929752
 51
200.7054263344683
  0
LWPOLYLINE
  5
133A
330
2
100
AcDbEntity
  8
Profilo
  6
Continuous
370
     0
100
AcDbPolyline
 90
       10
 70
   128
 43
0.0
 10
0.1862260143917379
 20
0.180929698729094
 10
0.1868824236969421
 20
0.181818139960682
 10
0.187066432361722
 20
0.182263423465776
 10
0.1875210774482638
 20
0.1824900848188173
 10
0.188193970032862
 20
0.182533113594105
 10
0.1885954517653346
 20
0.1821134734883012
 10
0.188559924700768
 20
0.1816069069281108
 10
0.1882535013796404
 20
0.1810918646930668
 10
0.1874318713642118
 20
0.1808830233807361
 10
0.1867032834842107
 20
0.1804017313477065
  0
ARC
  5
133B
330
2
100
AcDbEntity
  8
Profilo
  6
Continuous
370
     0
100
AcDbCircle
 10
0.1828224907532857
 20
0.1769845173977708
 30
0.0
 40
0.0049186754066102
100
AcDbArc
 50
280.7662958180582
 51
190.7599830094179
  0
ARC
  5
133C
330
2
100
AcDbEntity
  8
Profilo
  6
Continuous
370
     0
100
AcDbCircle
 10
0.1828224907532857
 20
0.1769845173977708
 30
0.0
 40
0.0036088378986661
100
AcDbArc
 50
277.9282291076428
 51
193.5980497198339
  0
ARC
  5
133D
330
2
100
AcDbEntity
  8
Profilo
  6
Continuous
370
     0
100
AcDbCircle
 10
0.1828224907532857
 20
0.1769845173977708
 30
0.0
 40
0.0023252560698673
100
AcDbArc
 50
259.5708524929555
 51
211.9554263344946
  0
LWPOLYLINE
  5
133E
330
2
100
AcDbEntity
  8
Profilo
  6
Continuous
370
     0
100
AcDbPolyline
 90
       10
 70
   128
 43
0.0
 10
0.1814775808092158
 20
0.1757675010753957
 10
0.1819480511077182
 20
0.176766930260567
 10
0.1820416535952035
 20
0.1772395560776365
 10
0.1824433433675371
 20
0.17755055905267
 10
0.1830949120121773
 20
0.17772403587312
 10
0.1835705471091102
 20
0.1773907842347518
 10
0.1836345289204758
 20
0.1768870202225043
 10
0.1834344731930287
 20
0.1763220941551973
 10
0.1826693734868339
 20
0.1759569736058343
 10
0.1820486806363551
 20
0.1753427890201378
  0
ARC
  5
133F
330
2
100
AcDbEntity
  8
Profilo
  6
Continuous
370
     0
100
AcDbCircle
 10
0.1789091216194593
 20
0.171234130774498
 30
0.0
 40
0.0049186754066102
100
AcDbArc
 50
292.0162958180926
 51
202.0099830094142
  0
ARC
  5
1340
330
2
100
AcDbEntity
  8
Profilo
  6
Continuous
370
     0
100
AcDbCircle
 10
0.1789091216194593
 20
0.171234130774498
 30
0.0
 40
0.0036088378986661
100
AcDbArc
 50
289.1782291076475
 51
204.8480497198368
  0
ARC
  5
1341
330
2
100
AcDbEntity
  8
Profilo
  6
Continuous
370
     0
100
AcDbCircle
 10
0.1789091216194593
 20
0.171234130774498
 30
0.0
 40
0.0023252560698673
100
AcDbArc
 50
270.8208524929722
 51
223.2054263344649
  0
LWPOLYLINE
  5
1342
330
2
100
AcDbEntity
  8
Profilo
  6
Continuous
370
     0
100
AcDbPolyline
 90
       10
 70
   128
 43
0.0
 10
0.1778274818490776
 20
0.1697781201654312
 10
0.1780939332311487
 20
0.170850129801086
 10
0.1780935324502381
 20
0.1713319351850293
 10
0.1784268301956836
 20
0.1717153281121418
 10
0.1790320354827565
 20
0.172012586360826
 10
0.1795635455541128
 20
0.1717785298634675
 10
0.1797245774562829
 20
0.171296927767643
 10
0.1796385773519294
 20
0.170703827660021
 10
0.1789594103076009
 20
0.170196459251577
 10
0.1784704653648008
 20
0.169472984882403
  0
ARC
  5
1343
330
2
100
AcDbEntity
  8
Profilo
  6
Continuous
370
     0
100
AcDbCircle
 10
0.1761927915542686
 20
0.1648307757732778
 30
0.0
 40
0.0049186754066102
100
AcDbArc
 50
303.2662958180582
 51
213.2599830094109
  0
ARC
  5
1344
330
2
100
AcDbEntity
  8
Profilo
  6
Continuous
370
     0
100
AcDbCircle
 10
0.1761927915542686
 20
0.1648307757732778
 30
0.0
 40
0.0036088378986661
100
AcDbArc
 50
300.4282291076299
 51
216.0980497198087
  0
ARC
  5
1345
330
2
100
AcDbEntity
  8
Profilo
  6
Continuous
370
     0
100
AcDbCircle
 10
0.1761927915542686
 20
0.1648307757732778
 30
0.0
 40
0.0023252560698673
100
AcDbArc
 50
282.0708524929683
 51
234.4554263345128
  0
LWPOLYLINE
  5
1346
330
2
100
AcDbEntity
  8
Profilo
  6
Continuous
370
     0
100
AcDbPolyline
 90
       10
 70
   128
 43
0.0
 10
0.1754159887673612
 20
0.1631917245486845
 10
0.1754681816558151
 20
0.1642951179057138
 10
0.1753737930082949
 20
0.1647675873458293
 10
0.1756258902814122
 20
0.1652086366498375
 10
0.1761614745111356
 20
0.1656182528589667
 10
0.176728433922947
 20
0.1654923861625503
 10
0.1769803275502298
 20
0.1650514536816036
 10
0.1770116880047494
 20
0.1644529720381903
 10
0.1764445536309231
 20
0.163822853654067
 10
0.1761061464757486
 20
0.1630178922156923
  0
ARC
  5
1347
330
2
100
AcDbEntity
  8
Profilo
  6
Continuous
370
     0
100
AcDbCircle
 10
0.1747778875987851
 20
0.1580205297357643
 30
0.0
 40
0.0049186754066102
100
AcDbArc
 50
314.516295818046
 51
224.5099830093742
  0
ARC
  5
1348
330
2
100
AcDbEntity
  8
Profilo
  6
Continuous
370
     0
100
AcDbCircle
 10
0.1747778875987851
 20
0.1580205297357643
 30
0.0
 40
0.0036088378986661
100
AcDbArc
 50
311.6782291076467
 51
227.3480497198051
  0
ARC
  5
1349
330
2
100
AcDbEntity
  8
Profilo
  6
Continuous
370
     0
100
AcDbCircle
 10
0.1747778875987851
 20
0.1580205297357643
 30
0.0
 40
0.0023252560698673
100
AcDbArc
 50
293.3208524929742
 51
245.705426334499
  0
LWPOLYLINE
  5
134A
330
2
100
AcDbEntity
  8
Profilo
  6
Continuous
370
     0
100
AcDbPolyline
 90
       10
 70
   128
 43
0.0
 10
0.1743357738908182
 20
0.156261425715015
 10
0.1741717025422201
 20
0.1573538000054997
 10
0.1739869533308793
 20
0.1577987767661666
 10
0.1741481621748385
 20
0.15828053316966
 10
0.1745935431456268
 20
0.158786766018033
 10
0.1751741639656528
 20
0.1587739261091155
 10
0.1755072391872144
 20
0.158390608031012
 10
0.1756547550359276
 20
0.1578097441657311
 10
0.1752214479885347
 20
0.1570810909020545
 10
0.1750465834181802
 20
0.1562255766111288
  0
ARC
  5
134B
330
2
100
AcDbEntity
  8
Profilo
  6
Continuous
370
     0
100
AcDbCircle
 10
0.1747187837185294
 20
0.1510651065979483
 30
0.0
 40
0.0049186754066102
100
AcDbArc
 50
325.7662958180923
 51
235.7599830093642
  0
ARC
  5
134C
330
2
100
AcDbEntity
  8
Profilo
  6
Continuous
370
     0
100
AcDbCircle
 10
0.1747187837185294
 20
0.1510651065979483
 30
0.0
 40
0.0036088378986661
100
AcDbArc
 50
322.9282291076411
 51
238.5980497197861
  0
ARC
  5
134D
330
2
100
AcDbEntity
  8
Profilo
  6
Continuous
370
     0
100
AcDbCircle
 10
0.1747187837185294
 20
0.1510651065979483
 30
0.0
 40
0.0023252560698673
100
AcDbArc
 50
304.5708524929925
 51
256.9554263344798
  0
LWPOLYLINE
  5
134E
330
2
100
AcDbEntity
  8
Profilo
  6
Continuous
370
     0
100
AcDbPolyline
 90
       10
 70
   128
 43
0.0
 10
0.1746283492713577
 20
0.1492535511620448
 10
0.1742543188556249
 20
0.1502929270546121
 10
0.1739863088890496
 20
0.1506933109284631
 10
0.1740504341383842
 20
0.1511972608030297
 10
0.1743884961092988
 20
0.1517806560461823
 10
0.1749604654050419
 20
0.1518813363552605
 10
0.1753619223269077
 20
0.1515703633787747
 10
0.175619924618478
 20
0.1510294395642183
 10
0.1753370966443491
 20
0.1502302531572779
 10
0.175332494606187
 20
0.1493570629482238
  0
ARC
  5
134F
330
2
100
AcDbEntity
  8
Profilo
  6
Continuous
370
     0
100
AcDbCircle
 10
0.1760177512424751
 20
0.1442317993703731
 30
0.0
 40
0.0049186754066102
100
AcDbArc
 50
337.0162958180547
 51
247.0099830093805
  0
ARC
  5
1350
330
2
100
AcDbEntity
  8
Profilo
  6
Continuous
370
     0
100
AcDbCircle
 10
0.1760177512424751
 20
0.1442317993703731
 30
0.0
 40
0.0036088378986661
100
AcDbArc
 50
334.1782291076191
 51
249.8480497197889
  0
ARC
  5
1351
330
2
100
AcDbEntity
  8
Profilo
  6
Continuous
370
     0
100
AcDbCircle
 10
0.1760177512424751
 20
0.1442317993703731
 30
0.0
 40
0.0023252560698673
100
AcDbArc
 50
315.8208524929906
 51
268.2054263344941
  0
LWPOLYLINE
  5
1352
330
2
100
AcDbEntity
  8
Profilo
  6
Continuous
370
     0
100
AcDbPolyline
 90
       10
 70
   128
 43
0.0
 10
0.1762824714011878
 20
0.1424374095787836
 10
0.175712855697438
 20
0.1433838444407707
 10
0.1753718844483394
 20
0.1437242489000702
 10
0.1753364618056785
 20
0.1442310257346487
 10
0.1755542132447683
 20
0.144869163820558
 10
0.1760955505569572
 20
0.1450794952598189
 10
0.1765499614147596
 20
0.1448528179020388
 10
0.1769085352658103
 20
0.1443726215370456
 10
0.176787055285378
 20
0.1435336142722728
 10
0.1769528926331557
 20
0.1426763043551338
  0
ARC
  5
1353
330
2
100
AcDbEntity
  8
Profilo
  6
Continuous
370
     0
100
AcDbCircle
 10
0.1786248715771446
 20
0.1377832082176278
 30
0.0
 40
0.0049186754066102
100
AcDbArc
 50
348.2662958180573
 51
258.2599830093993
  0
ARC
  5
1354
330
2
100
AcDbEntity
  8
Profilo
  6
Continuous
370
     0
100
AcDbCircle
 10
0.1786248715771446
 20
0.1377832082176278
 30
0.0
 40
0.0036088378986661
100
AcDbArc
 50
345.428229107616
 51
261.0980497197953
  0
ARC
  5
1355
330
2
100
AcDbEntity
  8
Profilo
  6
Continuous
370
     0
100
AcDbCircle
 10
0.1786248715771446
 20
0.1377832082176278
 30
0.0
 40
0.0023252560698673
100
AcDbArc
 50
327.0708524929438
 51
279.4554263345121
  0
LWPOLYLINE
  5
1356
330
2
100
AcDbEntity
  8
Profilo
  6
Continuous
370
     0
100
AcDbPolyline
 90
       10
 70
   128
 43
0.0
 10
0.1792345732945016
 20
0.1360749414637389
 10
0.1784912623147833
 20
0.1368920643341652
 10
0.1780904331170462
 20
0.1371594078264461
 10
0.1779568238546847
 20
0.1376495364714866
 10
0.1780458966962585
 20
0.1383178941113821
 10
0.178535798735571
 20
0.1386297937615693
 10
0.1790257007748835
 20
0.1384961231062355
 10
0.1794710663934084
 20
0.1380951078678151
 10
0.1795156028141943
 20
0.1372485223238736
 10
0.1798455065116372
 20
0.1364400386379795
  0
ARC
  5
1357
330
2
100
AcDbEntity
  8
Profilo
  6
Continuous
370
     0
100
AcDbCircle
 10
0.1824399545501699
 20
0.1319671488813024
 30
0.0
 40
0.0049186754066102
100
AcDbArc
 50
359.5162958180897
 51
269.5099830094128
  0
ARC
  5
1358
330
2
100
AcDbEntity
  8
Profilo
  6
Continuous
370
     0
100
AcDbCircle
 10
0.1824399545501699
 20
0.1319671488813024
 30
0.0
 40
0.0036088378986661
100
AcDbArc
 50
356.6782291076565
 51
272.3480497198407
  0
ARC
  5
1359
330
2
100
AcDbEntity
  8
Profilo
  6
Continuous
370
     0
100
AcDbCircle
 10
0.1824399545501699
 20
0.1319671488813024
 30
0.0
 40
0.0023252560698673
100
AcDbArc
 50
338.3208524929752
 51
290.7054263344683
  0
LWPOLYLINE
  5
135A
330
2
100
AcDbEntity
  8
Profilo
  6
Continuous
370
     0
100
AcDbPolyline
 90
       10
 70
   128
 43
0.0
 10
0.1833712073310946
 20
0.1304106528984593
 10
0.1824827660995066
 20
0.1310670622036635
 10
0.1820374825944125
 20
0.1312510708684434
 10
0.1818108212413713
 20
0.1317057159549853
 10
0.1817677924660835
 20
0.1323786085395851
 10
0.1821874325718873
 20
0.1327800902720578
 10
0.1826939991320778
 20
0.1327445632074894
 10
0.1832090413671218
 20
0.1324381398863617
 10
0.1834178826794542
 20
0.1316165098709351
 10
0.1838991747124818
 20
0.1308879219909321
  0
ARC
  5
135B
330
2
100
AcDbEntity
  8
Profilo
  6
Continuous
370
     0
100
AcDbCircle
 10
0.1873163886624176
 20
0.1270071292600088
 30
0.0
 40
0.0049186754066102
100
AcDbArc
 50
10.76629581805811
 51
280.759983009418
  0
ARC
  5
135C
330
2
100
AcDbEntity
  8
Profilo
  6
Continuous
370
     0
100
AcDbCircle
 10
0.1873163886624176
 20
0.1270071292600088
 30
0.0
 40
0.0036088378986661
100
AcDbArc
 50
7.928229107642863
 51
283.5980497198339
  0
ARC
  5
135D
330
2
100
AcDbEntity
  8
Profilo
  6
Continuous
370
     0
100
AcDbCircle
 10
0.1873163886624176
 20
0.1270071292600088
 30
0.0
 40
0.0023252560698673
100
AcDbArc
 50
349.5708524929554
 51
301.9554263344947
  0
LWPOLYLINE
  5
135E
330
2
100
AcDbEntity
  8
Profilo
  6
Continuous
370
     0
100
AcDbPolyline
 90
       10
 70
   128
 43
0.0
 10
0.1885334049847928
 20
0.125662219315939
 10
0.1875339757996215
 20
0.1261326896144395
 10
0.1870613499825521
 20
0.1262262921019249
 10
0.1867503470075186
 20
0.1266279818742602
 10
0.1865768701870686
 20
0.1272795505189004
 10
0.1869101218254386
 20
0.1277551856158318
 10
0.1874138858376842
 20
0.127819167427199
 10
0.1879788119049931
 20
0.1276191116997501
 10
0.188343932454356
 20
0.1268540119935554
 10
0.1889581170400525
 20
0.1262333191430766
  0
ARC
  5
135F
330
2
100
AcDbEntity
  8
Profilo
  6
Continuous
370
     0
100
AcDbCircle
 10
0.1930667752856906
 20
0.1230937601261806
 30
0.0
 40
0.0049186754066102
100
AcDbArc
 50
22.01629581809254
 51
292.0099830094141
  0
ARC
  5
1360
330
2
100
AcDbEntity
  8
Profilo
  6
Continuous
370
     0
100
AcDbCircle
 10
0.1930667752856906
 20
0.1230937601261806
 30
0.0
 40
0.0036088378986661
100
AcDbArc
 50
19.17822910764755
 51
294.8480497198368
  0
ARC
  5
1361
330
2
100
AcDbEntity
  8
Profilo
  6
Continuous
370
     0
100
AcDbCircle
 10
0.1930667752856906
 20
0.1230937601261806
 30
0.0
 40
0.0023252560698673
100
AcDbArc
 50
0.8208524929721978
 51
313.2054263344648
  0
LWPOLYLINE
  5
1362
330
2
100
AcDbEntity
  8
Profilo
  6
Continuous
370
     0
100
AcDbPolyline
 90
       10
 70
   128
 43
0.0
 10
0.194522785894759
 20
0.1220121203558007
 10
0.1934507762591043
 20
0.1222785717378701
 10
0.1929689708751593
 20
0.1222781709569594
 10
0.1925855779480486
 20
0.1226114687024067
 10
0.1922883196993624
 20
0.1232166739894779
 10
0.1925223761967211
 20
0.1237481840608342
 10
0.1930039782925456
 20
0.1239092159630042
 10
0.1935970784001676
 20
0.1238232158586509
 10
0.1941044468086116
 20
0.1231440488143224
 10
0.1948279211777856
 20
0.1226551038715221
  0
ARC
  5
1363
330
2
100
AcDbEntity
  8
Profilo
  6
Continuous
370
     0
100
AcDbCircle
 10
0.1994701302869107
 20
0.1203774300609899
 30
0.0
 40
0.0049186754066102
100
AcDbArc
 50
33.26629581805818
 51
303.2599830094108
  0
ARC
  5
1364
330
2
100
AcDbEntity
  8
Profilo
  6
Continuous
370
     0
100
AcDbCircle
 10
0.1994701302869107
 20
0.1203774300609899
 30
0.0
 40
0.0036088378986661
100
AcDbArc
 50
30.4282291076299
 51
306.0980497198087
  0
ARC
  5
1365
330
2
100
AcDbEntity
  8
Profilo
  6
Continuous
370
     0
100
AcDbCircle
 10
0.1994701302869107
 20
0.1203774300609899
 30
0.0
 40
0.0023252560698673
100
AcDbArc
 50
12.07085249296843
 51
324.4554263345128
  0
LWPOLYLINE
  5
1366
330
2
100
AcDbEntity
  8
Profilo
  6
Continuous
370
     0
100
AcDbPolyline
 90
       10
 70
   128
 43
0.0
 10
0.2011091815115042
 20
0.1196006272740845
 10
0.2000057881544749
 20
0.1196528201625365
 10
0.1995333187143594
 20
0.1195584315150163
 10
0.1990922694103511
 20
0.1198105287881336
 10
0.1986826532012217
 20
0.120346113017857
 10
0.1988085198976382
 20
0.1209130724296701
 10
0.1992494523785851
 20
0.1211649660569513
 10
0.1998479340219984
 20
0.1211963265114725
 10
0.2004780524061233
 20
0.1206291921376447
 10
0.2012830138444962
 20
0.12029078498247
  0
ARC
  5
1367
330
2
100
AcDbEntity
  8
Profilo
  6
Continuous
370
     0
100
AcDbCircle
 10
0.2062803763244244
 20
0.1189625261055066
 30
0.0
 40
0.0049186754066102
100
AcDbArc
 50
44.51629581804607
 51
314.5099830093743
  0
ARC
  5
1368
330
2
100
AcDbEntity
  8
Profilo
  6
Continuous
370
     0
100
AcDbCircle
 10
0.2062803763244244
 20
0.1189625261055066
 30
0.0
 40
0.0036088378986661
100
AcDbArc
 50
41.67822910764669
 51
317.3480497198048
  0
ARC
  5
1369
330
2
100
AcDbEntity
  8
Profilo
  6
Continuous
370
     0
100
AcDbCircle
 10
0.2062803763244244
 20
0.1189625261055066
 30
0.0
 40
0.0023252560698673
100
AcDbArc
 50
23.32085249297422
 51
335.705426334499
  0
LWPOLYLINE
  5
136A
330
2
100
AcDbEntity
  8
Profilo
  6
Continuous
370
     0
100
AcDbPolyline
 90
       10
 70
   128
 43
0.0
 10
0.2080394803451735
 20
0.1185204123975395
 10
0.2069471060546888
 20
0.1183563410489415
 10
0.206502129294022
 20
0.1181715918376024
 10
0.2060203728905287
 20
0.1183328006815617
 10
0.2055141400421555
 20
0.1187781816523482
 10
0.205526979951073
 20
0.1193588024723741
 10
0.2059102980291784
 20
0.1196918776939358
 10
0.2064911618944574
 20
0.1198393935426508
 10
0.2072198151581339
 20
0.119406086495256
 10
0.2080753294490599
 20
0.1192312219249018
  0
ARC
  5
136B
330
2
100
AcDbEntity
  8
Profilo
  6
Continuous
370
     0
100
AcDbCircle
 10
0.2132357994622402
 20
0.1189034222252508
 30
0.0
 40
0.0049186754066102
100
AcDbArc
 50
55.76629581809233
 51
325.7599830093642
  0
ARC
  5
136C
330
2
100
AcDbEntity
  8
Profilo
  6
Continuous
370
     0
100
AcDbCircle
 10
0.2132357994622402
 20
0.1189034222252508
 30
0.0
 40
0.0036088378986661
100
AcDbArc
 50
52.92822910764106
 51
328.5980497197862
  0
ARC
  5
136D
330
2
100
AcDbEntity
  8
Profilo
  6
Continuous
370
     0
100
AcDbCircle
 10
0.2132357994622402
 20
0.1189034222252508
 30
0.0
 40
0.0023252560698673
100
AcDbArc
 50
34.57085249299255
 51
346.9554263344798
  0
LWPOLYLINE
  5
136E
330
2
100
AcDbEntity
  8
Profilo
  6
Continuous
370
     0
100
AcDbPolyline
 90
       10
 70
   128
 43
0.0
 10
0.2150473548981437
 20
0.1188129877780791
 10
0.2140079790055766
 20
0.1184389573623462
 10
0.2136075951317257
 20
0.1181709473957709
 10
0.213103645257159
 20
0.1182350726451055
 10
0.2125202500140063
 20
0.1185731346160203
 10
0.2124195697049282
 20
0.1191451039117634
 10
0.2127305426814158
 20
0.1195465608336309
 10
0.2132714664959722
 20
0.119804563125201
 10
0.2140706529029107
 20
0.1195217351510706
 10
0.2149438431119649
 20
0.1195171331129085
  0
ARC
  5
136F
330
2
100
AcDbEntity
  8
Profilo
  6
Continuous
370
     0
100
AcDbCircle
 10
0.2200691066898173
 20
0.1202023897491964
 30
0.0
 40
0.0049186754066102
100
AcDbArc
 50
67.01629581805471
 51
337.0099830093805
  0
ARC
  5
1370
330
2
100
AcDbEntity
  8
Profilo
  6
Continuous
370
     0
100
AcDbCircle
 10
0.2200691066898173
 20
0.1202023897491964
 30
0.0
 40
0.0036088378986661
100
AcDbArc
 50
64.17822910761917
 51
339.8480497197889
  0
ARC
  5
1371
330
2
100
AcDbEntity
  8
Profilo
  6
Continuous
370
     0
100
AcDbCircle
 10
0.2200691066898173
 20
0.1202023897491964
 30
0.0
 40
0.0023252560698673
100
AcDbArc
 50
45.82085249299065
 51
358.2054263344941
  0
LWPOLYLINE
  5
1372
330
2
100
AcDbEntity
  8
Profilo
  6
Continuous
370
     0
100
AcDbPolyline
 90
       10
 70
   128
 43
0.0
 10
0.221863496481405
 20
0.120467109907911
 10
0.2209170616194178
 20
0.1198974942041593
 10
0.2205766571601184
 20
0.1195565229550609
 10
0.22006988032554
 20
0.1195211003124018
 10
0.2194317422396325
 20
0.1197388517514897
 10
0.2192214108003696
 20
0.1202801890636788
 10
0.2194480881581499
 20
0.1207345999214829
 10
0.2199282845231429
 20
0.1210931737725316
 10
0.2207672917879159
 20
0.1209716937921011
 10
0.2216246017050548
 20
0.1211375311398771
  0
ARC
  5
1373
330
2
100
AcDbEntity
  8
Profilo
  6
Continuous
370
     0
100
AcDbCircle
 10
0.2265176978425608
 20
0.1228095100838679
 30
0.0
 40
0.0049186754066102
100
AcDbArc
 50
78.26629581805736
 51
348.2599830093993
  0
ARC
  5
1374
330
2
100
AcDbEntity
  8
Profilo
  6
Continuous
370
     0
100
AcDbCircle
 10
0.2265176978425608
 20
0.1228095100838679
 30
0.0
 40
0.0036088378986661
100
AcDbArc
 50
75.42822910761595
 51
351.0980497197954
  0
ARC
  5
1375
330
2
100
AcDbEntity
  8
Profilo
  6
Continuous
370
     0
100
AcDbCircle
 10
0.2265176978425608
 20
0.1228095100838679
 30
0.0
 40
0.0023252560698673
100
AcDbArc
 50
57.07085249294387
 51
9.455426334512155
  0
LWPOLYLINE
  5
1376
330
2
100
AcDbEntity
  8
Profilo
  6
Continuous
370
     0
100
AcDbPolyline
 90
       10
 70
   128
 43
0.0
 10
0.2282259645964499
 20
0.1234192118012231
 10
0.2274088417260235
 20
0.1226759008215064
 10
0.2271414982337425
 20
0.1222750716237675
 10
0.226651369588702
 20
0.1221414623614062
 10
0.2259830119488066
 20
0.1222305352029799
 10
0.2256711122986192
 20
0.1227204372422924
 10
0.2258047829539531
 20
0.123210339281605
 10
0.2262057981923735
 20
0.1236557049001297
 10
0.2270523837363152
 20
0.1237002413209174
 10
0.2278608674222093
 20
0.1240301450183603
  0
ARC
  5
1377
330
2
100
AcDbEntity
  8
Profilo
  6
Continuous
370
     0
100
AcDbCircle
 10
0.2323337571788863
 20
0.1266245930568913
 30
0.0
 40
0.0049186754066102
100
AcDbArc
 50
89.51629581808969
 51
359.5099830094128
  0
ARC
  5
1378
330
2
100
AcDbEntity
  8
Profilo
  6
Continuous
370
     0
100
AcDbCircle
 10
0.2323337571788863
 20
0.1266245930568913
 30
0.0
 40
0.0036088378986661
100
AcDbArc
 50
86.67822910765648
 51
2.348049719840736
  0
ARC
  5
1379
330
2
100
AcDbEntity
  8
Profilo
  6
Continuous
370
     0
100
AcDbCircle
 10
0.2323337571788863
 20
0.1266245930568913
 30
0.0
 40
0.0023252560698673
100
AcDbArc
 50
68.32085249297517
 51
20.70542633446828
  0
LWPOLYLINE
  5
137A
330
2
100
AcDbEntity
  8
Profilo
  6
Continuous
370
     0
100
AcDbPolyline
 90
       10
 70
   128
 43
0.0
 10
0.2338902531617294
 20
0.127555845837816
 10
0.2332338438565251
 20
0.126667404606228
 10
0.2330498351917453
 20
0.1262221211011339
 10
0.2325951901052034
 20
0.1259954597480944
 10
0.2319222975206052
 20
0.1259524309728049
 10
0.2315208157881325
 20
0.1263720710786106
 10
0.2315563428526993
 20
0.1268786376387992
 10
0.231862766173827
 20
0.1273936798738431
 10
0.2326843961892536
 20
0.1276025211861756
 10
0.2334129840692567
 20
0.1280838132192034
  0
ARC
  5
137B
330
2
100
AcDbEntity
  8
Profilo
  6
Continuous
370
     0
100
AcDbCircle
 10
0.2372937768001798
 20
0.1315010271691391
 30
0.0
 40
0.0049186754066102
100
AcDbArc
 50
100.7662958180581
 51
10.75998300941797
  0
ARC
  5
137C
330
2
100
AcDbEntity
  8
Profilo
  6
Continuous
370
     0
100
AcDbCircle
 10
0.2372937768001798
 20
0.1315010271691391
 30
0.0
 40
0.0036088378986661
100
AcDbArc
 50
97.92822910764288
 51
13.59804971983396
  0
ARC
  5
137D
330
2
100
AcDbEntity
  8
Profilo
  6
Continuous
370
     0
100
AcDbCircle
 10
0.2372937768001798
 20
0.1315010271691391
 30
0.0
 40
0.0023252560698673
100
AcDbArc
 50
79.57085249295545
 51
31.95542633449458
  0
LWPOLYLINE
  5
137E
330
2
100
AcDbEntity
  8
Profilo
  6
Continuous
370
     0
100
AcDbPolyline
 90
       10
 70
   128
 43
0.0
 10
0.2386386867442515
 20
0.1327180434915141
 10
0.2381682164457492
 20
0.131718614306343
 10
0.2380746139582638
 20
0.1312459884892752
 10
0.2376729241859303
 20
0.13093498551424
 10
0.23702135554129
 20
0.1307615086937917
 10
0.236545720444357
 20
0.13109476033216
 10
0.2364817386329916
 20
0.1315985243444056
 10
0.2366817943604386
 20
0.1321634504117145
 10
0.2374468940666333
 20
0.1325285709610774
 10
0.238067586917112
 20
0.133142755546774
  0
ARC
  5
137F
330
2
100
AcDbEntity
  8
Profilo
  6
Continuous
370
     0
100
AcDbCircle
 10
0.2412071459340081
 20
0.137251413792412
 30
0.0
 40
0.0049186754066102
100
AcDbArc
 50
112.0162958180924
 51
22.00998300941422
  0
ARC
  5
1380
330
2
100
AcDbEntity
  8
Profilo
  6
Continuous
370
     0
100
AcDbCircle
 10
0.2412071459340081
 20
0.137251413792412
 30
0.0
 40
0.0036088378986661
100
AcDbArc
 50
109.1782291076475
 51
24.84804971983679
  0
ARC
  5
1381
330
2
100
AcDbEntity
  8
Profilo
  6
Continuous
370
     0
100
AcDbCircle
 10
0.2412071459340081
 20
0.137251413792412
 30
0.0
 40
0.0023252560698673
100
AcDbArc
 50
90.8208524929722
 51
43.2054263344649
  0
LWPOLYLINE
  5
1382
330
2
100
AcDbEntity
  8
Profilo
  6
Continuous
370
     0
100
AcDbPolyline
 90
       10
 70
   128
 43
0.0
 10
0.2422887857043897
 20
0.1387074244014804
 10
0.2420223343223186
 20
0.1376354147658257
 10
0.2420227351032293
 20
0.1371536093818806
 10
0.2416894373577819
 20
0.13677021645477
 10
0.2410842320707107
 20
0.1364729582060838
 10
0.2405527219993546
 20
0.1367070147034425
 10
0.2403916900971844
 20
0.1371886167992687
 10
0.240477690201538
 20
0.1377817169068889
 10
0.2411568572458663
 20
0.138289085315333
 10
0.2416458021886666
 20
0.1390125596845087
  0
ARC
  5
1383
330
2
100
AcDbEntity
  8
Profilo
  6
Continuous
370
     0
100
AcDbCircle
 10
0.2439234759991987
 20
0.1436547687936339
 30
0.0
 40
0.0049186754066102
100
AcDbArc
 50
123.2662958180582
 51
33.25998300941087
  0
ARC
  5
1384
330
2
100
AcDbEntity
  8
Profilo
  6
Continuous
370
     0
100
AcDbCircle
 10
0.2439234759991987
 20
0.1436547687936339
 30
0.0
 40
0.0036088378986661
100
AcDbArc
 50
120.4282291076298
 51
36.09804971980869
  0
ARC
  5
1385
330
2
100
AcDbEntity
  8
Profilo
  6
Continuous
370
     0
100
AcDbCircle
 10
0.2439234759991987
 20
0.1436547687936339
 30
0.0
 40
0.0023252560698673
100
AcDbArc
 50
102.0708524929684
 51
54.45542633451279
  0
LWPOLYLINE
  5
1386
330
2
100
AcDbEntity
  8
Profilo
  6
Continuous
370
     0
100
AcDbPolyline
 90
       10
 70
   128
 43
0.0
 10
0.2447002787861059
 20
0.1452938200182255
 10
0.2446480858976523
 20
0.1441904266611962
 10
0.2447424745451724
 20
0.1437179572210808
 10
0.244490377272055
 20
0.1432769079170742
 10
0.2439547930423317
 20
0.142867291707943
 10
0.2433878336305203
 20
0.1429931584043596
 10
0.2431359400032373
 20
0.1434340908853083
 10
0.243104579548718
 20
0.1440325725287198
 10
0.2436717139225441
 20
0.1446626909128446
 10
0.2440101210777188
 20
0.1454676523512194
  0
ARC
  5
1387
330
2
100
AcDbEntity
  8
Profilo
  6
Continuous
370
     0
100
AcDbCircle
 10
0.245338379954682
 20
0.1504650148311475
 30
0.0
 40
0.0049186754066102
100
AcDbArc
 50
134.5162958180458
 51
44.50998300937423
  0
ARC
  5
1388
330
2
100
AcDbEntity
  8
Profilo
  6
Continuous
370
     0
100
AcDbCircle
 10
0.245338379954682
 20
0.1504650148311475
 30
0.0
 40
0.0036088378986661
100
AcDbArc
 50
131.6782291076467
 51
47.34804971980513
  0
ARC
  5
1389
330
2
100
AcDbEntity
  8
Profilo
  6
Continuous
370
     0
100
AcDbCircle
 10
0.245338379954682
 20
0.1504650148311475
 30
0.0
 40
0.0023252560698673
100
AcDbArc
 50
113.3208524929742
 51
65.70542633449896
  0
LWPOLYLINE
  5
138A
330
2
100
AcDbEntity
  8
Profilo
  6
Continuous
370
     0
100
AcDbPolyline
 90
       10
 70
   128
 43
0.0
 10
0.2457804936626492
 20
0.152224118851895
 10
0.2459445650112472
 20
0.1511317445614103
 10
0.2461293142225863
 20
0.1506867678007452
 10
0.2459681053786287
 20
0.15020501139725
 10
0.2455227244078404
 20
0.1496987785488769
 10
0.2449421035878147
 20
0.1497116184577961
 10
0.2446090283662529
 20
0.1500949365358997
 10
0.2444615125175397
 20
0.1506758004011789
 10
0.2448948195649327
 20
0.1514044536648554
 10
0.2450696841352868
 20
0.1522599679557813
  0
ARC
  5
138B
330
2
100
AcDbEntity
  8
Profilo
  6
Continuous
370
     0
100
AcDbCircle
 10
0.2453974838349379
 20
0.1574204379689615
 30
0.0
 40
0.0049186754066102
100
AcDbArc
 50
145.7662958180923
 51
55.75998300936421
  0
ARC
  5
138C
330
2
100
AcDbEntity
  8
Profilo
  6
Continuous
370
     0
100
AcDbCircle
 10
0.2453974838349379
 20
0.1574204379689615
 30
0.0
 40
0.0036088378986661
100
AcDbArc
 50
142.9282291076409
 51
58.59804971978614
  0
ARC
  5
138D
330
2
100
AcDbEntity
  8
Profilo
  6
Continuous
370
     0
100
AcDbCircle
 10
0.2453974838349379
 20
0.1574204379689615
 30
0.0
 40
0.0023252560698673
100
AcDbArc
 50
124.5708524929925
 51
76.95542633447981
  0
LWPOLYLINE
  5
138E
330
2
100
AcDbEntity
  8
Profilo
  6
Continuous
370
     0
100
AcDbPolyline
 90
       10
 70
   128
 43
0.0
 10
0.2454879182821095
 20
0.159231993404865
 10
0.2458619486978425
 20
0.1581926175122978
 10
0.2461299586644177
 20
0.157792233638447
 10
0.2460658334150831
 20
0.1572882837638803
 10
0.2457277714441683
 20
0.1567048885207293
 10
0.2451558021484252
 20
0.1566042082116495
 10
0.2447543452265577
 20
0.156915181188137
 10
0.2444963429349895
 20
0.1574561050026936
 10
0.244779170909118
 20
0.158255291409632
 10
0.2447837729472804
 20
0.1591284816186862
  0
ARC
  5
138F
330
2
100
AcDbEntity
  8
Profilo
  6
Continuous
370
     0
100
AcDbCircle
 10
0.2440985163109922
 20
0.1642537451965388
 30
0.0
 40
0.0049186754066102
100
AcDbArc
 50
157.0162958180547
 51
67.00998300938052
  0
ARC
  5
1390
330
2
100
AcDbEntity
  8
Profilo
  6
Continuous
370
     0
100
AcDbCircle
 10
0.2440985163109922
 20
0.1642537451965388
 30
0.0
 40
0.0036088378986661
100
AcDbArc
 50
154.1782291076192
 51
69.84804971978928
  0
ARC
  5
1391
330
2
100
AcDbEntity
  8
Profilo
  6
Continuous
370
     0
100
AcDbCircle
 10
0.2440985163109922
 20
0.1642537451965388
 30
0.0
 40
0.0023252560698673
100
AcDbArc
 50
135.8208524929906
 51
88.20542633449408
  0
LWPOLYLINE
  5
1392
330
2
100
AcDbEntity
  8
Profilo
  6
Continuous
370
     0
100
AcDbPolyline
 90
       10
 70
   128
 43
0.0
 10
0.2438337961522796
 20
0.1660481349881265
 10
0.2444034118560293
 20
0.165101700126141
 10
0.2447443831051278
 20
0.1647612956668398
 10
0.2447798057477886
 20
0.1642545188322613
 10
0.2445620543086989
 20
0.1636163807463538
 10
0.2440207169965098
 20
0.1634060493070928
 10
0.2435663061387074
 20
0.163632726664871
 10
0.243207732287657
 20
0.1641129230298643
 10
0.2433292122680894
 20
0.1649519302946373
 10
0.2431633749203116
 20
0.165809240211776
  0
ARC
  5
1393
330
2
100
AcDbEntity
  8
Profilo
  6
Continuous
370
     0
100
AcDbCircle
 10
0.2414913959763225
 20
0.1707023363492838
 30
0.0
 40
0.0049186754066102
100
AcDbArc
 50
168.2662958180573
 51
78.2599830093993
  0
ARC
  5
1394
330
2
100
AcDbEntity
  8
Profilo
  6
Continuous
370
     0
100
AcDbCircle
 10
0.2414913959763225
 20
0.1707023363492838
 30
0.0
 40
0.0036088378986661
100
AcDbArc
 50
165.428229107616
 51
81.09804971979581
  0
ARC
  5
1395
330
2
100
AcDbEntity
  8
Profilo
  6
Continuous
370
     0
100
AcDbCircle
 10
0.2414913959763225
 20
0.1707023363492838
 30
0.0
 40
0.0023252560698673
100
AcDbArc
 50
147.0708524929438
 51
99.45542633451218
  0
LWPOLYLINE
  5
1396
330
2
100
AcDbEntity
  8
Profilo
  6
Continuous
370
     0
100
AcDbPolyline
 90
       10
 70
   128
 43
0.0
 10
0.2408816942589655
 20
0.172410603103171
 10
0.241625005238684
 20
0.1715934802327448
 10
0.2420258344364211
 20
0.171326136740464
 10
0.2421594436987824
 20
0.1708360080954235
 10
0.2420703708572089
 20
0.1701676504555295
 10
0.2415804688178963
 20
0.1698557508053405
 10
0.2410905667785836
 20
0.1699894214606745
 10
0.240645201160059
 20
0.170390436699095
 10
0.240600664739273
 20
0.171237022243038
 10
0.2402707610418283
 20
0.1720455059289305
  0
ARC
  5
1397
330
2
100
AcDbEntity
  8
Profilo
  6
Continuous
370
     0
100
AcDbCircle
 10
0.2376763130032975
 20
0.1765183956856075
 30
0.0
 40
0.0049186754066102
100
AcDbArc
 50
179.5162958180896
 51
89.50998300941284
  0
ARC
  5
1398
330
2
100
AcDbEntity
  8
Profilo
  6
Continuous
370
     0
100
AcDbCircle
 10
0.2376763130032975
 20
0.1765183956856075
 30
0.0
 40
0.0036088378986661
100
AcDbArc
 50
176.6782291076564
 51
92.34804971984072
  0
ARC
  5
1399
330
2
100
AcDbEntity
  8
Profilo
  6
Continuous
370
     0
100
AcDbCircle
 10
0.2376763130032975
 20
0.1765183956856075
 30
0.0
 40
0.0023252560698673
100
AcDbArc
 50
158.3208524929752
 51
110.7054263344681
  0
LWPOLYLINE
  5
139A
330
2
100
AcDbEntity
  8
Profilo
  6
Continuous
370
     0
100
AcDbPolyline
 90
       10
 70
   128
 43
0.0
 10
0.2367450602223728
 20
0.1780748916684507
 10
0.2376335014539607
 20
0.1774184823632465
 10
0.2380787849590548
 20
0.1772344736984666
 10
0.2383054463120961
 20
0.1767798286119245
 10
0.2383484750873838
 20
0.1761069360273265
 10
0.2379288349815798
 20
0.1757054542948541
 10
0.2374222684213896
 20
0.1757409813594206
 10
0.2369072261863455
 20
0.1760474046805483
 10
0.2366983848740131
 20
0.1768690346959767
 10
0.2362170928409854
 20
0.1775976225759778
  0
ARC
  5
139B
330
2
100
AcDbEntity
  8
Profilo
  6
Continuous
370
     0
100
AcDbCircle
 10
0.2327998788910495
 20
0.1814784153069028
 30
0.0
 40
0.0049186754066102
100
AcDbArc
 50
190.7662958180581
 51
100.7599830094179
  0
ARC
  5
139C
330
2
100
AcDbEntity
  8
Profilo
  6
Continuous
370
     0
100
AcDbCircle
 10
0.2327998788910495
 20
0.1814784153069028
 30
0.0
 40
0.0036088378986661
100
AcDbArc
 50
187.9282291076428
 51
103.5980497198339
  0
ARC
  5
139D
330
2
100
AcDbEntity
  8
Profilo
  6
Continuous
370
     0
100
AcDbCircle
 10
0.2327998788910495
 20
0.1814784153069028
 30
0.0
 40
0.0023252560698673
100
AcDbArc
 50
169.5708524929554
 51
121.9554263344946
  0
LWPOLYLINE
  5
139E
330
2
100
AcDbEntity
  8
Profilo
  6
Continuous
370
     0
100
AcDbPolyline
 90
       10
 70
   128
 43
0.0
 10
0.2315828625686746
 20
0.1828233252509728
 10
0.2325822917538457
 20
0.1823528549524706
 10
0.2330549175709151
 20
0.182259252464985
 10
0.2333659205459488
 20
0.1818575626926515
 10
0.2335393973663987
 20
0.1812059940480112
 10
0.2332061457280287
 20
0.1807303589510782
 10
0.2327023817157829
 20
0.1806663771397128
 10
0.2321374556484741
 20
0.1808664328671597
 10
0.2317723350991113
 20
0.1816315325733545
 10
0.2311581505134146
 20
0.1822522254238353
  0
ARC
  5
139F
330
2
100
AcDbEntity
  8
Profilo
  6
Continuous
370
     0
100
AcDbCircle
 10
0.2270494922677766
 20
0.1853917844407293
 30
0.0
 40
0.0049186754066102
100
AcDbArc
 50
202.0162958180925
 51
112.0099830094142
  0
ARC
  5
13A0
330
2
100
AcDbEntity
  8
Profilo
  6
Continuous
370
     0
100
AcDbCircle
 10
0.2270494922677766
 20
0.1853917844407293
 30
0.0
 40
0.0036088378986661
100
AcDbArc
 50
199.1782291076475
 51
114.8480497198367
  0
ARC
  5
13A1
330
2
100
AcDbEntity
  8
Profilo
  6
Continuous
370
     0
100
AcDbCircle
 10
0.2270494922677766
 20
0.1853917844407293
 30
0.0
 40
0.0023252560698673
100
AcDbArc
 50
180.8208524929722
 51
133.2054263344649
  0
LWPOLYLINE
  5
13A2
330
2
100
AcDbEntity
  8
Profilo
  6
Continuous
370
     0
100
AcDbPolyline
 90
       10
 70
   128
 43
0.0
 10
0.2255934816587083
 20
0.1864734242111111
 10
0.226665491294363
 20
0.1862069728290415
 10
0.227147296678308
 20
0.1862073736099505
 10
0.2275306896054187
 20
0.185874075864505
 10
0.2278279478541049
 20
0.1852688705774321
 10
0.2275938913567461
 20
0.1847373605060758
 10
0.2271122892609201
 20
0.1845763286039058
 10
0.2265191891532998
 20
0.184662328708261
 10
0.2260118207448556
 20
0.1853414957525875
 10
0.2252883463756798
 20
0.1858304406953878
  0
ARC
  5
13A3
330
2
100
AcDbEntity
  8
Profilo
  6
Continuous
370
     0
100
AcDbCircle
 10
0.2206461372665566
 20
0.18810811450592
 30
0.0
 40
0.0049186754066102
100
AcDbArc
 50
213.2662958180582
 51
123.2599830094109
  0
ARC
  5
13A4
330
2
100
AcDbEntity
  8
Profilo
  6
Continuous
370
     0
100
AcDbCircle
 10
0.2206461372665566
 20
0.18810811450592
 30
0.0
 40
0.0036088378986661
100
AcDbArc
 50
210.4282291076299
 51
126.0980497198087
  0
ARC
  5
13A5
330
2
100
AcDbEntity
  8
Profilo
  6
Continuous
370
     0
100
AcDbCircle
 10
0.2206461372665566
 20
0.18810811450592
 30
0.0
 40
0.0023252560698673
100
AcDbArc
 50
192.0708524929684
 51
144.4554263345128
  0
LWPOLYLINE
  5
13A6
330
2
100
AcDbEntity
  8
Profilo
  6
Continuous
370
     0
100
AcDbPolyline
 90
       10
 70
   128
 43
0.0
 10
0.2190070860419632
 20
0.1888849172928273
 10
0.2201104793989924
 20
0.1888327244043735
 10
0.2205829488391079
 20
0.1889271130518937
 10
0.2210239981431163
 20
0.1886750157787782
 10
0.2214336143522456
 20
0.188139431549053
 10
0.2213077476558289
 20
0.1875724721372415
 10
0.220866815174882
 20
0.1873205785099587
 10
0.2202683335314688
 20
0.1872892180554393
 10
0.2196382151473441
 20
0.187856352429267
 10
0.2188332537089692
 20
0.18819475958444
  0
ARC
  5
13A7
330
2
100
AcDbEntity
  8
Profilo
  6
Continuous
370
     0
100
AcDbCircle
 10
0.2138358912290429
 20
0.1895230184614033
 30
0.0
 40
0.0049186754066102
100
AcDbArc
 50
224.5162958180461
 51
134.5099830093742
  0
ARC
  5
13A8
330
2
100
AcDbEntity
  8
Profilo
  6
Continuous
370
     0
100
AcDbCircle
 10
0.2138358912290429
 20
0.1895230184614033
 30
0.0
 40
0.0036088378986661
100
AcDbArc
 50
221.6782291076467
 51
137.3480497198048
  0
ARC
  5
13A9
330
2
100
AcDbEntity
  8
Profilo
  6
Continuous
370
     0
100
AcDbCircle
 10
0.2138358912290429
 20
0.1895230184614033
 30
0.0
 40
0.0023252560698673
100
AcDbArc
 50
203.3208524929742
 51
155.705426334499
  0
LWPOLYLINE
  5
13AA
330
2
100
AcDbEntity
  8
Profilo
  6
Continuous
370
     0
100
AcDbPolyline
 90
       10
 70
   128
 43
0.0
 10
0.2120767872082937
 20
0.1899651321693723
 10
0.2131691614987784
 20
0.1901292035179685
 10
0.2136141382594452
 20
0.1903139527293093
 10
0.2140958946629385
 20
0.19015274388535
 10
0.2146021275113118
 20
0.1897073629145618
 10
0.2145892876023944
 20
0.1891267420945361
 10
0.214205969524289
 20
0.188793666872974
 10
0.2136251056590098
 20
0.188646151024261
 10
0.2128964523953333
 20
0.189079458071654
 10
0.2120409381044073
 20
0.1892543226420082
  0
ARC
  5
13AB
330
2
100
AcDbEntity
  8
Profilo
  6
Continuous
370
     0
100
AcDbCircle
 10
0.206880468091227
 20
0.189582122341659
 30
0.0
 40
0.0049186754066102
100
AcDbArc
 50
235.7662958180923
 51
145.7599830093642
  0
ARC
  5
13AC
330
2
100
AcDbEntity
  8
Profilo
  6
Continuous
370
     0
100
AcDbCircle
 10
0.206880468091227
 20
0.189582122341659
 30
0.0
 40
0.0036088378986661
100
AcDbArc
 50
232.9282291076411
 51
148.5980497197861
  0
ARC
  5
13AD
330
2
100
AcDbEntity
  8
Profilo
  6
Continuous
370
     0
100
AcDbCircle
 10
0.206880468091227
 20
0.189582122341659
 30
0.0
 40
0.0023252560698673
100
AcDbArc
 50
214.5708524929926
 51
166.9554263344798
  0
LWPOLYLINE
  5
13AE
330
2
100
AcDbEntity
  8
Profilo
  6
Continuous
370
     0
100
AcDbPolyline
 90
       10
 70
   128
 43
0.0
 10
0.2050689126553235
 20
0.1896725567888308
 10
0.2061082885478906
 20
0.1900465872045637
 10
0.2065086724217417
 20
0.1903145971711408
 10
0.2070126222963084
 20
0.1902504719218045
 10
0.2075960175394592
 20
0.1899124099508898
 10
0.2076966978485392
 20
0.1893404406551465
 10
0.2073857248720514
 20
0.1889389837332808
 10
0.2068448010574952
 20
0.1886809814417108
 10
0.2060456146505566
 20
0.1889638094158395
 10
0.2051724244415023
 20
0.1889684114540015
  0
ARC
  5
13AF
330
2
100
AcDbEntity
  8
Profilo
  6
Continuous
370
     0
100
AcDbCircle
 10
0.2000471608636499
 20
0.1882831548177135
 30
0.0
 40
0.0049186754066102
100
AcDbArc
 50
247.0162958180547
 51
157.0099830093805
  0
ARC
  5
13B0
330
2
100
AcDbEntity
  8
Profilo
  6
Continuous
370
     0
100
AcDbCircle
 10
0.2000471608636499
 20
0.1882831548177135
 30
0.0
 40
0.0036088378986661
100
AcDbArc
 50
244.1782291076191
 51
159.8480497197892
  0
ARC
  5
13B1
330
2
100
AcDbEntity
  8
Profilo
  6
Continuous
370
     0
100
AcDbCircle
 10
0.2000471608636499
 20
0.1882831548177135
 30
0.0
 40
0.0023252560698673
100
AcDbArc
 50
225.8208524929906
 51
178.205426334494
  0
LWPOLYLINE
  5
13B2
330
2
100
AcDbEntity
  8
Profilo
  6
Continuous
370
     0
100
AcDbPolyline
 90
       10
 70
   128
 43
0.0
 10
0.1982527710720621
 20
0.1880184346590008
 10
0.1991992059340493
 20
0.1885880503627506
 10
0.1995396103933488
 20
0.1889290216118507
 10
0.2000463872279272
 20
0.18896444425451
 10
0.2006845253138349
 20
0.1887466928154203
 10
0.2008948567530958
 20
0.188205355503233
 10
0.2006681793953175
 20
0.1877509446454288
 10
0.2001879830303243
 20
0.1873923707943783
 10
0.1993489757655514
 20
0.1875138507748105
 10
0.1984916658484125
 20
0.1873480134270328
  0
LWPOLYLINE
  5
13B3
330
2
100
AcDbEntity
  8
Profilo
  6
Continuous
370
     0
100
AcDbPolyline
 90
       14
 70
   129
 43
0.0
 10
0.2086001253257316
 20
0.160258154778348
 10
0.2082841286077288
 20
0.1610686685459628
 10
0.208609040484215
 20
0.1621241428551388
 10
0.2090964082989463
 20
0.1626924750669518
 10
0.2102335987758463
 20
0.1629360461156333
 10
0.2116144731601136
 20
0.1628548560011813
 10
0.2125079797296481
 20
0.162530094838048
 10
0.2133202583300599
 20
0.1618805718064573
 10
0.2133202583300599
 20
0.1610686685459628
 10
0.2131571293644354
 20
0.160258154778348
 10
0.2126704356678911
 20
0.1600131942367868
 10
0.2117769280075511
 20
0.1599320041223348
 10
0.2105963965307688
 20
0.160148066738615
 10
0.2093435642422187
 20
0.160148066738615
  0
LWPOLYLINE
  5
13B4
330
2
100
AcDbEntity
  8
Profilo
  6
Continuous
370
     0
100
AcDbPolyline
 90
       14
 70
   129
 43
0.0
 10
0.204773648360434
 20
0.1574653223742935
 10
0.2039770851569757
 20
0.1578149987334863
 10
0.2034604995067405
 20
0.1587910791660248
 10
0.2034032490325303
 20
0.1595375718136945
 10
0.2040351333900225
 20
0.1605139176516337
 10
0.2050689691115978
 20
0.1614329332122207
 10
0.2059304144866684
 20
0.1618350969458565
 10
0.206964064333408
 20
0.1619501825122453
 10
0.2075381666345714
 20
0.161376080211082
 10
0.2079959368180963
 20
0.160687610831956
 10
0.2078250056649694
 20
0.1601702531587062
 10
0.2072506104197939
 20
0.1594810377525445
 10
0.2062630692660265
 20
0.1587990552810413
 10
0.2053771830591015
 20
0.1579131690741162
  0
LWPOLYLINE
  5
13B5
330
2
100
AcDbEntity
  8
Profilo
  6
Continuous
370
     0
100
AcDbPolyline
 90
       14
 70
   129
 43
0.0
 10
0.2040427512818403
 20
0.1527847638324547
 10
0.2032322375142257
 20
0.1524687671144501
 10
0.2021767632050499
 20
0.1527936789909382
 10
0.2016084309932368
 20
0.1532810468056694
 10
0.2013648599445553
 20
0.1544182372825694
 10
0.2014460500590072
 20
0.1557991116668348
 10
0.2017708112221407
 20
0.1566926182363693
 10
0.2024203342537313
 20
0.157504896836781
 10
0.2032322375142257
 20
0.157504896836781
 10
0.2040427512818403
 20
0.1573417678711566
 10
0.2042877118234036
 20
0.1568550741746122
 10
0.2043689019378537
 20
0.1559615665142723
 10
0.2041528393215754
 20
0.1547810350374918
 10
0.2041528393215754
 20
0.15352820274894
  0
LWPOLYLINE
  5
13B6
330
2
100
AcDbEntity
  8
Profilo
  6
Continuous
370
     0
100
AcDbPolyline
 90
       14
 70
   129
 43
0.0
 10
0.206835583685895
 20
0.1489582868671553
 10
0.2064859073267024
 20
0.148161723663697
 10
0.2055098268941637
 20
0.1476451380134637
 10
0.204763334246496
 20
0.1475878875392516
 10
0.2037869884085549
 20
0.1482197718967458
 10
0.2028679728479676
 20
0.1492536076183209
 10
0.2024658091143319
 20
0.1501150529933898
 10
0.2023507235479433
 20
0.1511487028401293
 10
0.2029248258491067
 20
0.1517228051412927
 10
0.2036132952282327
 20
0.1521805753248176
 10
0.2041306529014823
 20
0.1520096441716908
 10
0.2048198683076439
 20
0.151435248926517
 10
0.2055018507791492
 20
0.1504477077727478
 10
0.2063877369860724
 20
0.1495618215658228
  0
LWPOLYLINE
  5
13B7
330
2
100
AcDbEntity
  8
Profilo
  6
Continuous
370
     0
100
AcDbPolyline
 90
       14
 70
   129
 43
0.0
 10
0.2115161422277358
 20
0.1482273897885636
 10
0.2118321389457386
 20
0.147416876020949
 10
0.2115072270692523
 20
0.146361401711773
 10
0.2110198592545211
 20
0.1457930694999582
 10
0.2098826687776193
 20
0.1455494984512767
 10
0.2085017943933537
 20
0.1456306885657287
 10
0.2076082878238194
 20
0.1459554497288621
 10
0.2067960092234073
 20
0.1466049727604544
 10
0.2067960092234073
 20
0.147416876020949
 10
0.206959138189032
 20
0.1482273897885636
 10
0.2074458318855762
 20
0.1484723503301249
 10
0.2083393395459162
 20
0.1485535404445769
 10
0.2095198710226968
 20
0.1483374778282967
 10
0.2107727033112487
 20
0.1483374778282967
  0
LWPOLYLINE
  5
13B8
330
2
100
AcDbEntity
  8
Profilo
  6
Continuous
370
     0
100
AcDbPolyline
 90
       14
 70
   129
 43
0.0
 10
0.2153426191930333
 20
0.1510202221926163
 10
0.2161391823964915
 20
0.1506705458334237
 10
0.2166557680467269
 20
0.1496944654008852
 10
0.2167130185209371
 20
0.1489479727532173
 10
0.2160811341634447
 20
0.1479716269152763
 10
0.2150472984418696
 20
0.1470526113546891
 10
0.2141858530667988
 20
0.1466504476210551
 10
0.2131522032200594
 20
0.1465353620546646
 10
0.212578100918896
 20
0.147109464355828
 10
0.2121203307353712
 20
0.1477979337349558
 10
0.2122912618884979
 20
0.1483152914082036
 10
0.2128656571336735
 20
0.1490045068143671
 10
0.2138531982874409
 20
0.1496864892858706
 10
0.2147390844943659
 20
0.1505723754927937
  0
LWPOLYLINE
  5
13B9
330
2
100
AcDbEntity
  8
Profilo
  6
Continuous
370
     0
100
AcDbPolyline
 90
       14
 70
   129
 43
0.0
 10
0.2160735162716269
 20
0.155700780734457
 10
0.2168840300392397
 20
0.1560167774524598
 10
0.2179395043484158
 20
0.1556918655759735
 10
0.2185078365602306
 20
0.1552044977612423
 10
0.2187514076089119
 20
0.1540673072843424
 10
0.21867021749446
 20
0.1526864329000769
 10
0.2183454563313266
 20
0.1517929263305407
 10
0.217695933299736
 20
0.1509806477301288
 10
0.2168840300392397
 20
0.1509806477301288
 10
0.2160735162716269
 20
0.1511437766957533
 10
0.2158285557300639
 20
0.1516304703922975
 10
0.2157473656156135
 20
0.1525239780526393
 10
0.2159634282318921
 20
0.1537045095294199
 10
0.2159634282318921
 20
0.1549573418179718
  0
LWPOLYLINE
  5
13BA
330
2
100
AcDbEntity
  8
Profilo
  6
Continuous
370
     0
100
AcDbPolyline
 90
       14
 70
   129
 43
0.0
 10
0.2132806838675724
 20
0.1595272576997545
 10
0.2136303602267648
 20
0.1603238209032131
 10
0.2146064406593035
 20
0.160840406553448
 10
0.2153529333069712
 20
0.16089765702766
 10
0.2163292791449124
 20
0.160265772670166
 10
0.2172482947054994
 20
0.1592319369485907
 10
0.2176504584391352
 20
0.1583704915735203
 10
0.2177655440055239
 20
0.1573368417267805
 10
0.2171914417043608
 20
0.1567627394256173
 10
0.2165029723252345
 20
0.1563049692420941
 10
0.2159856146519851
 20
0.1564759003952192
 10
0.2152963992458232
 20
0.1570502956403948
 10
0.2146144167743182
 20
0.158037836794162
 10
0.2137285305673948
 20
0.158923723001087
  0
LWPOLYLINE
  5
13BB
330
2
100
AcDbEntity
  8
Profilo
  6
Continuous
370
     0
100
AcDbPolyline
 90
      121
 70
   128
 43
0.0
 10
0.2059006179548594
 20
0.1709794296498198
 10
0.2040528512776899
 20
0.1698712822752535
 10
0.2034985210563772
 20
0.1692864263833842
 10
0.2034061319589559
 20
0.1686092249357438
 10
0.2037756861670336
 20
0.1679320241934307
 10
0.2038372785350465
 20
0.1671009134861743
 10
0.2035293166949818
 20
0.1669777860784807
 10
0.2033445406817486
 20
0.1674395138573308
 10
0.203036578841682
 20
0.1680243697492
 10
0.2025130453497796
 20
0.1686400067876663
 10
0.2022666758777277
 20
0.1684245338242033
 10
0.2021126955030973
 20
0.1676242049688695
 10
0.2023590638843435
 20
0.1663313664827628
 10
0.202605433356397
 20
0.1657465105908935
 10
0.2033753363203513
 20
0.1649769642928093
 10
0.2034677243269688
 20
0.1645152358086337
 10
0.2028518028284487
 20
0.1641766354374773
 10
0.2021434911417018
 20
0.1647922724759432
 10
0.2018663260310454
 20
0.1653155646639657
 10
0.2014351805457587
 20
0.1663005846308403
 10
0.201342792539143
 20
0.1669470042265563
 10
0.2015891609203892
 20
0.1677165505246406
 10
0.2017431423858253
 20
0.1685168793799745
 10
0.2015583652817847
 20
0.1690093897160727
 10
0.2009732394218692
 20
0.1689786078641503
 10
0.2004189092005583
 20
0.1683014064165098
 10
0.2001417440899019
 20
0.1675626412650243
 10
0.2000493549924788
 20
0.1667623124096903
 10
0.1998029866112325
 20
0.165900420555837
 10
0.1992794520285244
 20
0.1662082390750692
 10
0.199187064021907
 20
0.1672856045977128
 10
0.199556617139179
 20
0.168239842712663
 10
0.1994334334939587
 20
0.1694403356430003
 10
0.1990638792858811
 20
0.1694711174949228
 10
0.1984479566965553
 20
0.1692556445314598
 10
0.197924423204653
 20
0.1698097185714067
 10
0.1973085006153273
 20
0.1702406644983343
 10
0.1964462096447556
 20
0.1704561374617973
 10
0.1956455099513911
 20
0.1702406644983343
 10
0.1951527720980913
 20
0.1694095537910778
 10
0.195275956834119
 20
0.1687631349006873
 10
0.1954299372087476
 20
0.1681474971568937
 10
0.1960766554366761
 20
0.1675626412650243
 10
0.1968773551300423
 20
0.1672240408938661
 10
0.1972777049767245
 20
0.1671009134861743
 10
0.1972777049767245
 20
0.1665160575943033
 10
0.196538597651373
 20
0.166854658670787
 10
0.1958610826940343
 20
0.1672548227457903
 10
0.1954607339381579
 20
0.1677165505246406
 10
0.1948756069874368
 20
0.1686707886395906
 10
0.1941672963914935
 20
0.1689170441603033
 10
0.1932742086915133
 20
0.1690709534199195
 10
0.1925043057275574
 20
0.1687015711968405
 10
0.1925966948249805
 20
0.1679320241934307
 10
0.1922579373463112
 20
0.1675934231169467
 10
0.1916420147569857
 20
0.1684860975280503
 10
0.1907797237864137
 20
0.1684860975280503
 10
0.1901022088290752
 20
0.1683321882684341
 10
0.1891167331224776
 20
0.1676549868207938
 10
0.1884615066067504
 20
0.1666618986259705
 10
0.188122749128081
 20
0.1663232982548141
 10
0.1883383229615302
 20
0.1656153149552511
 10
0.188769468446817
 20
0.1649996772114575
 10
0.1891698172026935
 20
0.164753422396072
 10
0.189970516896058
 20
0.1645379494326073
 10
0.1903708667427402
 20
0.1648457679518412
 10
0.1907404198600123
 20
0.1653382782879413
 10
0.1913871380879407
 20
0.1654306238437105
 10
0.1915411184625711
 20
0.165122804619151
 10
0.1910483806092714
 20
0.164445603876838
 10
0.1901552940000969
 20
0.1643532576157413
 10
0.189139021564089
 20
0.1642301302080478
 10
0.1879379731148479
 20
0.1635221476138105
 10
0.1873220505255222
 20
0.1632758920930978
 10
0.1869832930468548
 20
0.1626910369065541
 10
0.1865211424881881
 20
0.1615161212251133
 10
0.1857820351628366
 20
0.160992829037089
 10
0.184796559456239
 20
0.1597923361067535
 10
0.1843346183323494
 20
0.1590535709552663
 10
0.1840266564922829
 20
0.1581916783960873
 10
0.1837186957430238
 20
0.1570835310215193
 10
0.1835339186389849
 20
0.1539745618612836
 10
0.1836263077364063
 20
0.1509887194034124
 10
0.1839342684856671
 20
0.1488032065062025
 10
0.1846732710936301
 20
0.1459015616742781
 10
0.1857819315362538
 20
0.1436237025159715
 10
0.1871985538189439
 20
0.1421461729183245
 10
0.1875989025748205
 20
0.1424232095856342
 10
0.1867982039722616
 20
0.1433466658486618
 10
0.1859051162722797
 20
0.1453167057824088
 10
0.1855355631550076
 20
0.1467326723815346
 10
0.1851968056763383
 20
0.1496569504302317
 10
0.1858435239042667
 20
0.1491644400941317
 10
0.186182281382936
 20
0.1496877322821542
 10
0.1860590966469101
 20
0.1507958796567222
 10
0.1861206890149231
 20
0.1514422992524383
 10
0.1865518345002098
 20
0.1512268255836481
 10
0.1873217374641641
 20
0.1515962085120544
 10
0.1874757189296002
 20
0.1523965373673884
 10
0.1875373102068075
 20
0.1530737381097015
 10
0.1875681069362177
 20
0.1536585940015725
 10
0.1875681069362177
 20
0.1542434498934418
 10
0.1876912916722436
 20
0.153997194372729
 10
0.1879684567829
 20
0.1538432851131112
 10
0.188399602268185
 20
0.1540279762246516
 10
0.1887075630174441
 20
0.1546743958203675
 10
0.1885535826428153
 20
0.155351597268008
 10
0.1884799117785477
 20
0.1567104768695388
 10
0.1886094733671982
 20
0.158545084977672
 10
0.1891709080088215
 20
0.1593005113478503
 10
0.1895811863728792
 20
0.159861685908015
 10
0.1901210263255892
 20
0.1602933583210673
 10
0.1908120214650556
 20
0.1605739448958223
 10
0.1911816018524817
 20
0.1612380561920057
 10
0.1913543506373479
 20
0.1617905968525005
 10
0.1919762475718362
 20
0.1622050021715385
 10
0.1926672427113044
 20
0.1622395356542395
 10
0.192805441302874
 20
0.1617215291817731
 10
0.1926672427113044
 20
0.1611344543332516
 10
0.1921144461634074
 20
0.1609617855090955
 10
0.1912161520457766
 20
0.1608927178383678
  0
LWPOLYLINE
  5
13BC
330
2
100
AcDbEntity
  8
Profilo
  6
Continuous
370
     0
100
AcDbPolyline
 90
      126
 70
   128
 43
0.0
 10
0.188935866558407
 20
0.158648021008367
 10
0.1889013174559179
 20
0.1570594666976132
 10
0.1889704167517017
 20
0.1561270542007813
 10
0.1890395160474875
 20
0.1550219728797933
 10
0.1896268627886809
 20
0.1545039664073265
 10
0.1903178579281474
 20
0.1548147705729378
 10
0.1904906067130135
 20
0.1555054458695605
 10
0.1911470527499927
 20
0.1566795948612745
 10
0.1914580001264303
 20
0.1572321355217693
 10
0.1918034976961624
 20
0.1574738720166513
 10
0.1916307489112964
 20
0.1566450613785753
 10
0.1914234510239393
 20
0.1557471823644443
 10
0.1913889008306445
 20
0.1548838375383398
 10
0.1915616496155107
 20
0.1545384998900275
 10
0.1924944939264365
 20
0.1540895603829631
 10
0.193116389770119
 20
0.1541931622417173
 10
0.1939801336944534
 20
0.1546421010434563
 10
0.1945674804356451
 20
0.1549183717263666
 10
0.1953275748708972
 20
0.1555399800575873
 10
0.1955003236557652
 20
0.1556781153990423
 10
0.1956730735314369
 20
0.1547802363849113
 10
0.1959149216120907
 20
0.1537787562173519
 10
0.1966750160473428
 20
0.1538478238880795
 10
0.1973660122776167
 20
0.1539514257468336
 10
0.1982988554977351
 20
0.1542622292071175
 10
0.1991626005128769
 20
0.1542622292071175
 10
0.1994735478893145
 20
0.1538478238880795
 10
0.1997844963565577
 20
0.1530880802154036
 10
0.1994044485935288
 20
0.1527427425670914
 10
0.1981261067128689
 20
0.1523974049187809
 10
0.1970205147078826
 20
0.1524664725895085
 10
0.1965022672624765
 20
0.1520520665651431
 10
0.1966059167515571
 20
0.15149952590465
 10
0.1971932634927488
 20
0.1510851205856102
 10
0.1978151593364313
 20
0.1506016475958445
 10
0.1973660122776167
 20
0.1502217757595057
 10
0.1964677181599856
 20
0.1501527080887782
 10
0.1957421728272227
 20
0.1497037685817136
 10
0.1954657745532743
 20
0.1489094914263367
 10
0.1958112721230084
 20
0.1478734777760762
 10
0.1964677181599856
 20
0.1475626736104668
 10
0.197158713299454
 20
0.1475626736104668
 10
0.197711509847349
 20
0.1479080112587773
 10
0.1980915576103798
 20
0.1484950861072987
 10
0.198471604282603
 20
0.1482188154243885
 10
0.1978842586322169
 20
0.1476662747638935
 10
0.1971932634927488
 20
0.1466302611136348
 10
0.1980224572237884
 20
0.1462849234653226
 10
0.1990589510237947
 20
0.1463539904307246
 10
0.1998535956523434
 20
0.1465957276309338
 10
0.2004409423935351
 20
0.1470792006206994
 10
0.201028288043921
 20
0.1476317412811944
 10
0.2013046863178696
 20
0.1477353424346211
 10
0.201028288043921
 20
0.1470792006206994
 10
0.200475491496026
 20
0.1465611934429072
 10
0.1992662500019575
 20
0.1458014497702314
 10
0.1980915576103798
 20
0.1458014497702314
 10
0.1967441164339342
 20
0.1456978486168028
 10
0.1956730735314369
 20
0.1455942474633743
 10
0.1955694240423565
 20
0.1448345037906985
 10
0.1953621250641938
 20
0.1441092943060492
 10
0.1947056790272165
 20
0.1436258213162836
 10
0.1938073849095855
 20
0.1426934088194517
 10
0.1938073849095855
 20
0.1414847256397095
 10
0.1938764842053712
 20
0.1406559150016316
 10
0.1947402292205111
 20
0.1406904484843326
 10
0.1957421728272227
 20
0.1411739214740982
 10
0.1961913198860373
 20
0.1416919286518921
 10
0.1966059167515571
 20
0.1420027328175016
 10
0.1955703043229019
 20
0.1403780206574981
 10
0.1951129380399131
 20
0.1395856189648469
 10
0.1944726250255674
 20
0.1388236944231425
 10
0.1945945902403412
 20
0.1375436611366513
 10
0.1948995010956682
 20
0.137056029542813
 10
0.1950824467362195
 20
0.136720782293053
 10
0.1948995010956682
 20
0.1352578875115366
 10
0.1954178488952383
 20
0.1339473770741001
 10
0.1959361977856141
 20
0.1335511762277753
 10
0.1962715999446345
 20
0.1328197288370161
 10
0.1968814216552869
 20
0.1322406657903371
 10
0.1972778053308887
 20
0.1320882807409315
 10
0.1983715839055093
 20
0.1328684196299178
 10
0.1982935258189941
 20
0.1337266515454188
 10
0.1983715839055093
 20
0.134740925627372
 10
0.1977471257582327
 20
0.135755199709327
 10
0.1979675798582975
 20
0.1362052543373294
 10
0.1981021253401466
 20
0.1362052543373294
 10
0.198532673063675
 20
0.1358018034416029
 10
0.198532673063675
 20
0.1354252487550208
 10
0.1985057628764978
 20
0.1346990370016484
 10
0.1985595821600449
 20
0.133569373647224
 10
0.1986403094491524
 20
0.1327086780268348
 10
0.1990977651782452
 20
0.131740395453897
 10
0.1997974049562756
 20
0.1307990090901017
 10
0.2005239527398705
 20
0.1303417643654391
 10
0.201250500523465
 20
0.1302341774128904
 10
0.2018694119215806
 20
0.1299383134697126
 10
0.2028112335669395
 20
0.1294810687450499
 10
0.2059855961154494
 20
0.1287298693955999
 10
0.2087410967464799
 20
0.1280413128992875
 10
0.2110832734827432
 20
0.1280413128992875
 10
0.214183211419951
 20
0.1280413128992875
 10
0.2157676247736571
 20
0.1281101682667876
 10
0.2181098004191131
 20
0.128661014028098
 10
0.2172831504479662
 20
0.128661014028098
 10
0.2137009987549811
 20
0.1285921579552723
 10
0.2119788111332876
 20
0.1285921579552723
 10
0.2107388350857605
 20
0.128661014028098
 10
0.2116343727363049
 20
0.1303824052688763
 10
0.2110143858033461
 20
0.1309332503248611
 10
0.2103255101001861
 20
0.1308643949573592
 10
0.2093610847702444
 20
0.130588972076704
 10
0.2076388971485511
 20
0.1305201167092039
 10
0.2068811337659938
 20
0.130588972076704
 10
0.2086033224784928
 20
0.1309332503248611
 10
0.2094988601290372
 20
0.1312775285730164
 10
0.2092233094114516
 20
0.1327234976384651
 10
0.2080522221341256
 20
0.1334120541347775
 10
0.2063300334216266
 20
0.1338940438232604
 10
0.2047456211587279
 20
0.1343760335117433
 10
0.2038500824173759
 20
0.1349957346405538
 10
0.2030923201256262
 20
0.1357531465043663
 10
0.2024723321018618
 20
0.1367859819541596
 10
0.2019212317574943
 20
0.1380253835064532
 10
0.2022656701544773
 20
0.1384385171221104
 10
0.2024063645104687
 20
0.1376116531847177
  0
LWPOLYLINE
  5
13BD
330
2
100
AcDbEntity
  8
Profilo
  6
Continuous
370
     0
100
AcDbPolyline
 90
       17
 70
   128
 43
0.0
 10
0.2038075006185601
 20
0.1351667339572745
 10
0.2044012023962542
 20
0.1349530997795663
 10
0.2047336757408215
 20
0.135024310937026
 10
0.2050424000543697
 20
0.1354990526920893
 10
0.2050424000543697
 20
0.135783898027257
 10
0.2058260864445573
 20
0.1351192598523002
 10
0.2062772994901793
 20
0.1347632033596727
 10
0.2071797266722272
 20
0.1344546209720177
 10
0.2079871610026264
 20
0.1343596727620709
 10
0.2082008935553316
 20
0.1349530997795663
 10
0.2082008935553316
 20
0.1360924804149103
 10
0.2077971763901311
 20
0.1364722732546993
 10
0.207037237940155
 20
0.1369470150097608
 10
0.2065622769543233
 20
0.1378727614673983
 10
0.2063960402820396
 20
0.1386798226626019
 10
0.2066097728347448
 20
0.1396530425198864
 10
0.2069422461793104
 20
0.1405075778200642
  0
LWPOLYLINE
  5
13BE
330
2
100
AcDbEntity
  8
Profilo
  6
Continuous
370
     0
100
AcDbPolyline
 90
        9
 70
   128
 43
0.0
 10
0.2085096178688798
 20
0.1359975314996379
 10
0.2096732734840562
 20
0.1358551091847167
 10
0.2104094639938221
 20
0.1361636915723717
 10
0.2105044557546653
 20
0.136994489114735
 10
0.2106469444867373
 20
0.1381338690447534
 10
0.2107419373383878
 20
0.1390833525548781
 10
0.2102194793813269
 20
0.1398429396451074
 10
0.2093882971107178
 20
0.14046010371509
 10
0.2093408012302963
 20
0.1413383760677532
  0
LWPOLYLINE
  5
13BF
330
2
100
AcDbEntity
  8
Profilo
  6
Continuous
370
     0
100
AcDbPolyline
 90
       64
 70
   128
 43
0.0
 10
0.2102194793813269
 20
0.1351192598523002
 10
0.2099345019171829
 20
0.1337187716396012
 10
0.2102194793813269
 20
0.1325556546570957
 10
0.2107894332188093
 20
0.1317011193569178
 10
0.2113356380252743
 20
0.1315586970419985
 10
0.2121430734464792
 20
0.1318910157768132
 10
0.2129742557170901
 20
0.13260312876207
 10
0.2134967125833433
 20
0.1322233352169536
 10
0.2140666664208257
 20
0.1309415329720159
 10
0.2147553610501686
 20
0.1306804246893352
 10
0.2154678025289172
 20
0.1307278987943078
 10
0.2169840230467299
 20
0.1307732738481074
 10
0.2177743589910727
 20
0.1314417102053787
 10
0.2177743589910727
 20
0.1320493798775635
 10
0.2182607199917477
 20
0.132353214713656
 10
0.2187470799016173
 20
0.1318063117265594
 10
0.21935503087976
 20
0.1310163419991115
 10
0.2205709317452384
 20
0.1304694397173423
 10
0.2214828576670492
 20
0.130590973087517
 10
0.22239478358886
 20
0.1308948079236095
 10
0.2229419395782688
 20
0.1317455450414711
 10
0.2231851195332028
 20
0.1321709139530657
 10
0.2236714794430722
 20
0.1321709139530657
 10
0.2245834053648827
 20
0.1321709139530657
 10
0.2254345362979596
 20
0.1321709139530657
 10
0.2263464622197702
 20
0.1326570488444211
 10
0.2270760031753811
 20
0.1330824177560138
 10
0.2273799781190488
 20
0.1338723874834616
 10
0.2273799781190488
 20
0.1343585230801443
 10
0.2276839530627165
 20
0.134662357916235
 10
0.2283526990295933
 20
0.1347838919917371
 10
0.22920382996267
 20
0.1353915609585946
 10
0.2294470099176039
 20
0.1362422980764562
 10
0.2295078049063378
 20
0.1369715018241432
 10
0.2288390600302685
 20
0.1373968700304103
 10
0.2278055430401843
 20
0.1368499677486411
 10
0.227015208186647
 20
0.1359992306307794
 10
0.2270760031753811
 20
0.1349661927523274
 10
0.2267720271409058
 20
0.1349054260672392
 10
0.2262248722423025
 20
0.1353915609585946
 10
0.2254953312866935
 20
0.1353915609585946
 10
0.2245226103761488
 20
0.1351484935129177
 10
0.2238538644092738
 20
0.1347838919917371
 10
0.2237322744318061
 20
0.1338116207983751
 10
0.2234890944768721
 20
0.1333862525921062
 10
0.2233067095106706
 20
0.1343585230801443
 10
0.2232459145219367
 20
0.1349661927523274
 10
0.2226379635437937
 20
0.1352700275884199
 10
0.2219692186677244
 20
0.1353915609585946
 10
0.2211180877346475
 20
0.1355738617191849
 10
0.2203885467790386
 20
0.1361207647062815
 10
0.2195374158459601
 20
0.1361815313913698
 10
0.2185646949354173
 20
0.1359384639456911
 10
0.2178959489685405
 20
0.1353915609585946
 10
0.2172272040924711
 20
0.1353915609585946
 10
0.2161936881931926
 20
0.1354523283490102
 10
0.215342557260116
 20
0.1358776965552773
 10
0.214734606281973
 20
0.1369107344337293
 10
0.2138834753488962
 20
0.1371538025847335
 10
0.2128499594496176
 20
0.1381260730727699
 10
0.2124243945284823
 20
0.138855276820455
 10
0.2121204195848144
 20
0.1392198783416357
 10
0.2116340585841393
 20
0.1390375775810453
 10
0.2109653126172643
 20
0.1389768101906315
  0
LWPOLYLINE
  5
13C0
330
2
100
AcDbEntity
  8
Profilo
  6
Continuous
370
     0
100
AcDbPolyline
 90
       14
 70
   128
 43
0.0
 10
0.2121503840291481
 20
0.1395844290793199
 10
0.2119887331058272
 20
0.1405245077680891
 10
0.2119005599740891
 20
0.1414352096149943
 10
0.2119446470853611
 20
0.1423605998828324
 10
0.2120916026685282
 20
0.1432859901506705
 10
0.2120328202170993
 20
0.1439763600409903
 10
0.2124149034243644
 20
0.1442554463866311
 10
0.2130615071176496
 20
0.1438000954631767
 10
0.2133701136241361
 20
0.1433888112131721
 10
0.213458286755876
 20
0.1426690630703372
 10
0.2133113311727087
 20
0.1416555401609286
 10
0.2130174210971835
 20
0.1408770376290401
 10
0.2126941192505398
 20
0.1401572894862051
 10
0.2125030765561027
 20
0.1396872501418196
  0
LWPOLYLINE
  5
13C1
330
2
100
AcDbEntity
  8
Profilo
  6
Continuous
370
     0
100
AcDbPolyline
 90
        7
 70
   128
 43
0.0
 10
0.2060332098029328
 20
0.1448358763557468
 10
0.2053821414401672
 20
0.1441555291526511
 10
0.2051453896057438
 20
0.143297699978489
 10
0.2053525478699151
 20
0.1427652547706134
 10
0.2061219916044913
 20
0.143297699978489
 10
0.2064179316702209
 20
0.1439188865245625
 10
0.2061811798357977
 20
0.1448358763557468
  0
LWPOLYLINE
  5
13C2
330
2
100
AcDbEntity
  8
Profilo
  6
Continuous
370
     0
100
AcDbPolyline
 90
        9
 70
   128
 43
0.0
 10
0.2026003054767899
 20
0.1455162235588424
 10
0.2010614180076392
 20
0.1441851098338268
 10
0.1997296877118541
 20
0.1424694514855008
 10
0.1989602439772796
 20
0.1404875705332378
 10
0.1990194311177802
 20
0.1383577882910823
 10
0.1994922083097447
 20
0.1353588563870814
 10
0.2004392167382417
 20
0.1332586541207741
 10
0.2020964806700069
 20
0.1310697112215947
 10
0.2048783166333824
 20
0.1298569181052978
  0
LWPOLYLINE
  5
13C3
330
2
100
AcDbEntity
  8
Profilo
  6
Continuous
370
     0
100
AcDbPolyline
 90
        3
 70
   128
 43
0.0
 10
0.2092024030212041
 20
0.1445963877358941
 10
0.2085205564727318
 20
0.1427789733678333
 10
0.2082932750171115
 20
0.1404314801617526
  0
LWPOLYLINE
  5
13C4
330
2
100
AcDbEntity
  8
Profilo
  6
Continuous
370
     0
100
AcDbPolyline
 90
        4
 70
   128
 43
0.0
 10
0.2010960140147916
 20
0.1382354374476825
 10
0.2010202531659829
 20
0.1402800289644147
 10
0.201550578016838
 20
0.1422488945298133
 10
0.2029142689321714
 20
0.1443692112925499
  0
LWPOLYLINE
  5
13C5
330
2
100
AcDbEntity
  8
Profilo
  6
Continuous
370
     0
100
AcDbPolyline
 90
       66
 70
   128
 43
0.0
 10
0.1892641773867883
 20
0.1538777149128406
 10
0.1905439340429965
 20
0.1533817118007291
 10
0.1920587485117097
 20
0.1531206578281764
 10
0.1930250947512427
 20
0.1529901308418991
 10
0.1930250947512427
 20
0.1525202332681089
 10
0.1923721578375773
 20
0.1517631768887684
 10
0.1915886339775035
 20
0.1514760173778945
 10
0.1910401668391292
 20
0.1515021229162157
 10
0.1892902945579092
 20
0.1512932793149782
 10
0.1881411248481128
 20
0.1507189602932303
 10
0.18730536555499
 20
0.1497791658509736
 10
0.1870703088332907
 20
0.1489176873183516
 10
0.187906068126412
 20
0.1477951555185042
 10
0.1877754800891961
 20
0.1469858873571975
 10
0.1874881879344493
 20
0.1455761960464761
 10
0.1881411248481128
 20
0.1445058739126167
 10
0.1885590050400773
 20
0.1439837659675094
 10
0.1886634748153665
 20
0.143461658022404
 10
0.1882195658075777
 20
0.1426716875896306
 10
0.1876449814980824
 20
0.1420712630295614
 10
0.1871748669638763
 20
0.1414186280981787
 10
0.1872009841349972
 20
0.1403744122079661
 10
0.187801686706419
 20
0.1394346170603838
 10
0.1883501538447935
 20
0.1390430361015539
 10
0.1886635631706629
 20
0.1389647201919192
 10
0.1896299105010016
 20
0.1388080876673224
 10
0.1901261422063286
 20
0.1388080876673224
 10
0.1898388500515801
 20
0.1380249257496625
 10
0.1898127328804592
 20
0.1369284980774817
 10
0.1907268447777505
 20
0.1357276496626723
 10
0.191249194745004
 20
0.1355449115997543
 10
0.1918760144875468
 20
0.1350489091929684
 10
0.1918237790544993
 20
0.1344745901712204
 10
0.1925289514012122
 20
0.1339524822261149
 10
0.1930513013684656
 20
0.1336131116386002
 10
0.1939131778327094
 20
0.1335870068056063
 10
0.194461644971084
 20
0.1340830092123922
 10
0.1944094106288422
 20
0.1352838576272016
 10
0.1940176476079988
 20
0.1360148091735463
 10
0.1934430632985035
 20
0.1363019686844203
 10
0.1929729487642974
 20
0.1365108115803323
 10
0.1928162435559589
 20
0.1377899766101037
 10
0.1922416592464635
 20
0.1387558765906799
 10
0.1916148395039208
 20
0.1390430361015539
 10
0.191405898862535
 20
0.1391996686261506
 10
0.1916148395039208
 20
0.1400611471587725
 10
0.1916148395039208
 20
0.1407137820901552
 10
0.1912753119161249
 20
0.1415752606227772
 10
0.1907790791199922
 20
0.1425150550650339
 10
0.1903350828477127
 20
0.143298216982692
 10
0.1902567302435444
 20
0.1437681145564841
 10
0.1911186067077882
 20
0.1442641176685956
 10
0.1916409566750418
 20
0.1446034875507847
 10
0.1918760144875468
 20
0.1453605446354508
 10
0.1917976618833783
 20
0.1456999145176382
 10
0.1925289514012122
 20
0.1456215986080034
 10
0.1932341237479231
 20
0.1458826525805562
 10
0.1933647106943334
 20
0.1470835009953655
 10
0.1933124752612859
 20
0.1479188739896662
 10
0.1930774185395866
 20
0.1487542469839669
 10
0.1927640081229115
 20
0.1494329874536709
 10
0.1928162435559589
 20
0.1502161500766564
 10
0.1931563012755334
 20
0.1511898841168398
 10
0.1941226486058721
 20
0.1515031484607077
 10
0.1948017026906565
 20
0.1515292539990272
 10
0.1960031067426965
 20
0.1513987270127518
  0
LWPOLYLINE
  5
13C6
330
2
100
AcDbEntity
  8
Profilo
  6
Continuous
370
     0
100
AcDbPolyline
 90
        3
 70
   128
 43
0.0
 10
0.1915931662769655
 20
0.1460457487156904
 10
0.1911251406364948
 20
0.1481174734312126
 10
0.1888518744865565
 20
0.1479838133853547
  0
LWPOLYLINE
  5
13C7
330
2
100
AcDbEntity
  8
Profilo
  6
Continuous
370
     0
100
AcDbPolyline
 90
        5
 70
   128
 43
0.0
 10
0.1923257593081214
 20
0.1633430172950991
 10
0.1889496347133538
 20
0.1622181628556278
 10
0.1865002895474398
 20
0.160166958199178
 10
0.1850439226526735
 20
0.157652578434237
 10
0.1841833420661104
 20
0.1555352057036243
  0
LWPOLYLINE
  5
13C8
330
2
100
AcDbEntity
  8
Profilo
  6
Continuous
370
     0
100
AcDbPolyline
 90
        3
 70
   128
 43
0.0
 10
0.1875594666608781
 20
0.158777432873708
 10
0.1866988849835075
 20
0.1563292204776045
 10
0.1865002895474398
 20
0.1543441838953178
  0
LWPOLYLINE
  5
13C9
330
2
100
AcDbEntity
  8
Profilo
  6
Continuous
370
     0
100
AcDbPolyline
 90
        4
 70
   128
 43
0.0
 10
0.1887510392772861
 20
0.1610271410473212
 10
0.1868974815103826
 20
0.1591744399080345
 10
0.1855735112093918
 20
0.1569247317344198
 10
0.1849777238103812
 20
0.1545426874124808
  0
LWPOLYLINE
  5
13CA
330
2
100
AcDbEntity
  8
Profilo
  6
Continuous
370
     0
100
AcDbPolyline
 90
        4
 70
   128
 43
0.0
 10
0.1853278431256794
 20
0.1540490351530447
 10
0.1851909164140533
 20
0.1527944570939939
 10
0.1856473380589357
 20
0.1521101417249354
 10
0.1859211903913821
 20
0.1516995529266963
  0
LWPOLYLINE
  5
13CB
330
2
100
AcDbEntity
  8
Profilo
  6
Continuous
370
     0
100
AcDbPolyline
 90
       17
 70
   128
 43
0.0
 10
0.192294053937206
 20
0.1579925788781695
 10
0.1929834128674813
 20
0.1584060030882766
 10
0.1937187296415396
 20
0.1584060030882766
 10
0.1945000031685716
 20
0.1584519395818385
 10
0.1945000031685716
 20
0.1587275557219093
 10
0.1941783026253255
 20
0.15900317186198
 10
0.1933051145015349
 20
0.1592787880020507
 10
0.1930753274642399
 20
0.159738148000394
 10
0.1934889436950485
 20
0.1604731248441338
 10
0.1937646874853208
 20
0.1607487409842045
 10
0.1946838323620853
 20
0.1608865490542408
 10
0.1949595761523576
 20
0.1612081009825478
 10
0.1954191491361435
 20
0.161713397474453
 10
0.1966140388939859
 20
0.161713397474453
 10
0.1974872270177749
 20
0.1610702929125116
 10
0.1985442454258849
 20
0.1607028044906425
 10
0.1992795611091357
 20
0.160151572210501
  0
LWPOLYLINE
  5
13CC
330
2
100
AcDbEntity
  8
Profilo
  6
Continuous
370
     0
100
AcDbPolyline
 90
        2
 70
   128
 43
0.0
 10
0.2008421092540073
 20
0.1567063704596138
 10
0.1977629708080472
 20
0.1580385153717333
  0
LWPOLYLINE
  5
13CD
330
2
100
AcDbEntity
  8
Profilo
  6
Continuous
370
     0
100
AcDbPolyline
 90
        2
 70
   128
 43
0.0
 10
0.2014395535875256
 20
0.157854770808135
 10
0.1996012627431892
 20
0.1587734915101455
  0
LWPOLYLINE
  5
13CE
330
2
100
AcDbEntity
  8
Profilo
  6
Continuous
370
     0
100
AcDbPolyline
 90
        3
 70
   128
 43
0.0
 10
0.202634053927581
 20
0.161899158566043
 10
0.1990310023891844
 20
0.1646185710540325
 10
0.197486837599988
 20
0.1657945334397555
  0
LWPOLYLINE
  5
13CF
330
2
100
AcDbEntity
  8
Profilo
  6
Continuous
370
     0
100
AcDbPolyline
 90
        3
 70
   128
 43
0.0
 10
0.1982221543740444
 20
0.1638835949156201
 10
0.1952808883686224
 20
0.164839063825025
 10
0.1926337484183403
 20
0.1649125616504632
  0
LWPOLYLINE
  5
13D0
330
2
100
AcDbEntity
  8
Profilo
  6
Continuous
370
     0
100
AcDbPolyline
 90
      121
 70
   128
 43
0.0
 10
0.214215649598608
 20
0.1375061149170903
 10
0.2160634162757773
 20
0.1386142622916565
 10
0.2166177464970884
 20
0.1391991181835276
 10
0.2167101355945116
 20
0.1398763196311661
 10
0.2163405813864338
 20
0.140553520373481
 10
0.2162789890184208
 20
0.1413846310807375
 10
0.2165869508584854
 20
0.1415077584884311
 10
0.2167717268717188
 20
0.141046030709581
 10
0.2170796887117854
 20
0.1404611748177099
 10
0.2176032222036878
 20
0.1398455377792437
 10
0.2178495916757395
 20
0.1400610107427065
 10
0.21800357205037
 20
0.1408613395980406
 10
0.2177572036691239
 20
0.1421541780841472
 10
0.2175108341970704
 20
0.1427390339760164
 10
0.216740931233116
 20
0.1435085802741006
 10
0.2166485432264986
 20
0.143970308758278
 10
0.2172644647250185
 20
0.1443089091294346
 10
0.2179727764117656
 20
0.1436932720909665
 10
0.2182499415224217
 20
0.1431699799029441
 10
0.2186810870077085
 20
0.1421849599360714
 10
0.2187734750143244
 20
0.1415385403403536
 10
0.2185271066330782
 20
0.1407689940422712
 10
0.2183731251676421
 20
0.1399686651869373
 10
0.2185579022716827
 20
0.1394761548508373
 10
0.2191430281315982
 20
0.1395069367027598
 10
0.2196973583529091
 20
0.1401841381504001
 10
0.2199745234635653
 20
0.1409229033018874
 10
0.2200669125609884
 20
0.1417232321572195
 10
0.2203132809422347
 20
0.1425851240110748
 10
0.2208368155249427
 20
0.1422773054918408
 10
0.2209292035315602
 20
0.1411999399691971
 10
0.2205596504142884
 20
0.1402457018542469
 10
0.2206828340595085
 20
0.1390452089239096
 10
0.2210523882675862
 20
0.1390144270719872
 10
0.2216683108569119
 20
0.13922990003545
 10
0.2221918443488142
 20
0.1386758259955033
 10
0.22280776693814
 20
0.1382448800685775
 10
0.2236700579087118
 20
0.1380294071051128
 10
0.2244707576020763
 20
0.1382448800685775
 10
0.2249634954553742
 20
0.139075990775834
 10
0.2248403107193484
 20
0.1397224096662245
 10
0.2246863303447195
 20
0.1403380474100181
 10
0.2240396121167895
 20
0.1409229033018874
 10
0.2232389124234251
 20
0.1412615036730439
 10
0.2228385625767426
 20
0.1413846310807375
 10
0.2228385625767426
 20
0.1419694869726068
 10
0.2235776699020943
 20
0.1416308858961247
 10
0.2242551848594329
 20
0.1412307218211214
 10
0.2246555336153093
 20
0.1407689940422712
 10
0.2252406605660306
 20
0.1398147559273211
 10
0.2259489711619737
 20
0.1395685004066066
 10
0.2268420588619539
 20
0.1394145911469904
 10
0.2276119618259099
 20
0.1397839733700713
 10
0.2275195727284868
 20
0.140553520373481
 10
0.2278583302071561
 20
0.140892121449963
 10
0.2284742527964817
 20
0.1399994470388598
 10
0.2293365437670535
 20
0.1399994470388598
 10
0.2300140587243921
 20
0.1401533562984777
 10
0.2309995344309898
 20
0.1408305577461162
 10
0.2316547609467168
 20
0.1418236459409395
 10
0.2319935184253861
 20
0.142162246312096
 10
0.2317779445919371
 20
0.1428702296116589
 10
0.2313467991066504
 20
0.1434858673554525
 10
0.2309464503507738
 20
0.1437321221708397
 10
0.2301457506574093
 20
0.1439475951343026
 10
0.229745400810727
 20
0.1436397766150686
 10
0.229375847693455
 20
0.1431472662789704
 10
0.2287291294655248
 20
0.1430549207231993
 10
0.228575149090896
 20
0.1433627399477589
 10
0.229067886944194
 20
0.1440399406900737
 10
0.2299609735533704
 20
0.1441322869511686
 10
0.2309772459893783
 20
0.1442554143588622
 10
0.2321782944386194
 20
0.1449633969530995
 10
0.2327942170279431
 20
0.1452096524738123
 10
0.2331329745066125
 20
0.145794507660356
 10
0.2335951250652791
 20
0.1469694233417985
 10
0.2343342323906307
 20
0.147492715529821
 10
0.2353197080972284
 20
0.1486932084601583
 10
0.2357816492211178
 20
0.1494319736116437
 10
0.2360896110611844
 20
0.1502938661708245
 10
0.2363975718104435
 20
0.1514020135453907
 10
0.2365823489144824
 20
0.154510982705628
 10
0.236489959817061
 20
0.1574968251634976
 10
0.2361819990678001
 20
0.1596823380607075
 10
0.2354429964598371
 20
0.1625839828926318
 10
0.2343343360172136
 20
0.1648618420509386
 10
0.2329177137345235
 20
0.1663393716485855
 10
0.2325173649786467
 20
0.1660623349812758
 10
0.2333180635812055
 20
0.1651388787182501
 10
0.2342111512811857
 20
0.163168838784503
 10
0.2345807043984596
 20
0.1617528721853753
 10
0.234919461877129
 20
0.1588285941366783
 10
0.2342727436492007
 20
0.1593211044727782
 10
0.2339339861705313
 20
0.1587978122847558
 10
0.2340571709065572
 20
0.1576896649101895
 10
0.2339955785385443
 20
0.1570432453144715
 10
0.2335644330532575
 20
0.157258718983262
 10
0.2327945300893032
 20
0.1568893360548555
 10
0.2326405486238671
 20
0.1560890071995215
 10
0.2325789573466597
 20
0.1554118064572085
 10
0.2325481606172497
 20
0.1548269505653393
 10
0.2325481606172497
 20
0.1542420946734682
 10
0.2324249758812236
 20
0.1544883501941828
 10
0.2321478107705674
 20
0.1546422594537988
 10
0.2317166652852824
 20
0.1544575683422585
 10
0.2314087045360233
 20
0.1538111487465424
 10
0.2315626849106518
 20
0.153133947298902
 10
0.2316363557749197
 20
0.1517750676973729
 10
0.2315067941862691
 20
0.1499404595892378
 10
0.2309453595446457
 20
0.1491850332190597
 10
0.2305350811805881
 20
0.1486238586588967
 10
0.2299952412278782
 20
0.1481921862458445
 10
0.2293042460884116
 20
0.1479115996710877
 10
0.2289346657009855
 20
0.1472474883749043
 10
0.2287619169161192
 20
0.1466949477144111
 10
0.228140019981631
 20
0.1462805423953713
 10
0.2274490248421629
 20
0.1462460089126721
 10
0.2273108262505934
 20
0.1467640153851387
 10
0.2274490248421629
 20
0.1473510902336584
 10
0.2280018213900596
 20
0.1475237590578145
 10
0.2289001155076888
 20
0.1475928267285421
  0
LWPOLYLINE
  5
13D1
330
2
100
AcDbEntity
  8
Profilo
  6
Continuous
370
     0
100
AcDbPolyline
 90
      126
 70
   128
 43
0.0
 10
0.2311804009950603
 20
0.149837523558543
 10
0.2312149500975495
 20
0.1514260778692967
 10
0.2311458508017655
 20
0.1523584903661287
 10
0.2310767515059799
 20
0.1534635716871167
 10
0.2304894047647863
 20
0.1539815781595833
 10
0.22979840962532
 20
0.1536707739939721
 10
0.2296256608404538
 20
0.1529800986973512
 10
0.2289692148034747
 20
0.1518059497056355
 10
0.2286582674270371
 20
0.1512534090451424
 10
0.228312769857303
 20
0.1510116725502587
 10
0.2284855186421709
 20
0.1518404831883365
 10
0.228692816529528
 20
0.1527383622024674
 10
0.2287273667228229
 20
0.1536017070285718
 10
0.2285546179379566
 20
0.1539470446768823
 10
0.2276217736270309
 20
0.1543959841839487
 10
0.2269998777833483
 20
0.1542923823251945
 10
0.2261361338590139
 20
0.1538434435234555
 10
0.2255487871178222
 20
0.1535671728405453
 10
0.2247886926825701
 20
0.1529455645093228
 10
0.2246159438977021
 20
0.1528074291678677
 10
0.2244431940220303
 20
0.1537053081820004
 10
0.2242013459413767
 20
0.1547067883495581
 10
0.2234412515061245
 20
0.1546377206788305
 10
0.2227502552758506
 20
0.1545341188200763
 10
0.2218174120557323
 20
0.1542233153597926
 10
0.2209536670405903
 20
0.1542233153597926
 10
0.2206427196641527
 20
0.1546377206788305
 10
0.2203317711969095
 20
0.155397464351508
 10
0.2207118189599385
 20
0.1557428019998186
 10
0.2219901608405985
 20
0.1560881396481308
 10
0.2230957528455847
 20
0.1560190719774033
 10
0.2236140002909905
 20
0.1564334780017668
 10
0.2235103508019102
 20
0.1569860186622618
 10
0.2229230040607185
 20
0.1574004239812998
 10
0.222301108217036
 20
0.1578838969710653
 10
0.2227502552758506
 20
0.1582637688074043
 10
0.2236485493934816
 20
0.1583328364781318
 10
0.2243740947262447
 20
0.158781775985198
 10
0.224650493000193
 20
0.1595760531405733
 10
0.2243049954304589
 20
0.1606120667908337
 10
0.2236485493934816
 20
0.160922870956445
 10
0.2229575542540132
 20
0.160922870956445
 10
0.2224047577061165
 20
0.1605775333081328
 10
0.2220247099430874
 20
0.1599904584596131
 10
0.2216446632708643
 20
0.1602667291425233
 10
0.2222320089212503
 20
0.1608192698030163
 10
0.2229230040607185
 20
0.161855283453277
 10
0.2220938103296789
 20
0.1622006211015873
 10
0.2210573165296727
 20
0.1621315541361873
 10
0.2202626719011239
 20
0.161889816935976
 10
0.2196753251599323
 20
0.1614063439462106
 10
0.2190879795095462
 20
0.1608538032857173
 10
0.2188115812355979
 20
0.1607502021322888
 10
0.2190879795095462
 20
0.1614063439462106
 10
0.2196407760574414
 20
0.1619243511240045
 10
0.2208500175515099
 20
0.1626840947966803
 10
0.2220247099430874
 20
0.1626840947966803
 10
0.2233721511195331
 20
0.1627876959501087
 10
0.2244431940220303
 20
0.1628912971035355
 10
0.2245468435111106
 20
0.1636510407762132
 10
0.2247541424892735
 20
0.1643762502608608
 10
0.2254105885262509
 20
0.164859723250628
 10
0.2263088826438818
 20
0.1657921357474601
 10
0.2263088826438818
 20
0.1670008189272023
 10
0.226239783348096
 20
0.1678296295652782
 10
0.2253760383329561
 20
0.167795096082579
 10
0.2243740947262447
 20
0.1673116230928118
 10
0.2239249476674299
 20
0.1667936159150195
 10
0.2235103508019102
 20
0.1664828117494083
 10
0.2245459632305655
 20
0.1681075239094118
 10
0.2250033295135542
 20
0.1688999256020648
 10
0.2256436425278999
 20
0.1696618501437693
 10
0.2255216773131243
 20
0.1709418834302588
 10
0.225216766457799
 20
0.1714295150240987
 10
0.2250338208172477
 20
0.171764762273857
 10
0.225216766457799
 20
0.1732276570553736
 10
0.2246984186582289
 20
0.17453816749281
 10
0.2241800697678513
 20
0.1749343683391365
 10
0.2238446676088327
 20
0.1756658157298938
 10
0.2232348458981803
 20
0.1762448787765728
 10
0.2228384622225785
 20
0.1763972638259785
 10
0.2217446836479579
 20
0.1756171249369923
 10
0.2218227417344733
 20
0.1747588930214931
 10
0.2217446836479579
 20
0.173744618939538
 10
0.2223691417952346
 20
0.172730344857583
 10
0.2221486876951698
 20
0.1722802902295823
 10
0.2220141422133207
 20
0.1722802902295823
 10
0.2215835944897921
 20
0.172683741125307
 10
0.2215835944897921
 20
0.173060295811891
 10
0.2216105046769695
 20
0.1737865075652615
 10
0.2215566853934223
 20
0.174916170919686
 10
0.2214759581043148
 20
0.1757768665400753
 10
0.221018502375222
 20
0.176745149113013
 10
0.2203188625971916
 20
0.1776865354768083
 10
0.2195923148135969
 20
0.178143780201471
 10
0.218865767030002
 20
0.1782513671540195
 10
0.2182468556318868
 20
0.1785472310971973
 10
0.2173050339865277
 20
0.17900447582186
 10
0.2141306714380179
 20
0.1797556751713118
 10
0.2113751708069874
 20
0.1804442316676225
 10
0.209032994070724
 20
0.1804442316676225
 10
0.2059330561335164
 20
0.1804442316676225
 10
0.2043486427798101
 20
0.1803753763001223
 10
0.2020064671343541
 20
0.179824530538812
 10
0.2028331171055012
 20
0.179824530538812
 10
0.2064152687984864
 20
0.1798933866116395
 10
0.2081374564201796
 20
0.1798933866116395
 10
0.2093774324677068
 20
0.179824530538812
 10
0.2084818948171624
 20
0.1781031392980338
 10
0.2091018817501212
 20
0.1775522942420505
 10
0.2097907574532813
 20
0.1776211496095507
 10
0.2107551827832229
 20
0.177896572490206
 10
0.2124773704049161
 20
0.177965427857706
 10
0.2132351337874735
 20
0.177896572490206
 10
0.2115129450749744
 20
0.1775522942420505
 10
0.21061740742443
 20
0.1772080159938953
 10
0.2108929581420157
 20
0.1757620469284448
 10
0.2120640454193419
 20
0.1750734904321343
 10
0.2137862341318406
 20
0.1745915007436513
 10
0.2153706463947395
 20
0.1741095110551686
 10
0.2162661851360913
 20
0.1734898099263562
 10
0.2170239474278412
 20
0.1727323980625455
 10
0.2176439354516057
 20
0.1716995626127523
 10
0.2181950357959728
 20
0.1704601610604568
 10
0.2178505973989901
 20
0.1700470274448013
 10
0.2177099030429987
 20
0.1708738913821923
  0
LWPOLYLINE
  5
13D2
330
2
100
AcDbEntity
  8
Profilo
  6
Continuous
370
     0
100
AcDbPolyline
 90
       17
 70
   128
 43
0.0
 10
0.2163087669349054
 20
0.1733188106096373
 10
0.2157150651572132
 20
0.1735324447873435
 10
0.2153825918126459
 20
0.173461233629884
 10
0.2150738674990976
 20
0.1729864918748225
 10
0.2150738674990976
 20
0.1727016465396548
 10
0.2142901811089101
 20
0.1733662847146098
 10
0.2138389680632879
 20
0.1737223412072391
 10
0.2129365408812402
 20
0.1740309235948941
 10
0.212129106550841
 20
0.1741258718048408
 10
0.2119153739981356
 20
0.1735324447873435
 10
0.2119153739981356
 20
0.1723930641519998
 10
0.2123190911633363
 20
0.1720132713122105
 10
0.2130790296133122
 20
0.1715385295571492
 10
0.2135539905991441
 20
0.1706127830995115
 10
0.2137202272714277
 20
0.169805721904308
 10
0.2135064947187225
 20
0.1688325020470236
 10
0.2131740213741552
 20
0.1679779667468475
  0
LWPOLYLINE
  5
13D3
330
2
100
AcDbEntity
  8
Profilo
  6
Continuous
370
     0
100
AcDbPolyline
 90
        9
 70
   128
 43
0.0
 10
0.2116066496845875
 20
0.1724880130672738
 10
0.2104429940694112
 20
0.1726304353821932
 10
0.2097068035596451
 20
0.17232185299454
 10
0.2096118117988019
 20
0.1714910554521748
 10
0.2094693230667301
 20
0.1703516755221566
 10
0.2093743302150797
 20
0.1694021920120335
 10
0.2098967881721404
 20
0.1686426049218026
 10
0.2107279704427495
 20
0.1680254408518201
 10
0.2107754663231711
 20
0.1671471684991568
  0
LWPOLYLINE
  5
13D4
330
2
100
AcDbEntity
  8
Profilo
  6
Continuous
370
     0
100
AcDbPolyline
 90
       64
 70
   128
 43
0.0
 10
0.2098967881721404
 20
0.1733662847146098
 10
0.2101817656362843
 20
0.1747667729273105
 10
0.2098967881721404
 20
0.1759298899098143
 10
0.2093268343346581
 20
0.176784425209992
 10
0.208780629528193
 20
0.1769268475249133
 10
0.2079731941069881
 20
0.1765945287900968
 10
0.2071420118363771
 20
0.1758824158048418
 10
0.2066195549701239
 20
0.1762622093499563
 10
0.2060496011326415
 20
0.1775440115948957
 10
0.2053609065032988
 20
0.1778051198775766
 10
0.20464846502455
 20
0.1777576457726023
 10
0.2031322445067375
 20
0.1777122707188025
 10
0.2023419085623947
 20
0.1770438343615313
 10
0.2023419085623947
 20
0.1764361646893483
 10
0.2018555475617195
 20
0.1761323298532558
 10
0.2013691876518501
 20
0.1766792328403523
 10
0.2007612366737072
 20
0.1774692025677983
 10
0.1995453358082287
 20
0.1780161048495675
 10
0.198633409886418
 20
0.1778945714793928
 10
0.1977214839646074
 20
0.1775907366433005
 10
0.1971743279751984
 20
0.1767399995254388
 10
0.1969311480202646
 20
0.1763146306138461
 10
0.1964447881103951
 20
0.1763146306138461
 10
0.1955328621885844
 20
0.1763146306138461
 10
0.1946817312555077
 20
0.1763146306138461
 10
0.193769805333697
 20
0.1758284957224907
 10
0.1930402643780863
 20
0.1754031268108962
 10
0.1927362894344184
 20
0.1746131570834483
 10
0.1927362894344184
 20
0.1741270214867673
 10
0.1924323144907508
 20
0.173823186650675
 10
0.191763568523874
 20
0.1737016525751728
 10
0.1909124375907971
 20
0.1730939836083153
 10
0.1906692576358634
 20
0.1722432464904537
 10
0.1906084626471295
 20
0.1715140427427685
 10
0.1912772075231989
 20
0.1710886745364998
 10
0.192310724513283
 20
0.1716355768182707
 10
0.1931010593668202
 20
0.1724863139361323
 10
0.1930402643780863
 20
0.1735193518145825
 10
0.1933442404125614
 20
0.1735801184996708
 10
0.1938913953111629
 20
0.1730939836083153
 10
0.1946209362667738
 20
0.1730939836083153
 10
0.1955936571773183
 20
0.173337051053994
 10
0.1962624031441933
 20
0.1737016525751728
 10
0.1963839931216613
 20
0.1746739237685365
 10
0.196627173076595
 20
0.1750992919748038
 10
0.1968095580427966
 20
0.1741270214867673
 10
0.1968703530315307
 20
0.1735193518145825
 10
0.1974783040096717
 20
0.1732155169784918
 10
0.198147048885743
 20
0.1730939836083153
 10
0.1989981798188196
 20
0.172911682847725
 10
0.1997277207744286
 20
0.1723647798606303
 10
0.2005788517075072
 20
0.172304013175542
 10
0.2015515726180501
 20
0.1725470806212188
 10
0.2022203185849269
 20
0.1730939836083153
 10
0.2028890634609962
 20
0.1730939836083153
 10
0.2039225793602747
 20
0.1730332162179015
 10
0.2047737102933515
 20
0.1726078480116325
 10
0.2053816612714944
 20
0.1715748101331825
 10
0.206232792204571
 20
0.1713317419821783
 10
0.2072663081038478
 20
0.17035947149414
 10
0.2076918730249834
 20
0.169630267746455
 10
0.2079958479686529
 20
0.1692656662252743
 10
0.2084822089693279
 20
0.1694479669858645
 10
0.2091509549362029
 20
0.1695087343762803
  0
LWPOLYLINE
  5
13D5
330
2
100
AcDbEntity
  8
Profilo
  6
Continuous
370
     0
100
AcDbPolyline
 90
       14
 70
   128
 43
0.0
 10
0.2079658835243191
 20
0.1689011154875917
 10
0.20812753444764
 20
0.1679610367988228
 10
0.2082157075793781
 20
0.1670503349519157
 10
0.2081716204681062
 20
0.1661249446840775
 10
0.2080246648849389
 20
0.1651995544162395
 10
0.2080834473363681
 20
0.1645091845259196
 10
0.2077013641291029
 20
0.1642300981802805
 10
0.2070547604358176
 20
0.1646854491037333
 10
0.2067461539293313
 20
0.1650967333537378
 10
0.2066579807975914
 20
0.1658164814965745
 10
0.2068049363807585
 20
0.1668300044059812
 10
0.2070988464562839
 20
0.1676085069378698
 10
0.2074221483029274
 20
0.1683282550807048
 10
0.2076131909973648
 20
0.1687982944250903
  0
LWPOLYLINE
  5
13D6
330
2
100
AcDbEntity
  8
Profilo
  6
Continuous
370
     0
100
AcDbPolyline
 90
        7
 70
   128
 43
0.0
 10
0.2140830577505346
 20
0.1636496682111633
 10
0.2147341261133001
 20
0.1643300154142587
 10
0.2149708779477234
 20
0.1651878445884211
 10
0.2147637196835503
 20
0.1657202897962983
 10
0.213994275948976
 20
0.1651878445884211
 10
0.2136983358832463
 20
0.1645666580423493
 10
0.2139350877176697
 20
0.1636496682111633
  0
LWPOLYLINE
  5
13D7
330
2
100
AcDbEntity
  8
Profilo
  6
Continuous
370
     0
100
AcDbPolyline
 90
        9
 70
   128
 43
0.0
 10
0.2175159620766775
 20
0.1629693210080693
 10
0.2190548495458281
 20
0.164300434733085
 10
0.2203865798416133
 20
0.1660160930814093
 10
0.2211560235761876
 20
0.167997974033672
 10
0.2210968364356869
 20
0.1701277562758295
 10
0.2206240592437225
 20
0.1731266881798286
 10
0.2196770508152256
 20
0.1752268904461358
 10
0.2180197868834606
 20
0.1774158333453153
 10
0.215237950920083
 20
0.178628626461612
  0
LWPOLYLINE
  5
13D8
330
2
100
AcDbEntity
  8
Profilo
  6
Continuous
370
     0
100
AcDbPolyline
 90
        3
 70
   128
 43
0.0
 10
0.2109138645322631
 20
0.1638891568310158
 10
0.2115957110807355
 20
0.1657065711990766
 10
0.2118229925363557
 20
0.1680540644051573
  0
LWPOLYLINE
  5
13D9
330
2
100
AcDbEntity
  8
Profilo
  6
Continuous
370
     0
100
AcDbPolyline
 90
        4
 70
   128
 43
0.0
 10
0.2190202535386757
 20
0.1702501071192275
 10
0.2190960143874843
 20
0.168205515602497
 10
0.2185656895366292
 20
0.1662366500370982
 10
0.2172019986212961
 20
0.1641163332743618
  0
LWPOLYLINE
  5
13DA
330
2
100
AcDbEntity
  8
Profilo
  6
Continuous
370
     0
100
AcDbPolyline
 90
       66
 70
   128
 43
0.0
 10
0.2308520901666788
 20
0.1546078296540693
 10
0.2295723335104708
 20
0.1551038327661808
 10
0.2280575190417577
 20
0.1553648867387353
 10
0.2270911728022246
 20
0.1554954137250108
 10
0.2270911728022246
 20
0.1559653112988028
 10
0.2277441097158881
 20
0.1567223676781415
 10
0.2285276335759637
 20
0.1570095271890155
 10
0.2290761007143382
 20
0.1569834216506943
 10
0.2308259729955581
 20
0.1571922652519335
 10
0.2319751427053544
 20
0.1577665842736798
 10
0.2328109019984774
 20
0.1587063787159363
 10
0.2330459587201767
 20
0.1595678572485583
 10
0.2322101994270537
 20
0.1606903890484058
 10
0.2323407874642712
 20
0.1614996572097125
 10
0.2326280796190181
 20
0.1629093485204338
 10
0.2319751427053544
 20
0.1639796706542933
 10
0.2315572625133901
 20
0.1645017785994005
 10
0.2314527927381008
 20
0.1650238865445061
 10
0.2318967017458895
 20
0.1658138569772793
 10
0.2324712860553849
 20
0.1664142815373486
 10
0.2329414005895909
 20
0.1670669164687313
 10
0.2329152834184701
 20
0.168111132358944
 10
0.2323145808470481
 20
0.169050927506526
 10
0.2317661137086739
 20
0.1694425084653561
 10
0.2314527043828043
 20
0.1695208243749926
 10
0.2304863570524657
 20
0.1696774568995893
 10
0.2299901253471387
 20
0.1696774568995893
 10
0.2302774175018873
 20
0.1704606188172493
 10
0.2303035346730081
 20
0.1715570464894283
 10
0.2293894227757167
 20
0.1727578949042375
 10
0.2288670728084633
 20
0.1729406329671557
 10
0.2282402530659188
 20
0.1734366353739416
 10
0.228292488498968
 20
0.1740109543956895
 10
0.227587316152255
 20
0.174533062340795
 10
0.2270649661850016
 20
0.1748724329283098
 10
0.2262030897207578
 20
0.1748985377613055
 10
0.2256546225823832
 20
0.1744025353545195
 10
0.225706856924625
 20
0.1732016869397082
 10
0.2260986199454686
 20
0.1724707353933655
 10
0.2266732042549639
 20
0.1721835758824916
 10
0.2271433187891698
 20
0.1719747329865795
 10
0.2273000239975084
 20
0.1706955679568081
 10
0.2278746083070037
 20
0.16972966797623
 10
0.2285014280495464
 20
0.1694425084653561
 10
0.2287103686909322
 20
0.1692858759407593
 10
0.2285014280495464
 20
0.1684243974081373
 10
0.2285014280495464
 20
0.1677717624767548
 10
0.2288409556373425
 20
0.1669102839441345
 10
0.2293371884334749
 20
0.1659704895018778
 10
0.2297811847057546
 20
0.1651873275842181
 10
0.2298595373099229
 20
0.164717430010426
 10
0.2289976608456791
 20
0.1642214268983145
 10
0.2284753108784256
 20
0.1638820570161253
 10
0.2282402530659188
 20
0.163124999931461
 10
0.2283186056700888
 20
0.1627856300492718
 10
0.227587316152255
 20
0.1628639459589082
 10
0.2268821438055439
 20
0.1626028919863538
 10
0.226751556859134
 20
0.1614020435715442
 10
0.2268037922921814
 20
0.1605666705772438
 10
0.2270388490138807
 20
0.159731297582943
 10
0.2273522594305559
 20
0.1590525571132407
 10
0.2273000239975084
 20
0.1582693944902535
 10
0.2269599662779338
 20
0.157295660450072
 10
0.2259936189475952
 20
0.156982396106204
 10
0.2253145648628107
 20
0.1569562905678828
 10
0.2241131608107708
 20
0.15708681755416
  0
LWPOLYLINE
  5
13DB
330
2
100
AcDbEntity
  8
Profilo
  6
Continuous
370
     0
100
AcDbPolyline
 90
        3
 70
   128
 43
0.0
 10
0.2285231012765018
 20
0.1624397958512213
 10
0.2289911269169726
 20
0.1603680711356993
 10
0.2312643930669108
 20
0.160501731181557
  0
LWPOLYLINE
  5
13DC
330
2
100
AcDbEntity
  8
Profilo
  6
Continuous
370
     0
100
AcDbPolyline
 90
        5
 70
   128
 43
0.0
 10
0.2277905082453457
 20
0.1451425272718128
 10
0.2311666328401135
 20
0.1462673817112821
 10
0.2336159780060276
 20
0.148318586367732
 10
0.2350723449007936
 20
0.1508329661326729
 10
0.2359329254873569
 20
0.1529503388632874
  0
LWPOLYLINE
  5
13DD
330
2
100
AcDbEntity
  8
Profilo
  6
Continuous
370
     0
100
AcDbPolyline
 90
        3
 70
   128
 43
0.0
 10
0.2325568008925892
 20
0.1497081116932036
 10
0.2334173825699579
 20
0.1521563240893072
 10
0.2336159780060276
 20
0.1541413606715941
  0
LWPOLYLINE
  5
13DE
330
2
100
AcDbEntity
  8
Profilo
  6
Continuous
370
     0
100
AcDbPolyline
 90
        4
 70
   128
 43
0.0
 10
0.2313652282761812
 20
0.1474584035195888
 10
0.2332187860430845
 20
0.1493111046588771
 10
0.2345427563440754
 20
0.1515608128324902
 10
0.2351385437430843
 20
0.1539428571544308
  0
LWPOLYLINE
  5
13DF
330
2
100
AcDbEntity
  8
Profilo
  6
Continuous
370
     0
100
AcDbPolyline
 90
        4
 70
   128
 43
0.0
 10
0.2347884244277878
 20
0.1544365094138672
 10
0.2349253511394139
 20
0.1556910874729178
 10
0.2344689294945316
 20
0.1563754028419745
 10
0.2341950771620851
 20
0.1567859916402138
  0
LWPOLYLINE
  5
13E0
330
2
100
AcDbEntity
  8
Profilo
  6
Continuous
370
     0
100
AcDbPolyline
 90
       17
 70
   128
 43
0.0
 10
0.2278222136162612
 20
0.1504929656887405
 10
0.2271328546859859
 20
0.1500795414786352
 10
0.2263975379119278
 20
0.1500795414786352
 10
0.2256162643848956
 20
0.1500336049850715
 10
0.2256162643848956
 20
0.1497579888450007
 10
0.2259379649281418
 20
0.14948237270493
 10
0.2268111530519325
 20
0.1492067565648592
 10
0.2270409400892274
 20
0.1487473965665159
 10
0.2266273238584188
 20
0.1480124197227762
 10
0.2263515800681464
 20
0.1477368035827054
 10
0.2254324351913819
 20
0.1475989955126709
 10
0.2251566914011097
 20
0.1472774435843621
 10
0.2246971184173236
 20
0.1467721470924569
 10
0.2235022286594813
 20
0.1467721470924569
 10
0.2226290405356923
 20
0.1474152516543984
 10
0.2215720221275824
 20
0.1477827400762691
 10
0.2208367064443316
 20
0.1483339723564106
  0
LWPOLYLINE
  5
13E1
330
2
100
AcDbEntity
  8
Profilo
  6
Continuous
370
     0
100
AcDbPolyline
 90
        2
 70
   128
 43
0.0
 10
0.2192741582994602
 20
0.1517791741072961
 10
0.2223532967454202
 20
0.1504470291951785
  0
LWPOLYLINE
  5
13E2
330
2
100
AcDbEntity
  8
Profilo
  6
Continuous
370
     0
100
AcDbPolyline
 90
        2
 70
   128
 43
0.0
 10
0.2186767139659416
 20
0.1506307737587767
 10
0.220515004810278
 20
0.1497120530567645
  0
LWPOLYLINE
  5
13E3
330
2
100
AcDbEntity
  8
Profilo
  6
Continuous
370
     0
100
AcDbPolyline
 90
        3
 70
   128
 43
0.0
 10
0.217482213625886
 20
0.146586386000867
 10
0.2210852651642829
 20
0.1438669735128775
 10
0.2226294299534794
 20
0.1426910111271545
  0
LWPOLYLINE
  5
13E4
330
2
100
AcDbEntity
  8
Profilo
  6
Continuous
370
     0
100
AcDbPolyline
 90
        3
 70
   128
 43
0.0
 10
0.2218941131794229
 20
0.1446019496512917
 10
0.224835379184845
 20
0.1436464807418867
 10
0.2274825191351268
 20
0.1435729829164468
  0
LWPOLYLINE
  5
13E5
330
2
100
AcDbEntity
  8
Profilo
  6
Continuous
370
     0
100
AcDbPolyline
 90
        9
 70
   128
 43
0.0
 10
0.2025101470778975
 20
0.1734529787785393
 10
0.202903137255636
 20
0.1745752884005906
 10
0.2023978649491206
 20
0.1751925582695248
 10
0.201836449942008
 20
0.175360904853897
 10
0.2009381874577557
 20
0.175417019911804
 10
0.2000399238826959
 20
0.1748558651007785
 10
0.1994223683565978
 20
0.174238595231846
 10
0.1994223683565978
 20
0.1735090938364463
 10
0.1994223683565978
 20
0.1730601698465585
  0
LWPOLYLINE
  5
13E6
330
2
100
AcDbEntity
  8
Profilo
  6
Continuous
370
     0
100
AcDbPolyline
 90
        8
 70
   128
 43
0.0
 10
0.2154788218524224
 20
0.1661579662351978
 10
0.2154788218524224
 20
0.1684587005372088
 10
0.2151981148942681
 20
0.1701421649702893
 10
0.2146928414969469
 20
0.1711522437712007
 10
0.2142998513192102
 20
0.1717133985822263
 10
0.2142998513192102
 20
0.1700860499123823
 10
0.2144682761485858
 20
0.1687953937059552
 10
0.2144682761485858
 20
0.1682903546581623
  0
LWPOLYLINE
  5
13E7
330
2
100
AcDbEntity
  8
Profilo
  6
Continuous
370
     0
100
AcDbPolyline
 90
        4
 70
   128
 43
0.0
 10
0.2055979268900047
 20
0.1634083079433006
 10
0.2048119465345292
 20
0.1650917723763793
 10
0.2048680881443222
 20
0.1670558142149713
 10
0.2047558049247379
 20
0.1686270471215831
  0
LWPOLYLINE
  5
13E8
330
2
100
AcDbEntity
  8
Profilo
  6
Continuous
370
     0
100
AcDbPolyline
 90
        3
 70
   128
 43
0.0
 10
0.203471926112173
 20
0.1380303588784218
 10
0.2033596428925887
 20
0.1399944000116884
 10
0.2034157845023816
 20
0.1419584418502789
  0
LWPOLYLINE
  5
13E9
330
2
100
AcDbEntity
  8
Profilo
  6
Continuous
370
     0
100
AcDbPolyline
 90
        3
 70
   128
 43
0.0
 10
0.2135212448131609
 20
0.1393210143795215
 10
0.2148124985659558
 20
0.1403872089436673
 10
0.2151493471339013
 20
0.1415656336236274
  0
CIRCLE
  5
13EA
330
2
100
AcDbEntity
  8
Profilo
  6
Continuous
370
     0
100
AcDbCircle
 10
0.2100581337767328
 20
0.1542427722834559
 30
0.0
 40
0.0291487526562269
  0
DIMENSION
  5
13EC
102
{ACAD_XDICTIONARY
360
13F6
102
}
102
{ACAD_REACTORS
330
13FD
102
}
330
2
100
AcDbEntity
  8
Text
  6
ACAD_ISO10W100
100
AcDbDimension
  2
*D14
 10
0.1467924955638738
 20
0.1003240867790813
 30
0.0
 11
0.2915356145717098
 21
0.2101073953097928
 31
0.0
 70
    35
  1
d 665 mm
 71
     5
 42
0.16625
  3
Bovelacci
100
AcDbDiametricDimension
 15
0.2733237719895916
 25
0.2081614577878304
 35
0.0
 40
0.0
1001
ACAD
1000
DSTYLE
1002
{
1070
   288
1070
     1
1002
}
  0
ENDSEC
  0
SECTION
  2
OBJECTS
  0
DICTIONARY
  5
9
330
0
100
AcDbDictionary
281
     1
  3
ACAD_2007HEADERVARS_RT
350
208
  3
ACAD_COLOR
350
184
  3
ACAD_GROUP
350
17F
  3
ACAD_LAYOUT
350
164
  3
ACAD_MATERIAL
350
B
  3
ACAD_MLINESTYLE
350
180
  3
ACAD_PLOTSETTINGS
350
181
  3
ACAD_PLOTSTYLENAME
350
8
  3
ACAD_TABLESTYLE
350
185
  3
ACAD_VISUALSTYLE
350
17A
  3
ACDBHEADERROUNDTRIPXREC
350
140D
  3
AcDbVariableDictionary
350
18B
  3
DWGPROPS
350
140C
  0
DICTIONARY
  5
16E
330
16D
100
AcDbDictionary
280
     1
281
     1
  3
ACAD_LAYERSTATES
360
16F
  0
DICTIONARY
  5
3
330
2
100
AcDbDictionary
280
     1
281
     1
  3
ACAD_SORTENTS
360
18A
  0
DICTIONARY
  5
140E
330
18
100
AcDbDictionary
280
     1
281
     1
  3
ACAD_MTEXT_RT
360
140F
  0
DICTIONARY
  5
13F6
330
13EC
100
AcDbDictionary
280
     1
281
     1
  3
ACAD_DIMASSOC
360
13FD
  0
DICTIONARY
  5
208
102
{ACAD_REACTORS
330
9
102
}
330
9
100
AcDbDictionary
281
     1
  3
DIMFXL
350
209
  0
DICTIONARY
  5
184
102
{ACAD_REACTORS
330
9
102
}
330
9
100
AcDbDictionary
281
     1
  0
DICTIONARY
  5
17F
102
{ACAD_REACTORS
330
9
102
}
330
9
100
AcDbDictionary
281
     1
  0
DICTIONARY
  5
164
102
{ACAD_REACTORS
330
9
102
}
330
9
100
AcDbDictionary
281
     1
  3
Layout1
350
168
  3
Layout2
350
16C
  3
Model
350
163
  0
DICTIONARY
  5
B
102
{ACAD_REACTORS
330
9
102
}
330
9
100
AcDbDictionary
281
     1
  3
ByBlock
350
183
  3
ByLayer
350
182
  3
Global
350
A
  0
DICTIONARY
  5
180
102
{ACAD_REACTORS
330
9
102
}
330
9
100
AcDbDictionary
281
     1
  3
Standard
350
186
  0
DICTIONARY
  5
181
102
{ACAD_REACTORS
330
9
102
}
330
9
100
AcDbDictionary
281
     1
  0
ACDBDICTIONARYWDFLT
  5
8
102
{ACAD_REACTORS
330
9
102
}
330
9
100
AcDbDictionary
281
     1
  3
Normal
350
7
100
AcDbDictionaryWithDefault
340
7
  0
DICTIONARY
  5
185
102
{ACAD_REACTORS
330
9
102
}
330
9
100
AcDbDictionary
281
     1
  3
Standard
350
187
  0
DICTIONARY
  5
17A
102
{ACAD_REACTORS
330
9
102
}
330
9
100
AcDbDictionary
281
     1
  3
2dWireframe
350
179
  3
3D Hidden
350
1BD
  3
3dWireframe
350
189
  3
Basic
350
1BC
  3
Brighten
350
1C0
  3
ColorChange
350
1C4
  3
Conceptual
350
1BE
  3
Dim
350
1BF
  3
Facepattern
350
1C3
  3
Flat
350
1B8
  3
FlatWithEdges
350
1B9
  3
Gouraud
350
1BA
  3
GouraudWithEdges
350
1BB
  3
Linepattern
350
1C2
  3
Realistic
350
188
  3
Thicken
350
1C1
  0
DICTIONARY
  5
140D
102
{ACAD_REACTORS
330
9
102
}
330
9
100
AcDbDictionary
281
     1
  0
DICTIONARY
  5
18B
102
{ACAD_REACTORS
330
9
102
}
330
9
100
AcDbDictionary
281
     1
  3
CTABLESTYLE
350
18C
  3
DIMASSOC
350
190
  3
HIDETEXT
350
18F
  3
INDEXCTL
350
18E
  3
PROJECTNAME
350
2F9
  3
SORTENTS
350
18D
  0
XRECORD
  5
140C
102
{ACAD_REACTORS
330
9
102
}
330
9
100
AcDbXrecord
280
     1
  1
DWGPROPS COOKIE
  2

  3

  4

  6

  7

  8
Mario
  9

300
=
301
=
302
=
303
=
304
=
305
=
306
=
307
=
308
=
309
=
 40
0.1438896180555556
 41
2454297.625402373
 42
2454311.563875498
  1

 90
        0
  0
DICTIONARY
  5
16F
102
{ACAD_REACTORS
330
16E
102
}
330
16E
100
AcDbDictionary
281
     1
  0
SORTENTSTABLE
  5
18A
102
{ACAD_REACTORS
330
3
102
}
330
3
100
AcDbSortentsTable
330
2
331
18
  5
1C
331
16
  5
12
331
14
  5
10
331
23
  5
24
331
12
  5
16
331
10
  5
14
331
21
  5
22
331
1F
  5
21
331
1D
  5
1E
331
15
  5
11
331
24
  5
18
331
13
  5
D
331
22
  5
23
331
11
  5
15
331
1E
  5
1F
331
D
  5
13
331
1C
  5
1D
  0
XRECORD
  5
140F
102
{ACAD_REACTORS
330
140E
102
}
330
140E
100
AcDbXrecord
280
     1
 40
7955300.0
  1
{\fTimes New Roman|b0|i0|c238|p18;\H1.6x;\C4;Bovelacci\P\pt0.09;\H0.4375x;\T0.95;via del Commercio, 5  47100 Forli - Italy  \fTimes New Roman|b0|i0|c0|p18;\P\fTimes New Roman|b0|i0|c238|p18;tel.+39-0543721386  fax +39-0543721127\fTimes New Roman|b0|i
  1
0|c0|p18; \fTimes New Roman|b0|i0|c238|p18;www.bovelacci.it\fTimes New Roman|b0|i0|c0|p18; \fTimes New Roman|b0|i0|c238|p18;e-mail: bovelacci@bovelacci\fTimes New Roman|b0|i0|c0|p18;.it}
  0
DIMASSOC
  5
13FD
102
{ACAD_REACTORS
330
13F6
102
}
330
13F6
100
AcDbDimAssoc
330
13EC
 90
        2
 70
     0
 71
     0
  1
AcDbOsnapPointRef
 72
     3
331
12B0
 73
     2
 91
        0
 40
0.0
 10
0.0
 20
0.0
 30
0.0
 75
     0
  0
XRECORD
  5
209
102
{ACAD_REACTORS
330
208
102
}
330
208
100
AcDbXrecord
280
     1
 40
0.18
  0
LAYOUT
  5
168
102
{ACAD_XDICTIONARY
360
1412
102
}
102
{ACAD_REACTORS
330
164
102
}
330
164
100
AcDbPlotSettings
  1

  2
C:\Documents and Settings\All Users\Dati applicazioni\Autodesk\ADT 2006\enu\Plotters\Default Windows System Printer.pc3
  4

  6

 40
0.0
 41
0.0
 42
0.0
 43
0.0
 44
0.0
 45
0.0
 46
0.0
 47
0.0
 48
0.0
 49
0.0
140
0.0
141
0.0
142
1.0
143
1.0
 70
   688
 72
     0
 73
     0
 74
     5
  7

 75
    16
147
1.0
148
0.0
149
0.0
100
AcDbLayout
  1
Layout1
 70
     1
 71
     1
 10
0.0
 20
0.0
 11
420.0
 21
297.0
 12
0.0
 22
0.0
 32
0.0
 14
1.000000000000000E+20
 24
1.000000000000000E+20
 34
1.000000000000000E+20
 15
-1.000000000000000E+20
 25
-1.000000000000000E+20
 35
-1.000000000000000E+20
146
0.0
 13
0.0
 23
0.0
 33
0.0
 16
1.0
 26
0.0
 36
0.0
 17
0.0
 27
1.0
 37
0.0
 76
     0
330
165
  0
LAYOUT
  5
16C
102
{ACAD_XDICTIONARY
360
1414
102
}
102
{ACAD_REACTORS
330
164
102
}
330
164
100
AcDbPlotSettings
  1

  2
C:\Documents and Settings\All Users\Dati applicazioni\Autodesk\ADT 2006\enu\Plotters\Default Windows System Printer.pc3
  4

  6

 40
0.0
 41
0.0
 42
0.0
 43
0.0
 44
0.0
 45
0.0
 46
0.0
 47
0.0
 48
0.0
 49
0.0
140
0.0
141
0.0
142
1.0
143
1.0
 70
   688
 72
     0
 73
     0
 74
     5
  7

 75
    16
147
1.0
148
0.0
149
0.0
100
AcDbLayout
  1
Layout2
 70
     1
 71
     2
 10
0.0
 20
0.0
 11
12.0
 21
9.0
 12
0.0
 22
0.0
 32
0.0
 14
0.0
 24
0.0
 34
0.0
 15
0.0
 25
0.0
 35
0.0
146
0.0
 13
0.0
 23
0.0
 33
0.0
 16
1.0
 26
0.0
 36
0.0
 17
0.0
 27
1.0
 37
0.0
 76
     0
330
169
  0
LAYOUT
  5
163
102
{ACAD_XDICTIONARY
360
1410
102
}
102
{ACAD_REACTORS
330
164
102
}
330
164
100
AcDbPlotSettings
  1

  2
C:\Documents and Settings\All Users\Dati applicazioni\Autodesk\ADT 2006\enu\Plotters\Default Windows System Printer.pc3
  4

  6

 40
0.0
 41
0.0
 42
0.0
 43
0.0
 44
0.0
 45
0.0
 46
0.0
 47
0.0
 48
0.0
 49
0.0
140
0.0
141
0.0
142
1.0
143
1.0
 70
  1712
 72
     0
 73
     0
 74
     0
  7

 75
     0
147
1.0
148
0.0
149
0.0
100
AcDbLayout
  1
Model
 70
     1
 71
     0
 10
0.0
 20
0.0
 11
12.0
 21
9.0
 12
0.0
 22
0.0
 32
0.0
 14
0.0
 24
0.0
 34
0.0
 15
0.0
 25
0.0
 35
0.0
146
0.0
 13
0.0
 23
0.0
 33
0.0
 16
1.0
 26
0.0
 36
0.0
 17
0.0
 27
1.0
 37
0.0
 76
     0
330
2
  0
MATERIAL
  5
183
102
{ACAD_XDICTIONARY
360
1B0
102
}
102
{ACAD_REACTORS
330
B
102
}
330
B
100
AcDbMaterial
  1
ByBlock
  0
MATERIAL
  5
182
102
{ACAD_XDICTIONARY
360
1AE
102
}
102
{ACAD_REACTORS
330
B
102
}
330
B
100
AcDbMaterial
  1
ByLayer
  0
MATERIAL
  5
A
102
{ACAD_XDICTIONARY
360
193
102
}
102
{ACAD_REACTORS
330
B
102
}
330
B
100
AcDbMaterial
  1
Global
  0
MLINESTYLE
  5
186
102
{ACAD_REACTORS
330
180
102
}
330
180
100
AcDbMlineStyle
  2
STANDARD
 70
     0
  3

 62
   256
 51
90.0
 52
90.0
 71
     2
 49
0.5
 62
   256
  6
BYLAYER
 49
-0.5
 62
   256
  6
BYLAYER
  0
ACDBPLACEHOLDER
  5
7
102
{ACAD_REACTORS
330
8
102
}
330
8
  0
TABLESTYLE
  5
187
102
{ACAD_XDICTIONARY
360
21A
102
}
102
{ACAD_REACTORS
330
185
102
}
330
185
100
AcDbTableStyle
  3
Standard
 70
     0
 71
     0
 40
1.5
 41
1.5
280
     0
281
     0
  7
Standard
140
4.5
170
     2
 62
     0
 63
     7
283
     0
274
    -2
284
     1
 64
     0
275
    -2
285
     1
 65
     0
276
    -2
286
     1
 66
     0
277
    -2
287
     1
 67
     0
278
    -2
288
     1
 68
     0
279
    -2
289
     1
 69
     0
  7
Standard
140
6.0
170
     5
 62
     0
 63
     7
283
     0
274
    -2
284
     1
 64
     0
275
    -2
285
     1
 65
     0
276
    -2
286
     1
 66
     0
277
    -2
287
     1
 67
     0
278
    -2
288
     1
 68
     0
279
    -2
289
     1
 69
     0
  7
Standard
140
4.5
170
     5
 62
     0
 63
     7
283
     0
274
    -2
284
     1
 64
     0
275
    -2
285
     1
 65
     0
276
    -2
286
     1
 66
     0
277
    -2
287
     1
 67
     0
278
    -2
288
     1
 68
     0
279
    -2
289
     1
 69
     0
  0
VISUALSTYLE
  5
179
102
{ACAD_REACTORS
330
17A
102
}
330
17A
100
AcDbVisualStyle
  2
2dWireframe
 70
     4
 71
     0
 72
     2
 73
     0
 90
        0
 40
-0.6
 41
-30.0
 62
     5
 63
     7
 74
     1
 91
        4
 64
     7
 65
   257
 75
     1
175
     1
 42
1.0
 92
        0
 66
   257
 43
1.0
 76
     1
 77
     6
 78
     2
 67
     7
 79
     5
170
     0
171
     0
290
     0
174
     0
 93
        1
 44
0.0
173
     0
291
     0
 45
0.0
1001
ACAD
1000
AcDbSavedByObjectVersion
1070
     0
1000
AcDbSavedByObjectVersion
1070
     0
1000
AcDbSavedByObjectVersion
1070
     0
1001
ACAD
1000
AcRTDxfName
1000
VISUALSTYLE
  0
VISUALSTYLE
  5
1BD
102
{ACAD_REACTORS
330
17A
102
}
330
17A
100
AcDbVisualStyle
  2
3D Hidden
 70
     6
 71
     1
 72
     2
 73
     2
 90
        0
 40
-0.6
 41
-30.0
 62
     5
 63
     7
 74
     2
 91
        2
 64
     7
 65
   257
 75
     2
175
     1
 42
40.0
 92
        0
 66
   257
 43
1.0
 76
     1
 77
     6
 78
     2
 67
     7
 79
     3
170
     0
171
     0
290
     0
174
     0
 93
        1
 44
0.0
173
     0
291
     0
 45
0.0
1001
ACAD
1000
AcDbSavedByObjectVersion
1070
     0
1000
AcDbSavedByObjectVersion
1070
     0
1001
ACAD
1000
AcRTDxfName
1000
VISUALSTYLE
  0
VISUALSTYLE
  5
189
102
{ACAD_REACTORS
330
17A
102
}
330
17A
100
AcDbVisualStyle
  2
3dWireframe
 70
     5
 71
     0
 72
     2
 73
     0
 90
        0
 40
-0.6
 41
-30.0
 62
     5
 63
     7
 74
     1
 91
        4
 64
     7
 65
   257
 75
     1
175
     1
 42
1.0
 92
        0
 66
   257
 43
1.0
 76
     1
 77
     6
 78
     2
 67
     7
 79
     5
170
     0
171
     0
290
     0
174
     0
 93
        1
 44
0.0
173
     0
291
     0
 45
0.0
1001
ACAD
1000
AcDbSavedByObjectVersion
1070
     0
1000
AcDbSavedByObjectVersion
1070
     0
1000
AcDbSavedByObjectVersion
1070
     0
1001
ACAD
1000
AcRTDxfName
1000
VISUALSTYLE
  0
VISUALSTYLE
  5
1BC
102
{ACAD_REACTORS
330
17A
102
}
330
17A
100
AcDbVisualStyle
  2
Basic
 70
     7
 71
     1
 72
     0
 73
     1
 90
        0
 40
-0.6
 41
-30.0
 62
     5
 63
     7
 74
     0
 91
        4
 64
     7
 65
   257
 75
     1
175
     1
 42
1.0
 92
        8
 66
     7
 43
1.0
 76
     1
 77
     6
 78
     2
 67
     7
 79
     5
170
     0
171
     0
290
     0
174
     0
 93
        1
 44
0.0
173
     0
291
     1
 45
0.0
1001
ACAD
1000
AcDbSavedByObjectVersion
1070
     0
1000
AcDbSavedByObjectVersion
1070
     0
1001
ACAD
1000
AcRTDxfName
1000
VISUALSTYLE
  0
VISUALSTYLE
  5
1C0
102
{ACAD_REACTORS
330
17A
102
}
330
17A
100
AcDbVisualStyle
  2
Brighten
 70
    12
 71
     2
 72
     2
 73
     0
 90
        0
 40
-0.6
 41
-30.0
 62
     5
 63
     7
 74
     1
 91
        4
 64
     7
 65
   257
 75
     1
175
     1
 42
1.0
 92
        8
 66
     7
 43
1.0
 76
     1
 77
     6
 78
     2
 67
     7
 79
     5
170
     0
171
     0
290
     0
174
     0
 93
        1
 44
50.0
173
     0
291
     1
 45
0.0
1001
ACAD
1000
AcDbSavedByObjectVersion
1070
     0
1000
AcDbSavedByObjectVersion
1070
     0
1001
ACAD
1000
AcRTDxfName
1000
VISUALSTYLE
  0
VISUALSTYLE
  5
1C4
102
{ACAD_REACTORS
330
17A
102
}
330
17A
100
AcDbVisualStyle
  2
ColorChange
 70
    16
 71
     2
 72
     2
 73
     3
 90
        0
 40
-0.6
 41
-30.0
 62
     5
 63
     8
 74
     1
 91
        4
 64
     7
 65
   257
 75
     1
175
     1
 42
1.0
 92
        8
 66
     8
 43
1.0
 76
     1
 77
     6
 78
     2
 67
     7
 79
     5
170
     0
171
     0
290
     0
174
     0
 93
        1
 44
0.0
173
     0
291
     1
 45
0.0
1001
ACAD
1000
AcDbSavedByObjectVersion
1070
     0
1000
AcDbSavedByObjectVersion
1070
     0
1001
ACAD
1000
AcRTDxfName
1000
VISUALSTYLE
  0
VISUALSTYLE
  5
1BE
102
{ACAD_REACTORS
330
17A
102
}
330
17A
100
AcDbVisualStyle
  2
Conceptual
 70
     9
 71
     3
 72
     2
 73
     0
 90
        0
 40
-0.6
 41
-30.0
 62
     5
 63
     7
 74
     2
 91
        2
 64
     7
 65
   257
 75
     1
175
     1
 42
40.0
 92
        8
 66
     7
 43
1.0
 76
     1
 77
     6
 78
     2
 67
     7
 79
     3
170
     0
171
     0
290
     0
174
     0
 93
        1
 44
0.0
173
     0
291
     0
 45
0.0
1001
ACAD
1000
AcDbSavedByObjectVersion
1070
     0
1000
AcDbSavedByObjectVersion
1070
     0
1001
ACAD
1000
AcRTDxfName
1000
VISUALSTYLE
  0
VISUALSTYLE
  5
1BF
102
{ACAD_REACTORS
330
17A
102
}
330
17A
100
AcDbVisualStyle
  2
Dim
 70
    11
 71
     2
 72
     2
 73
     0
 90
        0
 40
-0.6
 41
-30.0
 62
     5
 63
     7
 74
     1
 91
        4
 64
     7
 65
   257
 75
     1
175
     1
 42
1.0
 92
        8
 66
     7
 43
1.0
 76
     1
 77
     6
 78
     2
 67
     7
 79
     5
170
     0
171
     0
290
     0
174
     0
 93
        1
 44
-50.0
173
     0
291
     1
 45
0.0
1001
ACAD
1000
AcDbSavedByObjectVersion
1070
     0
1000
AcDbSavedByObjectVersion
1070
     0
1001
ACAD
1000
AcRTDxfName
1000
VISUALSTYLE
  0
VISUALSTYLE
  5
1C3
102
{ACAD_REACTORS
330
17A
102
}
330
17A
100
AcDbVisualStyle
  2
Facepattern
 70
    15
 71
     2
 72
     2
 73
     0
 90
        0
 40
-0.6
 41
-30.0
 62
     5
 63
     7
 74
     1
 91
        4
 64
     7
 65
   257
 75
     1
175
     1
 42
1.0
 92
        8
 66
     7
 43
1.0
 76
     1
 77
     6
 78
     2
 67
     7
 79
     5
170
     0
171
     0
290
     0
174
     0
 93
        1
 44
0.0
173
     0
291
     1
 45
0.0
1001
ACAD
1000
AcDbSavedByObjectVersion
1070
     0
1000
AcDbSavedByObjectVersion
1070
     0
1001
ACAD
1000
AcRTDxfName
1000
VISUALSTYLE
  0
VISUALSTYLE
  5
1B8
102
{ACAD_REACTORS
330
17A
102
}
330
17A
100
AcDbVisualStyle
  2
Flat
 70
     0
 71
     2
 72
     1
 73
     1
 90
        2
 40
-0.6
 41
30.0
 62
     5
 63
     7
 74
     0
 91
        4
 64
     7
 65
   257
 75
     1
175
     1
 42
1.0
 92
        8
 66
     7
 43
1.0
 76
     1
 77
     6
 78
     2
 67
     7
 79
     5
170
     0
171
     0
290
     0
174
     0
 93
       13
 44
0.0
173
     0
291
     1
 45
0.0
1001
ACAD
1000
AcDbSavedByObjectVersion
1070
     0
1000
AcDbSavedByObjectVersion
1070
     0
1001
ACAD
1000
AcRTDxfName
1000
VISUALSTYLE
  0
VISUALSTYLE
  5
1B9
102
{ACAD_REACTORS
330
17A
102
}
330
17A
100
AcDbVisualStyle
  2
FlatWithEdges
 70
     1
 71
     2
 72
     1
 73
     1
 90
        2
 40
-0.6
 41
30.0
 62
     5
 63
     7
 74
     1
 91
        4
 64
     7
 65
   257
 75
     1
175
     1
 42
1.0
 92
        0
 66
   257
 43
1.0
 76
     1
 77
     6
 78
     2
 67
     7
 79
     5
170
     0
171
     0
290
     0
174
     0
 93
       13
 44
0.0
173
     0
291
     1
 45
0.0
1001
ACAD
1000
AcDbSavedByObjectVersion
1070
     0
1000
AcDbSavedByObjectVersion
1070
     0
1001
ACAD
1000
AcRTDxfName
1000
VISUALSTYLE
  0
VISUALSTYLE
  5
1BA
102
{ACAD_REACTORS
330
17A
102
}
330
17A
100
AcDbVisualStyle
  2
Gouraud
 70
     2
 71
     2
 72
     2
 73
     1
 90
        2
 40
-0.6
 41
30.0
 62
     5
 63
     7
 74
     0
 91
        4
 64
     7
 65
   257
 75
     1
175
     1
 42
1.0
 92
        0
 66
     7
 43
1.0
 76
     1
 77
     6
 78
     2
 67
     7
 79
     5
170
     0
171
     0
290
     0
174
     0
 93
       13
 44
0.0
173
     0
291
     1
 45
0.0
1001
ACAD
1000
AcDbSavedByObjectVersion
1070
     0
1000
AcDbSavedByObjectVersion
1070
     0
1001
ACAD
1000
AcRTDxfName
1000
VISUALSTYLE
  0
VISUALSTYLE
  5
1BB
102
{ACAD_REACTORS
330
17A
102
}
330
17A
100
AcDbVisualStyle
  2
GouraudWithEdges
 70
     3
 71
     2
 72
     2
 73
     1
 90
        2
 40
-0.6
 41
30.0
 62
     5
 63
     7
 74
     1
 91
        4
 64
     7
 65
   257
 75
     1
175
     1
 42
1.0
 92
        0
 66
   257
 43
1.0
 76
     1
 77
     6
 78
     2
 67
     7
 79
     5
170
     0
171
     0
290
     0
174
     0
 93
       13
 44
0.0
173
     0
291
     1
 45
0.0
1001
ACAD
1000
AcDbSavedByObjectVersion
1070
     0
1000
AcDbSavedByObjectVersion
1070
     0
1001
ACAD
1000
AcRTDxfName
1000
VISUALSTYLE
  0
VISUALSTYLE
  5
1C2
102
{ACAD_REACTORS
330
17A
102
}
330
17A
100
AcDbVisualStyle
  2
Linepattern
 70
    14
 71
     2
 72
     2
 73
     0
 90
        0
 40
-0.6
 41
-30.0
 62
     5
 63
     7
 74
     1
 91
        4
 64
     7
 65
   257
 75
     7
175
     7
 42
1.0
 92
        8
 66
     7
 43
1.0
 76
     1
 77
     6
 78
     2
 67
     7
 79
     5
170
     0
171
     0
290
     0
174
     0
 93
        1
 44
0.0
173
     0
291
     1
 45
0.0
1001
ACAD
1000
AcDbSavedByObjectVersion
1070
     0
1000
AcDbSavedByObjectVersion
1070
     0
1001
ACAD
1000
AcRTDxfName
1000
VISUALSTYLE
  0
VISUALSTYLE
  5
188
102
{ACAD_REACTORS
330
17A
102
}
330
17A
100
AcDbVisualStyle
  2
Realistic
 70
     8
 71
     2
 72
     2
 73
     0
 90
        0
 40
-0.6
 41
-30.0
 62
     5
 63
     7
 74
     1
 91
        0
 64
     7
 65
   257
 75
     1
175
     1
 42
1.0
 92
        8
 66
     8
 43
1.0
 76
     1
 77
     6
 78
     2
 67
     7
 79
     5
170
     0
171
     0
290
     0
174
     0
 93
       13
 44
0.0
173
     0
291
     0
 45
0.0
1001
ACAD
1000
AcDbSavedByObjectVersion
1070
     0
1000
AcDbSavedByObjectVersion
1070
     0
1000
AcDbSavedByObjectVersion
1070
     0
1001
ACAD
1000
AcRTDxfName
1000
VISUALSTYLE
  0
VISUALSTYLE
  5
1C1
102
{ACAD_REACTORS
330
17A
102
}
330
17A
100
AcDbVisualStyle
  2
Thicken
 70
    13
 71
     2
 72
     2
 73
     0
 90
        0
 40
-0.6
 41
-30.0
 62
     5
 63
     7
 74
     1
 91
        4
 64
     7
 65
   257
 75
     1
175
     1
 42
1.0
 92
       12
 66
     7
 43
1.0
 76
     1
 77
     6
 78
     2
 67
     7
 79
     5
170
     0
171
     0
290
     0
174
     0
 93
        1
 44
0.0
173
     0
291
     1
 45
0.0
1001
ACAD
1000
AcDbSavedByObjectVersion
1070
     0
1000
AcDbSavedByObjectVersion
1070
     0
1001
ACAD
1000
AcRTDxfName
1000
VISUALSTYLE
  0
DICTIONARYVAR
  5
18C
102
{ACAD_REACTORS
330
18B
102
}
330
18B
100
DictionaryVariables
280
     0
  1
STANDARD
  0
DICTIONARYVAR
  5
190
102
{ACAD_REACTORS
330
18B
102
}
330
18B
100
DictionaryVariables
280
     0
  1
2
  0
DICTIONARYVAR
  5
18F
102
{ACAD_REACTORS
330
18B
102
}
330
18B
100
DictionaryVariables
280
     0
  1
1
  0
DICTIONARYVAR
  5
18E
102
{ACAD_REACTORS
330
18B
102
}
330
18B
100
DictionaryVariables
280
     0
  1
0
  0
DICTIONARYVAR
  5
2F9
102
{ACAD_REACTORS
330
18B
102
}
330
18B
100
DictionaryVariables
280
     0
  1

  0
DICTIONARYVAR
  5
18D
102
{ACAD_REACTORS
330
18B
102
}
330
18B
100
DictionaryVariables
280
     0
  1
127
  0
DICTIONARY
  5
1412
330
168
100
AcDbDictionary
280
     1
281
     1
  3
ACAD_XREC_ROUNDTRIP
360
1413
  0
DICTIONARY
  5
1414
330
16C
100
AcDbDictionary
280
     1
281
     1
  3
ACAD_XREC_ROUNDTRIP
360
1415
  0
DICTIONARY
  5
1410
330
163
100
AcDbDictionary
280
     1
281
     1
  3
ACAD_XREC_ROUNDTRIP
360
1411
  0
DICTIONARY
  5
1B0
330
183
100
AcDbDictionary
280
     1
281
     1
  3
ACAD_XREC_ROUNDTRIP
360
1B1
  0
DICTIONARY
  5
1AE
330
182
100
AcDbDictionary
280
     1
281
     1
  3
ACAD_XREC_ROUNDTRIP
360
1AF
  0
DICTIONARY
  5
193
330
A
100
AcDbDictionary
280
     1
281
     1
  3
ACAD_XREC_ROUNDTRIP
360
194
  0
DICTIONARY
  5
21A
330
187
100
AcDbDictionary
280
     1
281
     1
  3
ACAD_XREC_ROUNDTRIP
360
21B
  0
XRECORD
  5
1413
102
{ACAD_REACTORS
330
1412
102
}
330
1412
100
AcDbXrecord
280
     1
102
SHADEPLOT
 70
     0
102
SHADEPLOTRESLEVEL
 70
     2
102
SHADEPLOTCUSTOMDPI
 70
   300
  0
XRECORD
  5
1415
102
{ACAD_REACTORS
330
1414
102
}
330
1414
100
AcDbXrecord
280
     1
102
SHADEPLOT
 70
     0
102
SHADEPLOTRESLEVEL
 70
     2
102
SHADEPLOTCUSTOMDPI
 70
   300
  0
XRECORD
  5
1411
102
{ACAD_REACTORS
330
1410
102
}
330
1410
100
AcDbXrecord
280
     1
102
SHADEPLOT
 70
     0
102
SHADEPLOTRESLEVEL
 70
     2
102
SHADEPLOTCUSTOMDPI
 70
   300
  0
XRECORD
  5
1B1
102
{ACAD_REACTORS
330
1B0
102
}
330
1B0
100
AcDbXrecord
280
     1
102
MATERIAL
148
0.0
149
0.0
149
0.0
 93
        0
 94
       63
282
     0
 72
     1
 77
     1
171
     1
175
     1
179
     1
273
     0
  0
XRECORD
  5
1AF
102
{ACAD_REACTORS
330
1AE
102
}
330
1AE
100
AcDbXrecord
280
     1
102
MATERIAL
148
0.0
149
0.0
149
0.0
 93
        0
 94
       63
282
     0
 72
     1
 77
     1
171
     1
175
     1
179
     1
273
     0
  0
XRECORD
  5
194
102
{ACAD_REACTORS
330
193
102
}
330
193
100
AcDbXrecord
280
     1
102
MATERIAL
148
0.0
149
0.0
149
0.0
 93
        0
 94
       63
282
     0
 72
     1
 77
     1
171
     1
175
     1
179
     1
273
     0
  0
XRECORD
  5
21B
102
{ACAD_REACTORS
330
21A
102
}
330
21A
100
AcDbXrecord
280
     1
102
ACAD_ROUNDTRIP_PRE2007_TABLESTYLE
 90
        4
 91
        0
  1

 92
        4
 93
        0
  2

 94
        4
 95
        0
  3

  0
ENDSEC
  0
EOF
