  0
SECTION
  2
HEADER
  9
$ACADVER
  1
AC1015
  9
$ACADMAINTVER
 70
    20
  9
$DWGCODEPAGE
  3
ANSI_1252
  9
$INSBASE
 10
0.0
 20
0.0
 30
0.0
  9
$EXTMIN
 10
0.0149999999999999
 20
0.015
 30
0.0
  9
$EXTMAX
 10
1.06620131254924
 20
0.6077505006835788
 30
0.0
  9
$LIMMIN
 10
0.0
 20
0.0
  9
$LIMMAX
 10
1.0
 20
0.5
  9
$ORTHOMODE
 70
     0
  9
$REGENMODE
 70
     1
  9
$FILLMODE
 70
     1
  9
$QTEXTMODE
 70
     0
  9
$MIRRTEXT
 70
     0
  9
$LTSCALE
 40
1.0
  9
$ATTMODE
 70
     1
  9
$TEXTSIZE
 40
0.008
  9
$TRACEWID
 40
1.0
  9
$TEXTSTYLE
  7
style1
  9
$CLAYER
  8
Text
  9
$CELTYPE
  6
ACAD_ISO10W100
  9
$CECOLOR
 62
   256
  9
$CELTSCALE
 40
1.0
  9
$DISPSILH
 70
     0
  9
$DIMSCALE
 40
0.001
  9
$DIMASZ
 40
1.5
  9
$DIMEXO
 40
0.0625
  9
$DIMDLI
 40
0.38
  9
$DIMRND
 40
0.0
  9
$DIMDLE
 40
0.0
  9
$DIMEXE
 40
0.18
  9
$DIMTP
 40
0.0
  9
$DIMTM
 40
0.0
  9
$DIMTXT
 40
3.0
  9
$DIMCEN
 40
0.0
  9
$DIMTSZ
 40
0.0
  9
$DIMTOL
 70
     0
  9
$DIMLIM
 70
     0
  9
$DIMTIH
 70
     1
  9
$DIMTOH
 70
     1
  9
$DIMSE1
 70
     0
  9
$DIMSE2
 70
     0
  9
$DIMTAD
 70
     0
  9
$DIMZIN
 70
     0
  9
$DIMBLK
  1
ArchTick
  9
$DIMASO
 70
     1
  9
$DIMSHO
 70
     1
  9
$DIMPOST
  1

  9
$DIMAPOST
  1

  9
$DIMALT
 70
     0
  9
$DIMALTD
 70
     2
  9
$DIMALTF
 40
25.4
  9
$DIMLFAC
 40
1.0
  9
$DIMTOFL
 70
     0
  9
$DIMTVP
 40
0.0
  9
$DIMTIX
 70
     0
  9
$DIMSOXD
 70
     0
  9
$DIMSAH
 70
     0
  9
$DIMBLK1
  1

  9
$DIMBLK2
  1

  9
$DIMSTYLE
  2
Bovelacci
  9
$DIMCLRD
 70
     5
  9
$DIMCLRE
 70
     5
  9
$DIMCLRT
 70
     4
  9
$DIMTFAC
 40
1.0
  9
$DIMGAP
 40
2.0
  9
$DIMJUST
 70
     0
  9
$DIMSD1
 70
     0
  9
$DIMSD2
 70
     0
  9
$DIMTOLJ
 70
     1
  9
$DIMTZIN
 70
     0
  9
$DIMALTZ
 70
     0
  9
$DIMALTTZ
 70
     0
  9
$DIMUPT
 70
     0
  9
$DIMDEC
 70
     2
  9
$DIMTDEC
 70
     2
  9
$DIMALTU
 70
     2
  9
$DIMALTTD
 70
     2
  9
$DIMTXSTY
  7
ROMANS
  9
$DIMAUNIT
 70
     0
  9
$DIMADEC
 70
     0
  9
$DIMALTRND
 40
0.0
  9
$DIMAZIN
 70
     0
  9
$DIMDSEP
 70
    46
  9
$DIMATFIT
 70
     3
  9
$DIMFRAC
 70
     0
  9
$DIMLDRBLK
  1

  9
$DIMLUNIT
 70
     2
  9
$DIMLWD
 70
    -2
  9
$DIMLWE
 70
    -2
  9
$DIMTMOVE
 70
     2
  9
$LUNITS
 70
     2
  9
$LUPREC
 70
     2
  9
$SKETCHINC
 40
1.0
  9
$FILLETRAD
 40
0.0
  9
$AUNITS
 70
     0
  9
$AUPREC
 70
     0
  9
$MENU
  1
.
  9
$ELEVATION
 40
0.0
  9
$PELEVATION
 40
0.0
  9
$THICKNESS
 40
0.0
  9
$LIMCHECK
 70
     0
  9
$CHAMFERA
 40
0.0
  9
$CHAMFERB
 40
0.0
  9
$CHAMFERC
 40
0.0
  9
$CHAMFERD
 40
0.0
  9
$SKPOLY
 70
     0
  9
$TDCREATE
 40
2454297.625402373
  9
$TDUCREATE
 40
2454297.542069039
  9
$TDUPDATE
 40
2454311.583685255
  9
$TDUUPDATE
 40
2454311.500351921
  9
$TDINDWG
 40
0.1612368056
  9
$TDUSRTIMER
 40
0.1612348032
  9
$USRTIMER
 70
     1
  9
$ANGBASE
 50
0.0
  9
$ANGDIR
 70
     0
  9
$PDMODE
 70
     0
  9
$PDSIZE
 40
0.0
  9
$PLINEWID
 40
0.0
  9
$SPLFRAME
 70
     0
  9
$SPLINETYPE
 70
     6
  9
$SPLINESEGS
 70
     8
  9
$HANDSEED
  5
1CD0
  9
$SURFTAB1
 70
     6
  9
$SURFTAB2
 70
     6
  9
$SURFTYPE
 70
     6
  9
$SURFU
 70
     6
  9
$SURFV
 70
     6
  9
$UCSBASE
  2

  9
$UCSNAME
  2

  9
$UCSORG
 10
0.0
 20
0.0
 30
0.0
  9
$UCSXDIR
 10
1.0
 20
0.0
 30
0.0
  9
$UCSYDIR
 10
0.0
 20
1.0
 30
0.0
  9
$UCSORTHOREF
  2

  9
$UCSORTHOVIEW
 70
     0
  9
$UCSORGTOP
 10
0.0
 20
0.0
 30
0.0
  9
$UCSORGBOTTOM
 10
0.0
 20
0.0
 30
0.0
  9
$UCSORGLEFT
 10
0.0
 20
0.0
 30
0.0
  9
$UCSORGRIGHT
 10
0.0
 20
0.0
 30
0.0
  9
$UCSORGFRONT
 10
0.0
 20
0.0
 30
0.0
  9
$UCSORGBACK
 10
0.0
 20
0.0
 30
0.0
  9
$PUCSBASE
  2

  9
$PUCSNAME
  2

  9
$PUCSORG
 10
0.0
 20
0.0
 30
0.0
  9
$PUCSXDIR
 10
1.0
 20
0.0
 30
0.0
  9
$PUCSYDIR
 10
0.0
 20
1.0
 30
0.0
  9
$PUCSORTHOREF
  2

  9
$PUCSORTHOVIEW
 70
     0
  9
$PUCSORGTOP
 10
0.0
 20
0.0
 30
0.0
  9
$PUCSORGBOTTOM
 10
0.0
 20
0.0
 30
0.0
  9
$PUCSORGLEFT
 10
0.0
 20
0.0
 30
0.0
  9
$PUCSORGRIGHT
 10
0.0
 20
0.0
 30
0.0
  9
$PUCSORGFRONT
 10
0.0
 20
0.0
 30
0.0
  9
$PUCSORGBACK
 10
0.0
 20
0.0
 30
0.0
  9
$USERI1
 70
     0
  9
$USERI2
 70
     0
  9
$USERI3
 70
     0
  9
$USERI4
 70
     0
  9
$USERI5
 70
     0
  9
$USERR1
 40
0.0
  9
$USERR2
 40
0.0
  9
$USERR3
 40
0.0
  9
$USERR4
 40
0.0
  9
$USERR5
 40
0.0
  9
$WORLDVIEW
 70
     1
  9
$SHADEDGE
 70
     3
  9
$SHADEDIF
 70
    70
  9
$TILEMODE
 70
     1
  9
$MAXACTVP
 70
    64
  9
$PINSBASE
 10
0.0
 20
0.0
 30
0.0
  9
$PLIMCHECK
 70
     0
  9
$PEXTMIN
 10
1.000000000000000E+20
 20
1.000000000000000E+20
 30
1.000000000000000E+20
  9
$PEXTMAX
 10
-1.000000000000000E+20
 20
-1.000000000000000E+20
 30
-1.000000000000000E+20
  9
$PLIMMIN
 10
0.0
 20
0.0
  9
$PLIMMAX
 10
420.0
 20
297.0
  9
$UNITMODE
 70
     0
  9
$VISRETAIN
 70
     1
  9
$PLINEGEN
 70
     0
  9
$PSLTSCALE
 70
     1
  9
$TREEDEPTH
 70
  3020
  9
$CMLSTYLE
  2
Standard
  9
$CMLJUST
 70
     0
  9
$CMLSCALE
 40
20.0
  9
$PROXYGRAPHICS
 70
     1
  9
$MEASUREMENT
 70
     1
  9
$CELWEIGHT
370
    -1
  9
$ENDCAPS
280
     0
  9
$JOINSTYLE
280
     0
  9
$LWDISPLAY
290
     0
  9
$INSUNITS
 70
     4
  9
$HYPERLINKBASE
  1

  9
$STYLESHEET
  1

  9
$XEDIT
290
     1
  9
$CEPSNTYPE
380
     0
  9
$PSTYLEMODE
290
     1
  9
$FINGERPRINTGUID
  2
{904A8C64-524F-4709-A9C6-320D2C273A6D}
  9
$VERSIONGUID
  2
{55D98EA6-4092-4CEF-8BDD-F219480BDDD9}
  9
$EXTNAMES
290
     1
  9
$PSVPSCALE
 40
0.0
  9
$OLESTARTUP
290
     0
  0
ENDSEC
  0
SECTION
  2
CLASSES
  0
CLASS
  1
ACDBDICTIONARYWDFLT
  2
AcDbDictionaryWithDefault
  3
ObjectDBX Classes
 90
        0
280
     0
281
     0
  0
CLASS
  1
TABLESTYLE
  2
AcDbTableStyle
  3
ObjectDBX Classes
 90
     2047
280
     0
281
     0
  0
CLASS
  1
SORTENTSTABLE
  2
AcDbSortentsTable
  3
ObjectDBX Classes
 90
        0
280
     0
281
     0
  0
CLASS
  1
DICTIONARYVAR
  2
AcDbDictionaryVar
  3
ObjectDBX Classes
 90
        0
280
     0
281
     0
  0
CLASS
  1
ACDBPLACEHOLDER
  2
AcDbPlaceHolder
  3
ObjectDBX Classes
 90
        0
280
     0
281
     0
  0
CLASS
  1
LAYOUT
  2
AcDbLayout
  3
ObjectDBX Classes
 90
        0
280
     0
281
     0
  0
CLASS
  1
DIMASSOC
  2
AcDbDimAssoc
  3
"AcDbDimAssoc|Product Desc:     AcDim ARX App For Dimension|Company:          Autodesk, Inc.|WEB Address:      www.autodesk.com"
 90
        0
280
     0
281
     0
  0
CLASS
  1
MATERIAL
  2
AcDbMaterial
  3
ObjectDBX Classes
 90
        0
280
     0
281
     0
  0
CLASS
  1
VISUALSTYLE
  2
AcDbVisualStyle
  3
ObjectDBX Classes
 90
     4095
280
     0
281
     0
  0
ENDSEC
  0
SECTION
  2
TABLES
  0
TABLE
  2
VPORT
  5
177
330
0
100
AcDbSymbolTable
 70
     2
  0
VPORT
  5
1CC5
330
177
100
AcDbSymbolTableRecord
100
AcDbViewportTableRecord
  2
*Active
 70
     0
 10
0.0
 20
0.0
 11
1.0
 21
1.0
 12
0.208940993895103
 22
0.1487983107062294
 13
0.0
 23
0.0
 14
10.0
 24
10.0
 15
10.0
 25
10.0
 16
0.0
 26
0.0
 36
1.0
 17
0.0
 27
0.0
 37
0.0
 40
0.276607100838129
 41
1.546526867627784
 42
50.0
 43
0.0
 44
0.0
 50
0.0
 51
0.0
 71
     0
 72
  1000
 73
     1
 74
     3
 75
     0
 76
     0
 77
     0
 78
     0
281
     0
 65
     1
110
0.0
120
0.0
130
0.0
111
1.0
121
0.0
131
0.0
112
0.0
122
1.0
132
0.0
 79
     0
146
0.0
  0
ENDTAB
  0
TABLE
  2
LTYPE
  5
172
330
0
100
AcDbSymbolTable
 70
     2
  0
LTYPE
  5
173
330
172
100
AcDbSymbolTableRecord
100
AcDbLinetypeTableRecord
  2
ByBlock
 70
     0
  3

 72
    65
 73
     0
 40
0.0
  0
LTYPE
  5
174
330
172
100
AcDbSymbolTableRecord
100
AcDbLinetypeTableRecord
  2
ByLayer
 70
     0
  3

 72
    65
 73
     0
 40
0.0
  0
LTYPE
  5
C
330
172
100
AcDbSymbolTableRecord
100
AcDbLinetypeTableRecord
  2
Continuous
 70
     0
  3
Solid line
 72
    65
 73
     0
 40
0.0
  0
LTYPE
  5
14E
330
172
100
AcDbSymbolTableRecord
100
AcDbLinetypeTableRecord
  2
ACAD_ISO10W100
 70
     0
  3
ISO dash dot __ . __ . __ . __ . __ . __ . __ .
 72
    65
 73
     4
 40
18.0
 49
12.0
 74
     0
 49
-3.0
 74
     0
 49
0.0
 74
     0
 49
-3.0
 74
     0
  0
ENDTAB
  0
TABLE
  2
LAYER
  5
16D
102
{ACAD_XDICTIONARY
360
16E
102
}
330
0
100
AcDbSymbolTable
 70
     8
  0
LAYER
  5
6
330
16D
100
AcDbSymbolTableRecord
100
AcDbLayerTableRecord
  2
0
 70
     0
 62
     7
  6
Continuous
370
    -3
390
7
  0
LAYER
  5
15F
330
16D
100
AcDbSymbolTableRecord
100
AcDbLayerTableRecord
  2
Defpoints
 70
     0
 62
     7
  6
Continuous
290
     0
370
    -3
390
7
  0
LAYER
  5
28
330
16D
100
AcDbSymbolTableRecord
100
AcDbLayerTableRecord
  2
Profilo
 70
     0
 62
     1
  6
Continuous
370
    -3
390
7
1001
AcAecLayerStandard
1000

1000

  0
LAYER
  5
14D
330
16D
100
AcDbSymbolTableRecord
100
AcDbLayerTableRecord
  2
Sezione
 70
     0
 62
     2
  6
Continuous
370
    -3
390
7
1001
AcAecLayerStandard
1000

1000

  0
LAYER
  5
E
330
16D
100
AcDbSymbolTableRecord
100
AcDbLayerTableRecord
  2
Table
 70
     0
 62
     3
  6
Continuous
370
    -3
390
7
1001
AcAecLayerStandard
1000

1000

  0
LAYER
  5
19
330
16D
100
AcDbSymbolTableRecord
100
AcDbLayerTableRecord
  2
Text
 70
     0
 62
     4
  6
Continuous
370
    -3
390
7
1001
AcAecLayerStandard
1000

1000

  0
LAYER
  5
23D
330
16D
100
AcDbSymbolTableRecord
100
AcDbLayerTableRecord
  2
Bovelacci
 70
     0
 62
     9
  6
Continuous
370
    -3
390
7
1001
AcAecLayerStandard
1000

1000

  0
LAYER
  5
1826
330
16D
100
AcDbSymbolTableRecord
100
AcDbLayerTableRecord
  2
Layer1
 70
     0
 62
     7
  6
Continuous
370
    -3
390
7
1001
AcAecLayerStandard
1000

1000

  0
ENDTAB
  0
TABLE
  2
STYLE
  5
170
330
0
100
AcDbSymbolTable
 70
     3
  0
STYLE
  5
1A
330
170
100
AcDbSymbolTableRecord
100
AcDbTextStyleTableRecord
  2
Standard
 70
     0
 40
0.0
 41
1.0
 50
0.0
 71
     0
 42
2.5
  3
txt
  4

  0
STYLE
  5
20
330
170
100
AcDbSymbolTableRecord
100
AcDbTextStyleTableRecord
  2
ROMANS
 70
     0
 40
0.0
 41
1.0
 50
0.0
 71
     0
 42
2.5
  3
romans
  4

  0
STYLE
  5
26
330
170
100
AcDbSymbolTableRecord
100
AcDbTextStyleTableRecord
  2
style1
 70
     0
 40
0.0
 41
1.0
 50
0.0
 71
     0
 42
0.008
  3
TIMES.TTF
  4

1001
ACAD
1000
Times New Roman
1071
       18
  0
ENDTAB
  0
TABLE
  2
VIEW
  5
175
330
0
100
AcDbSymbolTable
 70
     0
  0
ENDTAB
  0
TABLE
  2
UCS
  5
176
330
0
100
AcDbSymbolTable
 70
     0
  0
ENDTAB
  0
TABLE
  2
APPID
  5
17B
330
0
100
AcDbSymbolTable
 70
    10
  0
APPID
  5
1B
330
17B
100
AcDbSymbolTableRecord
100
AcDbRegAppTableRecord
  2
ACAD
 70
     0
  0
APPID
  5
157
330
17B
100
AcDbSymbolTableRecord
100
AcDbRegAppTableRecord
  2
ACAD_DSTYLE_DIMJOGGED_JOGANGLE_SYMBOL
 70
     0
  0
APPID
  5
F
330
17B
100
AcDbSymbolTableRecord
100
AcDbRegAppTableRecord
  2
AcAecLayerStandard
 70
     0
  0
APPID
  5
19C
330
17B
100
AcDbSymbolTableRecord
100
AcDbRegAppTableRecord
  2
ACAD_DSTYLE_DIMFLIPARROW_WHICH_SYMBOL
 70
     0
  0
APPID
  5
1A7
330
17B
100
AcDbSymbolTableRecord
100
AcDbRegAppTableRecord
  2
ACAD_DSTYLE_DIMEXT_LENGTH
 70
     0
  0
APPID
  5
1D2
330
17B
100
AcDbSymbolTableRecord
100
AcDbRegAppTableRecord
  2
ACAD_EXEMPT_FROM_CAD_STANDARDS
 70
     0
  0
APPID
  5
1D3
330
17B
100
AcDbSymbolTableRecord
100
AcDbRegAppTableRecord
  2
ACAD_DSTYLE_DIM_LINETYPE
 70
     0
  0
APPID
  5
1D4
330
17B
100
AcDbSymbolTableRecord
100
AcDbRegAppTableRecord
  2
ACAD_DSTYLE_DIM_EXT1_LINETYPE
 70
     0
  0
APPID
  5
1D5
330
17B
100
AcDbSymbolTableRecord
100
AcDbRegAppTableRecord
  2
ACAD_DSTYLE_DIM_EXT2_LINETYPE
 70
     0
  0
APPID
  5
243
330
17B
100
AcDbSymbolTableRecord
100
AcDbRegAppTableRecord
  2
ACAD_PSEXT
 70
     0
  0
ENDTAB
  0
TABLE
  2
DIMSTYLE
  5
17C
330
0
100
AcDbSymbolTable
 70
     7
100
AcDbDimStyleTable
 71
     2
340
156
340
17D
  0
DIMSTYLE
105
17D
330
17C
100
AcDbSymbolTableRecord
100
AcDbDimStyleTableRecord
  2
ISO-25
 70
     0
 41
2.5
 42
0.625
 43
3.75
 44
1.25
 73
     0
 74
     0
 77
     1
 78
     8
140
2.5
141
2.5
143
0.03937007874016
147
0.625
171
     3
172
     1
271
     2
272
     2
274
     3
278
    44
283
     0
284
     8
340
1A
  0
DIMSTYLE
105
156
102
{ACAD_REACTORS
330
1CA7
102
}
330
17C
100
AcDbSymbolTableRecord
100
AcDbDimStyleTableRecord
  2
Bovelacci
 70
     0
 40
0.001
 41
1.5
140
3.0
141
0.0
147
2.0
176
     5
177
     5
178
     4
271
     2
272
     2
279
     2
340
20
342
152
1001
ACAD_DSTYLE_DIMJOGGED_JOGANGLE_SYMBOL
1070
   384
1040
0.7853981633974483
1001
ACAD_DSTYLE_DIMEXT_LENGTH
1070
   378
1040
0.18
  0
DIMSTYLE
105
23E
330
17C
100
AcDbSymbolTableRecord
100
AcDbDimStyleTableRecord
  2
Dim 1-100
 70
     0
 40
0.1
 41
1.5
 42
0.0
 43
5.0
 44
1.25
 45
0.005
 46
1.25
 73
     0
 74
     0
 77
     1
 78
     9
140
2.0
141
2.5
147
1.0
172
     1
174
     1
179
     2
279
     2
289
     2
340
20
342
152
  0
DIMSTYLE
105
23F
330
17C
100
AcDbSymbolTableRecord
100
AcDbDimStyleTableRecord
  2
Standard
 70
     0
 42
0.0
 73
     0
 74
     0
 77
     1
271
     2
272
     2
340
20
  0
DIMSTYLE
105
240
330
17C
100
AcDbSymbolTableRecord
100
AcDbDimStyleTableRecord
  2
Dim 1-50
 70
     0
 40
0.05
 41
1.5
 42
0.0
 43
5.0
 44
1.25
 45
0.005
 46
1.25
 73
     0
 74
     0
 77
     1
 78
     9
140
2.0
141
2.5
147
1.0
172
     1
174
     1
179
     2
279
     2
289
     2
340
20
342
152
  0
DIMSTYLE
105
241
330
17C
100
AcDbSymbolTableRecord
100
AcDbDimStyleTableRecord
  2
Dim 1-200
 70
     0
 40
0.2
 41
1.5
 42
0.0
 43
5.0
 44
1.25
 45
0.005
 46
1.25
 73
     0
 74
     0
 77
     1
 78
     9
140
2.0
141
2.5
147
1.0
172
     1
174
     1
179
     2
271
     2
272
     2
279
     2
289
     2
340
20
342
152
  0
DIMSTYLE
105
242
330
17C
100
AcDbSymbolTableRecord
100
AcDbDimStyleTableRecord
  2
AEC Scale - Italiano
 70
     0
 41
1.0
 42
10.0
 43
10.0
 44
10.0
 73
     0
 74
     0
 75
     1
 76
     1
 77
     1
140
10.0
141
1.0
147
10.0
173
     1
271
     0
272
     0
279
     2
340
1A
343
238
344
232
  0
ENDTAB
  0
TABLE
  2
BLOCK_RECORD
  5
1
330
0
100
AcDbSymbolTable
 70
     7
  0
BLOCK_RECORD
  5
2
102
{ACAD_XDICTIONARY
360
3
102
}
330
1
100
AcDbSymbolTableRecord
100
AcDbBlockTableRecord
  2
*Model_Space
340
163
  0
BLOCK_RECORD
  5
165
330
1
100
AcDbSymbolTableRecord
100
AcDbBlockTableRecord
  2
*Paper_Space
340
168
  0
BLOCK_RECORD
  5
169
330
1
100
AcDbSymbolTableRecord
100
AcDbBlockTableRecord
  2
*Paper_Space0
340
16C
  0
BLOCK_RECORD
  5
152
330
1
100
AcDbSymbolTableRecord
100
AcDbBlockTableRecord
  2
_ArchTick
340
0
310
2800000020000000200000000100080000000000000400000000000000000000000000000000000000000000000080000080000000808000800000008000800080800000C0C0C000C0DCC000F0CAA6000020400000206000002080000020A0000020C0000020E00000400000004020000040400000406000004080000040A0
310
000040C0000040E00000600000006020000060400000606000006080000060A0000060C0000060E00000800000008020000080400000806000008080000080A0000080C0000080E00000A0000000A0200000A0400000A0600000A0800000A0A00000A0C00000A0E00000C0000000C0200000C0400000C0600000C0800000C0
310
A00000C0C00000C0E00000E0000000E0200000E0400000E0600000E0800000E0A00000E0C00000E0E00040000000400020004000400040006000400080004000A0004000C0004000E00040200000402020004020400040206000402080004020A0004020C0004020E000404000004040200040404000404060004040800040
310
40A0004040C0004040E00040600000406020004060400040606000406080004060A0004060C0004060E00040800000408020004080400040806000408080004080A0004080C0004080E00040A0000040A0200040A0400040A0600040A0800040A0A00040A0C00040A0E00040C0000040C0200040C0400040C0600040C08000
310
40C0A00040C0C00040C0E00040E0000040E0200040E0400040E0600040E0800040E0A00040E0C00040E0E00080000000800020008000400080006000800080008000A0008000C0008000E00080200000802020008020400080206000802080008020A0008020C0008020E00080400000804020008040400080406000804080
310
008040A0008040C0008040E00080600000806020008060400080606000806080008060A0008060C0008060E00080800000808020008080400080806000808080008080A0008080C0008080E00080A0000080A0200080A0400080A0600080A0800080A0A00080A0C00080A0E00080C0000080C0200080C0400080C0600080C0
310
800080C0A00080C0C00080C0E00080E0000080E0200080E0400080E0600080E0800080E0A00080E0C00080E0E000C0000000C0002000C0004000C0006000C0008000C000A000C000C000C000E000C0200000C0202000C0204000C0206000C0208000C020A000C020C000C020E000C0400000C0402000C0404000C0406000C0
310
408000C040A000C040C000C040E000C0600000C0602000C0604000C0606000C0608000C060A000C060C000C060E000C0800000C0802000C0804000C0806000C0808000C080A000C080C000C080E000C0A00000C0A02000C0A04000C0A06000C0A08000C0A0A000C0A0C000C0A0E000C0C00000C0C02000C0C04000C0C06000
310
C0C08000C0C0A000F0FBFF00A4A0A000808080000000FF0000FF000000FFFF00FF000000FF00FF00FFFF0000FFFFFF00000000FF000000000000000000000000000000000000000000000000000000000000FF00FF00000000000000000000000000000000000000000000000000000000FF000000FF000000000000000000
310
0000000000000000000000000000000000FF0000000000FF0000000000000000000000000000000000000000000000000000FF0000000000FF0000000000000000000000000000000000000000000000000000FF0000000000FF0000000000000000000000000000000000000000000000000000FF0000000000FF00000000
310
00000000000000000000000000000000000000000000FF0000000000FF0000000000000000000000000000000000000000000000000000FF0000000000FF0000000000000000000000000000000000000000000000000000FF0000000000FF0000000000000000000000000000000000000000000000000000FF0000000000
310
FF0000000000000000000000000000000000000000000000000000FF0000000000FF0000000000000000000000000000000000000000000000000000FF0000000000FF0000000000000000000000000000000000000000000000000000FF0000000000FF0000000000000000000000000000000000000000000000000000FF
310
0000000000FF0000000000000000000000000000000000000000000000000000FF0000000000FF0000000000000000000000000000000000000000000000000000FF0000000000FF0000000000000000000000000000000000000000000000000000FF0000000000FF00000000000000000000000000000000000000000000
310
00000000FF0000000000FF0000000000000000000000000000000000000000000000000000FF0000000000FF0000000000000000000000000000000000000000000000000000FF0000000000FF0000000000000000000000000000000000000000000000000000FF0000000000FF0000000000000000000000000000000000
310
000000000000000000FF0000000000FF0000000000000000000000000000000000000000000000000000FF0000000000FF0000000000000000000000000000000000000000000000000000FF0000000000FF0000000000000000000000000000000000000000000000000000FF0000000000FF000000000000000000000000
310
0000000000000000000000000000FF0000000000FF0000000000000000000000000000000000000000000000000000FF0000000000FF0000000000000000000000000000000000000000000000000000FF0000000000FF0000000000000000000000000000000000000000000000000000FF000000FF000000000000000000
310
00000000000000000000000000000000000000FF00FF000000000000000000000000000000000000000000000000000000000000FF000000
102
{BLKREFS
331
180C
331
1CC2
102
}
  0
BLOCK_RECORD
  5
232
330
1
100
AcDbSymbolTableRecord
100
AcDbBlockTableRecord
  2
_Arrivo
340
0
310
2800000020000000200000000100080000000000000400000000000000000000000000000000000000000000000080000080000000808000800000008000800080800000C0C0C000C0DCC000F0CAA6000020400000206000002080000020A0000020C0000020E00000400000004020000040400000406000004080000040A0
310
000040C0000040E00000600000006020000060400000606000006080000060A0000060C0000060E00000800000008020000080400000806000008080000080A0000080C0000080E00000A0000000A0200000A0400000A0600000A0800000A0A00000A0C00000A0E00000C0000000C0200000C0400000C0600000C0800000C0
310
A00000C0C00000C0E00000E0000000E0200000E0400000E0600000E0800000E0A00000E0C00000E0E00040000000400020004000400040006000400080004000A0004000C0004000E00040200000402020004020400040206000402080004020A0004020C0004020E000404000004040200040404000404060004040800040
310
40A0004040C0004040E00040600000406020004060400040606000406080004060A0004060C0004060E00040800000408020004080400040806000408080004080A0004080C0004080E00040A0000040A0200040A0400040A0600040A0800040A0A00040A0C00040A0E00040C0000040C0200040C0400040C0600040C08000
310
40C0A00040C0C00040C0E00040E0000040E0200040E0400040E0600040E0800040E0A00040E0C00040E0E00080000000800020008000400080006000800080008000A0008000C0008000E00080200000802020008020400080206000802080008020A0008020C0008020E00080400000804020008040400080406000804080
310
008040A0008040C0008040E00080600000806020008060400080606000806080008060A0008060C0008060E00080800000808020008080400080806000808080008080A0008080C0008080E00080A0000080A0200080A0400080A0600080A0800080A0A00080A0C00080A0E00080C0000080C0200080C0400080C0600080C0
310
800080C0A00080C0C00080C0E00080E0000080E0200080E0400080E0600080E0800080E0A00080E0C00080E0E000C0000000C0002000C0004000C0006000C0008000C000A000C000C000C000E000C0200000C0202000C0204000C0206000C0208000C020A000C020C000C020E000C0400000C0402000C0404000C0406000C0
310
408000C040A000C040C000C040E000C0600000C0602000C0604000C0606000C0608000C060A000C060C000C060E000C0800000C0802000C0804000C0806000C0808000C080A000C080C000C080E000C0A00000C0A02000C0A04000C0A06000C0A08000C0A0A000C0A0C000C0A0E000C0C00000C0C02000C0C04000C0C06000
310
C0C08000C0C0A000F0FBFF00A4A0A000808080000000FF0000FF000000FFFF00FF000000FF00FF00FFFF0000FFFFFF00000000000000000000000000000000000000000000000000000000000000000000000000000000000000FF0000000000000000000000000000000000000000000000000000000000000000FF000000
310
00000000000000000000000000000000000000000000000000000000FF0000000000000000000000000000000000000000000000000000000000000000FF00000000000000000000000000000000000000000000000000000000000000FF0000000000000000000000000000000000000000000000000000000000000000FF
310
0000000000000000000000000000000000000000000000000000000000000000FF00000000000000000000000000000000000000000000000000000000000000FF0000000000000000000000000000000000000000000000000000000000000000FF0000000000000000000000000000000000000000000000000000000000
310
0000FF0000000000000000000000000000000000000000000000000000000000000000FF00000000000000000000000000000000000000000000000000000000000000FF0000000000000000000000000000000000000000000000000000000000000000FF0000FF0000000000000000000000000000000000000000000000
310
000000000000FFFF000000000000000000000000000000000000000000000000000000000000FFFF00000000000000000000000000000000000000000000000000000000FFFFFFFFFFFF00000000000000000000000000000000000000000000000000000000FFFF0000000000000000000000000000000000000000000000
310
000000000000FF0000FF000000000000000000000000000000000000000000000000000000FF00000000000000000000000000000000000000000000000000000000000000FF000000000000000000000000000000000000000000000000000000000000FF0000000000000000000000000000000000000000000000000000
310
0000000000FF000000000000000000000000000000000000000000000000000000000000FF00000000000000000000000000000000000000000000000000000000000000FF000000000000000000000000000000000000000000000000000000000000FF000000000000000000000000000000000000000000000000000000
310
000000FF00000000000000000000000000000000000000000000000000000000000000FF000000000000000000000000000000000000000000000000000000000000FF00000000000000000000000000000000000000000000000000000000000000FF00000000000000000000000000000000000000000000000000000000
310
0000FF0000000000000000000000000000000000000000000000000000000000000000000000000000000000000000000000000000000000
  0
BLOCK_RECORD
  5
238
330
1
100
AcDbSymbolTableRecord
100
AcDbBlockTableRecord
  2
_Partenza
340
0
310
2800000020000000200000000100080000000000000400000000000000000000000000000000000000000000000080000080000000808000800000008000800080800000C0C0C000C0DCC000F0CAA6000020400000206000002080000020A0000020C0000020E00000400000004020000040400000406000004080000040A0
310
000040C0000040E00000600000006020000060400000606000006080000060A0000060C0000060E00000800000008020000080400000806000008080000080A0000080C0000080E00000A0000000A0200000A0400000A0600000A0800000A0A00000A0C00000A0E00000C0000000C0200000C0400000C0600000C0800000C0
310
A00000C0C00000C0E00000E0000000E0200000E0400000E0600000E0800000E0A00000E0C00000E0E00040000000400020004000400040006000400080004000A0004000C0004000E00040200000402020004020400040206000402080004020A0004020C0004020E000404000004040200040404000404060004040800040
310
40A0004040C0004040E00040600000406020004060400040606000406080004060A0004060C0004060E00040800000408020004080400040806000408080004080A0004080C0004080E00040A0000040A0200040A0400040A0600040A0800040A0A00040A0C00040A0E00040C0000040C0200040C0400040C0600040C08000
310
40C0A00040C0C00040C0E00040E0000040E0200040E0400040E0600040E0800040E0A00040E0C00040E0E00080000000800020008000400080006000800080008000A0008000C0008000E00080200000802020008020400080206000802080008020A0008020C0008020E00080400000804020008040400080406000804080
310
008040A0008040C0008040E00080600000806020008060400080606000806080008060A0008060C0008060E00080800000808020008080400080806000808080008080A0008080C0008080E00080A0000080A0200080A0400080A0600080A0800080A0A00080A0C00080A0E00080C0000080C0200080C0400080C0600080C0
310
800080C0A00080C0C00080C0E00080E0000080E0200080E0400080E0600080E0800080E0A00080E0C00080E0E000C0000000C0002000C0004000C0006000C0008000C000A000C000C000C000E000C0200000C0202000C0204000C0206000C0208000C020A000C020C000C020E000C0400000C0402000C0404000C0406000C0
310
408000C040A000C040C000C040E000C0600000C0602000C0604000C0606000C0608000C060A000C060C000C060E000C0800000C0802000C0804000C0806000C0808000C080A000C080C000C080E000C0A00000C0A02000C0A04000C0A06000C0A08000C0A0A000C0A0C000C0A0E000C0C00000C0C02000C0C04000C0C06000
310
C0C08000C0C0A000F0FBFF00A4A0A000808080000000FF0000FF000000FFFF00FF000000FF00FF00FFFF0000FFFFFF0000000000000000000000000000000000000000000000000000000000000000000000000000000000000000000000000000000000000000000000000000000000000000000000000000000000000000
310
000000000000000000000000000000000000000000000000000000000000000000000000000000000000000000000000000000000000000000000000000000000000000000000000000000000000000000000000000000000000000000000000000000000000000000000000000000000000FFFFFFFFFFFFFFFFFFFFFFFFFF
310
FFFFFFFFFFFFFFFFFFFFFFFFFFFFFFFFFF0000000000000000000000000000000000000000000000000000000000000000000000000000000000000000000000000000000000000000000000000000000000000000000000000000000000000000000000000000000000000000000000000000000000000000000000000000
310
00000000000000000000000000000000000000000000000000000000000000000000000000000000000000000000000000000000000000000000000000000000000000000000000000000000000000000000000000000000000000000000000000000000000000000000000000000000000000000000000000000000000000
310
00000000000000000000000000000000000000000000000000000000000000000000000000000000000000000000000000000000000000000000000000000000000000000000000000000000000000000000000000000000000000000000000000000000000000000000000000000000000000000000000000000000000000
310
00000000000000000000000000000000000000000000000000000000000000000000000000000000000000000000000000000000000000000000000000000000000000000000000000000000000000000000000000000000000000000000000000000000000000000000000000000000000000000000000000000000000000
310
000000000000000000000000000000000000000000000000000000000000000000000000000000000000000000000000000000000000000000000000000000000000000000000000000000000000000000000000000000FFFFFFFFFFFFFFFFFFFFFFFFFFFFFFFFFFFFFFFFFFFFFFFFFFFFFFFFFFFF00000000000000000000
310
00000000000000000000000000000000000000000000000000000000000000000000000000000000000000000000000000000000000000000000000000000000000000000000000000000000000000000000000000000000000000000000000000000000000000000000000000000000000000000000000000000000000000
310
0000000000000000000000000000000000000000000000000000000000000000000000000000000000000000000000000000000000000000
  0
BLOCK_RECORD
  5
17F2
330
1
100
AcDbSymbolTableRecord
100
AcDbBlockTableRecord
  2
*D4
340
0
  0
BLOCK_RECORD
  5
1CA8
330
1
100
AcDbSymbolTableRecord
100
AcDbBlockTableRecord
  2
*D6
340
0
  0
ENDTAB
  0
ENDSEC
  0
SECTION
  2
BLOCKS
  0
BLOCK
  5
5
330
2
100
AcDbEntity
  8
0
100
AcDbBlockBegin
  2
*Model_Space
 70
     0
 10
0.0
 20
0.0
 30
0.0
  3
*Model_Space
  1

  0
ENDBLK
  5
162
330
2
100
AcDbEntity
  8
0
100
AcDbBlockEnd
  0
BLOCK
  5
166
330
165
100
AcDbEntity
 67
     1
  8
0
100
AcDbBlockBegin
  2
*Paper_Space
 70
     0
 10
0.0
 20
0.0
 30
0.0
  3
*Paper_Space
  1

  0
ENDBLK
  5
167
330
165
100
AcDbEntity
 67
     1
  8
0
100
AcDbBlockEnd
  0
BLOCK
  5
16A
330
169
100
AcDbEntity
 67
     1
  8
0
100
AcDbBlockBegin
  2
*Paper_Space0
 70
     0
 10
0.0
 20
0.0
 30
0.0
  3
*Paper_Space0
  1

  0
ENDBLK
  5
16B
330
169
100
AcDbEntity
 67
     1
  8
0
100
AcDbBlockEnd
  0
BLOCK
  5
153
330
152
100
AcDbEntity
  8
0
 62
     1
100
AcDbBlockBegin
  2
_ArchTick
 70
     0
 10
0.0
 20
0.0
 30
0.0
  3
_ArchTick
  1

  0
LWPOLYLINE
  5
154
330
152
100
AcDbEntity
  8
0
  6
ByBlock
 62
     0
100
AcDbPolyline
 90
        2
 70
     0
 43
0.15
 10
-0.5
 20
-0.5
 10
0.5
 20
0.5
  0
ENDBLK
  5
155
330
152
100
AcDbEntity
  8
0
 62
     1
100
AcDbBlockEnd
  0
BLOCK
  5
233
330
232
100
AcDbEntity
  8
0
100
AcDbBlockBegin
  2
_Arrivo
 70
     0
 10
0.0
 20
0.0
 30
0.0
  3
_Arrivo
  1

  0
LINE
  5
234
330
232
100
AcDbEntity
  8
0
  6
ByBlock
 62
     0
370
    -2
100
AcDbLine
 10
0.025
 20
-0.0433012701891858
 30
0.0
 11
-0.15
 21
0.2598076211353328
 31
0.0
  0
LINE
  5
235
330
232
100
AcDbEntity
  8
0
  6
ByBlock
 62
     0
370
    -2
100
AcDbLine
 10
0.025
 20
0.0433012701892585
 30
0.0
 11
-0.15
 21
-0.2598076211353328
 31
0.0
  0
LINE
  5
236
330
232
100
AcDbEntity
  8
0
  6
ByBlock
 62
     0
370
    -2
100
AcDbLine
 10
-0.05
 20
0.0
 30
0.0
 11
0.05
 21
0.0
 31
0.0
  0
ENDBLK
  5
237
330
232
100
AcDbEntity
  8
0
100
AcDbBlockEnd
  0
BLOCK
  5
239
330
238
100
AcDbEntity
  8
0
100
AcDbBlockBegin
  2
_Partenza
 70
     0
 10
0.0
 20
0.0
 30
0.0
  3
_Partenza
  1

  0
LINE
  5
23A
330
238
100
AcDbEntity
  8
0
  6
ByBlock
 62
     0
370
    -2
100
AcDbLine
 10
-0.05
 20
0.05
 30
0.0
 11
0.1
 21
0.05
 31
0.0
  0
LINE
  5
23B
330
238
100
AcDbEntity
  8
0
  6
ByBlock
 62
     0
370
    -2
100
AcDbLine
 10
-0.05
 20
-0.05
 30
0.0
 11
0.1
 21
-0.05
 31
0.0
  0
ENDBLK
  5
23C
330
238
100
AcDbEntity
  8
0
100
AcDbBlockEnd
  0
BLOCK
  5
17F9
330
17F2
100
AcDbEntity
  8
0
100
AcDbBlockBegin
  2
*D4
 70
     1
 10
0.0
 20
0.0
 30
0.0
  3
*D4
  1

  0
LINE
  5
1809
330
17F2
100
AcDbEntity
  8
Text
  6
ACAD_ISO10W100
 62
     5
370
    -2
100
AcDbLine
 10
0.2752844982296152
 20
0.2095478102390275
 30
0.0
 11
0.2737844982296151
 21
0.2095478102390275
 31
0.0
  0
LINE
  5
180A
330
17F2
100
AcDbEntity
  8
Text
  6
ACAD_ISO10W100
 62
     5
370
    -2
100
AcDbLine
 10
0.2737844982296151
 20
0.2095478102390275
 30
0.0
 11
0.2714845230051905
 21
0.2076216446264612
 31
0.0
  0
MTEXT
  5
180B
330
17F2
100
AcDbEntity
  8
Text
  6
ACAD_ISO10W100
 62
     4
100
AcDbMText
 10
0.2897130696581866
 20
0.2095478102390275
 30
0.0
 40
0.003
 41
0.0
 71
     5
 72
     1
  1
\A1;d 335 mm
  7
ROMANS
 73
     1
 44
1.0
1001
ACAD
1000
MTEXTBEGIN
1070
    73
1070
     1
1070
    44
1040
1.0
1070
    74
1070
     0
1000
MTEXTEND
  0
INSERT
  5
180C
330
17F2
100
AcDbEntity
  8
Text
  6
ACAD_ISO10W100
 62
     5
370
    -2
100
AcDbBlockReference
  2
_ArchTick
 10
0.2714845230051905
 20
0.2076216446264612
 30
0.0
 41
0.0015
 42
0.0015
 43
0.0015
 50
219.9452421704756
  0
POINT
  5
180D
330
17F2
100
AcDbEntity
  8
Defpoints
  6
ACAD_ISO10W100
 62
     0
100
AcDbPoint
 10
0.2714845230051905
 20
0.2076216446264612
 30
0.0
  0
POINT
  5
180E
330
17F2
100
AcDbEntity
  8
Defpoints
  6
ACAD_ISO10W100
 62
     0
100
AcDbPoint
 10
0.1430692396414827
 20
0.1000773979248426
 30
0.0
  0
ENDBLK
  5
17FA
330
17F2
100
AcDbEntity
  8
0
100
AcDbBlockEnd
  0
BLOCK
  5
1CAF
330
1CA8
100
AcDbEntity
  8
0
100
AcDbBlockBegin
  2
*D6
 70
     1
 10
0.0
 20
0.0
 30
0.0
  3
*D6
  1

  0
LINE
  5
1CBF
330
1CA8
100
AcDbEntity
  8
Text
  6
ACAD_ISO10W100
 62
     5
370
    -2
100
AcDbLine
 10
0.2691906163671416
 20
0.2054122756710057
 30
0.0
 11
0.2676906163671416
 21
0.2054122756710057
 31
0.0
  0
LINE
  5
1CC0
330
1CA8
100
AcDbEntity
  8
Text
  6
ACAD_ISO10W100
 62
     5
370
    -2
100
AcDbLine
 10
0.2676906163671416
 20
0.2054122756710057
 30
0.0
 11
0.2653415959966366
 21
0.2035462362022504
 31
0.0
  0
MTEXT
  5
1CC1
330
1CA8
100
AcDbEntity
  8
Text
  6
ACAD_ISO10W100
 62
     4
100
AcDbMText
 10
0.283619187795713
 20
0.2054122756710057
 30
0.0
 40
0.003
 41
0.0
 71
     5
 72
     1
  1
\A1;d 575 mm
  7
ROMANS
 73
     1
 44
1.0
1001
ACAD
1000
MTEXTBEGIN
1070
    73
1070
     1
1070
    44
1040
1.0
1070
    74
1070
     0
1000
MTEXTEND
  0
INSERT
  5
1CC2
330
1CA8
100
AcDbEntity
  8
Text
  6
ACAD_ISO10W100
 62
     5
370
    -2
100
AcDbBlockReference
  2
_ArchTick
 10
0.2653415959966366
 20
0.2035462362022504
 30
0.0
 41
0.0015
 42
0.0015
 43
0.0015
 50
218.4632953061788
  0
POINT
  5
1CC3
330
1CA8
100
AcDbEntity
  8
Defpoints
  6
ACAD_ISO10W100
 62
     0
100
AcDbPoint
 10
0.2653415959966366
 20
0.2035462362022504
 30
0.0
  0
POINT
  5
1CC4
330
1CA8
100
AcDbEntity
  8
Defpoints
  6
ACAD_ISO10W100
 62
     0
100
AcDbPoint
 10
0.152784369909937
 20
0.1141318449910611
 30
0.0
  0
ENDBLK
  5
1CB0
330
1CA8
100
AcDbEntity
  8
0
100
AcDbBlockEnd
  0
ENDSEC
  0
SECTION
  2
ENTITIES
  0
LINE
  5
D
330
2
100
AcDbEntity
  8
Table
100
AcDbLine
 10
0.02
 20
0.02
 30
0.0
 11
0.4
 21
0.02
 31
0.0
  0
LINE
  5
10
330
2
100
AcDbEntity
  8
Table
100
AcDbLine
 10
0.4
 20
0.02
 30
0.0
 11
0.4
 21
0.2769999999999999
 31
0.0
  0
LINE
  5
11
330
2
100
AcDbEntity
  8
Table
100
AcDbLine
 10
0.4
 20
0.2769999999999999
 30
0.0
 11
0.02
 21
0.277
 31
0.0
  0
LINE
  5
12
330
2
100
AcDbEntity
  8
Table
100
AcDbLine
 10
0.02
 20
0.277
 30
0.0
 11
0.02
 21
0.02
 31
0.0
  0
LINE
  5
13
330
2
100
AcDbEntity
  8
Table
 62
     2
100
AcDbLine
 10
0.015
 20
0.015
 30
0.0
 11
0.4050000000000001
 21
0.015
 31
0.0
  0
LINE
  5
14
330
2
100
AcDbEntity
  8
Table
 62
     2
100
AcDbLine
 10
0.4050000000000001
 20
0.015
 30
0.0
 11
0.4050000000000001
 21
0.2819999999999998
 31
0.0
  0
LINE
  5
15
330
2
100
AcDbEntity
  8
Table
 62
     2
100
AcDbLine
 10
0.4050000000000001
 20
0.2819999999999998
 30
0.0
 11
0.0149999999999999
 21
0.282
 31
0.0
  0
LINE
  5
16
330
2
100
AcDbEntity
  8
Table
 62
     2
100
AcDbLine
 10
0.0149999999999999
 20
0.282
 30
0.0
 11
0.015
 21
0.015
 31
0.0
  0
LINE
  5
17
330
2
100
AcDbEntity
  8
Table
100
AcDbLine
 10
0.21
 20
0.2769999999999999
 30
0.0
 11
0.21
 21
0.2532994226089223
 31
0.0
  0
MTEXT
  5
18
102
{ACAD_XDICTIONARY
360
1CC8
102
}
330
2
100
AcDbEntity
  8
Text
100
AcDbMText
 10
0.305
 20
0.0471738284815141
 30
0.0
 40
0.005
 41
0.1900000000000001
 71
     2
 72
     5
  3
{\fTimes New Roman|b0|i0|c238|p18;\H1.6x;\C4;Bovelacci\P\H0.4375x;\T0.95;via del Commercio, 5  47100 Forli - Italy  \fTimes New Roman|b0|i0|c0|p18;\P\fTimes New Roman|b0|i0|c238|p18;tel.+39-0543721386  fax +39-0543721127\fTimes New Roman|b0|i0|c0|p18
  1
; \fTimes New Roman|b0|i0|c238|p18;www.bovelacci.it\fTimes New Roman|b0|i0|c0|p18; \fTimes New Roman|b0|i0|c238|p18;e-mail: bovelacci@bovelacci\fTimes New Roman|b0|i0|c0|p18;.it}
 73
     1
 44
1.0
1001
ACAD
1000
ACAD_MTEXT_DEFINED_HEIGHT_BEGIN
1070
    46
1040
0.0271738284815141
1000
ACAD_MTEXT_DEFINED_HEIGHT_END
1000
MTEXTBEGIN
1070
    73
1070
     1
1070
    44
1040
1.0
1070
    74
1070
     0
1000
MTEXTEND
  0
MTEXT
  5
1C
330
2
100
AcDbEntity
  8
Text
100
AcDbMText
 10
0.0219676065851835
 20
0.0500313976452307
 30
0.0
 40
0.002
 41
0.1863544980601608
 71
     1
 72
     5
  3
{\fArial|b0|i0|c0|p34;\H1.25x;Le caratteristiche tecniche indicate vengono fornite a titolo indicativo e potranno essere modificate senza preavviso. Non devono quindi essere considerate a scopo di specifica.\P\fArial|b0|i1|c0|p34;The given values are
  3
 indicative and can be changed without notice. They cannot be considered like a state.\PThis lealfet and designs embodied within are protected by copyright law and international treaties. Unauthorized repro- duction of the leaflet or any portion of i
  1
t or reproduction of any of the designs embodied therein may result in severe civil penalties and will be prosecuted to the maximum.\PAll right reserved, Bovelacci Forlì Italy.}
 73
     1
 44
1.0
1001
ACAD
1000
MTEXTBEGIN
1070
    73
1070
     1
1070
    44
1040
1.0
1070
    74
1070
     0
1000
MTEXTEND
  0
LINE
  5
1D
330
2
100
AcDbEntity
  8
Table
100
AcDbLine
 10
0.02
 20
0.0528099428524846
 30
0.0
 11
0.4
 21
0.0528099428524846
 31
0.0
  0
MTEXT
  5
1E
330
2
100
AcDbEntity
  8
Text
100
AcDbMText
 10
0.1133313047219695
 20
0.2610796890771976
 30
0.0
 40
0.003
 41
0.1103605678262056
 71
     2
 72
     5
  1
{\fTimes New Roman|b0|i0|c0|p18;Rosoni\fTimes New Roman|b0|i1|c0|p18;   Ceiling centres}
 73
     1
 44
1.0
1001
ACAD
1000
ACAD_MTEXT_DEFINED_HEIGHT_BEGIN
1070
    46
1040
0.0141952763113409
1000
ACAD_MTEXT_DEFINED_HEIGHT_END
1000
MTEXTBEGIN
1070
    73
1070
     1
1070
    44
1040
1.0
1070
    74
1070
     0
1000
MTEXTEND
  0
TEXT
  5
1F
330
2
100
AcDbEntity
  8
Text
100
AcDbText
 10
0.2180556919891047
 20
0.269976982173197
 30
0.0
 40
0.003
  1
Rosone - Ceiling centre : D 575 mm
  7
ROMANS
100
AcDbText
  0
TEXT
  5
21
330
2
100
AcDbEntity
  8
Text
100
AcDbText
 10
0.2184542410678115
 20
0.2576348370183962
 30
0.0
 40
0.003
  1
File : C - R3315
  7
ROMANS
100
AcDbText
  0
LINE
  5
22
330
2
100
AcDbEntity
  8
Table
100
AcDbLine
 10
0.4
 20
0.2654452889427402
 30
0.0
 11
0.02
 21
0.2654452889427403
 31
0.0
  0
LINE
  5
23
330
2
100
AcDbEntity
  8
Table
100
AcDbLine
 10
0.4
 20
0.2532994226089223
 30
0.0
 11
0.02
 21
0.2532994226089225
 31
0.0
  0
LINE
  5
24
330
2
100
AcDbEntity
  8
Table
100
AcDbLine
 10
0.21
 20
0.0528099428524846
 30
0.0
 11
0.21
 21
0.02
 31
0.0
  0
TEXT
  5
25
330
2
100
AcDbEntity
  8
Text
100
AcDbText
 10
0.0896473531074035
 20
0.2687784133392506
 30
0.0
 40
0.005
  1
CLASSICSTYL
  7
style1
 72
     1
 11
0.1140561490699125
 21
0.2687784133392506
 31
0.0
100
AcDbText
  0
TEXT
  5
252
330
2
100
AcDbEntity
  8
Text
  6
ACAD_ISO10W100
100
AcDbText
 10
0.2951589460841571
 20
0.0876218606849342
 30
0.0
 40
0.005
  1
scala 1 : 4
  7
style1
100
AcDbText
  0
CIRCLE
  5
1A6A
330
2
100
AcDbEntity
  8
Profilo
  6
Continuous
370
     0
100
AcDbCircle
 10
0.2090629829532868
 20
0.1588390405966558
 30
0.0
 40
0.006869297937242
  0
CIRCLE
  5
1A6B
102
{ACAD_REACTORS
330
1CB8
102
}
330
2
100
AcDbEntity
  8
Profilo
  6
Continuous
370
     0
100
AcDbCircle
 10
0.2090629829532868
 20
0.1588390405966558
 30
0.0
 40
0.071875
  0
LWPOLYLINE
  5
1A6C
330
2
100
AcDbEntity
  8
Profilo
  6
Continuous
370
     0
100
AcDbPolyline
 90
       15
 70
   128
 43
0.0
 10
0.1878934694937004
 20
0.225591646087008
 10
0.1899993673391787
 20
0.2270693885469641
 10
0.1936124330935882
 20
0.2282483687043215
 10
0.1965299796585931
 20
0.2288623046405847
 10
0.199908192147469
 20
0.2289390469790526
 10
0.2023650749316903
 20
0.228478594333986
 10
0.2036702934420063
 20
0.2280181423817891
 10
0.2038238476784204
 20
0.2277111744136584
 10
0.203363182826094
 20
0.2268670114619931
 10
0.2012134106577867
 20
0.2251786869444019
 10
0.1982958640927801
 20
0.2240275560246059
 10
0.1949176516039059
 20
0.2230299097817459
 10
0.1920001039673582
 20
0.2226461994751472
 10
0.1893896669467228
 20
0.2227229411207436
 10
0.1882866914377643
 20
0.2228644571523693
  0
LWPOLYLINE
  5
1A6D
330
2
100
AcDbEntity
  8
Profilo
  6
Continuous
370
     0
100
AcDbPolyline
 90
        9
 70
   128
 43
0.0
 10
0.2012134106577867
 20
0.2249484606218695
 10
0.2022115196237333
 20
0.2244880079768028
 10
0.203209627518137
 20
0.2237205880564753
 10
0.203516738134051
 20
0.2230299097817459
 10
0.2034399599443002
 20
0.2222624891685485
 10
0.2022882967419395
 20
0.2221090051844823
 10
0.1996628859812339
 20
0.2219965225061338
 10
0.197596301972127
 20
0.2220263152454955
 10
0.1968464973493667
 20
0.2220410477512993
  0
LWPOLYLINE
  5
1A6E
330
2
100
AcDbEntity
  8
Profilo
  6
Continuous
370
     0
100
AcDbPolyline
 90
       11
 70
   128
 43
0.0
 10
0.196714157518701
 20
0.2233902939095179
 10
0.1971111780822408
 20
0.2233638380345657
 10
0.1975346668262208
 20
0.2232580152276254
 10
0.1975611350066628
 20
0.222887633671164
 10
0.1975346668262208
 20
0.2224643403647968
 10
0.1968464973493667
 20
0.2220410477512993
 10
0.1953628165886119
 20
0.2213833431844763
 10
0.1939912963631893
 20
0.2210955129928966
 10
0.1921881200940259
 20
0.2209034478998313
 10
0.1906794402381056
 20
0.2208240802749732
 10
0.1900657494200011
 20
0.2208144175027429
  0
LWPOLYLINE
  5
1A6F
330
2
100
AcDbEntity
  8
Profilo
  6
Continuous
370
     0
100
AcDbPolyline
 90
        2
 70
   128
 43
0.0
 10
0.2001906883521058
 20
0.2291366432574553
 10
0.2018592166872597
 20
0.2300315368026387
  0
LWPOLYLINE
  5
1A70
330
2
100
AcDbEntity
  8
Profilo
  6
Continuous
370
     0
100
AcDbPolyline
 90
        2
 70
   128
 43
0.0
 10
0.192702661050334
 20
0.2280383645007
 10
0.1928654444854903
 20
0.2286485194425496
  0
LWPOLYLINE
  5
1A71
330
2
100
AcDbEntity
  8
Profilo
  6
Continuous
370
     0
100
AcDbPolyline
 90
       15
 70
   128
 43
0.0
 10
0.1744774270800995
 20
0.2197315521626018
 10
0.1762300660716025
 20
0.2216148431860536
 10
0.1795190539126146
 20
0.2235192584083205
 10
0.1822452006266413
 20
0.22472637041075
 10
0.1855336354380561
 20
0.2255038056154999
 10
0.188032562926703
 20
0.2255642296192861
 10
0.1894049926249248
 20
0.2253852098343577
 10
0.1896190135621374
 20
0.2251168755737543
 10
0.1893439266886971
 20
0.2241953819996056
 10
0.1875921546052435
 20
0.2220969886570789
 10
0.1849776970085422
 20
0.2203644206703808
 10
0.1818807288849704
 20
0.2186862055210406
 10
0.1791067145228833
 20
0.2177042879431092
 10
0.1765373663289906
 20
0.2172366122248932
 10
0.1754290706438233
 20
0.217145714288693
  0
LWPOLYLINE
  5
1A72
330
2
100
AcDbEntity
  8
Profilo
  6
Continuous
370
     0
100
AcDbPolyline
 90
        9
 70
   128
 43
0.0
 10
0.1876400213492324
 20
0.2218717933320673
 10
0.1887120527275214
 20
0.2216289212047742
 10
0.1898479051429092
 20
0.2210857895508949
 10
0.1902919047429339
 20
0.2204740561410117
 10
0.1903763600581001
 20
0.2197074424262095
 10
0.1892817745744988
 20
0.2193178681917894
 10
0.1867371218018163
 20
0.2186619899394899
 10
0.1847095033527786
 20
0.2182614646604652
 10
0.183973020699814
 20
0.2181199820787705
  0
LWPOLYLINE
  5
1A73
330
2
100
AcDbEntity
  8
Profilo
  6
Continuous
370
     0
100
AcDbPolyline
 90
       11
 70
   128
 43
0.0
 10
0.1835630487618836
 20
0.2194122289732729
 10
0.1839568939592453
 20
0.2194688964393188
 10
0.1843931302568265
 20
0.2194534343754104
 10
0.1844960266996718
 20
0.2190966495887499
 10
0.1845581445395161
 20
0.2186771032125709
 10
0.183973020699814
 20
0.2181199820787705
 10
0.1826585063919743
 20
0.2171681753591366
 10
0.1813768004359193
 20
0.2166014798587672
 10
0.1796529604727837
 20
0.2160387104218349
 10
0.1781937503485202
 20
0.2156474049902592
 10
0.1775954791505103
 20
0.2155103598771527
  0
LWPOLYLINE
  5
1A74
330
2
100
AcDbEntity
  8
Profilo
  6
Continuous
370
     0
100
AcDbPolyline
 90
        2
 70
   128
 43
0.0
 10
0.1857688758464959
 20
0.2257558182046897
 10
0.1872148840042029
 20
0.2269780627261633
  0
LWPOLYLINE
  5
1A75
330
2
100
AcDbEntity
  8
Profilo
  6
Continuous
370
     0
100
AcDbPolyline
 90
        2
 70
   128
 43
0.0
 10
0.1786728249003449
 20
0.2231246910566313
 10
0.1787051927812626
 20
0.2237553572283191
  0
LWPOLYLINE
  5
1A76
330
2
100
AcDbEntity
  8
Profilo
  6
Continuous
370
     0
100
AcDbPolyline
 90
       15
 70
   128
 43
0.0
 10
0.1625729394180684
 20
0.2112101632880746
 10
0.1638957208215721
 20
0.2134166940202644
 10
0.1667168861982187
 20
0.2159633122238298
 10
0.1691324873683626
 20
0.2177108437055524
 10
0.1721874241213956
 20
0.219154994127591
 10
0.1746191811920308
 20
0.2197336539613155
 10
0.1759988403146966
 20
0.2198438903672906
 10
0.176263974210763
 20
0.219625917309012
 10
0.1761864879325941
 20
0.2186673668033898
 10
0.1749092767799769
 20
0.2162506144942023
 10
0.1727121724941145
 20
0.2140123309754043
 10
0.1700318011037492
 20
0.2117268929745824
 10
0.1675225577549433
 20
0.2101896826352356
 10
0.165106591232967
 20
0.2091980292262492
 10
0.1640414132112216
 20
0.208878689998214
  0
LWPOLYLINE
  5
1A77
330
2
100
AcDbEntity
  8
Profilo
  6
Continuous
370
     0
100
AcDbPolyline
 90
        9
 70
   128
 43
0.0
 10
0.175002918261552
 20
0.2160402922830227
 10
0.1761020191367748
 20
0.2160256153508961
 10
0.1773259738721673
 20
0.2157305094229742
 10
0.1778874575432379
 20
0.2152244565633717
 10
0.1781294552607846
 20
0.214492154444923
 10
0.1771397861339785
 20
0.2138835162235773
 10
0.1747871048860865
 20
0.2127129074242036
 10
0.172887068652934
 20
0.2118995690034215
 10
0.172196095795736
 20
0.2116080548019537
  0
LWPOLYLINE
  5
1A78
330
2
100
AcDbEntity
  8
Profilo
  6
Continuous
370
     0
100
AcDbPolyline
 90
       11
 70
   128
 43
0.0
 10
0.1715264094914903
 20
0.212786825042564
 10
0.1718998663976705
 20
0.2129241392094205
 10
0.1723297846293519
 20
0.2129997136549329
 10
0.1725046122663005
 20
0.2126721188452945
 10
0.172652601278753
 20
0.2122746555891504
 10
0.172196095795736
 20
0.2116080548019537
 10
0.1711081985238028
 20
0.2104037444504355
 10
0.1699723235377017
 20
0.2095829509539465
 10
0.1684031599588855
 20
0.2086740728980119
 10
0.1670571940507759
 20
0.2079879315847664
 10
0.1665004897950382
 20
0.2077294936598446
  0
LWPOLYLINE
  5
1A79
330
2
100
AcDbEntity
  8
Profilo
  6
Continuous
370
     0
100
AcDbPolyline
 90
        2
 70
   128
 43
0.0
 10
0.1723651275989801
 20
0.2194504088681293
 10
0.1735254180840318
 20
0.2209465864153235
  0
LWPOLYLINE
  5
1A7A
330
2
100
AcDbEntity
  8
Profilo
  6
Continuous
370
     0
100
AcDbPolyline
 90
        2
 70
   128
 43
0.0
 10
0.1659711844854275
 20
0.2154014262106867
 10
0.16587172218039
 20
0.2160250404742361
  0
LWPOLYLINE
  5
1A7B
330
2
100
AcDbEntity
  8
Profilo
  6
Continuous
370
     0
100
AcDbPolyline
 90
       15
 70
   128
 43
0.0
 10
0.1527002897425056
 20
0.2003999050474037
 10
0.1535354016632666
 20
0.2028332395072252
 10
0.1557654461111368
 20
0.2059107612565634
 10
0.1577649283749192
 20
0.2081223367062432
 10
0.1604528516742512
 20
0.2101700860423237
 10
0.162711158874022
 20
0.2112416914945361
 10
0.1640377496971321
 20
0.2116363662314993
 10
0.1643424089285428
 20
0.2114782808441445
 10
0.1644659097678207
 20
0.2105245666637772
 10
0.1637190798021482
 20
0.2078950790607075
 10
0.1620353528272929
 20
0.2052489037400549
 10
0.1598887232617414
 20
0.2024561274951346
 10
0.1577539169012467
 20
0.2004308078625568
 10
0.1555969213812893
 20
0.1989585167752534
 10
0.1546214144138112
 20
0.1984246929120084
  0
LWPOLYLINE
  5
1A7C
330
2
100
AcDbEntity
  8
Profilo
  6
Continuous
370
     0
100
AcDbPolyline
 90
        9
 70
   128
 43
0.0
 10
0.1638544034392229
 20
0.2077088220532244
 10
0.1649325378290605
 20
0.2079229817686259
 10
0.1661911021893381
 20
0.2078887991117857
 10
0.1668455304007288
 20
0.207510543740741
 10
0.1672344940591681
 20
0.2068445583351975
 10
0.1663929945789586
 20
0.2060434565377691
 10
0.1643351083158044
 20
0.2044092784130584
 10
0.1626456949993098
 20
0.2032186736423367
 10
0.1620304307673954
 20
0.2027898683905414
  0
LWPOLYLINE
  5
1A7D
330
2
100
AcDbEntity
  8
Profilo
  6
Continuous
370
     0
100
AcDbPolyline
 90
       11
 70
   128
 43
0.0
 10
0.1611302986018408
 20
0.2038036440613777
 10
0.1614670453579936
 20
0.204015603641047
 10
0.1618718560340777
 20
0.204178911630065
 10
0.1621109740584739
 20
0.2038948242626017
 10
0.1623383664135634
 20
0.2035368151780266
 10
0.1620304307673954
 20
0.2027898683905414
 10
0.1612166968624613
 20
0.2013856885484224
 10
0.16027629603374
 20
0.2003466696702163
 10
0.1589303888173184
 20
0.1991314053276008
 10
0.1577564922942087
 20
0.1981804158005489
 10
0.1572656856280818
 20
0.1978118800412507
  0
LWPOLYLINE
  5
1A7E
330
2
100
AcDbEntity
  8
Profilo
  6
Continuous
370
     0
100
AcDbPolyline
 90
        2
 70
   128
 43
0.0
 10
0.1605652517262956
 20
0.210495991892492
 10
0.1613891142768018
 20
0.2122007123271374
  0
LWPOLYLINE
  5
1A7F
330
2
100
AcDbEntity
  8
Profilo
  6
Continuous
370
     0
100
AcDbPolyline
 90
        2
 70
   128
 43
0.0
 10
0.1551528624409471
 20
0.2052061136969692
 10
0.154925916929957
 20
0.205795421116632
  0
LWPOLYLINE
  5
1A80
330
2
100
AcDbEntity
  8
Profilo
  6
Continuous
370
     0
100
AcDbPolyline
 90
       15
 70
   128
 43
0.0
 10
0.1452909602184629
 20
0.1877732375990822
 10
0.1456019042582326
 20
0.1903270273942064
 10
0.1471433641340141
 20
0.193800950221283
 10
0.1486393405219288
 20
0.1963799131794528
 10
0.1508427752212913
 20
0.1989417649573953
 10
0.152828933689009
 20
0.2004594817277004
 10
0.1540444778279031
 20
0.2011213456157894
 10
0.1543753473243281
 20
0.2010300569893606
 10
0.1546944377017521
 20
0.2001228610203616
 10
0.1545106289762124
 20
0.1973955593493426
 10
0.1534138662605844
 20
0.1944571427861086
 10
0.1518947965325335
 20
0.1912790860202205
 10
0.1502277284422397
 20
0.1888541732809146
 10
0.1484239749789367
 20
0.1869655907006469
 10
0.1475807734012047
 20
0.1862406128665879
  0
LWPOLYLINE
  5
1A81
330
2
100
AcDbEntity
  8
Profilo
  6
Continuous
370
     0
100
AcDbPolyline
 90
        9
 70
   128
 43
0.0
 10
0.1546817204764916
 20
0.1972415078705461
 10
0.1556917687346473
 20
0.1976751444262583
 10
0.1569299374179998
 20
0.1979033789866329
 10
0.1576487085165812
 20
0.1976694526789307
 10
0.1581676385375814
 20
0.1970988907442668
 10
0.1575110862692159
 20
0.1961403373634156
 10
0.1558379344953351
 20
0.1941140113390767
 10
0.1544329795641353
 20
0.192598175360049
 10
0.1539203139568019
 20
0.192050819905067
  0
LWPOLYLINE
  5
1A82
330
2
100
AcDbEntity
  8
Profilo
  6
Continuous
370
     0
100
AcDbPolyline
 90
       11
 70
   128
 43
0.0
 10
0.1528290760248889
 20
0.1928552941446769
 10
0.1531143951818812
 20
0.1931326354864322
 10
0.1534764061333227
 20
0.1933765396761964
 10
0.1537693639400881
 20
0.1931483757320707
 10
0.1540662215007458
 20
0.1928454675339784
 10
0.1539203139568019
 20
0.192050819905067
 10
0.1534163074952441
 20
0.1905081399694475
 10
0.1527124808526608
 20
0.1892963058202679
 10
0.1516486526023708
 20
0.1878277680742309
 10
0.1506981303753008
 20
0.1866534931390569
 10
0.1502946719052474
 20
0.1861909663264965
  0
LWPOLYLINE
  5
1A83
330
2
100
AcDbEntity
  8
Profilo
  6
Continuous
370
     0
100
AcDbPolyline
 90
        2
 70
   128
 43
0.0
 10
0.1508849594261654
 20
0.1992839182676716
 10
0.1513363872953384
 20
0.2011226771266182
  0
LWPOLYLINE
  5
1A84
330
2
100
AcDbEntity
  8
Profilo
  6
Continuous
370
     0
100
AcDbPolyline
 90
        2
 70
   128
 43
0.0
 10
0.1466906713523144
 20
0.1929843375948672
 10
0.1463461612432091
 20
0.1935135826085905
  0
LWPOLYLINE
  5
1A85
330
2
100
AcDbEntity
  8
Profilo
  6
Continuous
370
     0
100
AcDbPolyline
 90
       15
 70
   128
 43
0.0
 10
0.1406687741000485
 20
0.1738820069000728
 10
0.1404419605122154
 20
0.1764446391620091
 10
0.141227466622589
 20
0.180163135969551
 10
0.1421545557879937
 20
0.1829967733797013
 10
0.143777201217772
 20
0.1859607623836816
 10
0.1454044062977491
 20
0.1878582589664046
 10
0.1464557786407326
 20
0.1887583853777319
 10
0.1467983978174885
 20
0.1887378832632583
 10
0.1472991319524002
 20
0.1879168543226801
 10
0.1476863777903119
 20
0.185210934753782
 10
0.1472245131274359
 20
0.1821086998518653
 10
0.146399393873305
 20
0.1786842588956863
 10
0.1452729229282397
 20
0.1759657333723852
 10
0.1439012442033067
 20
0.1737433994203354
 10
0.1432271999703978
 20
0.1728589526256372
  0
LWPOLYLINE
  5
1A86
330
2
100
AcDbEntity
  8
Profilo
  6
Continuous
370
     0
100
AcDbPolyline
 90
        9
 70
   128
 43
0.0
 10
0.1478857596342464
 20
0.1850958215925158
 10
0.1487835778050879
 20
0.1857299829902375
 10
0.1499472368986623
 20
0.1862106598223457
 10
0.1506989371383767
 20
0.1861312862801339
 10
0.1513251537899201
 20
0.1856810841107551
 10
0.1508822432180146
 20
0.1846069725288744
 10
0.1496669506945973
 20
0.1822770587755582
 10
0.1486078574209066
 20
0.1805022408942994
 10
0.1482201963852379
 20
0.179860257296014
  0
LWPOLYLINE
  5
1A87
330
2
100
AcDbEntity
  8
Profilo
  6
Continuous
370
     0
100
AcDbPolyline
 90
       11
 70
   128
 43
0.0
 10
0.1469855450209312
 20
0.1804202707198344
 10
0.14720696676249
 20
0.1807508726762088
 10
0.1475103563735896
 20
0.1810647132832437
 10
0.1478443503007998
 20
0.1809024446216676
 10
0.1481976989671441
 20
0.1806678758518285
 10
0.1482201963852379
 20
0.179860257296014
 10
0.1480479448679162
 20
0.1782464997826847
 10
0.1476114530130885
 20
0.1769148133298732
 10
0.1468761981282831
 20
0.1752571843267447
 10
0.1461905925796862
 20
0.1739109454329105
 10
0.1458921153768571
 20
0.1733746422082469
  0
LWPOLYLINE
  5
1A88
330
2
100
AcDbEntity
  8
Profilo
  6
Continuous
370
     0
100
AcDbPolyline
 90
        2
 70
   128
 43
0.0
 10
0.1437473259232991
 20
0.1863042094125729
 10
0.1438065895470657
 20
0.188196644110342
  0
LWPOLYLINE
  5
1A89
330
2
100
AcDbEntity
  8
Profilo
  6
Continuous
370
     0
100
AcDbPolyline
 90
        2
 70
   128
 43
0.0
 10
0.1409544495762016
 20
0.1792702481666279
 10
0.1405074316138932
 20
0.1797163002277142
  0
LWPOLYLINE
  5
1A8A
330
2
100
AcDbEntity
  8
Profilo
  6
Continuous
370
     0
100
AcDbPolyline
 90
       15
 70
   128
 43
0.0
 10
0.1390357431003462
 20
0.1593333263894423
 10
0.1382810847270697
 20
0.1617928017914729
 10
0.1382763066857382
 20
0.1655933564256604
 10
0.1385939903834348
 20
0.1685578247356667
 10
0.1395649291520324
 20
0.1717944104234151
 10
0.1407620641740788
 20
0.1739887571126908
 10
0.141603314704718
 20
0.1750878062037953
 10
0.1419427094597114
 20
0.1751389866420614
 10
0.1426032028676285
 20
0.1744400076343404
 10
0.1435445787676624
 20
0.1718737318371671
 10
0.1437377978595762
 20
0.1687432611479563
 10
0.1436426907501349
 20
0.1652221005035632
 10
0.1431060491360021
 20
0.1623287748065665
 10
0.1422263940917652
 20
0.1598698161403793
 10
0.1417509661710798
 20
0.1588645549540204
  0
LWPOLYLINE
  5
1A8B
330
2
100
AcDbEntity
  8
Profilo
  6
Continuous
370
     0
100
AcDbPolyline
 90
        9
 70
   128
 43
0.0
 10
0.1437635370119306
 20
0.171802587990952
 10
0.144509886133181
 20
0.1726095583345573
 10
0.1455481781507337
 20
0.173321669554293
 10
0.1462999546240489
 20
0.1734003177822427
 10
0.1470060892335396
 20
0.1730901513732612
 10
0.1467961776754076
 20
0.1719474254206373
 10
0.1460918585173487
 20
0.169415752349535
 10
0.1454249143593216
 20
0.1674595206239738
 10
0.1451792005427819
 20
0.1667509666462128
  0
LWPOLYLINE
  5
1A8C
330
2
100
AcDbEntity
  8
Profilo
  6
Continuous
370
     0
100
AcDbPolyline
 90
       11
 70
   128
 43
0.0
 10
0.1438550959352145
 20
0.1670420439803757
 10
0.1440029430687317
 20
0.167411457659473
 10
0.1442344517576604
 20
0.1677815183432779
 10
0.1445948846680156
 20
0.1676922368834117
 10
0.1449892814077749
 20
0.1675362593226546
 10
0.1451792005427819
 20
0.1667509666462128
 10
0.1453462321875552
 20
0.1651366605021693
 10
0.1451961519090588
 20
0.1637433228338581
 10
0.1448216045563473
 20
0.1619690489152572
 10
0.1444308799386007
 20
0.1605096831623975
 10
0.1442504288890098
 20
0.1599230425500164
  0
LWPOLYLINE
  5
1A8D
330
2
100
AcDbEntity
  8
Profilo
  6
Continuous
370
     0
100
AcDbPolyline
 90
        2
 70
   128
 43
0.0
 10
0.1394643000519398
 20
0.1721241408877163
 10
0.1391288093255631
 20
0.1739875429471067
  0
LWPOLYLINE
  5
1A8E
330
2
100
AcDbEntity
  8
Profilo
  6
Continuous
370
     0
100
AcDbPolyline
 90
        2
 70
   128
 43
0.0
 10
0.1381948975296694
 20
0.1646632169277713
 10
0.1376649085441393
 20
0.1650065814207555
  0
LWPOLYLINE
  5
1A8F
330
2
100
AcDbEntity
  8
Profilo
  6
Continuous
370
     0
100
AcDbPolyline
 90
       15
 70
   128
 43
0.0
 10
0.1404632385101976
 20
0.1447630432178202
 10
0.1392137175436428
 20
0.1470118708830026
 10
0.1384188641739381
 20
0.1507283808692397
 10
0.1381132581019233
 20
0.1536941185888563
 10
0.1383900555260691
 20
0.1570618466349569
 10
0.1391047999452322
 20
0.1594571399508209
 10
0.1396991619785683
 20
0.1607070780026008
 10
0.1400204991324123
 20
0.1608277041628594
 10
0.1408118850820059
 20
0.1602813238247092
 10
0.1422662484001076
 20
0.1579668503659524
 10
0.1431061066453292
 20
0.1549449604802313
 10
0.1437451683176316
 20
0.1514809717641889
 10
0.1438218098480657
 20
0.148539298110173
 10
0.143472623631008
 20
0.1459511830229538
 10
0.1432165905040381
 20
0.1448690421825529
  0
LWPOLYLINE
  5
1A90
330
2
100
AcDbEntity
  8
Profilo
  6
Continuous
370
     0
100
AcDbPolyline
 90
        9
 70
   128
 43
0.0
 10
0.1424952135187574
 20
0.1579427851622541
 10
0.1430574745524413
 20
0.1588872959754561
 10
0.143925021150525
 20
0.1597997189054277
 10
0.1446440176181347
 20
0.1600329515985828
 10
0.1453992087147291
 20
0.1598763767104132
 10
0.1454314703127248
 20
0.1587149789945852
 10
0.1452689066469304
 20
0.1560921928672152
 10
0.1450232602646266
 20
0.1540400440108027
 10
0.1449302325400612
 20
0.1532958868624097
  0
LWPOLYLINE
  5
1A91
330
2
100
AcDbEntity
  8
Profilo
  6
Continuous
370
     0
100
AcDbPolyline
 90
       11
 70
   128
 43
0.0
 10
0.1435745444143446
 20
0.1533053066306729
 10
0.1436423553106383
 20
0.153697386882071
 10
0.143791865036788
 20
0.154107494215014
 10
0.144162984282558
 20
0.1540951019850749
 10
0.1445811920656748
 20
0.1540245326012681
 10
0.1449302325400612
 20
0.1532958868624097
 10
0.1454292472625507
 20
0.1517515850124504
 10
0.1455721377887194
 20
0.1503574916707184
 10
0.1455746674846938
 20
0.1485441171208018
 10
0.1454959003384963
 20
0.1470354057951284
 10
0.1454413620189114
 20
0.1464240668048036
  0
LWPOLYLINE
  5
1A92
330
2
100
AcDbEntity
  8
Profilo
  6
Continuous
370
     0
100
AcDbPolyline
 90
        2
 70
   128
 43
0.0
 10
0.138223070594903
 20
0.157363449731156
 10
0.1375074880729883
 20
0.1591163795405763
  0
LWPOLYLINE
  5
1A93
330
2
100
AcDbEntity
  8
Profilo
  6
Continuous
370
     0
100
AcDbPolyline
 90
        2
 70
   128
 43
0.0
 10
0.1385326208789557
 20
0.1498016412357459
 10
0.1379428239320404
 20
0.1500273114846391
  0
LWPOLYLINE
  5
1A94
330
2
100
AcDbEntity
  8
Profilo
  6
Continuous
370
     0
100
AcDbPolyline
 90
       15
 70
   128
 43
0.0
 10
0.1448888719303063
 20
0.1308079486757845
 10
0.1431990984325775
 20
0.1327478440440779
 10
0.1416489086408876
 20
0.1362178800621696
 10
0.1407333692509691
 20
0.1390552702218621
 10
0.1403039279550071
 20
0.1424069547505486
 10
0.1405050440104432
 20
0.1448985088812056
 10
0.1408265410735552
 20
0.1462447076029272
 10
0.1411157766506779
 20
0.1464295075431488
 10
0.1420034677784627
 20
0.1460596053171685
 10
0.1439072558588232
 20
0.1440980877930529
 10
0.1453570474219468
 20
0.1413168497994648
 10
0.146702347814357
 20
0.1380614259407236
 10
0.1473889228867076
 20
0.1351999695840846
 10
0.1475854666100982
 20
0.1325958111243008
 10
0.1475600181530747
 20
0.1314840853772741
  0
LWPOLYLINE
  5
1A95
330
2
100
AcDbEntity
  8
Profilo
  6
Continuous
370
     0
100
AcDbPolyline
 90
        9
 70
   128
 43
0.0
 10
0.144136220977473
 20
0.1441221529967511
 10
0.1444898204183864
 20
0.1451629246247461
 10
0.1451487056477176
 20
0.1462357820046223
 10
0.1458034985138557
 20
0.1466134057751192
 10
0.1465747406228253
 20
0.1466172654817037
 10
0.1468477653903111
 20
0.1454879546558563
 10
0.1472340620290413
 20
0.1428886838115102
 10
0.1474204493481082
 20
0.1408303065765737
 10
0.1474841734734802
 20
0.1400830694957986
  0
LWPOLYLINE
  5
1A96
330
2
100
AcDbEntity
  8
Profilo
  6
Continuous
370
     0
100
AcDbPolyline
 90
       11
 70
   128
 43
0.0
 10
0.1461561519060204
 20
0.1398104200090828
 10
0.1461409629035291
 20
0.1402080310443883
 10
0.1462019393744398
 20
0.1406402613681075
 10
0.1465675252637559
 20
0.140705299968007
 10
0.1469912664033266
 20
0.1407232229818534
 10
0.1474841734734802
 20
0.1400830694957986
 10
0.1482933619357716
 20
0.1386762653411453
 10
0.14872297826495
 20
0.1373423448946291
 10
0.1491024744497558
 20
0.1355691228827642
 10
0.1493391072773622
 20
0.134077003908811
 10
0.1494128652740538
 20
0.1334676849879508
  0
LWPOLYLINE
  5
1A97
330
2
100
AcDbEntity
  8
Profilo
  6
Continuous
370
     0
100
AcDbPolyline
 90
        2
 70
   128
 43
0.0
 10
0.1400778852355422
 20
0.1426672489760894
 10
0.1390134853080418
 20
0.1442330950913768
  0
LWPOLYLINE
  5
1A98
330
2
100
AcDbEntity
  8
Profilo
  6
Continuous
370
     0
100
AcDbPolyline
 90
        2
 70
   128
 43
0.0
 10
0.1419528594931154
 20
0.1353350432620446
 10
0.1413290315415547
 20
0.1354331563940847
  0
LWPOLYLINE
  5
1A99
330
2
100
AcDbEntity
  8
Profilo
  6
Continuous
370
     0
100
AcDbPolyline
 90
       15
 70
   128
 43
0.0
 10
0.1521192219436702
 20
0.1180779473587923
 10
0.1500630471250524
 20
0.11962412769395
 10
0.1478252716439072
 20
0.1226960325188302
 10
0.1463398124006712
 20
0.1252810675533102
 10
0.1452229010299237
 20
0.1284702238675099
 10
0.1449015989849467
 20
0.1309491459416461
 10
0.1449361801134639
 20
0.1323327699893952
 10
0.1451806731312384
 20
0.1325736670654227
 10
0.1461258730753154
 20
0.1323964094538739
 10
0.1483958812434316
 20
0.1308735755926116
 10
0.1503922432762799
 20
0.128454542937336
 10
0.1523849863061819
 20
0.1255499615797793
 10
0.1536514882952342
 20
0.1228937818940943
 10
0.1543851720552396
 20
0.1203873942825759
 10
0.1545914204878496
 20
0.1192946713787184
  0
LWPOLYLINE
  5
1A9A
330
2
100
AcDbEntity
  8
Profilo
  6
Continuous
370
     0
100
AcDbPolyline
 90
        9
 70
   128
 43
0.0
 10
0.1486148394876998
 20
0.1309447194388267
 10
0.1487443233435204
 20
0.1320362651672942
 10
0.1491657507578921
 20
0.1332226679814341
 10
0.1497277224322662
 20
0.1337281788584606
 10
0.150481308572618
 20
0.1338923044721008
 10
0.1509831640171348
 20
0.1328444368383583
 10
0.1519014379436221
 20
0.1303822818856202
 10
0.1525117129438314
 20
0.1284076372345155
 10
0.1527294038690783
 20
0.1276899780674285
  0
LWPOLYLINE
  5
1A9B
330
2
100
AcDbEntity
  8
Profilo
  6
Continuous
370
     0
100
AcDbPolyline
 90
       11
 70
   128
 43
0.0
 10
0.151487089774929
 20
0.1271471754166229
 10
0.1513895647059467
 20
0.1275329397256422
 10
0.1513593429572413
 20
0.1279684025009211
 10
0.1517034176324639
 20
0.1281080294317545
 10
0.152114172607354
 20
0.1282136615215426
 10
0.1527294038690783
 20
0.1276899780674285
 10
0.1538134006524536
 20
0.1264821557002382
 10
0.1545109664895257
 20
0.1252667068733104
 10
0.1552508433588648
 20
0.1236111357102776
 10
0.155792534170218
 20
0.1222008218471857
 10
0.1559913649048006
 20
0.1216201531564676
  0
LWPOLYLINE
  5
1A9C
330
2
100
AcDbEntity
  8
Profilo
  6
Continuous
370
     0
100
AcDbPolyline
 90
        2
 70
   128
 43
0.0
 10
0.1449476796736728
 20
0.1286778331157063
 10
0.1435809817249776
 20
0.1299881605478608
  0
LWPOLYLINE
  5
1A9D
330
2
100
AcDbEntity
  8
Profilo
  6
Continuous
370
     0
100
AcDbPolyline
 90
        2
 70
   128
 43
0.0
 10
0.1483061325325845
 20
0.1218956827565596
 10
0.1476755378513228
 20
0.1218619507570762
  0
LWPOLYLINE
  5
1A9E
330
2
100
AcDbEntity
  8
Profilo
  6
Continuous
370
     0
100
AcDbPolyline
 90
       15
 70
   128
 43
0.0
 10
0.1618382875596349
 20
0.1071294014097206
 10
0.1595055761263235
 20
0.1082142912117026
 10
0.1566780164822894
 20
0.1107538078618835
 10
0.1546875590826875
 20
0.1129735093357724
 10
0.1529319920235899
 20
0.1158607560012865
 10
0.1521023143193474
 20
0.1182187052290744
 10
0.1518484681520131
 20
0.1195792835925986
 10
0.1520375330923549
 20
0.1198657494462556
 10
0.1529989320795948
 20
0.1198888834573428
 10
0.1555359500858138
 20
0.1188712884060359
 10
0.1579916319879426
 20
0.1169201844239152
 10
0.1605447252226877
 20
0.114493389710598
 10
0.1623358019141701
 20
0.1121585744938955
 10
0.1635745602098708
 20
0.1098594988962476
 10
0.1640034914859203
 20
0.1088335360699237
  0
LWPOLYLINE
  5
1A9F
330
2
100
AcDbEntity
  8
Profilo
  6
Continuous
370
     0
100
AcDbPolyline
 90
        9
 70
   128
 43
0.0
 10
0.1557353319297483
 20
0.1189864015673021
 10
0.1556350411346414
 20
0.1200810156100904
 10
0.1558005923338139
 20
0.1213291123625262
 10
0.1562451819576143
 20
0.1219404170950438
 10
0.1569481767989067
 20
0.1222576355388623
 10
0.1576569294293619
 20
0.1213370079410461
 10
0.1590670476666502
 20
0.1191195768660802
 10
0.1600745384020683
 20
0.1173149662454578
 10
0.1604366819891598
 20
0.1166582501413704
  0
LWPOLYLINE
  5
1AA0
330
2
100
AcDbEntity
  8
Profilo
  6
Continuous
370
     0
100
AcDbPolyline
 90
       11
 70
   128
 43
0.0
 10
0.1593343704555188
 20
0.1158690174069723
 10
0.1591587716335361
 20
0.1162260752382989
 10
0.1590386725006556
 20
0.1166457386522741
 10
0.1593461982474238
 20
0.1168538515471593
 10
0.1597260150942101
 20
0.1170425760836875
 10
0.1604366819891598
 20
0.1166582501413704
 10
0.1617481112325911
 20
0.1157021971948624
 10
0.1626831396031878
 20
0.1146583409336324
 10
0.1637510609875441
 20
0.1131927770235692
 10
0.1645741352948675
 20
0.1119259057545929
 10
0.1648893489101446
 20
0.1113992653021598
  0
LWPOLYLINE
  5
1AA1
330
2
100
AcDbEntity
  8
Profilo
  6
Continuous
370
     0
100
AcDbPolyline
 90
        2
 70
   128
 43
0.0
 10
0.1526196205244801
 20
0.1160066067517733
 10
0.1510103558130929
 20
0.1170041479043591
  0
LWPOLYLINE
  5
1AA2
330
2
100
AcDbEntity
  8
Profilo
  6
Continuous
370
     0
100
AcDbPolyline
 90
        2
 70
   128
 43
0.0
 10
0.1573147714791545
 20
0.1100709242625855
 10
0.1567049700816898
 20
0.1099068213818204
  0
LWPOLYLINE
  5
1AA3
330
2
100
AcDbEntity
  8
Profilo
  6
Continuous
370
     0
100
AcDbPolyline
 90
       15
 70
   128
 43
0.0
 10
0.1736212989735335
 20
0.0984408148234963
 10
0.171114001608754
 20
0.0990169992020751
 10
0.1678202357264105
 20
0.1009131386139956
 10
0.1654117727100803
 20
0.1026704949215724
 10
0.1630942766672632
 20
0.1051296454045709
 10
0.1617924842006644
 20
0.1072635680900622
 10
0.16126130503308
 20
0.1085416369660934
 10
0.1613866788508627
 20
0.1088611516649629
 10
0.1623222591322182
 20
0.1090836662313905
 10
0.1650154071157057
 20
0.1086157837767421
 10
0.1678230838043209
 20
0.1072178810742312
 10
0.1708249448184513
 20
0.1053749355791784
 10
0.1730623175664057
 20
0.103463527460113
 10
0.1747520107160614
 20
0.1014722445121436
 10
0.1753848784805452
 20
0.1005578812619814
  0
LWPOLYLINE
  5
1AA4
330
2
100
AcDbEntity
  8
Profilo
  6
Continuous
370
     0
100
AcDbPolyline
 90
        9
 70
   128
 43
0.0
 10
0.165186498615985
 20
0.1087698352555386
 10
0.1648608163589482
 20
0.1098196777264389
 10
0.1647632559611132
 20
0.1110749206000539
 10
0.1650710328344018
 20
0.1117653022378868
 10
0.1656927121287282
 20
0.1122217495437057
 10
0.1665773860541957
 20
0.1114685978255037
 10
0.1684177196688192
 20
0.1095928030067008
 10
0.1697783939598298
 20
0.1080370965601642
 10
0.1702691627962547
 20
0.1074700251640981
  0
LWPOLYLINE
  5
1AA5
330
2
100
AcDbEntity
  8
Profilo
  6
Continuous
370
     0
100
AcDbPolyline
 90
       11
 70
   128
 43
0.0
 10
0.1693550301266196
 20
0.1064688556037585
 10
0.169109032062775
 20
0.10678160181681
 10
0.1689043044541225
 20
0.1071671245645214
 10
0.1691618409216307
 20
0.1074346278913159
 10
0.1694941198215456
 20
0.1076981967067376
 10
0.1702691627962547
 20
0.1074700251640981
 10
0.1717507087488677
 20
0.1068075257396868
 10
0.1728823344264281
 20
0.1059808835717466
 10
0.1742316270368522
 20
0.1047693790900781
 10
0.1753001125433673
 20
0.1037013187687941
 10
0.1757179326917864
 20
0.1032517232695178
  0
LWPOLYLINE
  5
1AA6
330
2
100
AcDbEntity
  8
Profilo
  6
Continuous
370
     0
100
AcDbPolyline
 90
        2
 70
   128
 43
0.0
 10
0.1627584071587307
 20
0.1052073632796806
 10
0.1609769082746471
 20
0.1058485208175992
  0
LWPOLYLINE
  5
1AA7
330
2
100
AcDbEntity
  8
Profilo
  6
Continuous
370
     0
100
AcDbPolyline
 90
        2
 70
   128
 43
0.0
 10
0.1685850555826132
 20
0.1003775664677957
 10
0.1680226987161653
 20
0.1000902647890922
  0
LWPOLYLINE
  5
1AA8
330
2
100
AcDbEntity
  8
Profilo
  6
Continuous
370
     0
100
AcDbPolyline
 90
       15
 70
   128
 43
0.0
 10
0.1869532820454161
 20
0.0923919205264015
 10
0.1843809796753575
 20
0.092434217459394
 10
0.1807649609290063
 20
0.0936041092420657
 10
0.1780437536868493
 20
0.0948223154799597
 10
0.1752656143579621
 20
0.0967458931040217
 10
0.1735486017064882
 20
0.0985625265861612
 10
0.1727633046171604
 20
0.099702228231966
 10
0.1728195078749362
 20
0.1000408274505031
 10
0.1736883801027005
 20
0.1004529976179751
 10
0.1764199545734193
 20
0.1005552764684059
 10
0.1794569171045033
 20
0.0997716701014846
 10
0.1827763501671711
 20
0.0985931193862606
 10
0.1853622350464092
 20
0.0971886560715931
 10
0.1874290153513278
 20
0.0955921943933605
 10
0.1882381602461034
 20
0.0948293927809947
  0
LWPOLYLINE
  5
1AA9
330
2
100
AcDbEntity
  8
Profilo
  6
Continuous
370
     0
100
AcDbPolyline
 90
        9
 70
   128
 43
0.0
 10
0.176555278210494
 20
0.1007415334758872
 10
0.1760184383689534
 20
0.1017007212212158
 10
0.1756620302316445
 20
0.1029082500791092
 10
0.1758195430281837
 20
0.1036475356318669
 10
0.1763327364072313
 20
0.104223262862146
 10
0.1773546671320332
 20
0.1036705033676637
 10
0.1795447847141307
 20
0.1022183260396674
 10
0.1811991745649795
 20
0.1009795156040369
 10
0.1817971196976138
 20
0.1005268726571118
  0
LWPOLYLINE
  5
1AAA
330
2
100
AcDbEntity
  8
Profilo
  6
Continuous
370
     0
100
AcDbPolyline
 90
       11
 70
   128
 43
0.0
 10
0.1811111178761429
 20
0.0993575221847629
 10
0.1808054718662564
 20
0.0996122882693063
 10
0.1805250633607229
 20
0.0999468211567369
 10
0.1807213549695461
 20
0.1002620237364362
 10
0.1809915737402103
 20
0.1005889176087735
 10
0.1817971196976138
 20
0.1005268726571118
 10
0.1833840316920348
 20
0.100186881158669
 10
0.1846627972043062
 20
0.0996135813134278
 10
0.1862344904790969
 20
0.0987090848194456
 10
0.1875016892410073
 20
0.0978865148070178
 10
0.1880038551771601
 20
0.0975336137416148
  0
LWPOLYLINE
  5
1AAB
330
2
100
AcDbEntity
  8
Profilo
  6
Continuous
370
     0
100
AcDbPolyline
 90
        2
 70
   128
 43
0.0
 10
0.1749209259492097
 20
0.0967520814596825
 10
0.1730450529422434
 20
0.0970088337219086
  0
LWPOLYLINE
  5
1AAC
330
2
100
AcDbEntity
  8
Profilo
  6
Continuous
370
     0
100
AcDbPolyline
 90
        2
 70
   128
 43
0.0
 10
0.1816244193468151
 20
0.0932392556217132
 10
0.1811340847049372
 20
0.092841311607057
  0
LWPOLYLINE
  5
1AAD
330
2
100
AcDbEntity
  8
Profilo
  6
Continuous
370
     0
100
AcDbPolyline
 90
       15
 70
   128
 43
0.0
 10
0.2012515651410893
 20
0.0892470842250348
 10
0.1987266797225995
 20
0.0887536451335067
 10
0.1949464454830376
 20
0.089146159402262
 10
0.1920314238293368
 20
0.0897719741122747
 10
0.1889140592340428
 20
0.091075909304879
 10
0.186856868089708
 20
0.0924958579833253
 10
0.1858517743297099
 20
0.0934473819680837
 10
0.1858363506754219
 20
0.0937902672956601
 10
0.1866005409639306
 20
0.0943740792500454
 10
0.1892511590099619
 20
0.0950420493290012
 10
0.1923846775479425
 20
0.0949069866560657
 10
0.1958766075059042
 20
0.094444339042243
 10
0.1986979889387477
 20
0.0936082023181837
 10
0.2010515281820957
 20
0.0924763349457032
 10
0.2020015866925522
 20
0.0918984330619197
  0
LWPOLYLINE
  5
1AAE
330
2
100
AcDbEntity
  8
Profilo
  6
Continuous
370
     0
100
AcDbPolyline
 90
        9
 70
   128
 43
0.0
 10
0.189344800491537
 20
0.0952523715401825
 10
0.1886202655426128
 20
0.096078983452776
 10
0.1880205864116664
 20
0.0971860234894924
 10
0.1880209510664137
 20
0.0979419026310322
 10
0.1884032295169458
 20
0.0986117477431603
 10
0.1895177537646411
 20
0.098283538714743
 10
0.1919619366665255
 20
0.0973184459951075
 10
0.1938377373020852
 20
0.0964506735308928
 10
0.1945167256593734
 20
0.0961322417019113
  0
LWPOLYLINE
  5
1AAF
330
2
100
AcDbEntity
  8
Profilo
  6
Continuous
370
     0
100
AcDbPolyline
 90
       11
 70
   128
 43
0.0
 10
0.1940888362574664
 20
0.0948458165443609
 10
0.1937369004988223
 20
0.0950314679999971
 10
0.1933930662936507
 20
0.0953003903346983
 10
0.1935195341585689
 20
0.095649516302061
 10
0.1937158829430519
 20
0.0960254484004826
 10
0.1945167256593734
 20
0.0961322417019113
 10
0.1961396480265971
 20
0.0961296173893787
 10
0.1975096651844967
 20
0.0958347158210704
 10
0.1992350685857243
 20
0.0952767581518193
 10
0.2006455979364403
 20
0.0947356287049179
 10
0.2012101625992588
 20
0.0944948455433541
  0
LWPOLYLINE
  5
1AB0
330
2
100
AcDbEntity
  8
Profilo
  6
Continuous
370
     0
100
AcDbPolyline
 90
        2
 70
   128
 43
0.0
 10
0.1885756164625334
 20
0.0910102976802532
 10
0.1866873539845268
 20
0.0908714233608952
  0
LWPOLYLINE
  5
1AB1
330
2
100
AcDbEntity
  8
Profilo
  6
Continuous
370
     0
100
AcDbPolyline
 90
        2
 70
   128
 43
0.0
 10
0.1958629800054552
 20
0.0889679701617294
 10
0.1954660975648845
 20
0.0884767758741085
  0
LWPOLYLINE
  5
1AB2
330
2
100
AcDbEntity
  8
Profilo
  6
Continuous
370
     0
100
AcDbPolyline
 90
       15
 70
   128
 43
0.0
 10
0.215891244678496
 20
0.0891437503563641
 10
0.2135241258201064
 20
0.0881361408963994
 10
0.2097448904631818
 20
0.0877341228942013
 10
0.2067634548320292
 20
0.0877401949705133
 10
0.2034431087619193
 20
0.0883674995067687
 10
0.2011356482492264
 20
0.0893287048106015
 10
0.1999546852388476
 20
0.0900504649702616
 10
0.1998683087601989
 20
0.0903826506727161
 10
0.2004944183268502
 20
0.0911125890301681
 10
0.2029482352205061
 20
0.092317056839923
 10
0.2060413599689823
 20
0.0928364407478833
 10
0.2095531727269371
 20
0.0931099161562146
 10
0.2124867428062811
 20
0.0928786492098355
 10
0.2150241800295896
 20
0.0922608441785849
 10
0.2160736300399334
 20
0.0918930991087863
  0
LWPOLYLINE
  5
1AB3
330
2
100
AcDbEntity
  8
Profilo
  6
Continuous
370
     0
100
AcDbPolyline
 90
        9
 70
   128
 43
0.0
 10
0.202996101964495
 20
0.0925422521649364
 10
0.2021155375621617
 20
0.0932001613376899
 10
0.2012987962931791
 20
0.094158329591457
 10
0.2011419968689736
 20
0.0948977667761857
 10
0.2013766529883234
 20
0.0956324543244898
 10
0.2025350607012075
 20
0.0955431400715985
 10
0.2051264864015756
 20
0.0951073111431993
 10
0.2071417163329829
 20
0.0946485024711224
 10
0.207872072865565
 20
0.0944781987590173
  0
LWPOLYLINE
  5
1AB4
330
2
100
AcDbEntity
  8
Profilo
  6
Continuous
370
     0
100
AcDbPolyline
 90
       11
 70
   128
 43
0.0
 10
0.2077209967033269
 20
0.0931309218686019
 10
0.2073381524773523
 20
0.0932393448358657
 10
0.2069459197772072
 20
0.0934309034213805
 10
0.2069970366456626
 20
0.0937986942963378
 10
0.2071109340598969
 20
0.09420723458422
 10
0.207872072865565
 20
0.0944781987590173
 10
0.2094600761104963
 20
0.0948130563274448
 10
0.2108614685901518
 20
0.0948094416496983
 10
0.2126651737097807
 20
0.0946224082327025
 10
0.2141573867482038
 20
0.0943863693047846
 10
0.2147596759528398
 20
0.0942682274266269
  0
LWPOLYLINE
  5
1AB5
330
2
100
AcDbEntity
  8
Profilo
  6
Continuous
370
     0
100
AcDbPolyline
 90
        2
 70
   128
 43
0.0
 10
0.2031257032007943
 20
0.0882329554446906
 10
0.201307577382926
 20
0.0877045240178967
  0
LWPOLYLINE
  5
1AB6
330
2
100
AcDbEntity
  8
Profilo
  6
Continuous
370
     0
100
AcDbPolyline
 90
        2
 70
   128
 43
0.0
 10
0.2106784441335587
 20
0.0877503857583482
 10
0.2103923595614006
 20
0.0871874087451414
  0
LWPOLYLINE
  5
1AB7
330
2
100
AcDbEntity
  8
Profilo
  6
Continuous
370
     0
100
AcDbPolyline
 90
       15
 70
   128
 43
0.0
 10
0.2302324964128748
 20
0.0920864351063036
 10
0.2281265985673966
 20
0.0906086926463474
 10
0.2245135328129871
 20
0.0894297124889883
 10
0.2215959862479822
 20
0.0888157765527269
 10
0.2182177737591064
 20
0.0887390342142589
 10
0.2157608909748851
 20
0.0891994868593256
 10
0.2144556724645674
 20
0.0896599388115225
 10
0.2143021182281548
 20
0.0899669067796532
 10
0.2147627830804815
 20
0.0908110697313185
 10
0.2169125552487887
 20
0.0924993942489079
 10
0.2198301018137934
 20
0.0936505251687057
 10
0.2232083143026694
 20
0.0946481714115657
 10
0.2261258619392171
 20
0.0950318817181644
 10
0.2287362989598527
 20
0.0949551400725661
 10
0.2298392744688109
 20
0.0948136240409423
  0
LWPOLYLINE
  5
1AB8
330
2
100
AcDbEntity
  8
Profilo
  6
Continuous
370
     0
100
AcDbPolyline
 90
        9
 70
   128
 43
0.0
 10
0.2169125552487887
 20
0.0927296205714421
 10
0.2159144462828422
 20
0.0931900732165088
 10
0.2149163383884383
 20
0.0939574931368364
 10
0.2146092277725244
 20
0.0946481714115657
 10
0.2146860059622751
 20
0.0954155920247631
 10
0.2158376691646358
 20
0.0955690760088293
 10
0.2184630799253413
 20
0.0956815586871778
 10
0.2205296639344484
 20
0.0956517659478142
 10
0.2212794685572086
 20
0.0956370334420105
  0
LWPOLYLINE
  5
1AB9
330
2
100
AcDbEntity
  8
Profilo
  6
Continuous
370
     0
100
AcDbPolyline
 90
       11
 70
   128
 43
0.0
 10
0.2214118083878744
 20
0.0942877872837938
 10
0.2210147878243347
 20
0.0943142431587458
 10
0.2205912990803529
 20
0.0944200659656845
 10
0.2205648308999106
 20
0.0947904475221475
 10
0.2205912990803529
 20
0.0952137408285148
 10
0.2212794685572086
 20
0.0956370334420105
 10
0.2227631493179616
 20
0.0962947380088353
 10
0.2241346695433859
 20
0.0965825682004131
 10
0.2259378458125494
 20
0.0967746332934803
 10
0.2274465256684679
 20
0.0968540009183365
 10
0.2280602164865741
 20
0.0968636636905669
  0
LWPOLYLINE
  5
1ABA
330
2
100
AcDbEntity
  8
Profilo
  6
Continuous
370
     0
100
AcDbPolyline
 90
        2
 70
   128
 43
0.0
 10
0.2179352775544694
 20
0.0885414379358545
 10
0.2162667492193139
 20
0.0876465443906729
  0
LWPOLYLINE
  5
1ABB
330
2
100
AcDbEntity
  8
Profilo
  6
Continuous
370
     0
100
AcDbPolyline
 90
        2
 70
   128
 43
0.0
 10
0.2254233048562414
 20
0.0896397166926115
 10
0.2252605214210852
 20
0.089029561750762
  0
LWPOLYLINE
  5
1ABC
330
2
100
AcDbEntity
  8
Profilo
  6
Continuous
370
     0
100
AcDbPolyline
 90
       15
 70
   128
 43
0.0
 10
0.2436485388264742
 20
0.0979465290307098
 10
0.2418958998349712
 20
0.0960632380072579
 10
0.2386069119939607
 20
0.0941588227849892
 10
0.2358807652799324
 20
0.0929517107825615
 10
0.2325923304685191
 20
0.0921742755778099
 10
0.2300934029798725
 20
0.0921138515740254
 10
0.2287209732816504
 20
0.0922928713589522
 10
0.2285069523444378
 20
0.0925612056195573
 10
0.2287820392178781
 20
0.0934826991937041
 10
0.2305338113013319
 20
0.0955810925362326
 10
0.2331482688980332
 20
0.0973136605229308
 10
0.2362452370216031
 20
0.0989918756722692
 10
0.2390192513836904
 20
0.0999737932502023
 10
0.2415885995775828
 20
0.1004414689684183
 10
0.2426968952627522
 20
0.1005323669046167
  0
LWPOLYLINE
  5
1ABD
330
2
100
AcDbEntity
  8
Profilo
  6
Continuous
370
     0
100
AcDbPolyline
 90
        9
 70
   128
 43
0.0
 10
0.2304859445573428
 20
0.0958062878612443
 10
0.2294139131790539
 20
0.0960491599885374
 10
0.2282780607636661
 20
0.0965922916424167
 10
0.2278340611636396
 20
0.0972040250522999
 10
0.2277496058484734
 20
0.0979706387671002
 10
0.2288441913320767
 20
0.0983602130015204
 10
0.2313888441047589
 20
0.0990160912538216
 10
0.2334164625537967
 20
0.0994166165328445
 10
0.2341529452067614
 20
0.0995580991145411
  0
LWPOLYLINE
  5
1ABE
330
2
100
AcDbEntity
  8
Profilo
  6
Continuous
370
     0
100
AcDbPolyline
 90
       11
 70
   128
 43
0.0
 10
0.2345629171446919
 20
0.0982658522200386
 10
0.2341690719473302
 20
0.0982091847539928
 10
0.2337328356497489
 20
0.0982246468178994
 10
0.2336299392069017
 20
0.0985814316045599
 10
0.2335678213670591
 20
0.0990009779807388
 10
0.2341529452067614
 20
0.0995580991145411
 10
0.2354674595145991
 20
0.1005099058341732
 10
0.2367491654706562
 20
0.1010766013345443
 10
0.2384730054337917
 20
0.1016393707714749
 10
0.2399322155580551
 20
0.1020306762030523
 10
0.2405304867560649
 20
0.1021677213161571
  0
LWPOLYLINE
  5
1ABF
330
2
100
AcDbEntity
  8
Profilo
  6
Continuous
370
     0
100
AcDbPolyline
 90
        2
 70
   128
 43
0.0
 10
0.2323570900600776
 20
0.0919222629886201
 10
0.2309110819023723
 20
0.0907000184671483
  0
LWPOLYLINE
  5
1AC0
330
2
100
AcDbEntity
  8
Profilo
  6
Continuous
370
     0
100
AcDbPolyline
 90
        2
 70
   128
 43
0.0
 10
0.2394531410062304
 20
0.0945533901366784
 10
0.2394207731253126
 20
0.0939227239649925
  0
LWPOLYLINE
  5
1AC1
330
2
100
AcDbEntity
  8
Profilo
  6
Continuous
370
     0
100
AcDbPolyline
 90
       15
 70
   128
 43
0.0
 10
0.2555530264885069
 20
0.1064679179052352
 10
0.2542302450850031
 20
0.1042613871730471
 10
0.2514090797083549
 20
0.1017147689694817
 10
0.2489934785382126
 20
0.0999672374877574
 10
0.2459385417851796
 20
0.0985230870657206
 10
0.2435067847145447
 20
0.0979444272319943
 10
0.2421271255918787
 20
0.0978341908260192
 10
0.2418619916958125
 20
0.0980521638842977
 10
0.2419394779739814
 20
0.0990107143899217
 10
0.2432166891265984
 20
0.1014274666991075
 10
0.2454137934124609
 20
0.1036657502179072
 10
0.2480941648028261
 20
0.1059511882187292
 10
0.2506034081516304
 20
0.1074883985580759
 10
0.2530193746736085
 20
0.1084800519670623
 10
0.2540845526953519
 20
0.1087993911950957
  0
LWPOLYLINE
  5
1AC2
330
2
100
AcDbEntity
  8
Profilo
  6
Continuous
370
     0
100
AcDbPolyline
 90
        9
 70
   128
 43
0.0
 10
0.2431230476450235
 20
0.1016377889102888
 10
0.2420239467698007
 20
0.1016524658424154
 10
0.2407999920344062
 20
0.1019475717703373
 10
0.2402385083633374
 20
0.1024536246299399
 10
0.2399965106457889
 20
0.1031859267483868
 10
0.2409861797725952
 20
0.1037945649697343
 10
0.243338861020489
 20
0.1049651737691062
 10
0.2452388972536414
 20
0.10577851218989
 10
0.2459298701108394
 20
0.1060700263913579
  0
LWPOLYLINE
  5
1AC3
330
2
100
AcDbEntity
  8
Profilo
  6
Continuous
370
     0
100
AcDbPolyline
 90
       11
 70
   128
 43
0.0
 10
0.2465995564150849
 20
0.1048912561507476
 10
0.2462260995089048
 20
0.104753941983891
 10
0.2457961812772216
 20
0.1046783675383769
 10
0.2456213536402749
 20
0.1050059623480171
 10
0.2454733646278223
 20
0.1054034256041612
 10
0.2459298701108394
 20
0.1060700263913579
 10
0.2470177673827727
 20
0.1072743367428743
 10
0.2481536423688736
 20
0.1080951302393633
 10
0.2497228059476899
 20
0.1090040082952997
 10
0.2510687718557993
 20
0.1096901496085452
 10
0.2516254761115371
 20
0.1099485875334669
  0
LWPOLYLINE
  5
1AC4
330
2
100
AcDbEntity
  8
Profilo
  6
Continuous
370
     0
100
AcDbPolyline
 90
        2
 70
   128
 43
0.0
 10
0.2457608383075933
 20
0.0982276723251805
 10
0.2446005478225436
 20
0.0967314947779881
  0
LWPOLYLINE
  5
1AC5
330
2
100
AcDbEntity
  8
Profilo
  6
Continuous
370
     0
100
AcDbPolyline
 90
        2
 70
   128
 43
0.0
 10
0.252154781421148
 20
0.1022766549826231
 10
0.2522542437261854
 20
0.1016530407190737
  0
LWPOLYLINE
  5
1AC6
330
2
100
AcDbEntity
  8
Profilo
  6
Continuous
370
     0
100
AcDbPolyline
 90
       15
 70
   128
 43
0.0
 10
0.2654256761640696
 20
0.1172781761459061
 10
0.2645905642433086
 20
0.1148448416860863
 10
0.2623605197954384
 20
0.1117673199367464
 10
0.2603610375316544
 20
0.1095557444870665
 10
0.2576731142323241
 20
0.1075079951509879
 10
0.2554148070325517
 20
0.1064363896987754
 10
0.2540882162094414
 20
0.1060417149618105
 10
0.2537835569780327
 20
0.1061998003491671
 10
0.2536600561387547
 20
0.1071535145295326
 10
0.2544068861044271
 20
0.1097830021326041
 10
0.2560906130792824
 20
0.1124291774532566
 10
0.2582372426448338
 20
0.1152219536981751
 10
0.2603720490053286
 20
0.1172472733307548
 10
0.2625290445252859
 20
0.1187195644180581
 10
0.2635045514927641
 20
0.1192533882813032
  0
LWPOLYLINE
  5
1AC7
330
2
100
AcDbEntity
  8
Profilo
  6
Continuous
370
     0
100
AcDbPolyline
 90
        9
 70
   128
 43
0.0
 10
0.2542715624673524
 20
0.1099692591400854
 10
0.2531934280775132
 20
0.1097550994246856
 10
0.2519348637172372
 20
0.109789282081524
 10
0.2512804355058447
 20
0.1101675374525688
 10
0.2508914718474071
 20
0.1108335228581123
 10
0.2517329713276166
 20
0.1116346246555424
 10
0.2537908575907709
 20
0.1132688027802513
 10
0.2554802709072657
 20
0.1144594075509748
 10
0.2560955351391799
 20
0.1148882128027702
  0
LWPOLYLINE
  5
1AC8
330
2
100
AcDbEntity
  8
Profilo
  6
Continuous
370
     0
100
AcDbPolyline
 90
       11
 70
   128
 43
0.0
 10
0.2569956673047347
 20
0.113874437131932
 10
0.2566589205485799
 20
0.1136624775522645
 10
0.2562541098724976
 20
0.1134991695632466
 10
0.2560149918481014
 20
0.113783256930708
 10
0.2557875994930119
 20
0.1141412660152832
 10
0.2560955351391799
 20
0.1148882128027702
 10
0.2569092690441121
 20
0.1162923926448891
 10
0.2578496698728334
 20
0.1173314115230952
 10
0.2591955770892569
 20
0.118546675865709
 10
0.2603694736123667
 20
0.1194976653927626
 10
0.2608602802784916
 20
0.1198662011520608
  0
LWPOLYLINE
  5
1AC9
330
2
100
AcDbEntity
  8
Profilo
  6
Continuous
370
     0
100
AcDbPolyline
 90
        2
 70
   128
 43
0.0
 10
0.2575607141802778
 20
0.1071820893008195
 10
0.2567368516297737
 20
0.1054773688661741
  0
LWPOLYLINE
  5
1ACA
330
2
100
AcDbEntity
  8
Profilo
  6
Continuous
370
     0
100
AcDbPolyline
 90
        2
 70
   128
 43
0.0
 10
0.2629731034656284
 20
0.1124719674963406
 10
0.2632000489766164
 20
0.1118826600766796
  0
LWPOLYLINE
  5
1ACB
330
2
100
AcDbEntity
  8
Profilo
  6
Continuous
370
     0
100
AcDbPolyline
 90
       15
 70
   128
 43
0.0
 10
0.2728350056881124
 20
0.1299048435942294
 10
0.2725240616483409
 20
0.1273510537991052
 10
0.2709826017725611
 20
0.1238771309720268
 10
0.2694866253846464
 20
0.1212981680138587
 10
0.2672831906852842
 20
0.1187363162359145
 10
0.2652970322175664
 20
0.1172185994656094
 10
0.2640814880786721
 20
0.1165567355775221
 10
0.2637506185822471
 20
0.1166480242039491
 10
0.2634315282048234
 20
0.1175552201729499
 10
0.2636153369303629
 20
0.1202825218439689
 10
0.2647120996459908
 20
0.1232209384072029
 10
0.2662311693740419
 20
0.126398995173091
 10
0.2678982374643356
 20
0.1288239079123952
 10
0.2697019909276386
 20
0.1307124904926629
 10
0.2705451925053706
 20
0.1314374683267236
  0
LWPOLYLINE
  5
1ACC
330
2
100
AcDbEntity
  8
Profilo
  6
Continuous
370
     0
100
AcDbPolyline
 90
        9
 70
   128
 43
0.0
 10
0.2634442454300836
 20
0.1204365733227655
 10
0.2624341971719282
 20
0.1200029367670514
 10
0.2611960284885739
 20
0.1197747022066768
 10
0.2604772573899941
 20
0.1200086285143809
 10
0.2599583273689939
 20
0.1205791904490447
 10
0.2606148796373594
 20
0.1215377438298959
 10
0.2622880314112401
 20
0.1235640698542348
 10
0.2636929863424402
 20
0.1250799058332626
 10
0.2642056519497734
 20
0.1256272612882445
  0
LWPOLYLINE
  5
1ACD
330
2
100
AcDbEntity
  8
Profilo
  6
Continuous
370
     0
100
AcDbPolyline
 90
       11
 70
   128
 43
0.0
 10
0.2652968898816864
 20
0.1248227870486329
 10
0.2650115707246941
 20
0.1245454457068793
 10
0.2646495597732526
 20
0.1243015415171151
 10
0.2643566019664871
 20
0.1245297054612391
 10
0.2640597444058297
 20
0.1248326136593314
 10
0.2642056519497734
 20
0.1256272612882445
 10
0.2647096584113311
 20
0.1271699412238623
 10
0.2654134850539146
 20
0.1283817753730436
 10
0.2664773133042045
 20
0.1298503131190789
 10
0.2674278355312746
 20
0.1310245880542546
 10
0.2678312940013261
 20
0.1314871148668133
  0
LWPOLYLINE
  5
1ACE
330
2
100
AcDbEntity
  8
Profilo
  6
Continuous
370
     0
100
AcDbPolyline
 90
        2
 70
   128
 43
0.0
 10
0.2672410064804098
 20
0.11839416292564
 10
0.2667895786112369
 20
0.1165554040666916
  0
LWPOLYLINE
  5
1ACF
330
2
100
AcDbEntity
  8
Profilo
  6
Continuous
370
     0
100
AcDbPolyline
 90
        2
 70
   128
 43
0.0
 10
0.2714352945542608
 20
0.1246937435984443
 10
0.2717798046633644
 20
0.124164498584721
  0
LWPOLYLINE
  5
1AD0
330
2
100
AcDbEntity
  8
Profilo
  6
Continuous
370
     0
100
AcDbPolyline
 90
       15
 70
   128
 43
0.0
 10
0.2774571918065268
 20
0.1437960742932387
 10
0.2776840053943599
 20
0.1412334420313006
 10
0.2768984992839863
 20
0.1375149452237605
 10
0.2759714101185816
 20
0.1346813078136102
 10
0.2743487646888033
 20
0.1317173188096281
 10
0.2727215596088261
 20
0.1298198222269051
 10
0.2716701872658428
 20
0.1289196958155796
 10
0.2713275680890868
 20
0.1289401979300515
 10
0.2708268339541734
 20
0.1297612268706314
 10
0.2704395881162616
 20
0.1324671464395295
 10
0.2709014527791394
 20
0.1355693813414462
 10
0.2717265720332704
 20
0.1389938222976235
 10
0.2728530429783357
 20
0.1417123478209246
 10
0.2742247217032686
 20
0.1439346817729761
 10
0.2748987659361775
 20
0.1448191285676725
  0
LWPOLYLINE
  5
1AD1
330
2
100
AcDbEntity
  8
Profilo
  6
Continuous
370
     0
100
AcDbPolyline
 90
        9
 70
   128
 43
0.0
 10
0.2702402062723288
 20
0.1325822596007957
 10
0.2693423881014874
 20
0.1319480982030741
 10
0.2681787290079114
 20
0.1314674213709659
 10
0.2674270287681969
 20
0.1315467949131777
 10
0.2668008121166554
 20
0.1319969970825565
 10
0.2672437226885607
 20
0.1330711086644372
 10
0.2684590152119778
 20
0.1354010224177515
 10
0.2695181084856686
 20
0.1371758402990122
 10
0.2699057695213356
 20
0.1378178238972958
  0
LWPOLYLINE
  5
1AD2
330
2
100
AcDbEntity
  8
Profilo
  6
Continuous
370
     0
100
AcDbPolyline
 90
       11
 70
   128
 43
0.0
 10
0.271140420885644
 20
0.1372578104734772
 10
0.2709189991440853
 20
0.1369272085171027
 10
0.2706156095329858
 20
0.1366133679100678
 10
0.2702816156057755
 20
0.1367756365716439
 10
0.2699282669394311
 20
0.1370102053414812
 10
0.2699057695213356
 20
0.1378178238972958
 10
0.2700780210386591
 20
0.1394315814106268
 10
0.2705145128934868
 20
0.1407632678634365
 10
0.2712497677782921
 20
0.1424208968665668
 10
0.2719353733268873
 20
0.1437671357603993
 10
0.2722338505297182
 20
0.1443034389850646
  0
LWPOLYLINE
  5
1AD3
330
2
100
AcDbEntity
  8
Profilo
  6
Continuous
370
     0
100
AcDbPolyline
 90
        2
 70
   128
 43
0.0
 10
0.2743786399832762
 20
0.1313738717807387
 10
0.2743193763595096
 20
0.1294814370829678
  0
LWPOLYLINE
  5
1AD4
330
2
100
AcDbEntity
  8
Profilo
  6
Continuous
370
     0
100
AcDbPolyline
 90
        2
 70
   128
 43
0.0
 10
0.2771715163303736
 20
0.1384078330266818
 10
0.2776185342926821
 20
0.1379617809655955
  0
LWPOLYLINE
  5
1AD5
330
2
100
AcDbEntity
  8
Profilo
  6
Continuous
370
     0
100
AcDbPolyline
 90
       15
 70
   128
 43
0.0
 10
0.2790902228062291
 20
0.1583447548038692
 10
0.2798448811795056
 20
0.1558852794018386
 10
0.2798496592208371
 20
0.1520847247676493
 10
0.2795319755231388
 20
0.1491202564576448
 10
0.2785610367545428
 20
0.1458836707698947
 10
0.2773639017324949
 20
0.143689324080619
 10
0.2765226512018573
 20
0.1425902749895145
 10
0.2761832564468621
 20
0.1425390945512501
 10
0.2755227630389468
 20
0.1432380735589693
 10
0.2745813871389129
 20
0.1458043493561445
 10
0.2743881680469991
 20
0.1489348200453553
 10
0.2744832751564403
 20
0.1524559806897465
 10
0.2750199167705714
 20
0.1553493063867433
 10
0.2758995718148101
 20
0.1578082650529304
 10
0.2763749997354954
 20
0.1588135262392911
  0
LWPOLYLINE
  5
1AD6
330
2
100
AcDbEntity
  8
Profilo
  6
Continuous
370
     0
100
AcDbPolyline
 90
        9
 70
   128
 43
0.0
 10
0.2743624288946448
 20
0.1458754932023596
 10
0.2736160797733923
 20
0.1450685228587543
 10
0.2725777877558398
 20
0.1443564116390186
 10
0.2718260112825246
 20
0.144277763411067
 10
0.2711198766730338
 20
0.1445879298200503
 10
0.2713297882311676
 20
0.1457306557726725
 10
0.2720341073892266
 20
0.1482623288437765
 10
0.2727010515472536
 20
0.150218560569336
 10
0.2729467653637934
 20
0.1509271145470987
  0
LWPOLYLINE
  5
1AD7
330
2
100
AcDbEntity
  8
Profilo
  6
Continuous
370
     0
100
AcDbPolyline
 90
       11
 70
   128
 43
0.0
 10
0.2742708699713608
 20
0.1506360372129341
 10
0.2741230228378436
 20
0.1502666235338386
 10
0.2738915141489149
 20
0.1498965628500337
 10
0.2735310812385578
 20
0.1499858443098998
 10
0.2731366844988003
 20
0.1501418218706552
 10
0.2729467653637934
 20
0.1509271145470987
 10
0.2727797337190184
 20
0.1525414206911422
 10
0.2729298139975148
 20
0.1539347583594535
 10
0.2733043613502282
 20
0.1557090322780525
 10
0.2736950859679746
 20
0.157168398030914
 10
0.2738755370175654
 20
0.1577550386432951
  0
LWPOLYLINE
  5
1AD8
330
2
100
AcDbEntity
  8
Profilo
  6
Continuous
370
     0
100
AcDbPolyline
 90
        2
 70
   128
 43
0.0
 10
0.2786616658546356
 20
0.1455539403055952
 10
0.2789971565810121
 20
0.1436905382462048
  0
LWPOLYLINE
  5
1AD9
330
2
100
AcDbEntity
  8
Profilo
  6
Continuous
370
     0
100
AcDbPolyline
 90
        2
 70
   128
 43
0.0
 10
0.2799310683769041
 20
0.1530148642655402
 10
0.2804610573624344
 20
0.152671499772556
  0
LWPOLYLINE
  5
1ADA
330
2
100
AcDbEntity
  8
Profilo
  6
Continuous
370
     0
100
AcDbPolyline
 90
       15
 70
   128
 43
0.0
 10
0.2776627273963776
 20
0.1729150379754896
 10
0.2789122483629326
 20
0.1706662103103071
 10
0.2797071017326371
 20
0.1669497003240719
 10
0.2800127078046502
 20
0.1639839626044552
 10
0.2797359103805061
 20
0.1606162345583546
 10
0.2790211659613432
 20
0.1582209412424889
 10
0.2784268039280069
 20
0.1569710031907108
 10
0.2781054667741628
 20
0.1568503770304503
 10
0.2773140808245676
 20
0.1573967573686024
 10
0.2758597175064659
 20
0.1597112308273592
 10
0.2750198592612461
 20
0.1627331207130785
 10
0.2743807975889418
 20
0.1661971094291226
 10
0.2743041560585096
 20
0.1691387830831386
 10
0.2746533422755673
 20
0.171726898170356
 10
0.2749093754025371
 20
0.1728090390107569
  0
LWPOLYLINE
  5
1ADB
330
2
100
AcDbEntity
  8
Profilo
  6
Continuous
370
     0
100
AcDbPolyline
 90
        9
 70
   128
 43
0.0
 10
0.2756307523878179
 20
0.1597352960310574
 10
0.2750684913541338
 20
0.1587907852178554
 10
0.2742009447560486
 20
0.1578783622878839
 10
0.2734819482884406
 20
0.157645129594727
 10
0.2727267571918461
 20
0.1578017044828983
 10
0.2726944955938486
 20
0.1589631021987263
 10
0.2728570592596449
 20
0.1615858883260945
 10
0.2731027056419486
 20
0.1636380371825088
 10
0.2731957333665123
 20
0.1643821943309001
  0
LWPOLYLINE
  5
1ADC
330
2
100
AcDbEntity
  8
Profilo
  6
Continuous
370
     0
100
AcDbPolyline
 90
       11
 70
   128
 43
0.0
 10
0.2745514214922307
 20
0.1643727745626387
 10
0.2744836105959372
 20
0.1639806943112405
 10
0.2743341008697874
 20
0.1635705869782958
 10
0.2739629816240173
 20
0.1635829792082367
 10
0.2735447738408988
 20
0.1636535485920416
 10
0.2731957333665123
 20
0.1643821943309001
 10
0.2726967186440246
 20
0.1659264961808611
 10
0.2725538281178541
 20
0.1673205895225931
 10
0.2725512984218814
 20
0.1691339640725098
 10
0.2726300655680789
 20
0.1706426753981813
 10
0.2726846038876639
 20
0.1712540143885062
  0
LWPOLYLINE
  5
1ADD
330
2
100
AcDbEntity
  8
Profilo
  6
Continuous
370
     0
100
AcDbPolyline
 90
        2
 70
   128
 43
0.0
 10
0.2799028953116723
 20
0.1603146314621537
 10
0.280618477833587
 20
0.1585617016527352
  0
LWPOLYLINE
  5
1ADE
330
2
100
AcDbEntity
  8
Profilo
  6
Continuous
370
     0
100
AcDbPolyline
 90
        2
 70
   128
 43
0.0
 10
0.2795933450276196
 20
0.1678764399575656
 10
0.2801831419745349
 20
0.1676507697086724
  0
LWPOLYLINE
  5
1ADF
330
2
100
AcDbEntity
  8
Profilo
  6
Continuous
370
     0
100
AcDbPolyline
 90
       15
 70
   128
 43
0.0
 10
0.2732370939762692
 20
0.186870132517527
 10
0.2749268674739961
 20
0.1849302371492336
 10
0.2764770572656876
 20
0.1814602011311401
 10
0.2773925966556061
 20
0.1786228109714476
 10
0.2778220379515681
 20
0.1752711264427629
 10
0.2776209218961322
 20
0.1727795723121059
 10
0.2772994248330201
 20
0.1714333735903826
 10
0.2770101892558974
 20
0.1712485736501628
 10
0.2761224981281108
 20
0.171618475876143
 10
0.2742187100477521
 20
0.1735799934002569
 10
0.2727689184846269
 20
0.176361231393845
 10
0.2714236180922166
 20
0.179616655252588
 10
0.2707370430198677
 20
0.1824781116092252
 10
0.2705404992964771
 20
0.1850822700690107
 10
0.2705659477535006
 20
0.1861939958160375
  0
LWPOLYLINE
  5
1AE0
330
2
100
AcDbEntity
  8
Profilo
  6
Continuous
370
     0
100
AcDbPolyline
 90
        9
 70
   128
 43
0.0
 10
0.2739897449291023
 20
0.1735559281965586
 10
0.2736361454881871
 20
0.1725151565685654
 10
0.2729772602588576
 20
0.1714422991886875
 10
0.2723224673927196
 20
0.1710646754181924
 10
0.2715512252837501
 20
0.1710608157116078
 10
0.2712782005162641
 20
0.1721901265374552
 10
0.2708919038775339
 20
0.1747893973817995
 10
0.2707055165584671
 20
0.1768477746167378
 10
0.2706417924330951
 20
0.1775950116975129
  0
LWPOLYLINE
  5
1AE1
330
2
100
AcDbEntity
  8
Profilo
  6
Continuous
370
     0
100
AcDbPolyline
 90
       11
 70
   128
 43
0.0
 10
0.2719698140005549
 20
0.1778676611842269
 10
0.2719850030030464
 20
0.1774700501489232
 10
0.2719240265321356
 20
0.1770378198252023
 10
0.2715584406428194
 20
0.1769727812253028
 10
0.2711346995032469
 20
0.1769548582114564
 10
0.2706417924330951
 20
0.1775950116975129
 10
0.2698326039708036
 20
0.1790018158521645
 10
0.2694029876416254
 20
0.1803357362986806
 10
0.2690234914568196
 20
0.1821089583105455
 10
0.2687868586292131
 20
0.1836010772845005
 10
0.2687131006325214
 20
0.1842103962053607
  0
LWPOLYLINE
  5
1AE2
330
2
100
AcDbEntity
  8
Profilo
  6
Continuous
370
     0
100
AcDbPolyline
 90
        2
 70
   128
 43
0.0
 10
0.2780480806710331
 20
0.1750108322172222
 10
0.2791124805985337
 20
0.1734449861019347
  0
LWPOLYLINE
  5
1AE3
330
2
100
AcDbEntity
  8
Profilo
  6
Continuous
370
     0
100
AcDbPolyline
 90
        2
 70
   128
 43
0.0
 10
0.2761731064134598
 20
0.182343037931267
 10
0.2767969343650206
 20
0.1822449247992268
  0
LWPOLYLINE
  5
1AE4
330
2
100
AcDbEntity
  8
Profilo
  6
Continuous
370
     0
100
AcDbPolyline
 90
       15
 70
   128
 43
0.0
 10
0.2660067439629051
 20
0.1996001338345193
 10
0.2680629187815229
 20
0.1980539534993597
 10
0.2703006942626681
 20
0.1949820486744813
 10
0.2717861535059042
 20
0.1923970136400013
 10
0.2729030648766516
 20
0.1892078573258016
 10
0.2732243669216269
 20
0.1867289352516637
 10
0.2731897857931114
 20
0.1853453112039163
 10
0.2729452927753369
 20
0.1851044141278888
 10
0.2720000928312598
 20
0.1852816717394359
 10
0.2697300846631436
 20
0.1868045056006999
 10
0.2677337226302954
 20
0.1892235382559755
 10
0.2657409796003933
 20
0.1921281196135305
 10
0.2644744776113411
 20
0.1947842992992155
 10
0.2637407938513356
 20
0.1972906869107339
 10
0.2635345454187257
 20
0.1983834098145914
  0
LWPOLYLINE
  5
1AE5
330
2
100
AcDbEntity
  8
Profilo
  6
Continuous
370
     0
100
AcDbPolyline
 90
        9
 70
   128
 43
0.0
 10
0.2695111264188753
 20
0.1867333617544849
 10
0.2693816425630549
 20
0.1856418160260174
 10
0.2689602151486834
 20
0.1844554132118756
 10
0.2683982434743091
 20
0.183949902334851
 10
0.2676446573339573
 20
0.1837857767212108
 10
0.2671428018894404
 20
0.1848336443549514
 10
0.2662245279629531
 20
0.1872957993076896
 10
0.2656142529627439
 20
0.1892704439587942
 10
0.2653965620374972
 20
0.189988103125883
  0
LWPOLYLINE
  5
1AE6
330
2
100
AcDbEntity
  8
Profilo
  6
Continuous
370
     0
100
AcDbPolyline
 90
       11
 70
   128
 43
0.0
 10
0.2666388761316464
 20
0.1905309057766869
 10
0.2667364012006286
 20
0.1901451414676676
 10
0.266766622949334
 20
0.1897096786923904
 10
0.2664225482741114
 20
0.1895700517615571
 10
0.2660117932992193
 20
0.1894644196717672
 10
0.2653965620374972
 20
0.189988103125883
 10
0.2643125652541216
 20
0.1911959254930733
 10
0.2636149994170496
 20
0.1924113743200011
 10
0.2628751225477104
 20
0.1940669454830322
 10
0.2623334317363575
 20
0.1954772593461241
 10
0.2621346010017747
 20
0.1960579280368422
  0
LWPOLYLINE
  5
1AE7
330
2
100
AcDbEntity
  8
Profilo
  6
Continuous
370
     0
100
AcDbPolyline
 90
        2
 70
   128
 43
0.0
 10
0.2731782862329023
 20
0.1890002480776034
 10
0.2745449841815977
 20
0.1876899206454508
  0
LWPOLYLINE
  5
1AE8
330
2
100
AcDbEntity
  8
Profilo
  6
Continuous
370
     0
100
AcDbPolyline
 90
        2
 70
   128
 43
0.0
 10
0.2698198333739908
 20
0.195782398436752
 10
0.2704504280552527
 20
0.1958161304362354
  0
LWPOLYLINE
  5
1AE9
330
2
100
AcDbEntity
  8
Profilo
  6
Continuous
370
     0
100
AcDbPolyline
 90
       15
 70
   128
 43
0.0
 10
0.2562876783469385
 20
0.2105486797835909
 10
0.2586203897802519
 20
0.209463789981609
 10
0.2614479494242859
 20
0.2069242733314263
 10
0.263438406823888
 20
0.2047045718575391
 10
0.2651939738829854
 20
0.201817325192025
 10
0.2660236515872278
 20
0.1994593759642354
 10
0.2662774977545621
 20
0.1980987976007129
 10
0.2660884328142203
 20
0.1978123317470542
 10
0.2651270338269807
 20
0.1977891977359669
 10
0.2625900158207617
 20
0.1988067927872756
 10
0.2601343339186326
 20
0.2007578967693964
 10
0.2575812406838876
 20
0.2031846914827136
 10
0.2557901639924052
 20
0.205519506699416
 10
0.2545514056967044
 20
0.207818582297064
 10
0.2541224744206532
 20
0.208844545123386
  0
LWPOLYLINE
  5
1AEA
330
2
100
AcDbEntity
  8
Profilo
  6
Continuous
370
     0
100
AcDbPolyline
 90
        9
 70
   128
 43
0.0
 10
0.2623906339768272
 20
0.1986916796260094
 10
0.2624909247719339
 20
0.1975970655832211
 10
0.2623253735727613
 20
0.1963489688307853
 10
0.2618807839489612
 20
0.1957376640982678
 10
0.2611777891076685
 20
0.1954204456544493
 10
0.2604690364772134
 20
0.1963410732522637
 10
0.2590589182399252
 20
0.1985585043272295
 10
0.2580514275045072
 20
0.200363114947852
 10
0.2576892839174136
 20
0.2010198310519411
  0
LWPOLYLINE
  5
1AEB
330
2
100
AcDbEntity
  8
Profilo
  6
Continuous
370
     0
100
AcDbPolyline
 90
       11
 70
   128
 43
0.0
 10
0.2587915954510567
 20
0.2018090637863392
 10
0.2589671942730392
 20
0.2014520059550127
 10
0.2590872934059196
 20
0.2010323425410375
 10
0.2587797676591517
 20
0.2008242296461522
 10
0.2583999508123651
 20
0.2006355051096222
 10
0.2576892839174136
 20
0.2010198310519411
 10
0.2563778546739841
 20
0.2019758839984473
 10
0.2554428263033877
 20
0.2030197402596792
 10
0.2543749049190311
 20
0.2044853041697423
 10
0.2535518306117062
 20
0.2057521754387186
 10
0.2532366169964306
 20
0.2062788158911518
  0
LWPOLYLINE
  5
1AEC
330
2
100
AcDbEntity
  8
Profilo
  6
Continuous
370
     0
100
AcDbPolyline
 90
        2
 70
   128
 43
0.0
 10
0.2655063453820934
 20
0.2016714744415383
 10
0.2671156100934824
 20
0.2006739332889524
  0
LWPOLYLINE
  5
1AED
330
2
100
AcDbEntity
  8
Profilo
  6
Continuous
370
     0
100
AcDbPolyline
 90
        2
 70
   128
 43
0.0
 10
0.260811194427421
 20
0.2076071569307261
 10
0.2614209958248856
 20
0.2077712598114912
  0
LWPOLYLINE
  5
1AEE
330
2
100
AcDbEntity
  8
Profilo
  6
Continuous
370
     0
100
AcDbPolyline
 90
       15
 70
   128
 43
0.0
 10
0.2445046669330402
 20
0.2192372663698152
 10
0.2470119642978215
 20
0.2186610819912365
 10
0.2503057301801649
 20
0.2167649425793159
 10
0.2527141931964931
 20
0.2150075862717391
 10
0.2550316892393121
 20
0.2125484357887406
 10
0.2563334817059109
 20
0.2104145131032493
 10
0.2568646608734955
 20
0.2091364442272181
 10
0.2567392870557127
 20
0.2088169295283486
 10
0.2558037067743553
 20
0.208594414961921
 10
0.2531105587908696
 20
0.2090622974165677
 10
0.2503028821022526
 20
0.2104602001190785
 10
0.2473010210881239
 20
0.2123031456141331
 10
0.2450636483401678
 20
0.2142145537331967
 10
0.2433739551905139
 20
0.2162058366811679
 10
0.2427410874260301
 20
0.2171201999313302
  0
LWPOLYLINE
  5
1AEF
330
2
100
AcDbEntity
  8
Profilo
  6
Continuous
370
     0
100
AcDbPolyline
 90
        9
 70
   128
 43
0.0
 10
0.2529394672905903
 20
0.2089082459377711
 10
0.2532651495476272
 20
0.2078584034668727
 10
0.2533627099454621
 20
0.2066031605932577
 10
0.2530549330721716
 20
0.2059127789554229
 10
0.2524332537778471
 20
0.2054563316496041
 10
0.2515485798523796
 20
0.2062094833678079
 10
0.2497082462377561
 20
0.2080852781866108
 10
0.2483475719467454
 20
0.2096409846331473
 10
0.2478568031103206
 20
0.2102080560292134
  0
LWPOLYLINE
  5
1AF0
330
2
100
AcDbEntity
  8
Profilo
  6
Continuous
370
     0
100
AcDbPolyline
 90
       11
 70
   128
 43
0.0
 10
0.2487709357799559
 20
0.2112092255895512
 10
0.2490169338438004
 20
0.2108964793765016
 10
0.2492216614524529
 20
0.2105109566287902
 10
0.2489641249849429
 20
0.2102434533019939
 10
0.2486318460850296
 20
0.2099798844865721
 10
0.2478568031103206
 20
0.2102080560292134
 10
0.2463752571577059
 20
0.210870555453623
 10
0.2452436314801472
 20
0.211697197621565
 10
0.2438943388697232
 20
0.2129087021032334
 10
0.2428258533632082
 20
0.2139767624245157
 10
0.2424080332147889
 20
0.2144263579237919
  0
LWPOLYLINE
  5
1AF1
330
2
100
AcDbEntity
  8
Profilo
  6
Continuous
370
     0
100
AcDbPolyline
 90
        2
 70
   128
 43
0.0
 10
0.2553675587478446
 20
0.2124707179136291
 10
0.2571490576319284
 20
0.2118295603757123
  0
LWPOLYLINE
  5
1AF2
330
2
100
AcDbEntity
  8
Profilo
  6
Continuous
370
     0
100
AcDbPolyline
 90
        2
 70
   128
 43
0.0
 10
0.2495409103239621
 20
0.2173005147255159
 10
0.2501032671904102
 20
0.2175878164042194
  0
LWPOLYLINE
  5
1AF3
330
2
100
AcDbEntity
  8
Profilo
  6
Continuous
370
     0
100
AcDbPolyline
 90
       15
 70
   128
 43
0.0
 10
0.2311726838611594
 20
0.2252861606669101
 10
0.2337449862312178
 20
0.2252438637339158
 10
0.2373610049775692
 20
0.2240739719512459
 10
0.2400822122197259
 20
0.2228557657133519
 10
0.2428603515486134
 20
0.2209321880892898
 10
0.2445773642000855
 20
0.2191155546071486
 10
0.2453626612894149
 20
0.2179758529613456
 10
0.2453064580316391
 20
0.2176372537428084
 10
0.2444375858038748
 20
0.2172250835753364
 10
0.2417060113331562
 20
0.2171228047249057
 10
0.2386690488020722
 20
0.217906411091827
 10
0.2353496157394042
 20
0.2190849618070492
 10
0.2327637308601662
 20
0.2204894251217184
 10
0.2306969505552456
 20
0.2220858867999494
 10
0.2298878056604718
 20
0.2228486884123169
  0
LWPOLYLINE
  5
1AF4
330
2
100
AcDbEntity
  8
Profilo
  6
Continuous
370
     0
100
AcDbPolyline
 90
        9
 70
   128
 43
0.0
 10
0.2415706876960813
 20
0.2169365477174243
 10
0.2421075275376201
 20
0.2159773599720958
 10
0.2424639356749292
 20
0.2147698311142024
 10
0.2423064228783916
 20
0.2140305455614428
 10
0.2417932294993439
 20
0.2134548183311655
 10
0.2407712987745403
 20
0.2140075778256479
 10
0.2385811811924428
 20
0.2154597551536441
 10
0.236926791341596
 20
0.2166985655892728
 10
0.2363288462089617
 20
0.217151208536198
  0
LWPOLYLINE
  5
1AF5
330
2
100
AcDbEntity
  8
Profilo
  6
Continuous
370
     0
100
AcDbPolyline
 90
       11
 70
   128
 43
0.0
 10
0.2370148480304324
 20
0.2183205590085468
 10
0.2373204940403188
 20
0.2180657929240035
 10
0.2376009025458523
 20
0.2177312600365747
 10
0.2374046109370291
 20
0.2174160574568736
 10
0.2371343921663649
 20
0.2170891635845362
 10
0.2363288462089617
 20
0.217151208536198
 10
0.2347419342145407
 20
0.2174912000346407
 10
0.2334631687022691
 20
0.2180644998798838
 10
0.2318914754274783
 20
0.2189689963738642
 10
0.2306242766655662
 20
0.219791566386292
 10
0.2301221107294133
 20
0.220144467451695
  0
LWPOLYLINE
  5
1AF6
330
2
100
AcDbEntity
  8
Profilo
  6
Continuous
370
     0
100
AcDbPolyline
 90
        2
 70
   128
 43
0.0
 10
0.2432050399573657
 20
0.220925999733629
 10
0.2450809129643319
 20
0.2206692474714029
  0
LWPOLYLINE
  5
1AF7
330
2
100
AcDbEntity
  8
Profilo
  6
Continuous
370
     0
100
AcDbPolyline
 90
        2
 70
   128
 43
0.0
 10
0.2365015465597604
 20
0.2244388255715966
 10
0.2369918812016381
 20
0.2248367695862528
  0
LWPOLYLINE
  5
1AF8
330
2
100
AcDbEntity
  8
Profilo
  6
Continuous
370
     0
100
AcDbPolyline
 90
       15
 70
   128
 43
0.0
 10
0.2168744007654859
 20
0.2284309969682767
 10
0.219399286183976
 20
0.2289244360598031
 10
0.2231795204235376
 20
0.2285319217910495
 10
0.2260945420772367
 20
0.2279061070810369
 10
0.2292119066725307
 20
0.2266021718884308
 10
0.2312690978168673
 20
0.2251822232099863
 10
0.2322741915768636
 20
0.2242306992252279
 10
0.2322896152311534
 20
0.2238878138976514
 10
0.2315254249426446
 20
0.2233040019432644
 10
0.2288748068966133
 20
0.2226360318643086
 10
0.2257412883586329
 20
0.2227710945372441
 10
0.2222493584006711
 20
0.2232337421510669
 10
0.2194279769678276
 20
0.2240698788751261
 10
0.217074437724478
 20
0.2252017462476084
 10
0.2161243792140231
 20
0.2257796481313901
  0
LWPOLYLINE
  5
1AF9
330
2
100
AcDbEntity
  8
Profilo
  6
Continuous
370
     0
100
AcDbPolyline
 90
        9
 70
   128
 43
0.0
 10
0.2287811654150385
 20
0.222425709653129
 10
0.2295057003639607
 20
0.2215990977405355
 10
0.2301053794949071
 20
0.2204920577038192
 10
0.2301050148401599
 20
0.2197361785622776
 10
0.2297227363896297
 20
0.2190663334501495
 10
0.2286082121419342
 20
0.2193945424785686
 10
0.2261640292400498
 20
0.220359635198204
 10
0.2242882286044901
 20
0.221227407662417
 10
0.2236092402472019
 20
0.2215458394913985
  0
LWPOLYLINE
  5
1AFA
330
2
100
AcDbEntity
  8
Profilo
  6
Continuous
370
     0
100
AcDbPolyline
 90
       11
 70
   128
 43
0.0
 10
0.224037129649107
 20
0.2228322646489507
 10
0.2243890654077532
 20
0.2226466131933127
 10
0.2247328996129246
 20
0.2223776908586115
 10
0.2246064317480063
 20
0.2220285648912506
 10
0.2244100829635234
 20
0.221652632792829
 10
0.2236092402472019
 20
0.2215458394913985
 10
0.2219863178799781
 20
0.2215484638039311
 10
0.2206163007220787
 20
0.2218433653722411
 10
0.2188908973208494
 20
0.2224013230414923
 10
0.2174803679701349
 20
0.2229424524883936
 10
0.2169158033073164
 20
0.2231832356499557
  0
LWPOLYLINE
  5
1AFB
330
2
100
AcDbEntity
  8
Profilo
  6
Continuous
370
     0
100
AcDbPolyline
 90
        2
 70
   128
 43
0.0
 10
0.2295503494440418
 20
0.2266677835130584
 10
0.2314386119220466
 20
0.2268066578324164
  0
LWPOLYLINE
  5
1AFC
330
2
100
AcDbEntity
  8
Profilo
  6
Continuous
370
     0
100
AcDbPolyline
 90
        2
 70
   128
 43
0.0
 10
0.2222629859011185
 20
0.2287101110315803
 10
0.2226598683416909
 20
0.229201305319203
  0
LWPOLYLINE
  5
1AFD
330
2
100
AcDbEntity
  8
Profilo
  6
Continuous
370
     0
100
AcDbPolyline
 90
       15
 70
   128
 43
0.0
 10
0.2022347212280795
 20
0.2285343308369456
 10
0.2046018400864689
 20
0.2295419402969121
 10
0.2083810754433937
 20
0.2299439582991103
 10
0.2113625110745445
 20
0.2299378862227983
 10
0.2146828571446562
 20
0.2293105816865411
 10
0.2169903176573471
 20
0.22834937638271
 10
0.2181712806677276
 20
0.2276276162230482
 10
0.2182576571463763
 20
0.2272954305205954
 10
0.2176315475797233
 20
0.2265654921631417
 10
0.2151777306860674
 20
0.2253610243533868
 10
0.2120846059375911
 20
0.2248416404454284
 10
0.2085727931796384
 20
0.224568165037097
 10
0.2056392231002924
 20
0.2247994319834761
 10
0.2031017858769857
 20
0.2254172370147268
 10
0.2020523358666419
 20
0.2257849820845235
  0
LWPOLYLINE
  5
1AFE
330
2
100
AcDbEntity
  8
Profilo
  6
Continuous
370
     0
100
AcDbPolyline
 90
        9
 70
   128
 43
0.0
 10
0.2151298639420787
 20
0.2251358290283751
 10
0.2160104283444136
 20
0.2244779198556217
 10
0.2168271696133961
 20
0.2235197516018545
 10
0.2169839690376016
 20
0.2227803144171259
 10
0.2167493129182501
 20
0.2220456268688218
 10
0.2155909052053679
 20
0.2221349411217131
 10
0.2129994795049996
 20
0.2225707700501105
 10
0.2109842495735925
 20
0.2230295787221874
 10
0.2102538930410105
 20
0.2231998824342942
  0
LWPOLYLINE
  5
1AFF
330
2
100
AcDbEntity
  8
Profilo
  6
Continuous
370
     0
100
AcDbPolyline
 90
       11
 70
   128
 43
0.0
 10
0.2104049692032486
 20
0.2245471593247097
 10
0.2107878134292231
 20
0.224438736357444
 10
0.2111800461293682
 20
0.2242471777719311
 10
0.2111289292609111
 20
0.2238793868969737
 10
0.2110150318466786
 20
0.2234708466090916
 10
0.2102538930410105
 20
0.2231998824342942
 10
0.2086658897960774
 20
0.2228650248658668
 10
0.2072644973164219
 20
0.2228686395436115
 10
0.2054607921967946
 20
0.223055672960609
 10
0.2039685791583696
 20
0.2232917118885269
 10
0.2033662899537354
 20
0.2234098537666846
  0
LWPOLYLINE
  5
1B00
330
2
100
AcDbEntity
  8
Profilo
  6
Continuous
370
     0
100
AcDbPolyline
 90
        2
 70
   128
 43
0.0
 10
0.2150002627057794
 20
0.229445125748621
 10
0.2168183885236494
 20
0.2299735571754131
  0
LWPOLYLINE
  5
1B01
330
2
100
AcDbEntity
  8
Profilo
  6
Continuous
370
     0
100
AcDbPolyline
 90
        2
 70
   128
 43
0.0
 10
0.2074475217730167
 20
0.2299276954349634
 10
0.2077336063451749
 20
0.2304906724481701
  0
LWPOLYLINE
  5
1B02
330
2
100
AcDbEntity
  8
Profilo
  6
Continuous
370
     0
100
AcDbPolyline
 90
       11
 70
   128
 43
0.0
 10
0.2064718894245494
 20
0.1662216674146842
 10
0.2044885514379569
 20
0.1702056576445448
 10
0.2039589992375788
 20
0.171867249831847
 10
0.2040359092271007
 20
0.1727458207333883
 10
0.2048069443287541
 20
0.173706363067192
 10
0.2060274520174505
 20
0.1744489373436485
 10
0.2078847454877415
 20
0.1746611012246721
 10
0.2090521882304113
 20
0.1745550192841603
 10
0.2102196299015382
 20
0.174130691522111
 10
0.2109094817007004
 20
0.1736533224433701
 10
0.211357009437436
 20
0.1730911764996468
  0
LWPOLYLINE
  5
1B03
330
2
100
AcDbEntity
  8
Profilo
  6
Continuous
370
     0
100
AcDbPolyline
 90
       11
 70
   128
 43
0.0
 10
0.2072479597061487
 20
0.1667049515290296
 10
0.205974385999881
 20
0.1700465343873412
 10
0.205709059126655
 20
0.1717968874450997
 10
0.2060274520174505
 20
0.1728046662264018
 10
0.2068765007977837
 20
0.1732820353051427
 10
0.2078847454877415
 20
0.1733350766218327
 10
0.2088228469814026
 20
0.1731486792095969
 10
0.2094602735456312
 20
0.1723323537166945
 10
0.2095598713123479
 20
0.1710381803715237
 10
0.2093705811212068
 20
0.1687735504083236
 10
0.2092644501576089
 20
0.1667049515290296
  0
LWPOLYLINE
  5
1B04
330
2
100
AcDbEntity
  8
Profilo
  6
Continuous
370
     0
100
AcDbPolyline
 90
       11
 70
   128
 43
0.0
 10
0.2031277167248049
 20
0.1639370362033596
 10
0.1994181005291942
 20
0.1663956039575525
 10
0.1981286987773856
 20
0.1675698089022952
 10
0.1977560193313461
 20
0.1683691286168174
 10
0.197943484149685
 20
0.1695865002301269
 10
0.1986291876753838
 20
0.1708398422620854
 10
0.2001315690624252
 20
0.1719522283079624
 10
0.2011956451052981
 20
0.1724440800239315
 10
0.2024188431309557
 20
0.1726603222380292
 10
0.2032549568532456
 20
0.1725918343884403
 10
0.2039236002140192
 20
0.1723287655889085
  0
LWPOLYLINE
  5
1B05
330
2
100
AcDbEntity
  8
Profilo
  6
Continuous
370
     0
100
AcDbPolyline
 90
       11
 70
   128
 43
0.0
 10
0.2035581712466203
 20
0.1647436076644273
 10
0.2007844326342425
 20
0.1670007164554428
 10
0.1996794762928438
 20
0.1683839032324408
 10
0.1994513232340072
 20
0.1694158617038401
 10
0.1999479365074552
 20
0.1702537998431777
 10
0.200794581363845
 20
0.1708038573158608
 10
0.2017001997948025
 20
0.1711114831684957
 10
0.2026603901389226
 20
0.1707232378359991
 10
0.2033937310076446
 20
0.1696522497255395
 10
0.2043621158750291
 20
0.1675963775516664
 10
0.2053045032040728
 20
0.1657518528901574
  0
LWPOLYLINE
  5
1B06
330
2
100
AcDbEntity
  8
Profilo
  6
Continuous
370
     0
100
AcDbPolyline
 90
       11
 70
   128
 43
0.0
 10
0.2013738938178455
 20
0.1602864011862004
 10
0.1969319880770601
 20
0.1605607752204521
 10
0.1952282309319375
 20
0.1609329656559457
 10
0.194505821206939
 20
0.1614388571114476
 10
0.1940594846952812
 20
0.1625868642635884
 10
0.1940266503520227
 20
0.1640151420657437
 10
0.1947715577764348
 20
0.1657296873338105
 10
0.1954471488031355
 20
0.1666876814361698
 10
0.1963983482601648
 20
0.1674865516997781
 10
0.1971566879089159
 20
0.1678452963433288
 10
0.1978672844451832
 20
0.1679517937603792
  0
LWPOLYLINE
  5
1B07
330
2
100
AcDbEntity
  8
Profilo
  6
Continuous
370
     0
100
AcDbPolyline
 90
       11
 70
   128
 43
0.0
 10
0.2013433926383772
 20
0.1612001398223612
 10
0.197812710141094
 20
0.1617679840682968
 10
0.19616419649087
 20
0.1624133807846567
 10
0.1954506309102661
 20
0.1631930065071203
 10
0.1954617415512618
 20
0.1641669888593112
 10
0.1959199287685365
 20
0.1650666750323908
 10
0.1965504044095627
 20
0.1657858960511108
 10
0.1975760763062879
 20
0.1659297609023285
 10
0.1987466621834641
 20
0.1653689284258815
 10
0.2006132441661961
 20
0.1640726833300659
 10
0.2023516378641073
 20
0.1629464717798137
  0
LWPOLYLINE
  5
1B08
330
2
100
AcDbEntity
  8
Profilo
  6
Continuous
370
     0
100
AcDbPolyline
 90
       11
 70
   128
 43
0.0
 10
0.2016803561352585
 20
0.1562479470679166
 10
0.1976963659053978
 20
0.1542646090813258
 10
0.1960347737180956
 20
0.1537350568809459
 10
0.1951562028165543
 20
0.1538119668704696
 10
0.1941956604827524
 20
0.1545830019721213
 10
0.193453086206296
 20
0.1558035096608195
 10
0.1932409223252705
 20
0.1576608031311086
 10
0.1933470042657841
 20
0.1588282458737784
 10
0.1937713320278316
 20
0.1599956875449071
 10
0.1942487011065725
 20
0.1606855393440694
 10
0.1948108470502976
 20
0.1611330670808049
  0
LWPOLYLINE
  5
1B09
330
2
100
AcDbEntity
  8
Profilo
  6
Continuous
370
     0
100
AcDbPolyline
 90
       11
 70
   128
 43
0.0
 10
0.2011970720209149
 20
0.1570240173495176
 10
0.1978554891626014
 20
0.1557504436432482
 10
0.1961051361048429
 20
0.155485116770024
 10
0.1950973573235408
 20
0.1558035096608195
 10
0.1946199882448016
 20
0.1566525584411509
 10
0.1945669469281099
 20
0.1576608031311086
 10
0.1947533443403457
 20
0.1585989046247698
 10
0.1955696698332481
 20
0.1592363311889984
 10
0.1968638431784189
 20
0.1593359289557168
 10
0.199128473141619
 20
0.1591466387645757
 10
0.2011970720209149
 20
0.159040507800976
  0
LWPOLYLINE
  5
1B0A
330
2
100
AcDbEntity
  8
Profilo
  6
Continuous
370
     0
100
AcDbPolyline
 90
       11
 70
   128
 43
0.0
 10
0.203964987346583
 20
0.152903774368172
 10
0.2015064195923901
 20
0.1491941581725631
 10
0.2003322146476474
 20
0.1479047564207527
 10
0.1995328949331252
 20
0.1475320769747133
 10
0.1983155233198157
 20
0.1477195417930539
 10
0.197062181287859
 20
0.148405245318751
 10
0.1959497952419802
 20
0.1499076267057924
 10
0.1954579435260129
 20
0.1509717027486652
 10
0.1952417013119134
 20
0.1521949007743228
 10
0.1953101891615041
 20
0.1530310144966145
 10
0.1955732579610341
 20
0.1536996578573881
  0
LWPOLYLINE
  5
1B0B
330
2
100
AcDbEntity
  8
Profilo
  6
Continuous
370
     0
100
AcDbPolyline
 90
       11
 70
   128
 43
0.0
 10
0.2031584158855153
 20
0.1533342288899875
 10
0.2009013070944998
 20
0.1505604902776114
 10
0.1995181203175018
 20
0.1494555339362127
 10
0.1984861618461025
 20
0.1492273808773743
 10
0.1976482237067667
 20
0.1497239941508242
 10
0.1970981662340818
 20
0.1505706390072121
 10
0.1967905403814487
 20
0.1514762574381696
 10
0.1971787857139435
 20
0.1524364477822897
 10
0.1982497738244031
 20
0.1531697886510117
 10
0.2003056459982779
 20
0.1541381735183962
 10
0.2021501706597852
 20
0.1550805608474399
  0
LWPOLYLINE
  5
1B0C
330
2
100
AcDbEntity
  8
Profilo
  6
Continuous
370
     0
100
AcDbPolyline
 90
       11
 70
   128
 43
0.0
 10
0.2076156223637422
 20
0.1511499514612127
 10
0.2073412483294905
 20
0.1467080457204291
 10
0.2069690578939987
 20
0.1450042885753064
 10
0.206463166438495
 20
0.1442818788503062
 10
0.2053151592863542
 20
0.1438355423386484
 10
0.203886881484199
 20
0.1438027079953899
 10
0.2021723362161338
 20
0.144547615419802
 10
0.2012143421137729
 20
0.1452232064465044
 10
0.2004154718501645
 20
0.1461744059035337
 10
0.2000567272066138
 20
0.1469327455522849
 10
0.1999502297895652
 20
0.1476433420885521
  0
LWPOLYLINE
  5
1B0D
330
2
100
AcDbEntity
  8
Profilo
  6
Continuous
370
     0
100
AcDbPolyline
 90
       11
 70
   128
 43
0.0
 10
0.2067018837275814
 20
0.1511194502817443
 10
0.2061340394816458
 20
0.1475887677844612
 10
0.205488642765286
 20
0.1459402541342389
 10
0.2047090170428223
 20
0.1452266885536351
 10
0.2037350346906332
 20
0.145237799194629
 10
0.2028353485175518
 20
0.1456959864119036
 10
0.2021161274988319
 20
0.1463264620529316
 10
0.2019722626476141
 20
0.1473521339496551
 10
0.2025330951240611
 20
0.1485227198268313
 10
0.2038293402198767
 20
0.150389301809565
 10
0.2049555517701289
 20
0.1521276955074744
  0
LWPOLYLINE
  5
1B0E
330
2
100
AcDbEntity
  8
Profilo
  6
Continuous
370
     0
100
AcDbPolyline
 90
       11
 70
   128
 43
0.0
 10
0.2116540764820258
 20
0.1514564137786256
 10
0.2136374144686166
 20
0.147472423548765
 10
0.2141669666689967
 20
0.1458108313614645
 10
0.2140900566794746
 20
0.1449322604599215
 10
0.2133190215778211
 20
0.1439717181261195
 10
0.2120985138891231
 20
0.1432291438496631
 10
0.210241220418834
 20
0.1430169799686394
 10
0.2090737776761642
 20
0.1431230619091512
 10
0.2079063360050373
 20
0.1435473896712005
 10
0.207216484205875
 20
0.1440247587499415
 10
0.2067689564691377
 20
0.1445869046936647
  0
LWPOLYLINE
  5
1B0F
330
2
100
AcDbEntity
  8
Profilo
  6
Continuous
370
     0
100
AcDbPolyline
 90
       11
 70
   128
 43
0.0
 10
0.210878006200425
 20
0.150973129664282
 10
0.2121515799066944
 20
0.1476315468059686
 10
0.2124169067799184
 20
0.1458811937482118
 10
0.2120985138891231
 20
0.1448734149669097
 10
0.2112494651087917
 20
0.1443960458881688
 10
0.210241220418834
 20
0.1443430045714771
 10
0.2093031189251728
 20
0.1445294019837147
 10
0.2086656923609442
 20
0.145345727476617
 10
0.2085660945942258
 20
0.146639900821786
 10
0.2087553847853687
 20
0.1489045307849861
 10
0.2088615157489666
 20
0.150973129664282
  0
LWPOLYLINE
  5
1B10
330
2
100
AcDbEntity
  8
Profilo
  6
Continuous
370
     0
100
AcDbPolyline
 90
       11
 70
   128
 43
0.0
 10
0.2149982491817703
 20
0.1537410449899519
 10
0.2187078653773795
 20
0.151282477235759
 10
0.2199972671291896
 20
0.1501082722910146
 10
0.2203699465752291
 20
0.1493089525764923
 10
0.2201824817568903
 20
0.1480915809631829
 10
0.2194967782311914
 20
0.1468382389312262
 10
0.2179943968441501
 20
0.1457258528853491
 10
0.2169303208012772
 20
0.14523400116938
 10
0.2157071227756196
 20
0.1450177589552823
 10
0.2148710090533279
 20
0.1450862468048712
 10
0.2142023656925561
 20
0.145349315604403
  0
LWPOLYLINE
  5
1B11
330
2
100
AcDbEntity
  8
Profilo
  6
Continuous
370
     0
100
AcDbPolyline
 90
       11
 70
   128
 43
0.0
 10
0.2145677946599549
 20
0.1529344735288824
 10
0.217341533272333
 20
0.1506773647378687
 10
0.2184464896137317
 20
0.1492941779608707
 10
0.2186746426725681
 20
0.1482622194894696
 10
0.2181780293991185
 20
0.1474242813501339
 10
0.2173313845427303
 20
0.1468742238774507
 10
0.2164257661117729
 20
0.1465665980248159
 10
0.2154655757676529
 20
0.1469548433573125
 10
0.2147322348989307
 20
0.148025831467772
 10
0.2137638500315464
 20
0.1500817036416451
 10
0.2128214627025027
 20
0.1519262283031542
  0
LWPOLYLINE
  5
1B12
330
2
100
AcDbEntity
  8
Profilo
  6
Continuous
370
     0
100
AcDbPolyline
 90
       11
 70
   128
 43
0.0
 10
0.2167520720887299
 20
0.1573916800071093
 10
0.2211939778295151
 20
0.1571173059728577
 10
0.2228977349746362
 20
0.1567451155373658
 10
0.2236201446996364
 20
0.156239224081864
 10
0.2240664812112941
 20
0.1550912169297214
 10
0.2240993155545526
 20
0.1536629391275679
 10
0.2233544081301404
 20
0.151948393859501
 10
0.2226788171034399
 20
0.1509903997571418
 10
0.2217276176464107
 20
0.1501915294935334
 10
0.2209692779976576
 20
0.1498327848499827
 10
0.2202586814613904
 20
0.1497262874329324
  0
LWPOLYLINE
  5
1B13
330
2
100
AcDbEntity
  8
Profilo
  6
Continuous
370
     0
100
AcDbPolyline
 90
       11
 70
   128
 43
0.0
 10
0.2167825732681981
 20
0.1564779413709503
 10
0.2203132557654814
 20
0.1559100971250147
 10
0.2219617694157037
 20
0.1552647004086549
 10
0.2226753349963091
 20
0.1544850746861894
 10
0.2226642243553134
 20
0.1535110923340004
 10
0.222206037138039
 20
0.1526114061609207
 10
0.2215755614970126
 20
0.151892185142199
 10
0.2205498896002873
 20
0.1517483202909813
 10
0.2193793037231111
 20
0.1523091527674301
 10
0.2175127217403792
 20
0.1536053978632457
 10
0.2157743280424682
 20
0.1547316094134978
  0
LWPOLYLINE
  5
1B14
330
2
100
AcDbEntity
  8
Profilo
  6
Continuous
370
     0
100
AcDbPolyline
 90
       11
 70
   128
 43
0.0
 10
0.216445609771317
 20
0.1614301341253932
 10
0.2204296000011774
 20
0.1634134721119858
 10
0.2220911921884796
 20
0.1639430243123638
 10
0.2229697630900209
 20
0.1638661143228419
 10
0.2239303054238229
 20
0.1630950792211903
 10
0.2246728797002795
 20
0.1618745715324921
 10
0.2248850435813048
 20
0.1600172780622029
 10
0.2247789616407911
 20
0.1588498353195313
 10
0.2243546338787419
 20
0.1576823936484044
 10
0.2238772648000029
 20
0.1569925418492422
 10
0.2233151188562776
 20
0.1565450141125066
  0
LWPOLYLINE
  5
1B15
330
2
100
AcDbEntity
  8
Profilo
  6
Continuous
370
     0
100
AcDbPolyline
 90
       11
 70
   128
 43
0.0
 10
0.2169288938856604
 20
0.1606540638437939
 10
0.2202704767439739
 20
0.1619276375500616
 10
0.2220208298017323
 20
0.1621929644232876
 10
0.2230286085830326
 20
0.1618745715324921
 10
0.2235059776617736
 20
0.1610255227521606
 10
0.2235590189784654
 20
0.1600172780622029
 10
0.2233726215662297
 20
0.15907917656854
 10
0.2225562960733272
 20
0.1584417500043131
 10
0.2212621227281564
 20
0.1583421522375947
 10
0.2189974927649565
 20
0.1585314424287358
 10
0.2169288938856604
 20
0.1586375733923355
  0
LWPOLYLINE
  5
1B16
330
2
100
AcDbEntity
  8
Profilo
  6
Continuous
370
     0
100
AcDbPolyline
 90
       11
 70
   128
 43
0.0
 10
0.2141609785599923
 20
0.1647743068251395
 10
0.2166195463141851
 20
0.1684839230207485
 10
0.2177937512589279
 20
0.169773324772557
 10
0.2185930709734501
 20
0.1701460042185965
 10
0.2198104425867596
 20
0.1699585394002576
 10
0.2210637846187164
 20
0.1692728358745588
 10
0.2221761706645934
 20
0.1677704544875174
 10
0.2226680223805624
 20
0.1667063784446445
 10
0.2228842645946601
 20
0.1654831804189887
 10
0.2228157767450711
 20
0.164647066696697
 10
0.2225527079455394
 20
0.1639784233359234
  0
LWPOLYLINE
  5
1B17
330
2
100
AcDbEntity
  8
Profilo
  6
Continuous
370
     0
100
AcDbPolyline
 90
       11
 70
   128
 43
0.0
 10
0.2149675500210602
 20
0.164343852303324
 10
0.2172246588120736
 20
0.1671175909157001
 10
0.2186078455890716
 20
0.1682225472570988
 10
0.2196398040604729
 20
0.1684507003159354
 10
0.2204777421998086
 20
0.1679540870424874
 10
0.2210277996724934
 20
0.1671074421860977
 10
0.2213354255251266
 20
0.1662018237551401
 10
0.2209471801926301
 20
0.1652416334110218
 10
0.2198761920821721
 20
0.1645082925422981
 10
0.2178203199082974
 20
0.1635399076749135
 10
0.2159757952467884
 20
0.1625975203458716
  0
LWPOLYLINE
  5
1B18
330
2
100
AcDbEntity
  8
Profilo
  6
Continuous
370
     0
100
AcDbPolyline
 90
       11
 70
   128
 43
0.0
 10
0.2105103435428333
 20
0.1665281297320988
 10
0.2107847175770849
 20
0.1709700354728825
 10
0.2111569080125768
 20
0.1726737926180051
 10
0.2116627994680804
 20
0.1733962023430053
 10
0.2128108066202212
 20
0.1738425388546614
 10
0.2142390844223764
 20
0.1738753731979199
 10
0.2159536296904414
 20
0.1731304657735095
 10
0.2169116237928024
 20
0.1724548747468071
 10
0.2177104940564108
 20
0.1715036752897779
 10
0.2180692386999614
 20
0.1707453356410267
 10
0.2181757361170102
 20
0.1700347391047595
  0
LWPOLYLINE
  5
1B19
330
2
100
AcDbEntity
  8
Profilo
  6
Continuous
370
     0
100
AcDbPolyline
 90
       11
 70
   128
 43
0.0
 10
0.2114240821789939
 20
0.1665586309115654
 10
0.2119919264249297
 20
0.1700893134088486
 10
0.2126373231412895
 20
0.1717378270590726
 10
0.2134169488637532
 20
0.1724513926396765
 10
0.2143909312159422
 20
0.1724402819986808
 10
0.2152906173890217
 20
0.171982094781408
 10
0.2160098384077433
 20
0.1713516191403799
 10
0.2161537032589611
 20
0.1703259472436565
 10
0.2155928707825141
 20
0.1691553613664785
 10
0.2142966256866969
 20
0.1672887793837466
 10
0.2131704141364446
 20
0.1655503856858371
  0
ELLIPSE
  5
1B1A
330
2
100
AcDbEntity
  8
Profilo
  6
Continuous
370
     0
100
AcDbEllipse
 10
0.1813125075178916
 20
0.1543020302206508
 30
0.0
 11
-0.0036384795366663
 21
-0.000427858630204
 31
0.0
210
0.0
220
0.0
230
1.0
 40
0.720642504188325
 41
0.0
 42
6.283185307179585
  0
ELLIPSE
  5
1B1B
330
2
100
AcDbEntity
  8
Profilo
  6
Continuous
370
     0
100
AcDbEllipse
 10
0.1719428278975286
 20
0.157534738177397
 30
0.0
 11
-0.0018311301437945
 21
-0.0015688140535871
 31
0.0
210
0.0
220
0.0
230
0.9999999999999998
 40
0.8715515702088605
 41
0.0
 42
6.283185307179585
  0
ELLIPSE
  5
1B1C
330
2
100
AcDbEntity
  8
Profilo
  6
Continuous
370
     0
100
AcDbEllipse
 10
0.1703732881569706
 20
0.1528758355949873
 30
0.0
 11
-0.001926253683257
 21
-0.0012360356193905
 31
0.0
210
0.0
220
0.0
230
1.0
 40
1.0
 41
0.0
 42
6.283185307179585
  0
ELLIPSE
  5
1B1D
330
2
100
AcDbEntity
  8
Profilo
  6
Continuous
370
     0
100
AcDbEllipse
 10
0.1752245940272672
 20
0.1509029328735889
 30
0.0
 11
0.0023544009272304
 21
-0.001696966603323
 31
0.0
210
0.0
220
0.0
230
0.9999999999999998
 40
0.9389233470500492
 41
0.0
 42
6.283185307179585
  0
ELLIPSE
  5
1B1E
330
2
100
AcDbEntity
  8
Profilo
  6
Continuous
370
     0
100
AcDbEllipse
 10
0.177990337792681
 20
0.1763953062421604
 30
0.0
 11
0.0032904735084551
 21
-0.0016861448497222
 31
0.0
210
0.0
220
0.0
230
1.0
 40
0.9477700603941308
 41
0.0
 42
6.283185307179585
  0
ELLIPSE
  5
1B1F
330
2
100
AcDbEntity
  8
Profilo
  6
Continuous
370
     0
100
AcDbEllipse
 10
0.1753268754731045
 20
0.1818338620667466
 30
0.0
 11
0.0027395611511463
 21
-0.000646541383488
 31
0.0
210
0.0
220
0.0
230
1.0
 40
0.7652330698806348
 41
0.0
 42
6.283185307179585
  0
LWPOLYLINE
  5
1B20
330
2
100
AcDbEntity
  8
Profilo
  6
Continuous
370
     0
100
AcDbPolyline
 90
       14
 70
   128
 43
0.0
 10
0.1905282948300655
 20
0.1582816449731959
 10
0.1891720815945461
 20
0.1571519902679452
 10
0.1883432849744639
 20
0.1569260597426187
 10
0.1872884528151306
 20
0.1569260597426187
 10
0.1861582751188642
 20
0.1572273004430547
 10
0.1860075840449997
 20
0.1575285418363621
 10
0.1860829295819311
 20
0.159110058285139
 10
0.1856308585034252
 20
0.1599384722899519
 10
0.1849527518856646
 20
0.1613693676956385
 10
0.1840486097286529
 20
0.1618212301320363
 10
0.1828430875669962
 20
0.1618212301320363
 10
0.1813361843291552
 20
0.1618212301320363
 10
0.1805073877090748
 20
0.1618212301320363
 10
0.1797539355543829
 20
0.1614446785636194
  0
LWPOLYLINE
  5
1B21
330
2
100
AcDbEntity
  8
Profilo
  6
Continuous
370
     0
100
AcDbPolyline
 90
        9
 70
   128
 43
0.0
 10
0.1810348032529709
 20
0.1572273004430547
 10
0.1808841132506493
 20
0.1594112996784465
 10
0.1803566966352104
 20
0.1604656442085877
 10
0.1790004844712338
 20
0.1616706090889459
 10
0.1780963423142203
 20
0.1617459192640553
 10
0.1768154746156341
 20
0.160917505952114
 10
0.1756099513824345
 20
0.1595619207215351
 10
0.175007190301607
 20
0.1585075761913939
 10
0.175007190301607
 20
0.1578297832296696
  0
LWPOLYLINE
  5
1B22
330
2
100
AcDbEntity
  8
Profilo
  6
Continuous
370
     0
100
AcDbPolyline
 90
        6
 70
   128
 43
0.0
 10
0.1768908190810225
 20
0.1533864745837783
 10
0.1772675456941399
 20
0.1547420605072269
 10
0.1772675456941399
 20
0.1551939222507533
 10
0.1761373679978735
 20
0.1563988871311133
 10
0.1753085713777931
 20
0.1576038520114715
 10
0.1744797747577109
 20
0.1579804035798884
  0
LWPOLYLINE
  5
1B23
330
2
100
AcDbEntity
  8
Profilo
  6
Continuous
370
     0
100
AcDbPolyline
 90
        7
 70
   128
 43
0.0
 10
0.1781716878511534
 20
0.1619718504822534
 10
0.1771168546202755
 20
0.1628002637941965
 10
0.1759113324586206
 20
0.1630261950123946
 10
0.1746304647600325
 20
0.1628002637941965
 10
0.1736509770660877
 20
0.1615199887387289
 10
0.1730482159852602
 20
0.1607668856018951
 10
0.1730482159852602
 20
0.1602397129903896
  0
LWPOLYLINE
  5
1B24
330
2
100
AcDbEntity
  8
Profilo
  6
Continuous
370
     0
100
AcDbPolyline
 90
       50
 70
   128
 43
0.0
 10
0.1748787133829885
 20
0.162922555440455
 10
0.1748969263971574
 20
0.1643970954528809
 10
0.1746601625706858
 20
0.1652344883667252
 10
0.1741684219035739
 20
0.1660718812805678
 10
0.1736220432655002
 20
0.1664723736039613
 10
0.1728389008009568
 20
0.1664177608569362
 10
0.1724017981048067
 20
0.1659444519994264
 10
0.1723835850906379
 20
0.1653619176478682
 10
0.1722743091487142
 20
0.1651798756197018
 10
0.1720375453222427
 20
0.1655257551960685
 10
0.1717097185680163
 20
0.1657442054912956
 10
0.1713272527712852
 20
0.1657077972242349
 10
0.1711087019589808
 20
0.1655439596760347
 10
0.170908363089304
 20
0.1649432215373801
 10
0.1710176390312259
 20
0.1642878699588341
 10
0.1710904889448137
 20
0.1636689280330867
 10
0.1711087019589808
 20
0.1629771681874801
 10
0.1708901500751352
 20
0.1629953726674445
 10
0.1707444491764185
 20
0.1638145611013226
 10
0.1706169612918706
 20
0.1647975877762744
 10
0.1705623233209088
 20
0.1653073049008431
 10
0.1702162835525136
 20
0.1657077972242349
 10
0.1694877790589302
 20
0.1658170227182834
 10
0.1690506763627801
 20
0.165726001704201
 10
0.1688685494357276
 20
0.1652526928466895
 10
0.1686499986234231
 20
0.1651070590855821
 10
0.1680307690002205
 20
0.1655257551960685
 10
0.167721155260163
 20
0.1655803679430936
 10
0.1666648229408085
 20
0.1657077972242349
 10
0.1660091683608129
 20
0.165726001704201
 10
0.1652260258962677
 20
0.1656713889571759
 10
0.1649346240988343
 20
0.1653983259149272
 10
0.1648981991420413
 20
0.1647611795092136
 10
0.1651167510258868
 20
0.1631592102156465
 10
0.1655356407078699
 20
0.1621033670065768
 10
0.165444577780115
 20
0.1618121001772317
 10
0.1648435611710795
 20
0.1616846708960904
 10
0.1645157344168531
 20
0.1610839320645661
 10
0.1653170898955654
 20
0.1605742149399973
 10
0.1659727434040199
 20
0.1602283353636289
 10
0.166428059114337
 20
0.1600827016025215
 10
0.1660808781527858
 20
0.159349070205828
 10
0.1659351772540691
 20
0.1589667823624006
 10
0.1657530503270166
 20
0.1584388607578657
 10
0.1661355150522048
 20
0.1581475932356526
 10
0.1668206049148508
 20
0.1580293008380171
 10
0.16784633932754
 20
0.1579826983670416
 10
0.1686855770613487
 20
0.1579826983670416
 10
0.1692916931429049
 20
0.1580759033089945
 10
0.1699910570281264
 20
0.1585419307902414
  0
LWPOLYLINE
  5
1B25
330
2
100
AcDbEntity
  8
Profilo
  6
Continuous
370
     0
100
AcDbPolyline
 90
        2
 70
   128
 43
0.0
 10
0.1723688963809706
 20
0.1601730262817349
 10
0.1664476104855506
 20
0.1641808616504403
  0
LWPOLYLINE
  5
1B26
330
2
100
AcDbEntity
  8
Profilo
  6
Continuous
370
     0
100
AcDbPolyline
 90
        2
 70
   128
 43
0.0
 10
0.1725553930598493
 20
0.1607788618687818
 10
0.1730216363643595
 20
0.1646468891316873
  0
LWPOLYLINE
  5
1B27
330
2
100
AcDbEntity
  8
Profilo
  6
Continuous
370
     0
100
AcDbPolyline
 90
        2
 70
   128
 43
0.0
 10
0.1696646865006606
 20
0.1626895742647467
 10
0.1696646865006606
 20
0.1641342584865933
  0
LWPOLYLINE
  5
1B28
330
2
100
AcDbEntity
  8
Profilo
  6
Continuous
370
     0
100
AcDbPolyline
 90
        2
 70
   128
 43
0.0
 10
0.1684524554090945
 20
0.1634818204285691
 10
0.1677530904523283
 20
0.1643206697562403
  0
LWPOLYLINE
  5
1B29
330
2
100
AcDbEntity
  8
Profilo
  6
Continuous
370
     0
100
AcDbPolyline
 90
        2
 70
   128
 43
0.0
 10
0.1686855770613487
 20
0.1610584787732532
 10
0.1671469754423167
 20
0.1607788618687818
  0
LWPOLYLINE
  5
1B2A
330
2
100
AcDbEntity
  8
Profilo
  6
Continuous
370
     0
100
AcDbPolyline
 90
        9
 70
   128
 43
0.0
 10
0.1692904276507743
 20
0.1555988738887941
 10
0.1676585771565306
 20
0.1552260520423699
 10
0.1664929699667972
 20
0.1549464358307699
 10
0.1654672355541098
 20
0.1549464358307699
 10
0.1649543683477652
 20
0.1555988738887941
 10
0.164488125043255
 20
0.1563445175816409
 10
0.1646746227936766
 20
0.1572299693802877
 10
0.1652341139018538
 20
0.1578824081311816
 10
0.1657936060815757
 20
0.1581154218718042
  0
LWPOLYLINE
  5
1B2B
330
2
100
AcDbEntity
  8
Profilo
  6
Continuous
370
     0
100
AcDbPolyline
 90
        9
 70
   128
 43
0.0
 10
0.1682646932380851
 20
0.1513114230013586
 10
0.1678916988087866
 20
0.1508453955201117
 10
0.1671457099501861
 20
0.150752189885289
 10
0.1665862188420089
 20
0.151218217366536
 10
0.1655138594559424
 20
0.1521036691651827
 10
0.1650476172229751
 20
0.152895915329005
 10
0.1650476172229751
 20
0.1535017509160519
 10
0.1653739866788981
 20
0.1542939977727458
 10
0.1655138594559424
 20
0.1546668196191701
  0
LWPOLYLINE
  5
1B2C
330
2
100
AcDbEntity
  8
Profilo
  6
Continuous
370
     0
100
AcDbPolyline
 90
       11
 70
   128
 43
0.0
 10
0.1648611194725535
 20
0.1531289290696294
 10
0.1638820089616988
 20
0.1531289290696294
 10
0.1631360211746429
 20
0.1531755322334765
 10
0.1624832801197111
 20
0.153548354079899
 10
0.1621102856904109
 20
0.1540609840321232
 10
0.1621102856904109
 20
0.1547134220901456
 10
0.1624366562178767
 20
0.1554124633120169
 10
0.1627164017719653
 20
0.1558318876294167
 10
0.1630893962012656
 20
0.1560182988990637
 10
0.1639752578369105
 20
0.1560182988990637
 10
0.1645347500166305
 20
0.1560182988990637
  0
LWPOLYLINE
  5
1B2D
330
2
100
AcDbEntity
  8
Profilo
  6
Continuous
370
     0
100
AcDbPolyline
 90
       14
 70
   129
 43
0.0
 10
0.1632758939516872
 20
0.1526629015883825
 10
0.1627630267453426
 20
0.1531289290696294
 10
0.1622035345656225
 20
0.1534551484450763
 10
0.1613176729299777
 20
0.153548354079899
 10
0.1605250601695445
 20
0.1534551484450763
 10
0.1598256952127783
 20
0.1528027103870522
 10
0.1595459496586897
 20
0.1520104635303583
 10
0.1595459496586897
 20
0.1513114230013586
 10
0.1600588168650343
 20
0.1504725736736892
 10
0.1610379273758891
 20
0.1503793680388648
 10
0.1617372912611106
 20
0.1503327655678892
 10
0.162809650647177
 20
0.1505657793085118
 10
0.1632292689783099
 20
0.151218217366536
 10
0.1633225178535216
 20
0.1519638610593827
  0
LWPOLYLINE
  5
1B2E
330
2
100
AcDbEntity
  8
Profilo
  6
Continuous
370
     0
100
AcDbPolyline
 90
        9
 70
   128
 43
0.0
 10
0.1630893962012656
 20
0.1504259705098421
 10
0.1633691417553542
 20
0.1498201349227952
 10
0.164021882810286
 20
0.1495871218750424
 10
0.1648144955707209
 20
0.1495405187111953
 10
0.1653273627770637
 20
0.1497269299808424
 10
0.1657469811081984
 20
0.1500531486634178
 10
0.166026726662287
 20
0.1505657793085118
 10
0.166026726662287
 20
0.1509386011549361
 10
0.1658868538852427
 20
0.1514512311071585
  0
LWPOLYLINE
  5
1B2F
330
2
100
AcDbEntity
  8
Profilo
  6
Continuous
370
     0
100
AcDbPolyline
 90
       10
 70
   128
 43
0.0
 10
0.1716682670036185
 20
0.1501929567692178
 10
0.1714817703247398
 20
0.1495871218750424
 10
0.1709689031183952
 20
0.1488880806531712
 10
0.1704560359120506
 20
0.1486084644415713
 10
0.1697100470534518
 20
0.1485618612777242
 10
0.1689640581948513
 20
0.1484686563357713
 10
0.1683113182114624
 20
0.1484686563357713
 10
0.1679383237821621
 20
0.1489346831241485
 10
0.1676585771565306
 20
0.1496803268169953
 10
0.1675653293528636
 20
0.1504725736736892
  0
LWPOLYLINE
  5
1B30
330
2
100
AcDbEntity
  8
Profilo
  6
Continuous
370
     0
100
AcDbPolyline
 90
       12
 70
   128
 43
0.0
 10
0.1757712057259144
 20
0.1478162175848774
 10
0.1760975751818374
 20
0.1473035876326532
 10
0.1758178296277488
 20
0.1466045464107837
 10
0.1753049624214042
 20
0.145905505881784
 10
0.1744191007857612
 20
0.1455326840353597
 10
0.1729271230685618
 20
0.1450666565541128
 10
0.1721345103081286
 20
0.1451132590250901
 10
0.1713418975476955
 20
0.1457190946121369
 10
0.1706425325909293
 20
0.1464181358340064
 10
0.170269538161629
 20
0.1472103819978305
 10
0.1703161631350063
 20
0.1481424369603244
 10
0.1705492837157176
 20
0.1486084644415713
  0
LWPOLYLINE
  5
1B31
330
2
100
AcDbEntity
  8
Profilo
  6
Continuous
370
     0
100
AcDbPolyline
 90
       87
 70
   128
 43
0.0
 10
0.1693405972879673
 20
0.1458824963447829
 10
0.1690174596053413
 20
0.14519037967086
 10
0.1688328102663703
 20
0.1446366860545738
 10
0.1686943219227153
 20
0.1446366860545738
 10
0.1683711853116321
 20
0.1450519559203536
 10
0.1680942096958631
 20
0.1454672264790031
 10
0.167771072013237
 20
0.1457440732871462
 10
0.167309447058497
 20
0.1460209200952893
 10
0.1668016600369018
 20
0.1460209200952893
 10
0.1664323602874187
 20
0.1458824963447829
 10
0.1660630605379374
 20
0.1455595085174282
 10
0.1655552724447975
 20
0.1450980969395652
 10
0.1650936474900593
 20
0.1447289680929971
 10
0.1647243477405762
 20
0.144544403323279
 10
0.1642165607189809
 20
0.1441752744767109
 10
0.1642165607189809
 20
0.1435292981291298
 10
0.16444737319635
 20
0.1429756045128436
 10
0.1646781856737192
 20
0.1424219108965556
 10
0.164401211129493
 20
0.1424219108965556
 10
0.164078073446867
 20
0.1417759352418462
 10
0.1646320236068639
 20
0.1413606646831949
 10
0.1646781856737192
 20
0.140668548009272
 10
0.1643088859242379
 20
0.1400687133737741
 10
0.164078073446867
 20
0.1390074671604116
 10
0.1638934230363549
 20
0.1373925273307646
 10
0.1643088859242379
 20
0.1366081279255469
 10
0.1657399228553114
 20
0.1365619869063352
 10
0.1665708475595327
 20
0.1365158451942521
 10
0.1672171229247847
 20
0.1366081279255469
 10
0.168048047629006
 20
0.1370233977913267
 10
0.1690636216721983
 20
0.1370233977913267
 10
0.1692021100158534
 20
0.1375770914076129
 10
0.1692944341495675
 20
0.1383153497936189
 10
0.1691097848105965
 20
0.1394227370261913
 10
0.1689712975384843
 20
0.1401148543929858
 10
0.1691097848105965
 20
0.1401148543929858
 10
0.1692482720827104
 20
0.1394227370261913
 10
0.1693867593548226
 20
0.1389151844291168
 10
0.1696637349705916
 20
0.1387767613714819
 10
0.1704946596748147
 20
0.1386383376209737
 10
0.1710947719016669
 20
0.1388229023906935
 10
0.1710947719016669
 20
0.1396995838343344
 10
0.1714179095842929
 20
0.1399302896232659
 10
0.1719256966058882
 20
0.1399764306424794
 10
0.1728951085822235
 20
0.1399764306424794
 10
0.1728951085822235
 20
0.1404378422203405
 10
0.1728489465153664
 20
0.1409453948174151
 10
0.1731259210595926
 20
0.141637511491338
 10
0.1734952208090756
 20
0.1420989230692009
 10
0.1738645216300998
 20
0.1426526166854871
 10
0.1738645216300998
 20
0.1431601692825617
 10
0.1733567335369617
 20
0.1439445686877794
 10
0.1726642961048526
 20
0.1444059802656423
 10
0.1718333714006313
 20
0.144544403323279
 10
0.171048608763267
 20
0.1446366860545738
 10
0.1704946596748147
 20
0.1446366860545738
 10
0.1695252466269366
 20
0.144452121284854
 10
0.1691559468774535
 20
0.1443598392464307
 10
0.1698022222427056
 20
0.1449596738819285
 10
0.1704946596748147
 20
0.1463900489418575
 10
0.1698022222427056
 20
0.1466207547307889
 10
0.1688328102663703
 20
0.1468514605197204
 10
0.1683250221732322
 20
0.1471283073278635
 10
0.1682788601063752
 20
0.1480511297907179
 10
0.1680018844906062
 20
0.1485125413685808
 10
0.167678747879523
 20
0.1491585170232903
 10
0.1673556101968969
 20
0.1497583523516597
 10
0.1668016600369018
 20
0.1502197632366529
 10
0.1659707353326805
 20
0.1501736222174395
 10
0.1657860849221684
 20
0.1496660696203649
 10
0.1655552724447975
 20
0.148973952946442
 10
0.1653244599674284
 20
0.1484202593301558
 10
0.1647243477405762
 20
0.1483741176180726
 10
0.16444737319635
 20
0.1483741176180726
 10
0.1627855237879074
 20
0.1486048234070041
 10
0.1617699486731723
 20
0.1482356945604359
 10
0.1613544857852911
 20
0.1479127067330812
 10
0.161262161651577
 20
0.1473128720975816
 10
0.1618161107400293
 20
0.1468514605197204
 10
0.1624623861052814
 20
0.1463900489418575
 10
0.1625547113105366
 20
0.1460209200952893
 10
0.1631548235373887
 20
0.1460209200952893
 10
0.1632009856042458
 20
0.1454210854597915
 10
0.1639395861747548
 20
0.14519037967086
 10
0.1643550479910931
 20
0.1452365206900716
 10
0.164401211129493
 20
0.1450519559203536
 10
0.1644935352632071
 20
0.144544403323279
  0
LWPOLYLINE
  5
1B32
330
2
100
AcDbEntity
  8
Profilo
  6
Continuous
370
     0
100
AcDbPolyline
 90
        4
 70
   128
 43
0.0
 10
0.1687404850611152
 20
0.143575439841213
 10
0.1680018844906062
 20
0.1414990884337013
 10
0.167678747879523
 20
0.1398841486040543
 10
0.1662015478100496
 20
0.1380385029854758
  0
LWPOLYLINE
  5
1B33
330
2
100
AcDbEntity
  8
Profilo
  6
Continuous
370
     0
100
AcDbPolyline
 90
        4
 70
   128
 43
0.0
 10
0.1692482720827104
 20
0.1423296288581324
 10
0.1706793090137839
 20
0.1418220762610578
 10
0.1716025589232621
 20
0.1415913704721264
 10
0.1721103470164003
 20
0.1408531127789918
  0
LWPOLYLINE
  5
1B34
330
2
100
AcDbEntity
  8
Profilo
  6
Continuous
370
     0
100
AcDbPolyline
 90
        2
 70
   128
 43
0.0
 10
0.1700791967869317
 20
0.1414990884337013
 10
0.1704484965364148
 20
0.1402994184698341
  0
LWPOLYLINE
  5
1B35
330
2
100
AcDbEntity
  8
Profilo
  6
Continuous
370
     0
100
AcDbPolyline
 90
        2
 70
   128
 43
0.0
 10
0.1675864226742678
 20
0.1431601692825617
 10
0.1664785223542757
 20
0.1442214154959225
  0
LWPOLYLINE
  5
1B36
330
2
100
AcDbEntity
  8
Profilo
  6
Continuous
370
     0
100
AcDbPolyline
 90
        2
 70
   128
 43
0.0
 10
0.1668478231753017
 20
0.1472205893662868
 10
0.1665246854926756
 20
0.1490200939656537
  0
LWPOLYLINE
  5
1B37
330
2
100
AcDbEntity
  8
Profilo
  6
Continuous
370
     0
100
AcDbPolyline
 90
        2
 70
   128
 43
0.0
 10
0.1662938730153065
 20
0.1468514605197204
 10
0.1639395861747548
 20
0.1472667303855002
  0
LWPOLYLINE
  5
1B38
330
2
100
AcDbEntity
  8
Profilo
  6
Continuous
370
     0
100
AcDbPolyline
 90
        2
 70
   128
 43
0.0
 10
0.1665246854926756
 20
0.1465746137115773
 10
0.1658784101274235
 20
0.1460670611145027
  0
LWPOLYLINE
  5
1B39
330
2
100
AcDbEntity
  8
Profilo
  6
Continuous
370
     0
100
AcDbPolyline
 90
       40
 70
   128
 43
0.0
 10
0.1642062514050238
 20
0.1567013382763425
 10
0.1628350933610914
 20
0.1577520729510895
 10
0.1624694518589684
 20
0.1586200713414123
 10
0.1636577886160679
 20
0.1595337534564067
 10
0.1636577886160679
 20
0.1610870132597548
 10
0.1632007359347571
 20
0.1618636435078664
 10
0.1615096409067529
 20
0.1616352228059008
 10
0.1603670097392456
 20
0.1622748004942562
 10
0.1595900200738629
 20
0.1633712188936749
 10
0.1584930944959513
 20
0.1637823758800647
 10
0.1577618104201626
 20
0.163142798884579
 10
0.1578532205278076
 20
0.1619093272325363
 10
0.1577161048305686
 20
0.160675856273365
 10
0.1582188620299305
 20
0.1598992267181249
 10
0.1578075149382136
 20
0.1591682801946868
 10
0.1568934106471331
 20
0.1577977573686309
 10
0.1568934106471331
 20
0.1572495478224867
 10
0.1570762308624249
 20
0.1568383908360968
 10
0.1561164209817505
 20
0.1557419717438084
 10
0.155156610029535
 20
0.154919657771027
 10
0.155019494332296
 20
0.1539146075138213
 10
0.155156610029535
 20
0.1524527158526845
 10
0.1560707153921566
 20
0.1507167190720389
 10
0.1570762308624249
 20
0.1500314576590118
 10
0.1576246947229236
 20
0.1501685095258947
 10
0.1576246947229236
 20
0.1507624034895802
 10
0.1570305263443739
 20
0.1517217700221143
 10
0.1565734736630613
 20
0.1534577661098901
 10
0.1565734736630613
 20
0.1543257645002112
 10
0.1567562938783513
 20
0.1542800800826698
 10
0.1572133465596639
 20
0.1540059756560343
 10
0.1579446306354526
 20
0.1537318705365256
 10
0.1584016833167634
 20
0.15386892309628
 10
0.1589501471772621
 20
0.1545085007846372
 10
0.1589958516953132
 20
0.1553764991749582
 10
0.1586302101931902
 20
0.1561531287301983
 10
0.1597271357711019
 20
0.1563815494321639
 10
0.1608240624205581
 20
0.1562901812899526
 10
0.1616010510143979
 20
0.1561074450055284
 10
0.1623323361617295
 20
0.1559247080282327
  0
LWPOLYLINE
  5
1B3A
330
2
100
AcDbEntity
  8
Profilo
  6
Continuous
370
     0
100
AcDbPolyline
 90
        4
 70
   128
 43
0.0
 10
0.1629722090583303
 20
0.1562444968724113
 10
0.1617838723012308
 20
0.1568840745607667
 10
0.1614182307991079
 20
0.1574779685244523
 10
0.1611897039226811
 20
0.1581175462128095
  0
LWPOLYLINE
  5
1B3B
330
2
100
AcDbEntity
  8
Profilo
  6
Continuous
370
     0
100
AcDbPolyline
 90
       10
 70
   128
 43
0.0
 10
0.163971696028409
 20
0.1426296210058973
 10
0.1615556015235497
 20
0.1424571225762325
 10
0.1601749763983562
 20
0.1417671295504435
 10
0.1590819812396933
 20
0.1411921350158516
 10
0.1582766160475593
 20
0.1399271467626009
 10
0.1584491944560937
 20
0.139179654491214
 10
0.1590819812396933
 20
0.1403871428059973
 10
0.1600023979898217
 20
0.1410196365861869
 10
0.1619582841196159
 20
0.1415946311207787
 10
0.1634539608028038
 20
0.141537131875181
  0
LWPOLYLINE
  5
1B3C
330
2
100
AcDbEntity
  8
Profilo
  6
Continuous
370
     0
100
AcDbPolyline
 90
       35
 70
   128
 43
0.0
 10
0.1758167237955071
 20
0.1461412245889062
 10
0.1751379356764822
 20
0.1455079818156872
 10
0.1745949056098783
 20
0.1450556662419715
 10
0.1742328848511139
 20
0.1443771914956593
 10
0.1743686429035367
 20
0.1436534854691236
 10
0.1744138952304961
 20
0.1430654746689979
 10
0.1739161174908534
 20
0.1423870006155554
 10
0.1732373283002839
 20
0.1413919048290677
 10
0.1732373283002839
 20
0.1404420403228035
 10
0.173282581698788
 20
0.1398087982424543
 10
0.1735993490590484
 20
0.1395374084825041
 10
0.1744138952304961
 20
0.139763566269361
 10
0.1758167237955071
 20
0.1396731030160443
 10
0.1763145026066926
 20
0.1393564819758706
 10
0.1774005638114431
 20
0.1384970807229231
 10
0.1784413726892324
 20
0.1384066174696064
 10
0.1791201608082573
 20
0.1384066174696064
 10
0.1795274338939812
 20
0.1387684704828733
 10
0.1797989489272822
 20
0.1398992614957728
 10
0.1793464235145989
 20
0.140894356589389
 10
0.1793916758415583
 20
0.1418894523758767
 10
0.1791201608082573
 20
0.1426583896826359
 10
0.1792559177891373
 20
0.1437439487224403
 10
0.1792559177891373
 20
0.144603349975386
 10
0.1787581400494929
 20
0.145327055309052
 10
0.1778530892241263
 20
0.1454175185623687
 10
0.1769480383987581
 20
0.1454175185623687
 10
0.1761787445542715
 20
0.145100897522195
 10
0.1757714714685477
 20
0.1445581180022928
 10
0.175545208762206
 20
0.1437439487224403
 10
0.1752284414019438
 20
0.1435630222158051
 10
0.1751831880034416
 20
0.1442414969621191
 10
0.1756357144876677
 20
0.1450556662419715
 10
0.1760429865018487
 20
0.1455079818156872
 10
0.1764502595875725
 20
0.1458698348289542
  0
LWPOLYLINE
  5
1B3D
330
2
100
AcDbEntity
  8
Profilo
  6
Continuous
370
     0
100
AcDbPolyline
 90
        7
 70
   128
 43
0.0
 10
0.1762239968812309
 20
0.1469553938687587
 10
0.1766765222939142
 20
0.1463673830686329
 10
0.1774005638114431
 20
0.1459150668020492
 10
0.1782603623098502
 20
0.1458246035487307
 10
0.1793011711876395
 20
0.1458246035487307
 10
0.1797989489272822
 20
0.146231687842223
 10
0.1805682417002277
 20
0.1471815523484872
  0
LWPOLYLINE
  5
1B3E
330
2
100
AcDbEntity
  8
Profilo
  6
Continuous
370
     0
100
AcDbPolyline
 90
       16
 70
   128
 43
0.0
 10
0.1803872323923883
 20
0.1511167028284714
 10
0.1801157162875444
 20
0.1501216070419837
 10
0.1805682417002277
 20
0.149307438455001
 10
0.1807492520796099
 20
0.1477695631486129
 10
0.1812922832177548
 20
0.1471363203753921
 10
0.1816543039765193
 20
0.1469553938687587
 10
0.1832381429209124
 20
0.1466840041088084
 10
0.1845504668320028
 20
0.1469101625885352
 10
0.1864058218812399
 20
0.1476338679222011
 10
0.187401377360527
 20
0.1491265119483676
 10
0.187401377360527
 20
0.1511167028284714
 10
0.1875371354129498
 20
0.1526545781348614
 10
0.1872203669811447
 20
0.1535592106680306
 10
0.1864963265351605
 20
0.1539662949615228
 10
0.1855460233828328
 20
0.1538758317082061
 10
0.1852745072779889
 20
0.1538758317082061
  0
LWPOLYLINE
  5
1B3F
330
2
100
AcDbEntity
  8
Profilo
  6
Continuous
370
     0
100
AcDbPolyline
 90
        5
 70
   128
 43
0.0
 10
0.1849577399177267
 20
0.1559112545614032
 10
0.1856817803637127
 20
0.155639864801453
 10
0.1862248115018577
 20
0.1552327805079607
 10
0.1862248115018577
 20
0.154644769707835
 10
0.1861795591748983
 20
0.1541019901879328
  0
LWPOLYLINE
  5
1B40
330
2
100
AcDbEntity
  8
Profilo
  6
Continuous
370
     0
100
AcDbPolyline
 90
        4
 70
   128
 43
0.0
 10
0.1855912757097922
 20
0.1565897293077154
 10
0.186134305776396
 20
0.1564088028010819
 10
0.1869941042748031
 20
0.1560921810680367
 10
0.1870846100002648
 20
0.156046949787815
  0
LWPOLYLINE
  5
1B41
330
2
100
AcDbEntity
  8
Profilo
  6
Continuous
370
     0
100
AcDbPolyline
 90
        6
 70
   128
 43
0.0
 10
0.187265620379647
 20
0.1536949052015708
 10
0.1879896608256331
 20
0.1547352329611518
 10
0.1885779442907391
 20
0.1551875485348675
 10
0.1893019847367234
 20
0.1555494015481345
 10
0.1902975412875534
 20
0.1559112545614032
 10
0.1910215817335377
 20
0.1561826443213552
  0
LWPOLYLINE
  5
1B42
330
2
100
AcDbEntity
  8
Profilo
  6
Continuous
370
     0
100
AcDbPolyline
 90
        2
 70
   128
 43
0.0
 10
0.1779829002136182
 20
0.1402070415081487
 10
0.1764057873438218
 20
0.14235665496552
  0
LWPOLYLINE
  5
1B43
330
2
100
AcDbEntity
  8
Profilo
  6
Continuous
370
     0
100
AcDbPolyline
 90
       12
 70
   128
 43
0.0
 10
0.175709933833043
 20
0.1392917221401242
 10
0.175956649078153
 20
0.1388689762014655
 10
0.175956649078153
 20
0.1382348583327837
 10
0.1756394434568562
 20
0.1378121130869947
 10
0.1753222378355612
 20
0.1374598258440849
 10
0.1747230707095209
 20
0.137177995218313
 10
0.1741943950312101
 20
0.137177995218313
 10
0.1732075329792309
 20
0.137177995218313
 10
0.1727493466055623
 20
0.1374950541526538
 10
0.1725378765485466
 20
0.1383405446442301
 10
0.1728198369817491
 20
0.1390803488243599
 10
0.1733132685435101
 20
0.1395383230715859
  0
LWPOLYLINE
  5
1B44
330
2
100
AcDbEntity
  8
Profilo
  6
Continuous
370
     0
100
AcDbPolyline
 90
       14
 70
   128
 43
0.0
 10
0.1731017974149516
 20
0.1370370805982977
 10
0.1731017974149516
 20
0.1364734200396218
 10
0.1729960629222151
 20
0.1359097594809477
 10
0.1725731217366391
 20
0.1357688441680627
 10
0.1718329749297698
 20
0.1355574715451682
 10
0.1712338088752723
 20
0.1355574715451682
 10
0.1704584168803087
 20
0.1359802167909554
 10
0.1702117016351987
 20
0.1366143346596389
 10
0.1701764564471062
 20
0.1372836815297593
 10
0.170246946823293
 20
0.1379882574013203
 10
0.1705993976326805
 20
0.1383757736456688
 10
0.1713747885561012
 20
0.1384814599571169
 10
0.172079690174878
 20
0.1384462309556764
 10
0.1724321409842673
 20
0.1384462309556764
  0
LWPOLYLINE
  5
1B45
330
2
100
AcDbEntity
  8
Profilo
  6
Continuous
370
     0
100
AcDbPolyline
 90
       11
 70
   128
 43
0.0
 10
0.1698944960139037
 20
0.1367200209710853
 10
0.1691543492070344
 20
0.1368257079754032
 10
0.1685199379644426
 20
0.136755249972524
 10
0.1681322419669609
 20
0.1363677337281754
 10
0.1677797911575733
 20
0.13545178523372
 10
0.1680617515907758
 20
0.1349233536764864
 10
0.1689428791500187
 20
0.1345006084306974
 10
0.1696830248853451
 20
0.1344653801221285
 10
0.1704231716922162
 20
0.134676752745023
 10
0.1708461128777905
 20
0.1353108706137047
 10
0.170810867689698
 20
0.1355222432365992
  0
LWPOLYLINE
  5
1B46
330
2
100
AcDbEntity
  8
Profilo
  6
Continuous
370
     0
100
AcDbPolyline
 90
       28
 70
   129
 43
0.0
 10
0.1802917932835502
 20
0.1361915894138499
 10
0.1792344408553859
 20
0.1368257079754032
 10
0.178106598051033
 20
0.1373541395326385
 10
0.1772607167514273
 20
0.1374950541526538
 10
0.176591060320743
 20
0.1375655121555312
 10
0.1758861587019662
 20
0.1375655121555312
 10
0.1750402774023587
 20
0.1372132242197517
 10
0.1746878265929712
 20
0.1367200209710853
 10
0.1743353757835819
 20
0.1365086483481908
 10
0.1738771894099151
 20
0.1361915894138499
 10
0.1740886594669309
 20
0.1358393021709401
 10
0.1734894934124334
 20
0.1355222432365992
 10
0.1731017974149516
 20
0.1353108706137047
 10
0.1724321409842673
 20
0.1347472100550306
 10
0.1727493466055623
 20
0.1343949221192511
 10
0.1738419442218209
 20
0.1342540068063642
 10
0.1743001305954894
 20
0.1340778631849102
 10
0.1748288062738001
 20
0.1339721768734621
 10
0.1752165022712819
 20
0.1337255752491289
 10
0.1755337078925769
 20
0.1335494316276748
 10
0.1763795902637273
 20
0.1335142026262344
 10
0.1770844908109612
 20
0.1334437453162267
 10
0.1783180691795916
 20
0.1335494316276748
 10
0.1786352748008884
 20
0.1335494316276748
 10
0.1788467448579041
 20
0.1337255752491289
 10
0.1795868916647734
 20
0.1343244648092434
 10
0.1797631176052394
 20
0.1350642689893715
 10
0.1799745876622552
 20
0.1356279295480456
  0
LWPOLYLINE
  5
1B47
330
2
100
AcDbEntity
  8
Profilo
  6
Continuous
370
     0
100
AcDbPolyline
 90
        7
 70
   128
 43
0.0
 10
0.1843802222438391
 20
0.1368257079754032
 10
0.1837458110012491
 20
0.1368257079754032
 10
0.1827589489492698
 20
0.1368257079754032
 10
0.1820188021424005
 20
0.1368257079754032
 10
0.1812081649593427
 20
0.1366143346596389
 10
0.1807852248453112
 20
0.13657910635107
 10
0.1803975288478294
 20
0.1363677337281754
  0
LWPOLYLINE
  5
1B48
330
2
100
AcDbEntity
  8
Profilo
  6
Continuous
370
     0
100
AcDbPolyline
 90
        8
 70
   128
 43
0.0
 10
0.1789877256102759
 20
0.1334789743176654
 10
0.1789877256102759
 20
0.1323164248917483
 10
0.1793049312315709
 20
0.1317527643330743
 10
0.1795516464766809
 20
0.1311891037744002
 10
0.1794106667958502
 20
0.1304845285957108
 10
0.1805737537167527
 20
0.1295333517926864
 10
0.1813139005236237
 20
0.1293572074783609
 10
0.1822655173875087
 20
0.1290753775454605
  0
ELLIPSE
  5
1B49
330
2
100
AcDbEntity
  8
Profilo
  6
Continuous
370
     0
100
AcDbEllipse
 10
0.1847809707050263
 20
0.1429807099292479
 30
0.0
 11
-0.0013252145718219
 21
0.0000281828547161
 31
0.0
210
0.0
220
0.0
230
1.0
 40
0.7448161493254915
 41
0.0
 42
6.283185307179585
  0
ELLIPSE
  5
1B4A
330
2
100
AcDbEntity
  8
Profilo
  6
Continuous
370
     0
100
AcDbEllipse
 10
0.1863599502025017
 20
0.1444180438342149
 30
0.0
 11
-0.0008176857920579
 21
0.0001127321117349
 31
0.0
210
0.0
220
0.0
230
1.0
 40
0.7974542317347807
 41
0.0
 42
6.283185307179585
  0
ELLIPSE
  5
1B4B
330
2
100
AcDbEntity
  8
Profilo
  6
Continuous
370
     0
100
AcDbEllipse
 10
0.1868956750255861
 20
0.1422479512029704
 30
0.0
 11
-0.0007330976620973
 21
-0.0008736736927277
 31
0.0
210
0.0
220
0.0
230
1.0
 40
0.7802747310780964
 41
0.0
 42
6.283185307179585
  0
ELLIPSE
  5
1B4C
330
2
100
AcDbEntity
  8
Profilo
  6
Continuous
370
     0
100
AcDbEllipse
 10
0.1855172883534493
 20
0.1406695599466627
 30
0.0
 11
-0.0011921894894906
 21
0.0002217002043858
 31
0.0
210
0.0
220
0.0
230
1.0
 40
0.7120878848078536
 41
0.0
 42
6.283185307179585
  0
ELLIPSE
  5
1B4D
330
2
100
AcDbEntity
  8
Profilo
  6
Continuous
370
     0
100
AcDbEllipse
 10
0.1830913211883522
 20
0.1415979295308767
 30
0.0
 11
-0.0009842496304611
 21
0.000263268971056
 31
0.0
210
0.0
220
0.0
230
1.0
 40
0.8092793976358123
 41
0.0
 42
6.283185307179585
  0
ELLIPSE
  5
1B4E
330
2
100
AcDbEntity
  8
Profilo
  6
Continuous
370
     0
100
AcDbEllipse
 10
0.1837567289515565
 20
0.1392839339290774
 30
0.0
 11
-0.0011228762031475
 21
0.0003602625289962
 31
0.0
210
0.0
220
0.0
230
0.9999999999999998
 40
0.7308140829282892
 41
0.0
 42
6.283185307179585
  0
ELLIPSE
  5
1B4F
330
2
100
AcDbEntity
  8
Profilo
  6
Continuous
370
     0
100
AcDbEllipse
 10
0.1813584874224599
 20
0.1398520406378592
 30
0.0
 11
-0.0008594856078893
 21
0.0003186937623261
 31
0.0
210
0.0
220
0.0
230
1.0
 40
0.7240853516073598
 41
0.0
 42
6.283185307179585
  0
ELLIPSE
  5
1B50
330
2
100
AcDbEntity
  8
Profilo
  6
Continuous
370
     0
100
AcDbEllipse
 10
0.1821763848442355
 20
0.138092295373808
 30
0.0
 11
0.0006066581618276
 21
-0.0007506876802921
 31
0.0
210
0.0
220
0.0
230
0.9999999999999998
 40
0.8679318523068584
 41
0.0
 42
6.283185307179585
  0
LWPOLYLINE
  5
1B51
330
2
100
AcDbEntity
  8
Profilo
  6
Continuous
370
     0
100
AcDbPolyline
 90
        5
 70
   128
 43
0.0
 10
0.1796747838971757
 20
0.1439833202429281
 10
0.1806063554085842
 20
0.1454908810784556
 10
0.1812274023684963
 20
0.1460229612918327
 10
0.1822920552182381
 20
0.1463333416472605
 10
0.1828687424463993
 20
0.146377681895999
  0
LWPOLYLINE
  5
1B52
330
2
100
AcDbEntity
  8
Profilo
  6
Continuous
370
     0
100
AcDbPolyline
 90
        5
 70
   128
 43
0.0
 10
0.1832679875329386
 20
0.1462890013985221
 10
0.1821589738799048
 20
0.1447371003142561
 10
0.1810499602268727
 20
0.1434512400295493
 10
0.1803845524636702
 20
0.1421653790519728
 10
0.180251470053794
 20
0.1412785782344295
  0
LWPOLYLINE
  5
1B53
330
2
100
AcDbEntity
  8
Profilo
  6
Continuous
370
     0
100
AcDbPolyline
 90
       23
 70
   128
 43
0.0
 10
0.1834897904778543
 20
0.1453578610251101
 10
0.1841551982410567
 20
0.1454465408297172
 10
0.1848649678790941
 20
0.1454908810784556
 10
0.1857965393905026
 20
0.145579560883061
 10
0.1863288658153734
 20
0.1458899412384889
 10
0.1865950284920383
 20
0.1462890013985221
 10
0.1877040421450704
 20
0.1469984419139831
 10
0.1882363696414842
 20
0.147308822269411
 10
0.188458171514857
 20
0.1471758022160654
 10
0.1881920088381921
 20
0.1462003215939167
 10
0.1881476480349018
 20
0.1455352213271941
 10
0.1880589274998605
 20
0.1444267206516998
 10
0.1881032872316097
 20
0.142786139069957
 10
0.1878814853582369
 20
0.1414115982877733
 10
0.1871717157201995
 20
0.1402587573635405
 10
0.1861514236737498
 20
0.1386625167234077
 10
0.1852198521623414
 20
0.1376426958525188
 10
0.1845988041308864
 20
0.1367558950349754
 10
0.1845544433275943
 20
0.1356917346082196
 10
0.1845100835958469
 20
0.1349379538440201
 10
0.1847318854692179
 20
0.1344502138793815
 10
0.1859296207288341
 20
0.1345832339327253
 10
0.1862845050120832
 20
0.1347162539860709
  0
LWPOLYLINE
  5
1B54
330
2
100
AcDbEntity
  8
Profilo
  6
Continuous
370
     0
100
AcDbPolyline
 90
       12
 70
   128
 43
0.0
 10
0.1874378794684073
 20
0.1371992954437471
 10
0.1868611922402443
 20
0.1364455153724191
 10
0.1866837500986207
 20
0.1354700347502686
 10
0.1865950284920383
 20
0.1343615333819046
 10
0.1867281109019128
 20
0.1328096329905084
 10
0.1869499138468285
 20
0.1316567920662774
 10
0.1878814853582369
 20
0.1318341523683597
 10
0.1893010224912259
 20
0.1327209524930333
 10
0.1897446283810573
 20
0.1336520935593151
 10
0.1900995126643028
 20
0.1345388936839869
 10
0.1904543969475501
 20
0.1356030548036142
 10
0.1905431174825913
 20
0.1365341951770245
  0
LWPOLYLINE
  5
1B55
330
2
100
AcDbEntity
  8
Profilo
  6
Continuous
370
     0
100
AcDbPolyline
 90
        8
 70
   128
 43
0.0
 10
0.1891679411528944
 20
0.1324105721376054
 10
0.1894341038295575
 20
0.131390751959588
 10
0.1900107910577204
 20
0.1318341523683597
 10
0.1913859684589603
 20
0.132942653043854
 10
0.1922288183637864
 20
0.1339181336660027
 10
0.1925393429152844
 20
0.1348936142881532
 10
0.1925393429152844
 20
0.1360464545195144
 10
0.1925837026470336
 20
0.1370662753904033
  0
LWPOLYLINE
  5
1B56
330
2
100
AcDbEntity
  8
Profilo
  6
Continuous
370
     0
100
AcDbPolyline
 90
       43
 70
   128
 43
0.0
 10
0.1891645025718229
 20
0.1464422698998562
 10
0.1899472528516781
 20
0.1468769304399271
 10
0.1909909206058458
 20
0.1467899980547647
 10
0.1917736708856992
 20
0.1466161339773113
 10
0.192208531914164
 20
0.1463553382075653
 10
0.1926868793669392
 20
0.1455729502054575
 10
0.1926433929426288
 20
0.1450513579730974
 10
0.1926433929426288
 20
0.1444862998945902
 10
0.1923824765398592
 20
0.1439647076622283
 10
0.1911648652315392
 20
0.1438777752770659
 10
0.1903386285273754
 20
0.1437039111996126
 10
0.1896428500245981
 20
0.1432257848133962
 10
0.188947072593362
 20
0.1424433968112901
 10
0.1883817522919695
 20
0.1414002123465665
 10
0.1882512940905829
 20
0.1401831644972611
 10
0.1882947805148933
 20
0.1389661159550841
 10
0.1885991833419733
 20
0.1379229314903623
 10
0.1893819336218268
 20
0.1374013392580005
 10
0.1906865177787658
 20
0.1370101452569465
 10
0.1919911008641602
 20
0.1370101452569465
 10
0.1930347686183278
 20
0.137053611103092
 10
0.1941654081495716
 20
0.1374448051041459
 10
0.1946872409551126
 20
0.1378359991051998
 10
0.195252561256505
 20
0.1383141254914144
 10
0.195774394062046
 20
0.1388357177237762
 10
0.1959483386877412
 20
0.1394877081874459
 10
0.1956004494363526
 20
0.1400962321120986
 10
0.195252561256505
 20
0.1407047560367514
 10
0.1949916437821926
 20
0.1412698148081302
 10
0.1947742138037316
 20
0.1419652704250738
 10
0.1944263245523412
 20
0.1425303291964526
 10
0.1940784353009526
 20
0.1433561830447041
 10
0.1936870606967964
 20
0.1439647076622283
 10
0.1936435742724878
 20
0.1445732315868811
 10
0.1933826578697164
 20
0.1454425519741496
 10
0.193426143222484
 20
0.1461814741301119
 10
0.1929912821940192
 20
0.1470507945173805
 10
0.1921650454898554
 20
0.1475723867497423
 10
0.1910778923829202
 20
0.1480939789821023
 10
0.1899907392759867
 20
0.1484417071370108
 10
0.1889905579461277
 20
0.1488329011380647
 10
0.1879903776878133
 20
0.1495283574478798
 10
0.1875990020121143
 20
0.1497891532176241
  0
LWPOLYLINE
  5
1B57
330
2
100
AcDbEntity
  8
Profilo
  6
Continuous
370
     0
100
AcDbPolyline
 90
       12
 70
   128
 43
0.0
 10
0.2118642617591396
 20
0.1396615722648993
 10
0.2070373018786291
 20
0.1398789021884998
 10
0.2052108838446081
 20
0.1397919698033374
 10
0.2028191476522785
 20
0.1403570278818447
 10
0.201340618869646
 20
0.1413567465004211
 10
0.2005578685897908
 20
0.1422260668876896
 10
0.1994707154828574
 20
0.1430953872749598
 10
0.1984270477286898
 20
0.143486581276012
 10
0.1968615471689812
 20
0.143486581276012
 10
0.1954265058822002
 20
0.143486581276012
 10
0.1944698109766516
 20
0.143486581276012
 10
0.1942958663509564
 20
0.1434431154298665
  0
LWPOLYLINE
  5
1B58
330
2
100
AcDbEntity
  8
Profilo
  6
Continuous
370
     0
100
AcDbPolyline
 90
       11
 70
   128
 43
0.0
 10
0.2097334419695815
 20
0.1392269117248301
 10
0.2068198708286253
 20
0.1390965134935223
 10
0.2044716199890633
 20
0.1387922518776308
 10
0.2025147448251985
 20
0.1386618536463229
 10
0.1998620900870118
 20
0.138531455415015
 10
0.1991663126557774
 20
0.1386183878001774
 10
0.1979052149231488
 20
0.1388357177237762
 10
0.1972529228446784
 20
0.1391399800325375
 10
0.1966876036148288
 20
0.1395746398797368
 10
0.1962092561620536
 20
0.1399658338807908
 10
0.1958178804863564
 20
0.1403570278818447
  0
LWPOLYLINE
  5
1B59
330
2
100
AcDbEntity
  8
Profilo
  6
Continuous
370
     0
100
AcDbPolyline
 90
       14
 70
   128
 43
0.0
 10
0.2060806069730805
 20
0.1386618536463229
 10
0.2044716199890633
 20
0.1382271937991235
 10
0.2031670358321242
 20
0.1372709410266926
 10
0.2019494245238043
 20
0.1364450871784393
 10
0.200644840366867
 20
0.1359669607922229
 10
0.199122826231467
 20
0.1352280386362623
 10
0.1981226449016098
 20
0.1350976404049544
 10
0.1964266861405164
 20
0.1350976404049544
 10
0.1950786166308116
 20
0.1353584368675702
 10
0.1942523799266478
 20
0.1357061650224787
 10
0.1936435742724878
 20
0.1360973590235326
 10
0.1933826578697164
 20
0.1363581547932768
 10
0.193513116071103
 20
0.1367928153333477
 10
0.193730546049564
 20
0.1370970769492374
  0
LWPOLYLINE
  5
1B5A
330
2
100
AcDbEntity
  8
Profilo
  6
Continuous
370
     0
100
AcDbPolyline
 90
       40
 70
   128
 43
0.0
 10
0.2053371780303983
 20
0.1379143863182741
 10
0.2046414005991621
 20
0.1373058623936214
 10
0.2040760802977697
 20
0.1367408043151141
 10
0.2036412192693049
 20
0.1360888138514444
 10
0.2032933300179145
 20
0.135132561771885
 10
0.2031193853922211
 20
0.1349586976944299
 10
0.2023366351123659
 20
0.1353498916954838
 10
0.2019452605082115
 20
0.1356106874652299
 10
0.2014669130554363
 20
0.1356106874652299
 10
0.2011190238040477
 20
0.1356106874652299
 10
0.2008581074012763
 20
0.1356106874652299
 10
0.1998144396471086
 20
0.1353498916954838
 10
0.1995100368200287
 20
0.1350890959257396
 10
0.1990751757915639
 20
0.1343936396159226
 10
0.1992926068415677
 20
0.1334808533825087
 10
0.1993360921943352
 20
0.1329592611501469
 10
0.1989447175901791
 20
0.131916076685425
 10
0.1995535232443391
 20
0.1313944844530632
 10
0.1992926068415677
 20
0.1308728922207014
 10
0.1988142593887925
 20
0.1301339700647408
 10
0.1987707729644839
 20
0.1294385137549256
 10
0.1989012311658687
 20
0.1285691933676554
 10
0.1984228837130952
 20
0.1276564071342414
 10
0.1984663701374039
 20
0.1267001550546802
 10
0.1987707729644839
 20
0.1262220286684657
 10
0.1997274678700325
 20
0.1262220286684657
 10
0.2010320520269715
 20
0.1266132226695178
 10
0.2019017740839011
 20
0.1267001550546802
 10
0.2028584689894497
 20
0.1267001550546802
 10
0.2035542474922287
 20
0.127221747287042
 10
0.2038586503193087
 20
0.1283518634440566
 10
0.2036847056936135
 20
0.1295689119862335
 10
0.2040325949450021
 20
0.1281779993666032
 10
0.2046848870234725
 20
0.1281779993666032
 10
0.2051197480519373
 20
0.1285257275215099
 10
0.2056415808574783
 20
0.1288734556764184
 10
0.2057720401304059
 20
0.1301774359108863
 10
0.2059459847561011
 20
0.1310467562981548
 10
0.2061634147345621
 20
0.1317422126079699
 10
0.2066852486116459
 20
0.1322203389941863
  0
LWPOLYLINE
  5
1B5B
330
2
100
AcDbEntity
  8
Profilo
  6
Continuous
370
     0
100
AcDbPolyline
 90
       15
 70
   128
 43
0.0
 10
0.2074679988914994
 20
0.1371754641623135
 10
0.2064243322088746
 20
0.1366973377760989
 10
0.205467637303326
 20
0.1359149497739911
 10
0.2049458034262421
 20
0.1353933575416293
 10
0.2042935113477735
 20
0.1343501730769074
 10
0.2041195667220783
 20
0.1332200569198929
 10
0.2041630531463887
 20
0.1323942030716396
 10
0.2045979141748535
 20
0.1320464749167329
 10
0.2056415808574783
 20
0.1320899407628784
 10
0.2063373593602573
 20
0.1322638048403317
 10
0.2074245124671907
 20
0.132828862918839
 10
0.2082072627470441
 20
0.1337851149984002
 10
0.208729096624128
 20
0.1347848336169766
 10
0.2091639576525945
 20
0.1356541540042451
 10
0.2094248740553641
 20
0.1364800078524984
  0
LWPOLYLINE
  5
1B5C
330
2
100
AcDbEntity
  8
Profilo
  6
Continuous
370
     0
100
AcDbPolyline
 90
       10
 70
   128
 43
0.0
 10
0.2095988186810593
 20
0.1344805713082153
 10
0.209642305105368
 20
0.1335243192286541
 10
0.209642305105368
 20
0.1322638048403317
 10
0.2095988186810593
 20
0.130829426374556
 10
0.2095988186810593
 20
0.1296993095246699
 10
0.2092509305012118
 20
0.1290907856000172
 10
0.2086856101998193
 20
0.1287430574451105
 10
0.2072070824887298
 20
0.1285691933676554
 10
0.2059024983317907
 20
0.1285691933676554
 10
0.2056850672817869
 20
0.1287865232912559
  0
LWPOLYLINE
  5
1B5D
330
2
100
AcDbEntity
  8
Profilo
  6
Continuous
370
     0
100
AcDbPolyline
 90
       32
 70
   128
 43
0.0
 10
0.209729277953987
 20
0.1318291443002626
 10
0.2101641389824518
 20
0.131090222144302
 10
0.2107729446366118
 20
0.1306120964509554
 10
0.2114252367150804
 20
0.1315248826843711
 10
0.2120775287935489
 20
0.1323072706864772
 10
0.2127733062247852
 20
0.1332200569198929
 10
0.2132516536775602
 20
0.1338720473835626
 10
0.2133386265261794
 20
0.1342632413846148
 10
0.2132081672532498
 20
0.135132561771885
 10
0.2127733062247852
 20
0.1357845515426832
 10
0.2119905559449315
 20
0.1365234743915153
 10
0.2118600977435452
 20
0.1373493282397669
 10
0.2131646819004841
 20
0.1371754641623135
 10
0.2136865147060252
 20
0.1364365420063529
 10
0.2139474321803374
 20
0.1355672216190844
 10
0.2142518350074174
 20
0.1344371054620699
 10
0.215121557064349
 20
0.1334808533825087
 10
0.2159477937685126
 20
0.1331331252276002
 10
0.2168175168969852
 20
0.1334373868434917
 10
0.2169479750983698
 20
0.1342632413846148
 10
0.2169479750983698
 20
0.1353498916954838
 10
0.2168610022497508
 20
0.1360018821591535
 10
0.2175132943282194
 20
0.1362626779288996
 10
0.2185134756580787
 20
0.1368712018535523
 10
0.2184699892337698
 20
0.1374362606249293
 10
0.2181655864066898
 20
0.1379578528572911
 10
0.2173828361268346
 20
0.1386967750132517
 10
0.2159043073442024
 20
0.1387837067055444
 10
0.2144692649858784
 20
0.138305580319328
 10
0.2129037644261698
 20
0.1385229109357984
 10
0.2135560565046402
 20
0.1393052989379044
 10
0.2144257796331126
 20
0.1397399587851038
  0
LWPOLYLINE
  5
1B5E
330
2
100
AcDbEntity
  8
Profilo
  6
Continuous
370
     0
100
AcDbPolyline
 90
       14
 70
   128
 43
0.0
 10
0.2138169739789526
 20
0.1339155132297081
 10
0.2152955016900424
 20
0.1330461928424396
 10
0.2160782519698974
 20
0.1320899407628784
 10
0.2163826547969774
 20
0.1309163580668469
 10
0.2168175168969852
 20
0.129873173602125
 10
0.2169479750983698
 20
0.1289169215225638
 10
0.2161217383942061
 20
0.1268305532859881
 10
0.2152955016900424
 20
0.1260046987448651
 10
0.2146432096115736
 20
0.1245703202790893
 10
0.2143388067844936
 20
0.1237879322769833
 10
0.2135125711518726
 20
0.1238313981231287
 10
0.2128167926490954
 20
0.124396456201636
 10
0.2120775287935489
 20
0.1246137861252348
 10
0.2114252367150804
 20
0.1246137861252348
  0
LWPOLYLINE
  5
1B5F
330
2
100
AcDbEntity
  8
Profilo
  6
Continuous
370
     0
100
AcDbPolyline
 90
       35
 70
   128
 43
0.0
 10
0.2086421237755107
 20
0.1276998729803869
 10
0.2078158881428898
 20
0.1268305532859881
 10
0.2076854288699603
 20
0.1259177663597026
 10
0.2084681802213584
 20
0.126135096976173
 10
0.2092074440769032
 20
0.1266132226695178
 10
0.210251110759528
 20
0.1260046987448651
 10
0.2108599164136879
 20
0.1256569705899584
 10
0.2109903756866156
 20
0.124396456201636
 10
0.2109903756866156
 20
0.1238748639692742
 10
0.2105120282338404
 20
0.1233967375830578
 10
0.2100771661338328
 20
0.1233967375830578
 10
0.210555513586608
 20
0.122918611889713
 10
0.2112078056650766
 20
0.1221362231947354
 10
0.2106859717879927
 20
0.1206583788828142
 10
0.2104685418095318
 20
0.1198759908807063
 10
0.210251110759528
 20
0.1194847968796542
 10
0.209337902278288
 20
0.1194413303406372
 10
0.208729096624128
 20
0.1196586609571075
 10
0.2081202909699698
 20
0.119962922572999
 10
0.2075549706685755
 20
0.1202237190356148
 10
0.2068591932373411
 20
0.1207018447289596
 10
0.2066417621873355
 20
0.1213973010387748
 10
0.2067287350359546
 20
0.1216580975013906
 10
0.2061199283102517
 20
0.1216146309623753
 10
0.2052936926776325
 20
0.1214842334239372
 10
0.2044674559734687
 20
0.1217450291936832
 10
0.2042065395706973
 20
0.1222666214260433
 10
0.2042500249234649
 20
0.1230055435820057
 10
0.2048153452248573
 20
0.1238313981231287
 10
0.2049023170019335
 20
0.1247876502026881
 10
0.2056850672817869
 20
0.125178844203742
 10
0.2063808457845659
 20
0.1250919125114511
 10
0.2063373593602573
 20
0.1262220286684657
 10
0.2062503875831811
 20
0.1268305532859881
 10
0.2061634147345621
 20
0.1272652131331875
  0
LWPOLYLINE
  5
1B60
330
2
100
AcDbEntity
  8
Profilo
  6
Continuous
370
     0
100
AcDbPolyline
 90
        3
 70
   128
 43
0.0
 10
0.2073375406901146
 20
0.1257004364361038
 10
0.2079028599199642
 20
0.1230490094281511
 10
0.2089030412498232
 20
0.1210061070377209
  0
LWPOLYLINE
  5
1B61
330
2
100
AcDbEntity
  8
Profilo
  6
Continuous
370
     0
100
AcDbPolyline
 90
        2
 70
   128
 43
0.0
 10
0.2085116655741241
 20
0.1227882136584051
 10
0.2095553333282918
 20
0.1220492915024445
  0
ELLIPSE
  5
1B62
330
2
100
AcDbEntity
  8
Profilo
  6
Continuous
370
     0
100
AcDbEllipse
 10
0.2021192051339049
 20
0.1218536941554817
 30
0.0
 11
-0.0017394451854032
 21
0.000065199115654
 31
0.0
210
0.0
220
0.0
230
1.0
 40
0.9001480188838812
 41
0.0
 42
6.283185307179585
  0
ELLIPSE
  5
1B63
330
2
100
AcDbEntity
  8
Profilo
  6
Continuous
370
     0
100
AcDbEllipse
 10
0.1984663701374039
 20
0.1237227328148926
 30
0.0
 11
-0.0018699033867884
 21
0.0011083832339416
 31
0.0
210
0.0
220
0.0
230
1.0
 40
0.7205232496936207
 41
0.0
 42
6.283185307179585
  0
ELLIPSE
  5
1B64
330
2
100
AcDbEntity
  8
Profilo
  6
Continuous
370
     0
100
AcDbEllipse
 10
0.198749030288101
 20
0.1197455926493984
 30
0.0
 11
-0.0016742160847106
 21
-0.0010866503108686
 31
0.0
210
0.0
220
0.0
230
1.0
 40
0.8549365050789717
 41
0.0
 42
6.283185307179585
  0
ELLIPSE
  5
1B65
330
2
100
AcDbEntity
  8
Profilo
  6
Continuous
370
     0
100
AcDbEllipse
 10
0.2019887463967478
 20
0.1182025492218224
 30
0.0
 11
0.0013915564697854
 21
0.0012822476578306
 31
0.0
210
0.0
220
0.0
230
1.0
 40
0.8324495367986333
 41
0.0
 42
6.283185307179585
  0
LWPOLYLINE
  5
1B66
330
2
100
AcDbEntity
  8
Profilo
  6
Continuous
370
     0
100
AcDbPolyline
 90
       15
 70
   128
 43
0.0
 10
0.1852465871569577
 20
0.1287865232912559
 10
0.1833331973458587
 20
0.1287865232912559
 10
0.1824199888646205
 20
0.1288299898302729
 10
0.1814198075347615
 20
0.1290907856000172
 10
0.1801587098021329
 20
0.1290907856000172
 10
0.1788976120695043
 20
0.1289169215225638
 10
0.1776800007611843
 20
0.1284387951363475
 10
0.1768537640570205
 20
0.1274825430567881
 10
0.1758970691514718
 20
0.1263524268997735
 10
0.1755491799000832
 20
0.1253961748202124
 10
0.1753752363459309
 20
0.1245703202790893
 10
0.1762884448271709
 20
0.1239183298154196
 10
0.1775495425597995
 20
0.1235706016605129
 10
0.1783322928396547
 20
0.1235706016605129
 10
0.1795064177236643
 20
0.1237444657379663
  0
LWPOLYLINE
  5
1B67
330
2
100
AcDbEntity
  8
Profilo
  6
Continuous
370
     0
100
AcDbPolyline
 90
       14
 70
   128
 43
0.0
 10
0.1838985165757101
 20
0.1271348149018796
 10
0.1817676967861501
 20
0.1260481645910105
 10
0.1809849465062967
 20
0.1253527082811954
 10
0.1801152244493671
 20
0.1242660579703281
 10
0.1794194459465881
 20
0.1233967375830578
 10
0.1788541267167385
 20
0.1224404855034984
 10
0.1784627510410395
 20
0.120875708806413
 10
0.1783757792639633
 20
0.1191805345708912
 10
0.1785932092424243
 20
0.1186589423385311
 10
0.1791585295438167
 20
0.1180504184138766
 10
0.1798108205507443
 20
0.1180938842600239
 10
0.1805065990535215
 20
0.1185285441072233
 10
0.1812023775563005
 20
0.1191370687247457
 10
0.1817676967861501
 20
0.119962922572999
  0
LWPOLYLINE
  5
1B68
330
2
100
AcDbEntity
  8
Profilo
  6
Continuous
370
     0
100
AcDbPolyline
 90
       17
 70
   128
 43
0.0
 10
0.1852465871569577
 20
0.1274390772106426
 10
0.1848117261284929
 20
0.1266566892085348
 10
0.1842898922514091
 20
0.1258308346674117
 10
0.1835071419715539
 20
0.1245703202790893
 10
0.1830287945187787
 20
0.1238313981231287
 10
0.1825504470660053
 20
0.1228316795045505
 10
0.1823330160160015
 20
0.1213973010387748
 10
0.1821590724618491
 20
0.1198325250345609
 10
0.1824199888646205
 20
0.1175722920276621
 10
0.1828983363173939
 20
0.1167029716403936
 10
0.1833331973458587
 20
0.1163987093316305
 10
0.1839854894243291
 20
0.1163117776393396
 10
0.1858988792354264
 20
0.1168333698717014
 10
0.1870730041194359
 20
0.1186154764923839
 10
0.1875948379965198
 20
0.1200933208043069
 10
0.1879862136722188
 20
0.1213973010387748
 10
0.1879862136722188
 20
0.1216146309623753
  0
LWPOLYLINE
  5
1B69
330
2
100
AcDbEntity
  8
Profilo
  6
Continuous
370
     0
100
AcDbPolyline
 90
       13
 70
   128
 43
0.0
 10
0.1865076848895864
 20
0.1267001550546802
 10
0.1867686012923559
 20
0.1264828251310814
 10
0.1870730041194359
 20
0.125483106512505
 10
0.1871164905437463
 20
0.1247876502026881
 10
0.1872469487451311
 20
0.1234836699682202
 10
0.1873774069465159
 20
0.1227882136584051
 10
0.1878122690465236
 20
0.121962359117282
 10
0.1885515329020684
 20
0.1214407668849202
 10
0.1890733667791522
 20
0.1217450291936832
 10
0.1894647413833084
 20
0.1222666214260433
 10
0.1900300616847026
 20
0.1230490094281511
 10
0.1900735470374684
 20
0.1239617963544366
 10
0.1900735470374684
 20
0.1247876502026881
  0
LWPOLYLINE
  5
1B6A
330
2
100
AcDbEntity
  8
Profilo
  6
Continuous
370
     0
100
AcDbPolyline
 90
       13
 70
   128
 43
0.0
 10
0.1873774069465159
 20
0.1316552802228075
 10
0.1869860323423598
 20
0.1306990281432481
 10
0.1869860323423598
 20
0.129612377832379
 10
0.1873339215937502
 20
0.1278737370578402
 10
0.1878992408235998
 20
0.1265697568233723
 10
0.1896821724333122
 20
0.125222310742759
 10
0.191030241943017
 20
0.1247441843565427
 10
0.193465465631198
 20
0.1242660579703281
 10
0.1951614243922932
 20
0.1244399220477814
 10
0.1962485774992266
 20
0.1247441843565427
 10
0.1969878413547714
 20
0.1254396406663578
 10
0.19794453626032
 20
0.1265262909772269
 10
0.1983359119360191
 20
0.1278302712116948
  0
ELLIPSE
  5
1B6B
330
2
100
AcDbEntity
  8
Profilo
  6
Continuous
370
     0
100
AcDbEllipse
 10
0.1913998744065608
 20
0.1263524268997735
 30
0.0
 11
-0.0003261460392346
 21
-0.0003477281549076
 31
0.0
210
0.0
220
0.0
230
1.0
 40
0.885254806252024
 41
0.0
 42
6.283185307179585
  0
ELLIPSE
  5
1B6C
330
2
100
AcDbEntity
  8
Profilo
  6
Continuous
370
     0
100
AcDbEllipse
 10
0.1819851273003834
 20
0.1308076934514823
 30
0.0
 11
-0.0006088061899311
 21
0.0000217329230729
 31
0.0
210
0.0
220
0.0
230
1.0
 40
0.7147219344105791
 41
0.0
 42
6.283185307179585
  0
LWPOLYLINE
  5
1B6D
330
2
100
AcDbEntity
  8
Profilo
  6
Continuous
370
     0
100
AcDbPolyline
 90
       30
 70
   128
 43
0.0
 10
0.1806353149262001
 20
0.118267474653623
 10
0.1800702132195517
 20
0.1172453818603096
 10
0.1788323701102967
 20
0.1169764095255918
 10
0.178240358747545
 20
0.1171377929264232
 10
0.1774868894481674
 20
0.1175412507356275
 10
0.1767603287333503
 20
0.1179716050854336
 10
0.1759261304656607
 20
0.1180253995523768
 10
0.1752533901345952
 20
0.1175412507356275
 10
0.17611449805839
 20
0.1165729517163876
 10
0.176571962212164
 20
0.1162232883741248
 10
0.1768948770138727
 20
0.1153087845146996
 10
0.1762221366828072
 20
0.1151742983473398
 10
0.175414848071221
 20
0.1152549900477546
 10
0.1747151970125091
 20
0.1152549900477546
 10
0.1744999208352176
 20
0.1147439439975337
 10
0.1755493963517434
 20
0.1142328972544413
 10
0.1766795997650383
 20
0.1142060000209697
 10
0.177271612199333
 20
0.1142597944879129
 10
0.1777021656254589
 20
0.1140715145464832
 10
0.1781596297792329
 20
0.1128342438853953
 10
0.1790207377030277
 20
0.1128880383523385
 10
0.1794512922006965
 20
0.1135604678033908
 10
0.1796396587218829
 20
0.1145287661297609
 10
0.1796127490657795
 20
0.1153087845146996
 10
0.1801240325317603
 20
0.1159812139657501
 10
0.1806353149262001
 20
0.1164653634753709
 10
0.1813349659849119
 20
0.1163308773080129
 10
0.1820077063159775
 20
0.1161694946000531
 10
0.1823575318453325
 20
0.1164922607088425
 10
0.1825728080226241
 20
0.1165998489498592
  0
LWPOLYLINE
  5
1B6E
330
2
100
AcDbEntity
  8
Profilo
  6
Continuous
370
     0
100
AcDbPolyline
 90
       53
 70
   128
 43
0.0
 10
0.1791346448532358
 20
0.1308255802503155
 10
0.1775089182264977
 20
0.13075787294339
 10
0.1763912315054703
 20
0.13075787294339
 10
0.1749009832584647
 20
0.1306901656364645
 10
0.174494551333894
 20
0.1310625551316851
 10
0.1749009832584647
 20
0.1316719208940165
 10
0.1749348525855126
 20
0.1324844078842546
 10
0.1742913353716087
 20
0.1321458713496253
 10
0.1741897273904669
 20
0.1311641160920733
 10
0.1734446032669623
 20
0.130622458329539
 10
0.1730043030868884
 20
0.1310287014782223
 10
0.172530132508222
 20
0.1312318233989989
 10
0.1723946552000324
 20
0.1298099713393008
 10
0.1724623938541263
 20
0.12825270466575
 10
0.1720559619295556
 20
0.1275079249824391
 10
0.1716156617494817
 20
0.1277110462103459
 10
0.1712769684790067
 20
0.1268985592201077
 10
0.1708705376259789
 20
0.1265261697248872
 10
0.1703286283932168
 20
0.1273386567151236
 10
0.1701592817579793
 20
0.1283881192796028
 10
0.1697189815779037
 20
0.1278126071707342
 10
0.1690415950369537
 20
0.1273725103685863
 10
0.1681609936052595
 20
0.1276771925568831
 10
0.1681609936052595
 20
0.1290313380025254
 10
0.1679239093874709
 20
0.129640703071987
 10
0.1674836081358524
 20
0.1288959233886744
 10
0.1668400919934914
 20
0.1288959233886744
 10
0.1664336600689207
 20
0.1295052884581342
 10
0.1659256201632082
 20
0.1298776786462263
 10
0.1640289399916319
 20
0.130622458329539
 10
0.1631822078869856
 20
0.1312656770524616
 10
0.1626402997257681
 20
0.1322474323100136
 10
0.1624370837634828
 20
0.1336692843697134
 10
0.1627757770339577
 20
0.1346171859738026
 10
0.1631822078869856
 20
0.1345833323203398
 10
0.1633176851951752
 20
0.1339401135974154
 10
0.1632499465410813
 20
0.132890651032938
 10
0.1637918557738416
 20
0.131908895775386
 10
0.1645369798973444
 20
0.1312995307059244
 10
0.166636876031206
 20
0.13075787294339
 10
0.1673820001547088
 20
0.1306563119830018
 10
0.1681948629323073
 20
0.1311979697455361
 10
0.1672465228465192
 20
0.1318411884684605
 10
0.1668400919934914
 20
0.1325182615377174
 10
0.168262601586403
 20
0.1324844078842546
 10
0.1703963670473125
 20
0.1324167005773291
 10
0.1711753604978632
 20
0.1324844078842546
 10
0.1720898312566035
 20
0.1323828469238664
 10
0.1729704337598406
 20
0.132890651032938
 10
0.1733768646128684
 20
0.1329245046864007
 10
0.1730043030868884
 20
0.1332291875675655
 10
0.1725640018352699
 20
0.1336015770627879
 10
0.1729026951057448
 20
0.1342786501320448
  0
LWPOLYLINE
  5
1B6F
330
2
100
AcDbEntity
  8
Profilo
  6
Continuous
370
     0
100
AcDbPolyline
 90
        8
 70
   128
 43
0.0
 10
0.1966707825348493
 20
0.1220061679343343
 10
0.1957678747952236
 20
0.1208630133399304
 10
0.1948649670555962
 20
0.1203816851990553
 10
0.1924572123688975
 20
0.120020689266616
 10
0.191795080312249
 20
0.120020689266616
 10
0.1921562427651746
 20
0.1216451720018949
 10
0.1930591515763431
 20
0.1224874960752094
 10
0.1941426410782039
 20
0.123871314393615
  0
LWPOLYLINE
  5
1B70
330
2
100
AcDbEntity
  8
Profilo
  6
Continuous
370
     0
100
AcDbPolyline
 90
      106
 70
   128
 43
0.0
 10
0.1973931095837844
 20
0.117914878390462
 10
0.1960086504782008
 20
0.1171327204213672
 10
0.1954067112707551
 20
0.1165310600720564
 10
0.1953465173500113
 20
0.1160497319311813
 10
0.1969115582178282
 20
0.1161700641396171
 10
0.19745330350453
 20
0.1164107278636206
 10
0.19745330350453
 20
0.1159293997227455
 10
0.1967309764555949
 20
0.115147241753649
 10
0.1960688443989464
 20
0.1144854153001202
 10
0.1951057427385752
 20
0.1139439210550273
 10
0.1932999261877792
 20
0.1135227590183701
 10
0.1933601201085249
 20
0.1144252491959024
 10
0.1934203140292687
 20
0.1154480715818704
 10
0.1925174062896431
 20
0.1160497319311813
 10
0.1916746924707613
 20
0.1161700641396171
 10
0.190470815127411
 20
0.1158692336185276
 10
0.1901698455236882
 20
0.115147241753649
 10
0.1901096516029426
 20
0.1144252491959024
 10
0.1898086819992197
 20
0.1138837549508094
 10
0.1885446118066685
 20
0.1141845854719006
 10
0.187882478678479
 20
0.1135227590183701
 10
0.18734073446332
 20
0.1127406003564055
 10
0.1878222847577333
 20
0.1117177779704375
 10
0.1892067438633169
 20
0.1111762844182142
 10
0.1901096516029426
 20
0.1109356200013427
 10
0.1902300394444321
 20
0.1099729637195925
 10
0.1908921715010805
 20
0.1092509711618441
 10
0.1915543046292718
 20
0.1088899752294066
 10
0.192336824527408
 20
0.108769643020969
 10
0.1929989576555993
 20
0.108769643020969
 10
0.1936602421218374
 20
0.1092813569983702
 10
0.1936602421218374
 20
0.1099617156596193
 10
0.1936010533083052
 20
0.11093788153071
 10
0.1933051081691015
 20
0.11176614379688
 10
0.1933051081691015
 20
0.11238734032329
 10
0.1936306471792999
 20
0.1125648253420644
 10
0.1944296977692985
 20
0.1126239867840337
 10
0.1952583433018347
 20
0.1126535675050175
 10
0.1959390162647689
 20
0.1130676982916676
 10
0.1965605004141711
 20
0.1134522490502037
 10
0.1965900953567086
 20
0.1127127289469869
 10
0.1965900953567086
 20
0.1119732095366399
 10
0.196412528916112
 20
0.11093788153071
 10
0.196146177647903
 20
0.1104941700230761
 10
0.1953175321153668
 20
0.1104941700230761
 10
0.1944888876543735
 20
0.1104054271672532
 10
0.1941041587591001
 20
0.1096363270359206
 10
0.1946368591524326
 20
0.1091630341144332
 10
0.1956726660681027
 20
0.1089559683746732
 10
0.1959390162647689
 20
0.1089263876536877
 10
0.1960573949633761
 20
0.1080685446665339
 10
0.1955838833835759
 20
0.1073881866981563
 10
0.1951103718037757
 20
0.1074769288611095
 10
0.1945480764679057
 20
0.1083939332902308
 10
0.1936010533083052
 20
0.1083347718482632
 10
0.1930387579724353
 20
0.1083051911272794
 10
0.1925948402636279
 20
0.1072698638142193
 10
0.1928907854028334
 20
0.1066782480087931
 10
0.1929795691589013
 20
0.1055837585608956
 10
0.1925060575791011
 20
0.1044892691129964
 10
0.1925060575791011
 20
0.1036314261258426
 10
0.1929203792738263
 20
0.1030398103204164
 10
0.1934234857961659
 20
0.1030398103204164
 10
0.1937194309353696
 20
0.1036610068468264
 10
0.1936898359928321
 20
0.1043413655080756
 10
0.1946664540949701
 20
0.1044596883920126
 10
0.1956726660681027
 20
0.1044596883920126
 10
0.1969748231804391
 20
0.1045780112759496
 10
0.1972707683196428
 20
0.1049034005925162
 10
0.1974187408892447
 20
0.1054062735421195
 10
0.197122795750041
 20
0.1061162129243525
 10
0.196146177647903
 20
0.1065599244319864
 10
0.1966196892277032
 20
0.1071515402374108
 10
0.1971819845635732
 20
0.10783189889866
 10
0.1975371185163091
 20
0.1085122568670394
 10
0.1977442798994431
 20
0.1092517762773864
 10
0.1977442798994431
 20
0.1102575235623306
 10
0.1977146860284484
 20
0.11052375074406
 10
0.1984545478049149
 20
0.1099912963806031
 10
0.1983657640488452
 20
0.1093405191332093
 10
0.1979810362251146
 20
0.108985549095657
 10
0.1978330636555128
 20
0.1079502217825969
 10
0.1982177914792433
 20
0.1070332173534738
 10
0.199224003452376
 20
0.1073881866981563
 10
0.2001710276835193
 20
0.1078023174848064
 10
0.2013548060972485
 20
0.1072698638142193
 10
0.2028049357791886
 20
0.1071515402374108
 10
0.2029825032913279
 20
0.1078614796196455
 10
0.202420207955458
 20
0.1091334533934494
 10
0.2017691288635166
 20
0.1096363270359206
 10
0.2014139959823236
 20
0.1106420736279969
 10
0.200970078273518
 20
0.1117957245178638
 10
0.2003485941241159
 20
0.1119436288156561
 10
0.1999342713578478
 20
0.1114999166151507
 10
0.1996087323476494
 20
0.1107899779257893
 10
0.1993127872084457
 20
0.1104054271672532
 10
0.1985433304894417
 20
0.1110562051075168
 10
0.1976850910859109
 20
0.1112336894334214
 10
0.1976554961433734
 20
0.1137480569529168
 10
0.1981290077231737
 20
0.1146354806610543
 10
0.1984841416759095
 20
0.1162920045005245
 10
0.1988984644421776
 20
0.1151975157454967
 10
0.19943116483551
 20
0.1154045807923851
 10
0.1996087323476494
 20
0.1159074544348582
 10
0.1998454876017781
 20
0.1167948781429975
 10
0.2000822439274497
 20
0.117061105324725
  0
CIRCLE
  5
1B71
330
2
100
AcDbEntity
  8
Profilo
  6
Continuous
370
     0
100
AcDbCircle
 10
0.2122813469629274
 20
0.1279844446019251
 30
0.0
 40
0.000342944898122
  0
CIRCLE
  5
1B72
330
2
100
AcDbEntity
  8
Profilo
  6
Continuous
370
     0
100
AcDbCircle
 10
0.2135413045739429
 20
0.1272522495258141
 30
0.0
 40
0.000342944898122
  0
CIRCLE
  5
1B73
330
2
100
AcDbEntity
  8
Profilo
  6
Continuous
370
     0
100
AcDbCircle
 10
0.2108162789018333
 20
0.1284823371982502
 30
0.0
 40
0.000342944898122
  0
CIRCLE
  5
1B74
330
2
100
AcDbEntity
  8
Profilo
  6
Continuous
370
     0
100
AcDbCircle
 10
0.2104060601447599
 20
0.1298002877809545
 30
0.0
 40
0.000342944898122
  0
CIRCLE
  5
1B75
330
2
100
AcDbEntity
  8
Profilo
  6
Continuous
370
     0
100
AcDbCircle
 10
0.2138343179718541
 20
0.1309132242134994
 30
0.0
 40
0.000342944898122
  0
CIRCLE
  5
1B76
330
2
100
AcDbEntity
  8
Profilo
  6
Continuous
370
     0
100
AcDbCircle
 10
0.2145668525381716
 20
0.1319090094061512
 30
0.0
 40
0.000342944898122
  0
CIRCLE
  5
1B77
330
2
100
AcDbEntity
  8
Profilo
  6
Continuous
370
     0
100
AcDbCircle
 10
0.2153286873727385
 20
0.1278965809987889
 30
0.0
 40
0.000342944898122
  0
CIRCLE
  5
1B78
330
2
100
AcDbEntity
  8
Profilo
  6
Continuous
370
     0
100
AcDbCircle
 10
0.2124278536618829
 20
0.1262857519699172
 30
0.0
 40
0.000342944898122
  0
CIRCLE
  5
1B79
330
2
100
AcDbEntity
  8
Profilo
  6
Continuous
370
     0
100
AcDbCircle
 10
0.2105525668437138
 20
0.1263443279362986
 30
0.0
 40
0.000342944898122
  0
CIRCLE
  5
1B7A
330
2
100
AcDbEntity
  8
Profilo
  6
Continuous
370
     0
100
AcDbCircle
 10
0.2089409931552069
 20
0.1270765223195398
 30
0.0
 40
0.000342944898122
  0
CIRCLE
  5
1B7B
330
2
100
AcDbEntity
  8
Profilo
  6
Continuous
370
     0
100
AcDbCircle
 10
0.2138929206514362
 20
0.1256121328601876
 30
0.0
 40
0.000342944898122
  0
CIRCLE
  5
1B7C
330
2
100
AcDbEntity
  8
Profilo
  6
Continuous
370
     0
100
AcDbCircle
 10
0.2129552777781218
 20
0.1299174397137173
 30
0.0
 40
0.0002071442983998
  0
CIRCLE
  5
1B7D
330
2
100
AcDbEntity
  8
Profilo
  6
Continuous
370
     0
100
AcDbCircle
 10
0.2119590311536832
 20
0.128980229794577
 30
0.0
 40
0.0002071442983998
  0
CIRCLE
  5
1B7E
330
2
100
AcDbEntity
  8
Profilo
  6
Continuous
370
     0
100
AcDbCircle
 10
0.2114902097170279
 20
0.1302981810701511
 30
0.0
 40
0.0002071442983998
  0
CIRCLE
  5
1B7F
330
2
100
AcDbEntity
  8
Profilo
  6
Continuous
370
     0
100
AcDbCircle
 10
0.213394797874987
 20
0.1290388057609584
 30
0.0
 40
0.0002071442983998
  0
CIRCLE
  5
1B80
330
2
100
AcDbEntity
  8
Profilo
  6
Continuous
370
     0
100
AcDbCircle
 10
0.2137757152922703
 20
0.1283066106848474
 30
0.0
 40
0.0002071442983998
  0
CIRCLE
  5
1B81
330
2
100
AcDbEntity
  8
Profilo
  6
Continuous
370
     0
100
AcDbCircle
 10
0.2148598648645401
 20
0.1269007964990068
 30
0.0
 40
0.0002071442983998
  0
CIRCLE
  5
1B82
330
2
100
AcDbEntity
  8
Profilo
  6
Continuous
370
     0
100
AcDbCircle
 10
0.2123692509823012
 20
0.1251728162302439
 30
0.0
 40
0.0002071442983998
  0
CIRCLE
  5
1B83
330
2
100
AcDbEntity
  8
Profilo
  6
Continuous
370
     0
100
AcDbCircle
 10
0.2105232655039237
 20
0.1273694014585769
 30
0.0
 40
0.0002071442983998
  0
CIRCLE
  5
1B84
330
2
100
AcDbEntity
  8
Profilo
  6
Continuous
370
     0
100
AcDbCircle
 10
0.2094098145918639
 20
0.1281894594449544
 30
0.0
 40
0.0002071442983998
  0
CIRCLE
  5
1B85
330
2
100
AcDbEntity
  8
Profilo
  6
Continuous
370
     0
100
AcDbCircle
 10
0.2146547554860026
 20
0.1299467273504722
 30
0.0
 40
0.0002071442983998
  0
CIRCLE
  5
1B86
330
2
100
AcDbEntity
  8
Profilo
  6
Continuous
370
     0
100
AcDbCircle
 10
0.2150649742430759
 20
0.1288630792475556
 30
0.0
 40
0.0002071442983998
  0
CIRCLE
  5
1B87
330
2
100
AcDbEntity
  8
Profilo
  6
Continuous
370
     0
100
AcDbCircle
 10
0.2161491248868886
 20
0.1289509421578221
 30
0.0
 40
0.0002071442983998
  0
CIRCLE
  5
1B88
330
2
100
AcDbEntity
  8
Profilo
  6
Continuous
370
     0
100
AcDbCircle
 10
0.2155337967512758
 20
0.131293966262803
 30
0.0
 40
0.0002071442983998
  0
LWPOLYLINE
  5
1B89
330
2
100
AcDbEntity
  8
Profilo
  6
Continuous
370
     0
100
AcDbPolyline
 90
       28
 70
   128
 43
0.0
 10
0.2149748649884759
 20
0.1245875866123733
 10
0.2148660733839311
 20
0.1236270373498667
 10
0.2153012408736559
 20
0.123101454183328
 10
0.2158451988963859
 20
0.1227027356084585
 10
0.2163710264137469
 20
0.1227027356084585
 10
0.2170419086894744
 20
0.1226483653661163
 10
0.2185105964223859
 20
0.1218871750446078
 10
0.2190545555166572
 20
0.1216878161036079
 10
0.2196166451162971
 20
0.1217059395177231
 10
0.2200880768313849
 20
0.1216515685825095
 10
0.2208133549093856
 20
0.1216515685825095
 10
0.2214661045366602
 20
0.1217240629318366
 10
0.2220281952078431
 20
0.1220321637432637
 10
0.2224270984722048
 20
0.1223583879688044
 10
0.2226990774835706
 20
0.1230108364198856
 10
0.2230073207202978
 20
0.1235001727581957
 10
0.2233699597592984
 20
0.1241344977951617
 10
0.2235512798145689
 20
0.1247144518969159
 10
0.2235694113914792
 20
0.1253669003479971
 10
0.2234606197869327
 20
0.1261643368048628
 10
0.2230798491710242
 20
0.1269255264335016
 10
0.2227353417089339
 20
0.1276685926480252
 10
0.2223545710930233
 20
0.1283210410991065
 10
0.2219556678286598
 20
0.129082231420615
 10
0.2213373865208976
 20
0.1296018101712524
 10
0.2208267909854384
 20
0.1296482068596867
 10
0.2192517911981828
 20
0.1294738577728709
 10
0.2173454564253441
 20
0.1295090181801286
  0
LWPOLYLINE
  5
1B8A
330
2
100
AcDbEntity
  8
Profilo
  6
Continuous
370
     0
100
AcDbPolyline
 90
        2
 70
   128
 43
0.0
 10
0.2181367886920467
 20
0.124236295024398
 10
0.2219874915803683
 20
0.1234992671764297
  0
LWPOLYLINE
  5
1B8B
330
2
100
AcDbEntity
  8
Profilo
  6
Continuous
370
     0
100
AcDbPolyline
 90
        4
 70
   128
 43
0.0
 10
0.219693455452332
 20
0.1220661580494409
 10
0.2205537190003448
 20
0.1237039972496778
 10
0.221045298936027
 20
0.1251371063766666
 10
0.2211681931162901
 20
0.1263654861232788
  0
LWPOLYLINE
  5
1B8C
330
2
100
AcDbEntity
  8
Profilo
  6
Continuous
370
     0
100
AcDbPolyline
 90
       11
 70
   128
 43
0.0
 10
0.2158251096106507
 20
0.1195512542481674
 10
0.2132688980169727
 20
0.1181754697634045
 10
0.2111059501575319
 20
0.1163410895265629
 10
0.2097950717577717
 20
0.1141136286022495
 10
0.2093362649607815
 20
0.1112310315821188
 10
0.2093362649607815
 20
0.109855246404488
 10
0.2116958452231139
 20
0.110313841463697
 10
0.2139898802796059
 20
0.1118206539990667
 10
0.2155629341450074
 20
0.1142446559599866
 10
0.2163494605419369
 20
0.1164066032054323
 10
0.2168082673389269
 20
0.1184375237860107
  0
LWPOLYLINE
  5
1B8D
330
2
100
AcDbEntity
  8
Profilo
  6
Continuous
370
     0
100
AcDbPolyline
 90
        3
 70
   128
 43
0.0
 10
0.2109093177546419
 20
0.1120827080216711
 10
0.2136621617512096
 20
0.1154239001010127
 10
0.2153663017421195
 20
0.1179134150479304
  0
LWPOLYLINE
  5
1B8E
330
2
100
AcDbEntity
  8
Profilo
  6
Continuous
370
     0
100
AcDbPolyline
 90
       18
 70
   128
 43
0.0
 10
0.2176272571986579
 20
0.1178742387631559
 10
0.2168364189132181
 20
0.1155705745536371
 10
0.2165652735622074
 20
0.1140347986449144
 10
0.2167420159863365
 20
0.1118310699215503
 10
0.2176675236366426
 20
0.1098652763980916
 10
0.2188244073958685
 20
0.1088823799827989
 10
0.2196920710189445
 20
0.1085932929241005
 10
0.2203283574615582
 20
0.1091136497683309
 10
0.2208489547781701
 20
0.111195077838119
 10
0.2207332667237094
 20
0.1143750375624024
 10
0.2194028498112519
 20
0.1170346404424571
 10
0.2189979405491004
 20
0.1192895210246125
 10
0.2192871617567929
 20
0.1205615051914735
 10
0.2195185378657123
 20
0.1190582512390788
 10
0.2200969802810959
 20
0.1179597195845852
 10
0.2205597335704774
 20
0.1180175375506214
 10
0.2206754226964791
 20
0.1192895210246125
 10
0.2206754226964791
 20
0.1213131318212341
  0
LWPOLYLINE
  5
1B8F
330
2
100
AcDbEntity
  8
Profilo
  6
Continuous
370
     0
100
AcDbPolyline
 90
       26
 70
   128
 43
0.0
 10
0.2158509862994282
 20
0.1145185746973252
 10
0.2159225750070566
 20
0.1128727875793882
 10
0.2161373422014852
 20
0.1114058899287653
 10
0.2165668765903407
 20
0.110404106556047
 10
0.2165310827722997
 20
0.1091518768204964
 10
0.2157793965202567
 20
0.1085078730752778
 10
0.2146339718404886
 20
0.1073271995423757
 10
0.2133453686739188
 20
0.1055383000191417
 10
0.2125936824218779
 20
0.1039282906560932
 10
0.2125936824218779
 20
0.1034631770710583
 10
0.2147055605481174
 20
0.1034273993161698
 10
0.2161731370910709
 20
0.1037494011887792
 10
0.2166026714799264
 20
0.1044291826888881
 10
0.2173543566604263
 20
0.1058245241368625
 10
0.2166384663695121
 20
0.1038567351463162
 10
0.2170680007583694
 20
0.1036062887834839
 10
0.2177480972312389
 20
0.1039998468587417
 10
0.2179986582437103
 20
0.1051089641889953
 10
0.2180344531332961
 20
0.105860301891751
 10
0.2192156727026516
 20
0.1051447426367553
 10
0.2196810019810926
 20
0.104894296273923
 10
0.2208980164400339
 20
0.104786962316386
 10
0.2208980164400339
 20
0.1061465260094736
 10
0.2207190441351912
 20
0.1071483093821901
 10
0.2201821261491197
 20
0.1079712032875943
 10
0.2197883855783071
 20
0.1084005391177407
  0
LWPOLYLINE
  5
1B90
330
2
100
AcDbEntity
  8
Profilo
  6
Continuous
370
     0
100
AcDbPolyline
 90
        9
 70
   128
 43
0.0
 10
0.2158867801174709
 20
0.1113701121738768
 10
0.2152424785341869
 20
0.1113701121738768
 10
0.2143476148668886
 20
0.1109765540986189
 10
0.2140612589648314
 20
0.110368328108287
 10
0.2140612589648314
 20
0.1095454348957543
 10
0.2145265882432744
 20
0.1091876545753849
 10
0.2152066847161441
 20
0.1092592107780335
 10
0.2159225750070566
 20
0.1095812126506428
 10
0.2163879042854997
 20
0.1106903299808981
  0
LWPOLYLINE
  5
1B91
330
2
100
AcDbEntity
  8
Profilo
  6
Continuous
370
     0
100
AcDbPolyline
 90
       17
 70
   128
 43
0.0
 10
0.2126556626045866
 20
0.1399673159308272
 10
0.2147279418640504
 20
0.1406745960760145
 10
0.2162947872100609
 20
0.1416849966793543
 10
0.218063806978688
 20
0.1427964372044514
 10
0.2191757620168999
 20
0.1436047579642712
 10
0.2194284789736264
 20
0.1417355166402339
 10
0.2197317384644628
 20
0.1403714763107353
 10
0.220995324319637
 20
0.1393610757073973
 10
0.2227643430167212
 20
0.1386032756013287
 10
0.2242301022229669
 20
0.138148595260541
 10
0.2249377094874921
 20
0.1362288339756241
 10
0.2249882530931448
 20
0.134309073383577
 10
0.2251398828385642
 20
0.1327429525176904
 10
0.2245333627853464
 20
0.131277871573563
 10
0.2239773852662403
 20
0.1304190315457334
 10
0.2227643430167212
 20
0.129661230746795
 10
0.2220061921465415
 20
0.129661230746795
  0
LWPOLYLINE
  5
1B92
330
2
100
AcDbEntity
  8
Profilo
  6
Continuous
370
     0
100
AcDbPolyline
 90
       16
 70
   128
 43
0.0
 10
0.2238762980549329
 20
0.1254175491827927
 10
0.2252409700498714
 20
0.1246597483838543
 10
0.2263023814824306
 20
0.1244576685403342
 10
0.2274143365206427
 20
0.1240535081604244
 10
0.2283241171362396
 20
0.1235483078587554
 10
0.2285768340929661
 20
0.1235483078587554
 10
0.2285768340929661
 20
0.1251144287246437
 10
0.2286779213042736
 20
0.1261753492888613
 10
0.2285262915588544
 20
0.1271352299313198
 10
0.2284252043475472
 20
0.1277919901156292
 10
0.2280208576454015
 20
0.1284992702608165
 10
0.2274648801262954
 20
0.1295601908250359
 10
0.2271110759582614
 20
0.1303685115848538
 10
0.2262518378767762
 20
0.1313789114953221
 10
0.2258980337087422
 20
0.1319851524116218
 10
0.2255442306122508
 20
0.1323893120986601
  0
LWPOLYLINE
  5
1B93
330
2
100
AcDbEntity
  8
Profilo
  6
Continuous
370
     0
100
AcDbPolyline
 90
        5
 70
   128
 43
0.0
 10
0.2240279278003503
 20
0.129964351204944
 10
0.2248871658818377
 20
0.1282466704564169
 10
0.2257464039633229
 20
0.1270847099704402
 10
0.2270605323526087
 20
0.1256196290263127
 10
0.2276165098717147
 20
0.1250133888028828
  0
LWPOLYLINE
  5
1B94
330
2
100
AcDbEntity
  8
Profilo
  6
Continuous
370
     0
100
AcDbPolyline
 90
        2
 70
   128
 43
0.0
 10
0.2240279278003503
 20
0.1290549905233669
 10
0.2233708641414799
 20
0.1283477103781778
  0
LWPOLYLINE
  5
1B95
330
2
100
AcDbEntity
  8
Profilo
  6
Continuous
370
     0
100
AcDbPolyline
 90
        2
 70
   128
 43
0.0
 10
0.2245333627853464
 20
0.1278930300373884
 10
0.2240279278003503
 20
0.1273373097748398
  0
LWPOLYLINE
  5
1B96
330
2
100
AcDbEntity
  8
Profilo
  6
Continuous
370
     0
100
AcDbPolyline
 90
        2
 70
   128
 43
0.0
 10
0.2251904264442168
 20
0.1270341900095606
 10
0.2246344489251109
 20
0.1261753492888613
  0
LWPOLYLINE
  5
1B97
330
2
100
AcDbEntity
  8
Profilo
  6
Continuous
370
     0
100
AcDbPolyline
 90
        2
 70
   128
 43
0.0
 10
0.2259991209200494
 20
0.1260237894062208
 10
0.2255947742179054
 20
0.1253670292219131
  0
LWPOLYLINE
  5
1B98
330
2
100
AcDbEntity
  8
Profilo
  6
Continuous
370
     0
100
AcDbPolyline
 90
        2
 70
   128
 43
0.0
 10
0.2249377094874921
 20
0.1294086309423954
 10
0.2258474911746322
 20
0.1294086309423954
  0
LWPOLYLINE
  5
1B99
330
2
100
AcDbEntity
  8
Profilo
  6
Continuous
370
     0
100
AcDbPolyline
 90
        2
 70
   128
 43
0.0
 10
0.2258474911746322
 20
0.1280445899200271
 10
0.2267572717902291
 20
0.1280445899200271
  0
LWPOLYLINE
  5
1B9A
330
2
100
AcDbEntity
  8
Profilo
  6
Continuous
370
     0
100
AcDbPolyline
 90
        2
 70
   128
 43
0.0
 10
0.2265550984391553
 20
0.1267815895122895
 10
0.2277681396171336
 20
0.1267310695514099
  0
LWPOLYLINE
  5
1B9B
330
2
100
AcDbEntity
  8
Profilo
  6
Continuous
370
     0
100
AcDbPolyline
 90
        7
 70
   128
 43
0.0
 10
0.2228148866223739
 20
0.1223863473727786
 10
0.223926841660586
 20
0.1210223070432801
 10
0.2249882530931448
 20
0.1207191865851311
 10
0.2259991209200494
 20
0.1202645062443417
 10
0.2264034686937382
 20
0.1212749068476797
 10
0.2264034686937382
 20
0.1225379072554173
 10
0.2264034686937382
 20
0.1239019482777857
  0
LWPOLYLINE
  5
1B9C
330
2
100
AcDbEntity
  8
Profilo
  6
Continuous
370
     0
100
AcDbPolyline
 90
        2
 70
   128
 43
0.0
 10
0.2252409700498714
 20
0.1216790672275896
 10
0.2240784714060049
 20
0.1240029881995448
  0
LWPOLYLINE
  5
1B9D
330
2
100
AcDbEntity
  8
Profilo
  6
Continuous
370
     0
100
AcDbPolyline
 90
       49
 70
   128
 43
0.0
 10
0.2286779213042736
 20
0.1234472679369962
 10
0.2285768340929661
 20
0.1217801071493487
 10
0.2289306382609983
 20
0.1209717870824005
 10
0.2292338988233796
 20
0.1201634663225826
 10
0.2296887891311781
 20
0.1193551462556344
 10
0.2300931369048649
 20
0.1192035856801241
 10
0.2305985708183182
 20
0.1194561861773935
 10
0.2313567216884961
 20
0.1205676267024907
 10
0.2315083514339151
 20
0.1213759467694389
 10
0.2315588950395682
 20
0.1224873872945378
 10
0.2315588950395682
 20
0.1229420676353272
 10
0.2319126992076022
 20
0.1221842675292586
 10
0.2319126992076022
 20
0.1213759467694389
 10
0.2322538505974223
 20
0.1209343111018755
 10
0.2322892908063179
 20
0.120402957016799
 10
0.2324664907792528
 20
0.1188088947615715
 10
0.2325019299166056
 20
0.1178878806907666
 10
0.2325373701255011
 20
0.1172148325063422
 10
0.2318640104426569
 20
0.1163646658316471
 10
0.2318994506515524
 20
0.1149122976757657
 10
0.2323601701525662
 20
0.1141329783971785
 10
0.2326082505432923
 20
0.1146289087842001
 10
0.233068970044306
 20
0.115549922855005
 10
0.2339904101178767
 20
0.1140621310010705
 10
0.2346992100096146
 20
0.1128931524296246
 10
0.2348055306363015
 20
0.1128223050335166
 10
0.2355497707369369
 20
0.1126451872361138
 10
0.2358687304739111
 20
0.1133890828166462
 10
0.235372570764002
 20
0.1144163672887442
 10
0.2347346502185101
 20
0.1154436517608421
 10
0.2348055306363015
 20
0.1159041591426786
 10
0.2354788903191456
 20
0.1158687354446255
 10
0.2362585706286766
 20
0.1161167006381363
 10
0.2361876902108857
 20
0.1170377147089412
 10
0.2350536099554846
 20
0.1176399154972558
 10
0.2346637708722619
 20
0.1180649991810374
 10
0.2354788903191456
 20
0.1183483880726031
 10
0.2356560902920806
 20
0.1191985547473
 10
0.2347346502185101
 20
0.1200841444271785
 10
0.2336714503809021
 20
0.1201549918232883
 10
0.2332816102261366
 20
0.1208634643986373
 10
0.2333170504350321
 20
0.1216782073752776
 10
0.2339195307716284
 20
0.1217844777765706
 10
0.2352662501373151
 20
0.1216073599791696
 10
0.2355852109458324
 20
0.122386679257755
 10
0.2348409708451969
 20
0.1235556585220707
 10
0.2341676100908117
 20
0.1241578600032569
 10
0.2339549699089809
 20
0.12426413040455
 10
0.2337423307986934
 20
0.1244058251967677
  0
LWPOLYLINE
  5
1B9E
330
2
100
AcDbEntity
  8
Profilo
  6
Continuous
370
     0
100
AcDbPolyline
 90
        2
 70
   128
 43
0.0
 10
0.2268776928495471
 20
0.131294128394503
 10
0.2268209889439317
 20
0.1334478838318263
  0
LWPOLYLINE
  5
1B9F
330
2
100
AcDbEntity
  8
Profilo
  6
Continuous
370
     0
100
AcDbPolyline
 90
        8
 70
   128
 43
0.0
 10
0.2252899802776784
 20
0.1350915389871816
 10
0.2263673566274622
 20
0.1340146616149558
 10
0.2275581407884784
 20
0.1337312727233901
 10
0.2290891483831892
 20
0.1337312727233901
 10
0.2307902687662886
 20
0.1341846948113212
 10
0.2309036765775214
 20
0.1363951277498079
 10
0.2303366364498209
 20
0.1382654942955637
 10
0.2278983642221726
 20
0.1395124048641549
  0
LWPOLYLINE
  5
1BA0
330
2
100
AcDbEntity
  8
Profilo
  6
Continuous
370
     0
100
AcDbPolyline
 90
       12
 70
   128
 43
0.0
 10
0.2248363490327514
 20
0.1382088161015287
 10
0.2267075800611564
 20
0.1382654942955637
 10
0.2276148446940938
 20
0.1390023052750604
 10
0.2277282525053246
 20
0.1409293493219814
 10
0.227784956410942
 20
0.1432531379556683
 10
0.2276715485997092
 20
0.1448967938038952
 10
0.2267075800611564
 20
0.1457469604785904
 10
0.2245528284331298
 20
0.1463137375688519
 10
0.2226248924275667
 20
0.1463137375688519
 10
0.2210371809272407
 20
0.1460870268713212
 10
0.2201299162943031
 20
0.1449534713050604
 10
0.2197329889549936
 20
0.1441033046303652
  0
ELLIPSE
  5
1BA1
330
2
100
AcDbEntity
  8
Profilo
  6
Continuous
370
     0
100
AcDbEllipse
 10
0.2247796445913639
 20
0.1424596494750081
 30
0.0
 11
-0.0007938562859346
 21
-0.0009068441758607
 31
0.0
210
0.0
220
0.0
230
1.0
 40
0.47261376997598
 41
0.0
 42
6.283185307179585
  0
ELLIPSE
  5
1BA2
330
2
100
AcDbEntity
  8
Profilo
  6
Continuous
370
     0
100
AcDbEllipse
 10
0.2261405404692283
 20
0.140164199591903
 30
0.0
 11
-0.000907264097166
 21
-0.0001983719469475
 31
0.0
210
0.0
220
0.0
230
1.0
 40
0.5895722280915816
 41
0.0
 42
6.283185307179585
  0
ELLIPSE
  5
1BA3
330
2
100
AcDbEntity
  8
Profilo
  6
Continuous
370
     0
100
AcDbEllipse
 10
0.2237306201943887
 20
0.1393140329172078
 30
0.0
 11
-0.0001984642054265
 21
-0.0007084722289132
 31
0.0
210
0.0
220
0.0
230
1.0
 40
0.5022053373111369
 41
0.0
 42
6.283185307179585
  0
ELLIPSE
  5
1BA4
330
2
100
AcDbEntity
  8
Profilo
  6
Continuous
370
     0
100
AcDbEllipse
 10
0.2222563165052934
 20
0.1409293496684172
 30
0.0
 11
-0.0009356160499738
 21
0.0002267110439652
 31
0.0
210
0.0
220
0.0
230
1.0
 40
0.7000164834109969
 41
0.0
 42
6.283185307179585
  0
ELLIPSE
  5
1BA5
330
2
100
AcDbEntity
  8
Profilo
  6
Continuous
370
     0
100
AcDbEllipse
 10
0.2301665247329729
 20
0.1327960891040765
 30
0.0
 11
-0.0008505596557788
 21
-0.0004817608385128
 31
0.0
210
0.0
220
0.0
230
1.0
 40
0.8529015937309868
 41
0.0
 42
6.283185307179585
  0
ELLIPSE
  5
1BA6
330
2
100
AcDbEntity
  8
Profilo
  6
Continuous
370
     0
100
AcDbEllipse
 10
0.2325197405664264
 20
0.1323143279191297
 30
0.0
 11
-0.0009356160499739
 21
-0.0002267110439651
 31
0.0
210
0.0
220
0.0
230
1.0
 40
0.7171375260333308
 41
0.0
 42
6.283185307179585
  0
ELLIPSE
  5
1BA7
330
2
100
AcDbEntity
  8
Profilo
  6
Continuous
370
     0
100
AcDbEllipse
 10
0.2307335648606734
 20
0.130699011514356
 30
0.0
 11
-0.0011340802554003
 21
-0.000481761184948
 31
0.0
210
0.0
220
0.0
230
1.0
 40
0.6396307791500458
 41
0.0
 42
6.283185307179585
  0
ELLIPSE
  5
1BA8
330
2
100
AcDbEntity
  8
Profilo
  6
Continuous
370
     0
100
AcDbEllipse
 10
0.2330504618200764
 20
0.1303682864019362
 30
0.0
 11
-0.0010417041518576
 21
-0.000317846728119
 31
0.0
210
0.0
220
0.0
230
0.9999999999999998
 40
0.6082005536180322
 41
0.0
 42
6.283185307179585
  0
ELLIPSE
  5
1BA9
330
2
100
AcDbEntity
  8
Profilo
  6
Continuous
370
     0
100
AcDbEllipse
 10
0.2312302217664741
 20
0.1290311377629458
 30
0.0
 11
-0.0008004671696735
 21
-0.0001644036234141
 31
0.0
210
0.0
220
0.0
230
1.0
 40
0.9212775648149024
 41
0.0
 42
6.283185307179585
  0
ELLIPSE
  5
1BAA
330
2
100
AcDbEntity
  8
Profilo
  6
Continuous
370
     0
100
AcDbEllipse
 10
0.2315811108021291
 20
0.1278693532660804
 30
0.0
 11
-0.0005372999911037
 21
-0.0001424832788663
 31
0.0
210
0.0
220
0.0
230
1.0
 40
0.7364690224982421
 41
0.0
 42
6.283185307179585
  0
ELLIPSE
  5
1BAB
330
2
100
AcDbEntity
  8
Profilo
  6
Continuous
370
     0
100
AcDbEllipse
 10
0.2319320009093269
 20
0.1267733301492915
 30
0.0
 11
-0.0006469525803459
 21
-0.0005151308683547
 31
0.0
210
0.0
220
0.0
230
1.0
 40
0.8469159765426439
 41
0.0
 42
6.283185307179585
  0
ELLIPSE
  5
1BAC
330
2
100
AcDbEntity
  8
Profilo
  6
Continuous
370
     0
100
AcDbEllipse
 10
0.2335439003468669
 20
0.1286694499992973
 30
0.0
 11
-0.0008552937321803
 21
-0.0008110572519259
 31
0.0
210
0.0
220
0.0
230
1.0
 40
0.7912861384989847
 41
0.0
 42
6.283185307179585
  0
ELLIPSE
  5
1BAD
330
2
100
AcDbEntity
  8
Profilo
  6
Continuous
370
     0
100
AcDbEllipse
 10
0.2340044435790787
 20
0.1269048529094481
 30
0.0
 11
-0.0007675713393237
 21
-0.0006466536285119
 31
0.0
210
0.0
220
0.0
230
1.0
 40
0.8171242067704548
 41
0.0
 42
6.283185307179585
  0
ELLIPSE
  5
1BAE
330
2
100
AcDbEntity
  8
Profilo
  6
Continuous
370
     0
100
AcDbEllipse
 10
0.2329188779629061
 20
0.1251402554731666
 30
0.0
 11
-0.0011513567410998
 21
-0.0003945682804715
 31
0.0
210
0.0
220
0.0
230
1.0
 40
0.7582902615950708
 41
0.0
 42
6.283185307179585
  0
LWPOLYLINE
  5
1BAF
330
2
100
AcDbEntity
  8
Profilo
  6
Continuous
370
     0
100
AcDbPolyline
 90
        4
 70
   128
 43
0.0
 10
0.2306101970584611
 20
0.1262531891342289
 10
0.2294619317185433
 20
0.1291666694719145
 10
0.2289319626879878
 20
0.131285563822042
 10
0.2288877990485829
 20
0.1333161719180169
  0
LWPOLYLINE
  5
1BB0
330
2
100
AcDbEntity
  8
Profilo
  6
Continuous
370
     0
100
AcDbPolyline
 90
        9
 70
   128
 43
0.0
 10
0.2311843307999647
 20
0.1344197629130268
 10
0.2329508935207873
 20
0.1335810334519558
 10
0.2344083075511603
 20
0.132212580923007
 10
0.2351149322108719
 20
0.1307116965877815
 10
0.2356007376020242
 20
0.1280189343105218
 10
0.2356007376020242
 20
0.1263856195547626
 10
0.2372348083330962
 20
0.1277540727765829
 10
0.2376322843023562
 20
0.1298729678195802
 10
0.2375439570235494
 20
0.1319035752226854
  0
LWPOLYLINE
  5
1BB1
330
2
100
AcDbEntity
  8
Profilo
  6
Continuous
370
     0
100
AcDbPolyline
 90
       19
 70
   128
 43
0.0
 10
0.2347174562416119
 20
0.1360089341952766
 10
0.2350707685714686
 20
0.1348611990338839
 10
0.2360423782822304
 20
0.1336251769254688
 10
0.2373673003228489
 20
0.1323450113435407
 10
0.2383830736730139
 20
0.1317711441092801
 10
0.2398846524143328
 20
0.1315945695223637
 10
0.2413862311556501
 20
0.1317711441092801
 10
0.2414303947950533
 20
0.1332278842781229
 10
0.2413420664447039
 20
0.135346779321122
 10
0.2404587850842916
 20
0.1371566686637977
 10
0.2392663550334261
 20
0.1384809777192353
 10
0.2415628867848061
 20
0.1362737957292155
 10
0.2432852858662273
 20
0.136097221142299
 10
0.245625981257011
 20
0.136097221142299
 10
0.2469509032976291
 20
0.1362737957292155
 10
0.2462884422773208
 20
0.1378188235379523
 10
0.2454493256278549
 20
0.1394521382937115
 10
0.2443452239273403
 20
0.1408647349890448
 10
0.2439035832471341
 20
0.1412178841628777
  0
LWPOLYLINE
  5
1BB2
330
2
100
AcDbEntity
  8
Profilo
  6
Continuous
370
     0
100
AcDbPolyline
 90
        2
 70
   128
 43
0.0
 10
0.2357332295917787
 20
0.1450583809086567
 10
0.2356007376020242
 20
0.1379512539584859
  0
LWPOLYLINE
  5
1BB3
330
2
100
AcDbEntity
  8
Profilo
  6
Continuous
370
     0
100
AcDbPolyline
 90
       18
 70
   128
 43
0.0
 10
0.231405151140067
 20
0.1409088784625561
 10
0.2321117757997801
 20
0.1401142924749963
 10
0.2316259714801709
 20
0.1393197071803063
 10
0.2313168227897173
 20
0.1383485472987016
 10
0.2326417448303359
 20
0.1376422489510358
 10
0.2341433235716531
 20
0.1375981047846531
 10
0.2354682456122714
 20
0.1375981047846531
 10
0.2376764490133021
 20
0.1380395415983799
 10
0.2390896994042702
 20
0.1386575523061535
 10
0.2399288160537361
 20
0.1408205908226621
 10
0.2395313400844761
 20
0.1430277735055534
 10
0.2386480587240639
 20
0.1462502588506909
 10
0.2383389100336104
 20
0.147574568599
 10
0.2372348083330962
 20
0.148236722780283
 10
0.2340991588607069
 20
0.1482808669466658
 10
0.2327742368200887
 20
0.1488988776544375
 10
0.2317142987589774
 20
0.1494286014151886
 10
0.2306543617694073
 20
0.1502673308762579
  0
LWPOLYLINE
  5
1BB4
330
2
100
AcDbEntity
  8
Profilo
  6
Continuous
370
     0
100
AcDbPolyline
 90
       25
 70
   128
 43
0.0
 10
0.2293736033681939
 20
0.1501790432363657
 10
0.2290644546777406
 20
0.1485898719541177
 10
0.2299477360381529
 20
0.1479277177728329
 10
0.230786853759162
 20
0.1476628555460224
 10
0.231405151140067
 20
0.1470889883117619
 10
0.2310076740992641
 20
0.1462502588506909
 10
0.2304335414293051
 20
0.1458529662033468
 10
0.2296827520586456
 20
0.145985397316752
 10
0.2291086193886866
 20
0.1463385464905849
 10
0.2280928449669789
 20
0.1460295407902632
 10
0.2280486813275757
 20
0.1449259497952533
 10
0.2281811733173285
 20
0.1437340718532192
 10
0.2303893767183589
 20
0.144352082560991
 10
0.2312726580787714
 20
0.1444403695080152
 10
0.2316259714801709
 20
0.1437340718532192
 10
0.2310960024496134
 20
0.1429394858656594
 10
0.2323325961398823
 20
0.1427187678052317
 10
0.2327742368200887
 20
0.1419683259840548
 10
0.2318909554596764
 20
0.1407764473491508
 10
0.2311843307999647
 20
0.1412620276363889
 10
0.2299477360381529
 20
0.1414827456968166
 10
0.2281370096779252
 20
0.1413944587497942
 10
0.2284461583683766
 20
0.1397611433011634
 10
0.2300360643885024
 20
0.1394521382937115
 10
0.2313168227897173
 20
0.1398052874675444
  0
LWPOLYLINE
  5
1BB5
330
2
100
AcDbEntity
  8
Profilo
  6
Continuous
370
     0
100
AcDbPolyline
 90
        5
 70
   128
 43
0.0
 10
0.2285786503581311
 20
0.1489430211279505
 10
0.2275628759364234
 20
0.148325010420177
 10
0.2273420555963195
 20
0.1477952866594276
 10
0.2271212352562172
 20
0.1466034080245238
 10
0.2275628759364234
 20
0.1456322481429191
  0
LWPOLYLINE
  5
1BB6
330
2
100
AcDbEntity
  8
Profilo
  6
Continuous
370
     0
100
AcDbPolyline
 90
       14
 70
   128
 43
0.0
 10
0.2386480587240639
 20
0.1480601481933665
 10
0.2395313400844761
 20
0.149163739881248
 10
0.2405912770740444
 20
0.1500466128158302
 10
0.2423136761554656
 20
0.1504439054631761
 10
0.2429319735363706
 20
0.1501790432363657
 10
0.2453168336381022
 20
0.1489871652943315
 10
0.2463326069882672
 20
0.1476187120725112
 10
0.2469067396582258
 20
0.1461178284301572
 10
0.2468184113078764
 20
0.144352082560991
 10
0.2463326069882672
 20
0.1429836293391706
 10
0.2450076849476486
 20
0.1418358948706495
 10
0.2434177778559801
 20
0.1412620276363889
 10
0.2417837071249101
 20
0.1412620276363889
 10
0.2400613091150316
 20
0.1414827456968166
  0
LWPOLYLINE
  5
1BB7
330
2
100
AcDbEntity
  8
Profilo
  6
Continuous
370
     0
100
AcDbPolyline
 90
        4
 70
   128
 43
0.0
 10
0.2448310282469499
 20
0.1427187678052317
 10
0.2448310282469499
 20
0.1442637949210987
 10
0.2443452239273403
 20
0.1452790989690862
 10
0.2435944345566809
 20
0.1466475521909065
  0
LWPOLYLINE
  5
1BB8
330
2
100
AcDbEntity
  8
Profilo
  6
Continuous
370
     0
100
AcDbPolyline
 90
       36
 70
   128
 43
0.0
 10
0.2417837071249101
 20
0.1333603153915281
 10
0.242755316835672
 20
0.1315945695223637
 10
0.243373614216577
 20
0.1306675531142702
 10
0.2419976781629853
 20
0.129827638151744
 10
0.2410790658910507
 20
0.1289800801345451
 10
0.2422096657752069
 20
0.1287681906302454
 10
0.2408670782788271
 20
0.1275674834392135
 10
0.2403017783367491
 20
0.1260842569091154
 10
0.2399484660068923
 20
0.1231178045417889
 10
0.2400191278299395
 20
0.121422688507391
 10
0.2422096657752069
 20
0.1221289868550568
 10
0.2435522532715866
 20
0.1235415835503884
 10
0.2436229161661767
 20
0.1245304005442507
 10
0.2451068294517327
 20
0.1228352852027226
 10
0.2460254417236674
 20
0.1226940255331894
 10
0.2472973673970019
 20
0.1226940255331894
 10
0.2476506797268569
 20
0.124106622228521
 10
0.2476506797268569
 20
0.1258017375700491
 10
0.2476506797268569
 20
0.1268611850915478
 10
0.2482159796689369
 20
0.1258017375700491
 10
0.2484986301757464
 20
0.1262961464134151
 10
0.2489226043286484
 20
0.1276381132739801
 10
0.2501945300019829
 20
0.1265786657524814
 10
0.2508304928386509
 20
0.125307328726683
 10
0.2521024174404409
 20
0.1237534730546881
 10
0.2523144050526641
 20
0.1244597707094823
 10
0.253091692606964
 20
0.1240359923937544
 10
0.2535863307259987
 20
0.1250954392223833
 10
0.2545049429979334
 20
0.1238241028894547
 10
0.2553528934468214
 20
0.1237534730546881
 10
0.2552115687291878
 20
0.1252366988919165
 10
0.2555648810590446
 20
0.1260842569091154
 10
0.2555648810590446
 20
0.1271437044306141
 10
0.2536569925490439
 20
0.1281325221173462
 10
0.2521024174404409
 20
0.1281325221173462
 10
0.2510424804508724
 20
0.1281325221173462
  0
LWPOLYLINE
  5
1BB9
330
2
100
AcDbEntity
  8
Profilo
  6
Continuous
370
     0
100
AcDbPolyline
 90
       17
 70
   128
 43
0.0
 10
0.2448178579135287
 20
0.1308306056401762
 10
0.2463525366141136
 20
0.1299297035218694
 10
0.2474974555256471
 20
0.1293940321606013
 10
0.2494706127834286
 20
0.1286635713393953
 10
0.2511758114586926
 20
0.1286879195022341
 10
0.2528322892227279
 20
0.1288340119436246
 10
0.2540746478136389
 20
0.1295157757462815
 10
0.2544644076026886
 20
0.1301488418375176
 10
0.2544887680583039
 20
0.1309036522073055
 10
0.2538310486151959
 20
0.1316097641728029
 10
0.2530271696530242
 20
0.131999343785552
 10
0.2519796904208664
 20
0.1324863181282692
 10
0.2511514510030774
 20
0.1327785023181787
 10
0.2500796123868472
 20
0.1327054564439192
 10
0.2488859736356239
 20
0.1325350151468183
 10
0.2484718544625015
 20
0.1324863181282692
 10
0.2482038948084432
 20
0.1324619692725588
  0
LWPOLYLINE
  5
1BBA
330
2
100
AcDbEntity
  8
Profilo
  6
Continuous
370
     0
100
AcDbPolyline
 90
        2
 70
   128
 43
0.0
 10
0.2435511399385448
 20
0.1335820097065157
 10
0.2421626207570254
 20
0.1355055575288078
  0
LWPOLYLINE
  5
1BBB
330
2
100
AcDbEntity
  8
Profilo
  6
Continuous
370
     0
100
AcDbPolyline
 90
        2
 70
   128
 43
0.0
 10
0.2443793782847912
 20
0.1347507471590199
 10
0.2432831802844881
 20
0.1357490440072966
  0
LWPOLYLINE
  5
1BBC
330
2
100
AcDbEntity
  8
Profilo
  6
Continuous
370
     0
100
AcDbPolyline
 90
        2
 70
   128
 43
0.0
 10
0.2432831802844881
 20
0.1357490440072966
 10
0.2445498982594718
 20
0.1347507471590199
  0
LWPOLYLINE
  5
1BBD
330
2
100
AcDbEntity
  8
Profilo
  6
Continuous
370
     0
100
AcDbPolyline
 90
        9
 70
   128
 43
0.0
 10
0.2480820946734519
 20
0.1326567587324985
 10
0.2480333748337624
 20
0.1347750960147303
 10
0.248496213846574
 20
0.1363334130799836
 10
0.2491782937452976
 20
0.1375265000810697
 10
0.2497385724374854
 20
0.1383056586136964
 10
0.2503719324965209
 20
0.1387195863892843
 10
0.251005291484012
 20
0.1384760992179257
 10
0.2510296519396271
 20
0.1379160790009473
 10
0.2511027311633894
 20
0.1374047564953895
  0
LWPOLYLINE
  5
1BBE
330
2
100
AcDbEntity
  8
Profilo
  6
Continuous
370
     0
100
AcDbPolyline
 90
       10
 70
   128
 43
0.0
 10
0.2498360131884056
 20
0.132802851173889
 10
0.2506155316949621
 20
0.1356759981330371
 10
0.2513706908174461
 20
0.1374047564953895
 10
0.2522963699146126
 20
0.1387439352449946
 10
0.2530028091974087
 20
0.139450047210492
 10
0.2535143691214514
 20
0.1386708886778654
 10
0.2535143691214514
 20
0.1377212895410094
 10
0.2533682085308428
 20
0.1362116694943052
 10
0.2527835693830382
 20
0.1346777012847604
 10
0.2514924909524392
 20
0.1328758970481485
  0
ELLIPSE
  5
1BBF
330
2
100
AcDbEntity
  8
Profilo
  6
Continuous
370
     0
100
AcDbEllipse
 10
0.2457191770908504
 20
0.1333750454722851
 30
0.0
 11
-0.0010474786963862
 21
-0.0019600707594223
 31
0.0
210
0.0
220
0.0
230
1.0
 40
0.7552841893947306
 41
0.0
 42
6.283185307179585
  0
LWPOLYLINE
  5
1BC0
330
2
100
AcDbEntity
  8
Profilo
  6
Continuous
370
     0
100
AcDbPolyline
 90
        2
 70
   128
 43
0.0
 10
0.2411748853976074
 20
0.1237668925708619
 10
0.2427442627994201
 20
0.1276562879605128
  0
LWPOLYLINE
  5
1BC1
330
2
100
AcDbEntity
  8
Profilo
  6
Continuous
370
     0
100
AcDbPolyline
 90
        4
 70
   128
 43
0.0
 10
0.2434967034176434
 20
0.1249487529909605
 10
0.2430452388324019
 20
0.1258942413270376
 10
0.2430452388324019
 20
0.1268612183493318
 10
0.2433677132299904
 20
0.1285802883032461
  0
LWPOLYLINE
  5
1BC2
330
2
100
AcDbEntity
  8
Profilo
  6
Continuous
370
     0
100
AcDbPolyline
 90
        4
 70
   128
 43
0.0
 10
0.2446146162342146
 20
0.1276777766467281
 10
0.2454100535816549
 20
0.1258727533336938
 10
0.2459260132607237
 20
0.1249487529909605
 10
0.2461839936360294
 20
0.1242826134184622
  0
LWPOLYLINE
  5
1BC3
330
2
100
AcDbEntity
  8
Profilo
  6
Continuous
370
     0
100
AcDbPolyline
 90
        4
 70
   128
 43
0.0
 10
0.2465064680336178
 20
0.1308795444705351
 10
0.2483123263745852
 20
0.1304068003024974
 10
0.2498172086825723
 20
0.1303638236229365
 10
0.2526549874532198
 20
0.1303638236229365
  0
LWPOLYLINE
  5
1BC4
330
2
100
AcDbEntity
  8
Profilo
  6
Continuous
370
     0
100
AcDbPolyline
 90
        4
 70
   128
 43
0.0
 10
0.2509781182283626
 20
0.1269901483880145
 10
0.2523110136194782
 20
0.1263025208221706
 10
0.2530419569446356
 20
0.1258082879679159
 10
0.2534719231652687
 20
0.12550745051812
  0
LWPOLYLINE
  5
1BC5
330
2
100
AcDbEntity
  8
Profilo
  6
Continuous
370
     0
100
AcDbPolyline
 90
        4
 70
   128
 43
0.0
 10
0.2447866020795419
 20
0.1295902420051012
 10
0.2458400198022876
 20
0.1288166603872658
 10
0.2472159129941649
 20
0.1280860554489913
 10
0.2475813841209724
 20
0.1276133112809519
  0
LWPOLYLINE
  5
1BC6
330
2
100
AcDbEntity
  8
Profilo
  6
Continuous
370
     0
100
AcDbPolyline
 90
        3
 70
   128
 43
0.0
 10
0.2371916144399901
 20
0.1374112334489834
 10
0.2381782011054523
 20
0.135628612025505
 10
0.2396580821751866
 20
0.133808062869925
  0
LWPOLYLINE
  5
1BC7
330
2
100
AcDbEntity
  8
Profilo
  6
Continuous
370
     0
100
AcDbPolyline
 90
        4
 70
   128
 43
0.0
 10
0.2404739141980792
 20
0.1402368778983534
 10
0.2418209850298276
 20
0.1389473218423096
 10
0.2430162739570716
 20
0.1380370472645187
 10
0.2444392357410734
 20
0.1374491618739566
  0
ELLIPSE
  5
1BC8
330
2
100
AcDbEntity
  8
Profilo
  6
Continuous
370
     0
100
AcDbEllipse
 10
0.2371032989481552
 20
0.1641504255808024
 30
0.0
 11
-0.0037118180738021
 21
-0.0007333920099293
 31
0.0
210
0.0
220
0.0
230
1.0
 40
0.645775435071352
 41
0.0
 42
6.283185307179585
  0
ELLIPSE
  5
1BC9
330
2
100
AcDbEntity
  8
Profilo
  6
Continuous
370
     0
100
AcDbEllipse
 10
0.2340388910035045
 20
0.1682919340333133
 30
0.0
 11
-0.0033233719963112
 21
-0.0011647991764862
 31
0.0
210
0.0
220
0.0
230
0.9999999999999998
 40
0.7289330186125316
 41
0.0
 42
6.283185307179585
  0
ELLIPSE
  5
1BCA
330
2
100
AcDbEntity
  8
Profilo
  6
Continuous
370
     0
100
AcDbEllipse
 10
0.2397792608153151
 20
0.1700607032429802
 30
0.0
 11
-0.0008632135055354
 21
-0.0025884426529066
 31
0.0
210
0.0
220
0.0
230
1.0
 40
0.6212789288442066
 41
0.0
 42
6.283185307179585
  0
ELLIPSE
  5
1BCB
330
2
100
AcDbEntity
  8
Profilo
  6
Continuous
370
     0
100
AcDbEllipse
 10
0.2431457934869019
 20
0.1673428382668889
 30
0.0
 11
-0.0014674629594101
 21
-0.002717864629656
 31
0.0
210
0.0
220
0.0
230
1.0
 40
0.8135949290079771
 41
0.0
 42
6.283185307179585
  0
ELLIPSE
  5
1BCC
330
2
100
AcDbEntity
  8
Profilo
  6
Continuous
370
     0
100
AcDbEllipse
 10
0.2412035630994471
 20
0.1594049470951107
 30
0.0
 11
-0.0028917652435435
 21
0.0022864578095344
 31
0.0
210
0.0
220
0.0
230
1.0
 40
0.7631018228208287
 41
0.0
 42
6.283185307179585
  0
ELLIPSE
  5
1BCD
330
2
100
AcDbEntity
  8
Profilo
  6
Continuous
370
     0
100
AcDbEllipse
 10
0.2464691660189851
 20
0.1606560277049085
 30
0.0
 11
-0.0016832668715653
 21
-0.0014667840198585
 31
0.0
210
0.0
220
0.0
230
1.0
 40
0.8696540974000857
 41
0.0
 42
6.283185307179585
  0
ELLIPSE
  5
1BCE
330
2
100
AcDbEntity
  8
Profilo
  6
Continuous
370
     0
100
AcDbEllipse
 10
0.2478071474883366
 20
0.165487787623912
 30
0.0
 11
-0.0020717124132849
 21
-0.0010353768533015
 31
0.0
210
0.0
220
0.0
230
1.0
 40
0.9339157194920911
 41
0.0
 42
6.283185307179585
  0
ELLIPSE
  5
1BCF
330
2
100
AcDbEntity
  8
Profilo
  6
Continuous
370
     0
100
AcDbEllipse
 10
0.2520368936654589
 20
0.1684213560100632
 30
0.0
 11
-0.0014674629594101
 21
-0.0014667840198585
 31
0.0
210
0.0
220
0.0
230
1.0
 40
0.8773448174945382
 41
0.0
 42
6.283185307179585
  0
ELLIPSE
  5
1BD0
330
2
100
AcDbEntity
  8
Profilo
  6
Continuous
370
     0
100
AcDbEllipse
 10
0.2541517667540212
 20
0.1652720842138504
 30
0.0
 11
-0.0010790168819192
 21
0.0011647991764862
 31
0.0
210
0.0
220
0.0
230
1.0
 40
0.734241594401307
 41
0.0
 42
6.283185307179585
  0
ELLIPSE
  5
1BD1
330
2
100
AcDbEntity
  8
Profilo
  6
Continuous
370
     0
100
AcDbEllipse
 10
0.2565687645695209
 20
0.1661348982005291
 30
0.0
 11
-0.0002158033763838
 21
-0.0012510806097976
 31
0.0
210
0.0
220
0.0
230
1.0
 40
0.8663625113059541
 41
0.0
 42
6.283185307179585
  0
LWPOLYLINE
  5
1BD2
330
2
100
AcDbEntity
  8
Profilo
  6
Continuous
370
     0
100
AcDbPolyline
 90
       11
 70
   128
 43
0.0
 10
0.2419985000363671
 20
0.1642741414224091
 10
0.2417009186511998
 20
0.1638279757674028
 10
0.2417901931739041
 20
0.1630546214110979
 10
0.2418497098795549
 20
0.1624597338710907
 10
0.2425639049896469
 20
0.1619838232847877
 10
0.2439922973529167
 20
0.161478169152931
 10
0.2447957669857127
 20
0.1617458686845077
 10
0.2458075445525148
 20
0.1627274334026674
 10
0.2458670601866228
 20
0.1637982315289777
 10
0.2451826228935841
 20
0.1647203077702852
 10
0.2446767346459554
 20
0.1649880073018619
  0
LWPOLYLINE
  5
1BD3
330
2
100
AcDbEntity
  8
Profilo
  6
Continuous
370
     0
100
AcDbPolyline
 90
       26
 70
   128
 43
0.0
 10
0.2485155359076134
 20
0.1598719719634674
 10
0.2491999742721949
 20
0.1598422277250404
 10
0.2495273134744154
 20
0.1595745281934637
 10
0.2488726339984317
 20
0.1587714295987319
 10
0.2489321507040809
 20
0.1580278194808522
 10
0.2494082811346564
 20
0.1573436985326961
 10
0.2497058625198236
 20
0.1569867662858404
 10
0.2497058625198236
 20
0.1563026453376843
 10
0.2500927184276951
 20
0.1558267347513813
 10
0.2507771557207321
 20
0.1559159681595301
 10
0.2519972401499977
 20
0.1560349458061059
 10
0.2523245804237608
 20
0.156570344869261
 10
0.2525924039918734
 20
0.1574626761792719
 10
0.2534851481473754
 20
0.1571057439324162
 10
0.2543481344858224
 20
0.1571949766476934
 10
0.2557159203843421
 20
0.1576752183675976
 10
0.2557921017247124
 20
0.1582843838903494
 10
0.255258835556744
 20
0.1597311508809711
 10
0.2539637602712375
 20
0.1610256263176866
 10
0.2534304941032706
 20
0.1612540636485442
 10
0.2534304941032706
 20
0.162700830639166
 10
0.2528972279353021
 20
0.1635384327999056
 10
0.2513736107717689
 20
0.1625485390852597
 10
0.2505356213854016
 20
0.1616347918404384
 10
0.2498499925366926
 20
0.1612540636485442
 10
0.249240546099897
 20
0.1612540636485442
  0
LWPOLYLINE
  5
1BD4
330
2
100
AcDbEntity
  8
Profilo
  6
Continuous
370
     0
100
AcDbPolyline
 90
       37
 70
   128
 43
0.0
 10
0.2554234888342096
 20
0.1597701781985852
 10
0.2569204427964997
 20
0.1598751792610895
 10
0.2583123480534889
 20
0.159796428983864
 10
0.2602557624958154
 20
0.1590614229320661
 10
0.2610173712348361
 20
0.1583001667878574
 10
0.2613850433106983
 20
0.1592189241793886
 10
0.2622254393823524
 20
0.1597439281061761
 10
0.2629607846056197
 20
0.1599276794459077
 10
0.2643001649741881
 20
0.1598226790762731
 10
0.2646941005658036
 20
0.1594551757039384
 10
0.2646415756773829
 20
0.158562669097686
 10
0.2643001649741881
 20
0.1573289092115098
 10
0.2643789523068194
 20
0.1567514044070344
 10
0.2647466254542246
 20
0.1557013958605897
 10
0.2650355112689984
 20
0.1544938867596906
 10
0.2650355112689984
 20
0.1534963783980641
 10
0.2649304614921566
 20
0.1529451243788675
 10
0.2636436060120091
 20
0.1529451243788675
 10
0.2629082607887416
 20
0.1532338767811052
 10
0.2622254393823524
 20
0.1540476331101304
 10
0.2618315037907366
 20
0.1546513880070148
 10
0.2612012072727681
 20
0.1542051343574529
 10
0.2601769751631842
 20
0.1541001332949468
 10
0.2591264806093876
 20
0.154257634542271
 10
0.2587062836451044
 20
0.1548351393467464
 10
0.2585749714240522
 20
0.1557538967382777
 10
0.2591002192367202
 20
0.1564101518199785
 10
0.2595204162010034
 20
0.1568301553771314
 10
0.2599931391252519
 20
0.1571714079641855
 10
0.2600194015694623
 20
0.1575651607360595
 10
0.2597305157546886
 20
0.1580639145704379
 10
0.2588638572388244
 20
0.158562669097686
 10
0.2582072982766471
 20
0.1587989206222358
 10
0.2576032642028891
 20
0.1588514214999237
 10
0.2568153940911989
 20
0.1588514214999237
 10
0.2562113600174409
 20
0.1588514214999237
 10
0.2556598497605627
 20
0.1588251707146449
  0
LWPOLYLINE
  5
1BD5
330
2
100
AcDbEntity
  8
Profilo
  6
Continuous
370
     0
100
AcDbPolyline
 90
       10
 70
   128
 43
0.0
 10
0.247909325530286
 20
0.1580008869109837
 10
0.2488679095659154
 20
0.157538336253991
 10
0.2493967834796576
 20
0.156976667698054
 10
0.2492315108504131
 20
0.155952449177994
 10
0.2483390356521729
 20
0.1553247015608457
 10
0.2473143427791544
 20
0.1551925441312947
 10
0.2466532501190906
 20
0.1551925441312947
 10
0.2459260486216379
 20
0.1554898985210014
 10
0.2456616111289951
 20
0.1562167633442244
 10
0.2454632835452846
 20
0.156679314001217
  0
LWPOLYLINE
  5
1BD6
330
2
100
AcDbEntity
  8
Profilo
  6
Continuous
370
     0
100
AcDbPolyline
 90
       20
 70
   128
 43
0.0
 10
0.2479754343676752
 20
0.154994308333404
 10
0.2482398718603176
 20
0.154036167488814
 10
0.2486034720732726
 20
0.1533093026655909
 10
0.2484712543984942
 20
0.1528797915392031
 10
0.2475787792002542
 20
0.1527806736402586
 10
0.2474135065710097
 20
0.1527806736402586
 10
0.2471490690783669
 20
0.1519546902252178
 10
0.2472151789872992
 20
0.1513269426080694
 10
0.2469176876117332
 20
0.1509304710122881
 10
0.2462896488345929
 20
0.1507322352143974
 10
0.2461574311598145
 20
0.1506991956837926
 10
0.2451657921697189
 20
0.1498071339004121
 10
0.2444385906722659
 20
0.1503027233951397
 10
0.2433477878903154
 20
0.1509635105428946
 10
0.2425214226010071
 20
0.1517234148967224
 10
0.2417942211035544
 20
0.15221900439145
 10
0.2410009107687121
 20
0.1534744989328769
 10
0.2411000745605674
 20
0.1545647972070179
 10
0.2411992383524226
 20
0.1555229373587363
 10
0.2412322933068887
 20
0.1556881343188921
  0
LWPOLYLINE
  5
1BD7
330
2
100
AcDbEntity
  8
Profilo
  6
Continuous
370
     0
100
AcDbPolyline
 90
        4
 70
   128
 43
0.0
 10
0.2382573774081451
 20
0.1572079430265494
 10
0.2371996295806606
 20
0.156976667698054
 10
0.2357121716312887
 20
0.1568445109613727
 10
0.2348527513875146
 20
0.156811471430768
  0
LWPOLYLINE
  5
1BD8
330
2
100
AcDbEntity
  8
Profilo
  6
Continuous
370
     0
100
AcDbPolyline
 90
        6
 70
   128
 43
0.0
 10
0.2282487469538209
 20
0.159204847821965
 10
0.228142972813999
 20
0.1602621058726297
 10
0.2288833960789298
 20
0.1611607755621294
 10
0.2300469180462366
 20
0.1618479936414983
 10
0.2313691033663638
 20
0.1622708975546332
 10
0.2331672744587796
 20
0.1622708975546332
  0
LWPOLYLINE
  5
1BD9
330
2
100
AcDbEntity
  8
Profilo
  6
Continuous
370
     0
100
AcDbPolyline
 90
        8
 70
   128
 43
0.0
 10
0.2270852249865141
 20
0.1587290813527304
 10
0.2263976887914941
 20
0.1594162994320976
 10
0.2265034629313178
 20
0.1607907355908318
 10
0.22750832368889
 20
0.1624294859157982
 10
0.2286189585862874
 20
0.1630638414390675
 10
0.2302584673974254
 20
0.1635924704643998
 10
0.2314748775061859
 20
0.1638567853235018
 10
0.2317393149988286
 20
0.163962511128569
  0
LWPOLYLINE
  5
1BDA
330
2
100
AcDbEntity
  8
Profilo
  6
Continuous
370
     0
100
AcDbPolyline
 90
        8
 70
   128
 43
0.0
 10
0.2279843105327211
 20
0.1579890007172637
 10
0.2279314223912674
 20
0.1568788787247599
 10
0.2282487469538209
 20
0.1554515800099279
 10
0.2292007195699407
 20
0.1539714180461247
 10
0.2303642426087904
 20
0.1532841999667576
 10
0.2310517788038104
 20
0.1532841999667576
 10
0.2318450891386523
 20
0.1535485148258595
 10
0.2315806527175526
 20
0.1546586361254936
  0
LWPOLYLINE
  5
1BDB
330
2
100
AcDbEntity
  8
Profilo
  6
Continuous
370
     0
100
AcDbPolyline
 90
       15
 70
   128
 43
0.0
 10
0.2292536077113947
 20
0.1605264207317316
 10
0.2296238193438591
 20
0.1593105736270304
 10
0.2296238193438591
 20
0.1576189600530964
 10
0.2298353686950478
 20
0.1566674271146273
 10
0.2309988917338994
 20
0.1556101690639626
 10
0.2319508643500174
 20
0.1550815393457587
 10
0.2338019225123441
 20
0.1549229509845937
 10
0.2345423457772751
 20
0.1549758135406933
 10
0.2346481209886402
 20
0.1554515800099279
 10
0.2346481209886402
 20
0.1565617013095601
 10
0.2342250222862644
 20
0.157090331027764
 10
0.2332730485986016
 20
0.157830411663229
 10
0.2325855124035834
 20
0.1590462587679284
 10
0.2326384005450373
 20
0.1605792839806992
 10
0.2333259367400556
 20
0.1616365420313639
  0
LWPOLYLINE
  5
1BDC
330
2
100
AcDbEntity
  8
Profilo
  6
Continuous
370
     0
100
AcDbPolyline
 90
        4
 70
   128
 43
0.0
 10
0.2405186211097169
 20
0.1504296025370917
 10
0.2409946079535481
 20
0.1513282722265932
 10
0.2409946079535481
 20
0.15233266772116
 10
0.2409946079535481
 20
0.1528612967464924
  0
LWPOLYLINE
  5
1BDD
330
2
100
AcDbEntity
  8
Profilo
  6
Continuous
370
     0
100
AcDbPolyline
 90
        5
 70
   128
 43
0.0
 10
0.2375040399085404
 20
0.1484208108550864
 10
0.2381386890336476
 20
0.1488437147682231
 10
0.2384031254547474
 20
0.1487908515192555
 10
0.2383502383848364
 20
0.1482622224939232
 10
0.2379800267523719
 20
0.1481036334398884
  0
LWPOLYLINE
  5
1BDE
330
2
100
AcDbEntity
  8
Profilo
  6
Continuous
370
     0
100
AcDbPolyline
 90
       17
 70
   128
 43
0.0
 10
0.2483134236344842
 20
0.1546209612911285
 10
0.2489679680960664
 20
0.1537704474883044
 10
0.2491316044793492
 20
0.1531162058883244
 10
0.2487716046504385
 20
0.1521348434883554
 10
0.2486406953295046
 20
0.1512843296855313
 10
0.2488043317127857
 20
0.1499104221870007
 10
0.2489025139713719
 20
0.1485692271841903
 10
0.2495897854953017
 20
0.1473261682828046
 10
0.2498516030656261
 20
0.1467373502885274
 10
0.2503425111439277
 20
0.1465410780856815
 10
0.2512916002381833
 20
0.1472607439842322
 10
0.2514225095591172
 20
0.1482093938884792
 10
0.2516516000670923
 20
0.1502375429869898
 10
0.2515861448708552
 20
0.1511207692855359
 10
0.2512261461134871
 20
0.1521348434883554
 10
0.2507025109728385
 20
0.152952645488329
 10
0.2505061475272083
 20
0.1533779023897428
  0
LWPOLYLINE
  5
1BDF
330
2
100
AcDbEntity
  8
Profilo
  6
Continuous
370
     0
100
AcDbPolyline
 90
       11
 70
   128
 43
0.0
 10
0.2517170541917886
 20
0.1484710903898976
 10
0.2525352350366519
 20
0.1479149855842121
 10
0.2528952337940198
 20
0.1475878647842213
 10
0.2531570513643444
 20
0.1472280314885119
 10
0.2532879606852778
 20
0.1477841369870672
 10
0.2536152323802986
 20
0.1488309236856087
 10
0.2537134146388849
 20
0.1497468617870052
 10
0.2536479594426459
 20
0.1511207692855359
 10
0.2531570513643444
 20
0.1522656920855003
 10
0.2518152353788321
 20
0.1533779023897428
 10
0.2511606919887925
 20
0.1538031592911548
  0
LWPOLYLINE
  5
1BE0
330
2
100
AcDbEntity
  8
Profilo
  6
Continuous
370
     0
100
AcDbPolyline
 90
       19
 70
   128
 43
0.0
 10
0.2536152323802986
 20
0.1484383785870471
 10
0.2542697768418809
 20
0.1473915918885056
 10
0.2554479564441121
 20
0.1467700627842476
 10
0.2565279548593017
 20
0.1466719266828247
 10
0.2575097710159029
 20
0.1469663349870935
 10
0.2581970425398344
 20
0.1471626078828092
 10
0.2591788597679786
 20
0.1470971835842367
 10
0.2598334042295609
 20
0.1477841369870672
 10
0.2598661312919102
 20
0.1486673632856132
 10
0.2592443138926749
 20
0.1494524527898666
 10
0.2583934059854627
 20
0.1494524527898666
 10
0.2577388615238801
 20
0.1486019389870425
 10
0.2574115898288594
 20
0.1481439695899085
 10
0.2563315914136719
 20
0.1479476973870626
 10
0.2551861388737879
 20
0.1482093938884792
 10
0.2547606849201827
 20
0.1490599083841748
 10
0.2544988673498581
 20
0.1497795735898557
 10
0.2541388685924901
 20
0.1504338151898357
 10
0.2540734133962511
 20
0.1507282241869743
  0
LWPOLYLINE
  5
1BE1
330
2
100
AcDbEntity
  8
Profilo
  6
Continuous
370
     0
100
AcDbPolyline
 90
       15
 70
   128
 43
0.0
 10
0.2538443228882756
 20
0.1510553449869634
 10
0.2547934130540726
 20
0.1509244963898202
 10
0.2559061374600664
 20
0.1509244963898202
 10
0.2563315914136719
 20
0.1511207692855359
 10
0.2563643184760191
 20
0.1517095865869433
 10
0.2562988643513246
 20
0.1521675552912058
 10
0.2557425021483266
 20
0.1532143419897474
 10
0.2550225035620499
 20
0.1537704474883044
 10
0.2542043227171846
 20
0.1542611286882889
 10
0.2533534148099741
 20
0.1547190973925514
 10
0.2525679620990009
 20
0.1547190973925514
 10
0.2516843271294414
 20
0.1547518098882734
 10
0.2510625097302062
 20
0.1547518098882734
 10
0.2500479665112558
 20
0.1553733389925314
 10
0.2497206937446924
 20
0.15566774798967
  0
LWPOLYLINE
  5
1BE2
330
2
100
AcDbEntity
  8
Profilo
  6
Continuous
370
     0
100
AcDbPolyline
 90
      119
 70
   128
 43
0.0
 10
0.2410907017750794
 20
0.1726086690931514
 10
0.2422770165307841
 20
0.1726086690931514
 10
0.2422770165307841
 20
0.1730039240083045
 10
0.2414202333540136
 20
0.1735968077667765
 10
0.2408270765119329
 20
0.1744531943401051
 10
0.2410247954592932
 20
0.1755730844211585
 10
0.2416179533729168
 20
0.1766270991449326
 10
0.2425406417939304
 20
0.1766929745022101
 10
0.2439246765685366
 20
0.1761000914366098
 10
0.2444519270948313
 20
0.1761000914366098
 10
0.2454405229031742
 20
0.1764953470446344
 10
0.2461654934483701
 20
0.1763635949443363
 10
0.2470222766251404
 20
0.1772199822105329
 10
0.2482744976966313
 20
0.177812865276135
 10
0.249263093504976
 20
0.1771541061603838
 10
0.2490653745576157
 20
0.1779446166835634
 10
0.2496585313996946
 20
0.1790645074574866
 10
0.2505153145764649
 20
0.179196258864915
 10
0.2509107535427284
 20
0.1783398722915863
 10
0.2515698167005956
 20
0.1774834857182594
 10
0.2513061914374491
 20
0.1785374997491638
 10
0.2507130335238255
 20
0.1795256384227888
 10
0.2509766598585147
 20
0.1803161489459684
 10
0.2524265998773658
 20
0.1810407841118669
 10
0.2538106335804291
 20
0.1817654192777671
 10
0.2547992293887736
 20
0.1823583023433675
 10
0.2558537315129041
 20
0.181172536212165
 10
0.2557878251971164
 20
0.1802502735886891
 10
0.2557878251971164
 20
0.1794597623726397
 10
0.2565127957423141
 20
0.1788010032568903
 10
0.2559855452160193
 20
0.1779446166835634
 10
0.2564468894265262
 20
0.1765612230947835
 10
0.2573036726032967
 20
0.1755730844211585
 10
0.2571059536559361
 20
0.1743214422398052
 10
0.2566446083738867
 20
0.1727404205005798
 10
0.2540083535993324
 20
0.1725427930430023
 10
0.2528220388436294
 20
0.1726086690931514
 10
0.2523606935615796
 20
0.1719499099774002
 10
0.2525584125089402
 20
0.1716864064696755
 10
0.2551287620392491
 20
0.1722792895352758
 10
0.2567105146896726
 20
0.1722792895352758
 10
0.2575672978664432
 20
0.1722134134851267
 10
0.2584899873589994
 20
0.1714229029619489
 10
0.2605989916072606
 20
0.1707641438461978
 10
0.2611921495208846
 20
0.1702371368307465
 10
0.2619830253103239
 20
0.1691831221069724
 10
0.2629716211186684
 20
0.1688537425490968
 10
0.2642238432617003
 20
0.1685243629912212
 10
0.2649488127353553
 20
0.1685902390413703
 10
0.2639602169270112
 20
0.1692489981571215
 10
0.2642238432617003
 20
0.1703688882381731
 10
0.2646192811564211
 20
0.1708958952536262
 10
0.2654101580174051
 20
0.1710935234040733
 10
0.2663328475099616
 20
0.1708958952536262
 10
0.2669260043520426
 20
0.170434764288324
 10
0.2669260043520426
 20
0.1697101291224237
 10
0.2666623790888961
 20
0.1687219911416685
 10
0.2657396895963378
 20
0.1682608594834947
 10
0.2646192811564211
 20
0.1680632320259172
 10
0.2631693411375716
 20
0.1679973559757681
 10
0.2643556558932747
 20
0.1674703489603169
 10
0.2658715022279119
 20
0.1669433412519941
 10
0.2665964727731081
 20
0.1660210793213879
 10
0.2679146001603851
 20
0.1647035610898873
 10
0.2681123191077456
 20
0.1640448019741378
 10
0.2681782264950746
 20
0.1632542914509583
 10
0.2675850685814527
 20
0.163056663300511
 10
0.2668600980362546
 20
0.1641106780242869
 10
0.2663328475099616
 20
0.1647694371400364
 10
0.2656737832805517
 20
0.1654940716130651
 10
0.2649488127353553
 20
0.1658893272210898
 10
0.2645533748406348
 20
0.1660869546786672
 10
0.2646192811564211
 20
0.165428195562916
 10
0.264685187472209
 20
0.1643741815320117
 10
0.264685187472209
 20
0.1637812984664113
 10
0.2643556558932747
 20
0.1632542914509583
 10
0.2638943106112248
 20
0.163056663300511
 10
0.2633011537691439
 20
0.1634519189085357
 10
0.2633011537691439
 20
0.1647035610898873
 10
0.2633011537691439
 20
0.1655599476632142
 10
0.2630375274344546
 20
0.1664163342365428
 10
0.2626420895397339
 20
0.1670092173021431
 10
0.2620489326976548
 20
0.1677997285181925
 10
0.2611262432050967
 20
0.1687219911416685
 10
0.2604012726599004
 20
0.1693148742072706
 10
0.2597422084304903
 20
0.1698418812227219
 10
0.2600717410809676
 20
0.1679973559757681
 10
0.2602694600283282
 20
0.1670750933522922
 10
0.2605330852914747
 20
0.1663504581863938
 10
0.2609944295019815
 20
0.1668774658947165
 10
0.2616534937313915
 20
0.1669433412519941
 10
0.2623784642765874
 20
0.1668115898445657
 10
0.2625102769081616
 20
0.16661396238699
 10
0.2625102769081616
 20
0.1656916997635123
 10
0.2620489326976548
 20
0.1652305681053404
 10
0.2615875874156051
 20
0.1650329406477629
 10
0.2619171189945378
 20
0.1643083054818626
 10
0.2622466516450151
 20
0.1633860428583866
 10
0.2622466516450151
 20
0.1626614083853579
 10
0.2619830253103239
 20
0.1621344006770351
 10
0.2611262432050967
 20
0.1623979041847617
 10
0.2602035537125401
 20
0.1629907879432335
 10
0.2592808642199835
 20
0.1637154224162622
 10
0.2588854252537201
 20
0.1640448019741378
 10
0.2576991104980171
 20
0.1645718089895891
 10
0.2576332041822309
 20
0.1651646920551912
 10
0.2578309231295897
 20
0.1658893272210898
 10
0.2587536126221479
 20
0.1664163342365428
 10
0.2596103957989182
 20
0.1664163342365428
 10
0.2598081147462766
 20
0.16661396238699
 10
0.2592808642199835
 20
0.16786560387547
 10
0.2590831452726234
 20
0.1689196185992459
 10
0.2584373231700057
 20
0.1698156262802191
 10
0.2575739500045828
 20
0.170542341443412
 10
0.2555972780861873
 20
0.17099653885345
 10
0.2545748622417698
 20
0.1710419585944547
 10
0.253438843565317
 20
0.1708148598894348
 10
0.2526890721603832
 20
0.1706331809254196
 10
0.2524845885628835
 20
0.170542341443412
  0
LWPOLYLINE
  5
1BE3
330
2
100
AcDbEntity
  8
Profilo
  6
Continuous
370
     0
100
AcDbPolyline
 90
        9
 70
   128
 43
0.0
 10
0.246070839780457
 20
0.1689357645609034
 10
0.2464997880353636
 20
0.1693359312351537
 10
0.2471575085500146
 20
0.1694788475580933
 10
0.2479296162660796
 20
0.1695074305455333
 10
0.2488161090404746
 20
0.1694788475580933
 10
0.2495310231558327
 20
0.1694502645706533
 10
0.2500457612760276
 20
0.1693930979029035
 10
0.2500743575406107
 20
0.1691358475515927
 10
0.2501315500697749
 20
0.1688500142128437
  0
LWPOLYLINE
  5
1BE4
330
2
100
AcDbEntity
  8
Profilo
  6
Continuous
370
     0
100
AcDbPolyline
 90
       11
 70
   128
 43
0.0
 10
0.2487303191751846
 20
0.1697075142290925
 10
0.2493594434252526
 20
0.1702505972262807
 10
0.2500171639399036
 20
0.1706507639005292
 10
0.2507034817906786
 20
0.1714796802364682
 10
0.2512182199108757
 20
0.1721656802494658
 10
0.2516185708296566
 20
0.1728516802624652
 10
0.2517615542956537
 20
0.173251846243844
 10
0.2513040087046226
 20
0.1731946795760942
 10
0.2504175159302276
 20
0.1730803469334643
 10
0.2497883916801596
 20
0.1729374299176549
 10
0.2491592674300916
 20
0.1728516802624652
  0
LWPOLYLINE
  5
1BE5
330
2
100
AcDbEntity
  8
Profilo
  6
Continuous
370
     0
100
AcDbPolyline
 90
       10
 70
   128
 43
0.0
 10
0.245127153405355
 20
0.1700219305552815
 10
0.245756277655423
 20
0.17093659723928
 10
0.2461852259103296
 20
0.171508263916778
 10
0.2471003160208489
 20
0.172337180252717
 10
0.2482155810549878
 20
0.1729945965854047
 10
0.2486445293098947
 20
0.1731375136012141
 10
0.2491020749009256
 20
0.1729660135979647
 10
0.2491878636946729
 20
0.1724800965756565
 10
0.2491592674300916
 20
0.1714510972490282
 10
0.2490448813002186
 20
0.1708508468912186
  0
LWPOLYLINE
  5
1BE6
330
2
100
AcDbEntity
  8
Profilo
  6
Continuous
370
     0
100
AcDbPolyline
 90
       10
 70
   128
 43
0.0
 10
0.2455846979248428
 20
0.1714510972490282
 10
0.2456132952609686
 20
0.1722228469172173
 10
0.2460994360450399
 20
0.1727087632466558
 10
0.2465569816360706
 20
0.1729088469302149
 10
0.2468429464249806
 20
0.1733947632596533
 10
0.2471575085500146
 20
0.1743665959185319
 10
0.2471575085500146
 20
0.1751097625992793
 10
0.2471289122854317
 20
0.1760530122707178
 10
0.2469859298909776
 20
0.1763960122772166
 10
0.2466141741652349
 20
0.1763674292897766
  0
LWPOLYLINE
  5
1BE7
330
2
100
AcDbEntity
  8
Profilo
  6
Continuous
370
     0
100
AcDbPolyline
 90
        2
 70
   128
 43
0.0
 10
0.2453559256650989
 20
0.1729088469302149
 10
0.2424962702752098
 20
0.1751669292670291
  0
LWPOLYLINE
  5
1BE8
330
2
100
AcDbEntity
  8
Profilo
  6
Continuous
370
     0
100
AcDbPolyline
 90
        2
 70
   128
 43
0.0
 10
0.2529626091950827
 20
0.174252263275902
 10
0.2537347158396046
 20
0.180454844301718
  0
LWPOLYLINE
  5
1BE9
330
2
100
AcDbEntity
  8
Profilo
  6
Continuous
370
     0
100
AcDbPolyline
 90
        2
 70
   128
 43
0.0
 10
0.2515899745650736
 20
0.1743094299436519
 10
0.2482441783911136
 20
0.1756242626090292
  0
LWPOLYLINE
  5
1BEA
330
2
100
AcDbEntity
  8
Profilo
  6
Continuous
370
     0
100
AcDbPolyline
 90
        2
 70
   128
 43
0.0
 10
0.2507320780552616
 20
0.1750525959315294
 10
0.2503603223295189
 20
0.1771963456257156
  0
LWPOLYLINE
  5
1BEB
330
2
100
AcDbEntity
  8
Profilo
  6
Continuous
370
     0
100
AcDbPolyline
 90
        2
 70
   128
 43
0.0
 10
0.2539348918347677
 20
0.1743951795988416
 10
0.2553647200654834
 20
0.1760244292832778
  0
LWPOLYLINE
  5
1BEC
330
2
100
AcDbEntity
  8
Profilo
  6
Continuous
370
     0
100
AcDbPolyline
 90
       16
 70
   128
 43
0.0
 10
0.2166328407694427
 20
0.1754594841426643
 10
0.2182430664570194
 20
0.1740914258570396
 10
0.2189676673199254
 20
0.1737695299936193
 10
0.2190481787650361
 20
0.1741718999961113
 10
0.2198532921445959
 20
0.1724819451541948
 10
0.2204973815623912
 20
0.1730452634348336
 10
0.2212219834968416
 20
0.1727233675714133
 10
0.2216245396508492
 20
0.1713553085929171
 10
0.2225906748490859
 20
0.170470094448858
 10
0.2234762986022134
 20
0.170631042727003
 10
0.2234762986022134
 20
0.1689410878850865
 10
0.2254085689986867
 20
0.1671706595969682
 10
0.2253280575535776
 20
0.1663659188991109
 10
0.2261331709331373
 20
0.1650783347525579
 10
0.2269382832411524
 20
0.1632274316324946
 10
0.2269382832411524
 20
0.1623422174884355
  0
LWPOLYLINE
  5
1BED
330
2
100
AcDbEntity
  8
Profilo
  6
Continuous
370
     0
100
AcDbPolyline
 90
       10
 70
   128
 43
0.0
 10
0.2176794874127901
 20
0.1769080172602337
 10
0.2198532921445959
 20
0.1759423282842314
 10
0.2218660739861798
 20
0.1743328482742581
 10
0.2233152767835349
 20
0.1731257375739071
 10
0.2243619223553395
 20
0.1716772051492091
 10
0.2263747041969252
 20
0.169423932026652
 10
0.2271798175764832
 20
0.1681363478800991
 10
0.2277433966207121
 20
0.1664463930381826
 10
0.2283874860385091
 20
0.1646759647500642
 10
0.2283069745933983
 20
0.1641126464694254
  0
LWPOLYLINE
  5
1BEE
330
2
100
AcDbEntity
  8
Profilo
  6
Continuous
370
     0
100
AcDbPolyline
 90
       12
 70
   128
 43
0.0
 10
0.2304807793252042
 20
0.1643540681937723
 10
0.2304002678800932
 20
0.1663659188991109
 10
0.2299172002809748
 20
0.1678144513238089
 10
0.2295951555720764
 20
0.1696653544438704
 10
0.2291925994180689
 20
0.1712748351467153
 10
0.2282264642198304
 20
0.1717576792882807
 10
0.2274213508402727
 20
0.170470094448858
 10
0.2270187946862634
 20
0.1726428934323416
 10
0.2257306147791283
 20
0.1738500041326909
 10
0.2245229452455608
 20
0.1744937958595334
 10
0.2221076072499677
 20
0.1752985365573889
 10
0.2216245396508492
 20
0.1755399582817376
  0
LWPOLYLINE
  5
1BEF
330
2
100
AcDbEntity
  8
Profilo
  6
Continuous
370
     0
100
AcDbPolyline
 90
       21
 70
   128
 43
0.0
 10
0.2276628851756032
 20
0.1719991010126294
 10
0.2265357270871449
 20
0.1736085817154724
 10
0.2259721480429158
 20
0.1750571141401722
 10
0.2245229452455608
 20
0.1753790106964624
 10
0.2233152767835349
 20
0.1752985365573889
 10
0.2209804491615095
 20
0.1755399582817376
 10
0.2176794874127901
 20
0.1777127572652213
 10
0.2163913075056552
 20
0.1794831855533396
 10
0.2164718178792229
 20
0.1818169328149684
 10
0.2184243907984631
 20
0.1842796329800068
 10
0.2202007238471784
 20
0.1851673892659922
 10
0.2215607282013736
 20
0.185860947803461
 10
0.2235035929422087
 20
0.1860274023236071
 10
0.2247803319861163
 20
0.1854170700069031
 10
0.2263623793108287
 20
0.1843073755155094
 10
0.2276668734581662
 20
0.1833086504732528
 10
0.2283607531869787
 20
0.1823376679665008
 10
0.2282774878766909
 20
0.1806176411584031
 10
0.2274725866626202
 20
0.1781485700489598
 10
0.2265289099314036
 20
0.1763453163272257
 10
0.2260570721015669
 20
0.1751801374576964
  0
LWPOLYLINE
  5
1BF0
330
2
100
AcDbEntity
  8
Profilo
  6
Continuous
370
     0
100
AcDbPolyline
 90
       14
 70
   128
 43
0.0
 10
0.2204505208495842
 20
0.179507945974136
 10
0.2207558280588457
 20
0.1805066717092623
 10
0.2213386873739427
 20
0.1812002309396026
 10
0.2219215466890376
 20
0.1814499116805135
 10
0.2220603222061832
 20
0.1815608811296525
 10
0.2219493017924656
 20
0.1816441087361605
 10
0.2216717496866338
 20
0.1820047589262104
 10
0.2216995047900618
 20
0.1826428337784152
 10
0.2220325671027534
 20
0.1832531654022476
 10
0.2221158324130409
 20
0.1833363930087555
 10
0.2220048119993254
 20
0.1835860744425362
 10
0.2217272598934916
 20
0.1840299522390958
 10
0.2213664424773707
 20
0.1845570569492901
 10
0.2211999107852545
 20
0.1848067383830725
  0
LWPOLYLINE
  5
1BF1
330
2
100
AcDbEntity
  8
Profilo
  6
Continuous
370
     0
100
AcDbPolyline
 90
       11
 70
   128
 43
0.0
 10
0.2252521708874962
 20
0.1793137496113606
 10
0.2250856391953782
 20
0.1797853699434211
 10
0.2249191085748047
 20
0.1801737633618452
 10
0.2246693115723992
 20
0.1805621560873978
 10
0.2244472696734252
 20
0.1808673225921837
 10
0.2240864522573038
 20
0.1813389422313745
 10
0.2238921654617578
 20
0.1815331392870214
 10
0.2235313480456369
 20
0.1816718505787934
 10
0.223115020422658
 20
0.1816718505787934
 10
0.2228374683168242
 20
0.1816718505787934
 10
0.2224766498291621
 20
0.1816718505787934
  0
LWPOLYLINE
  5
1BF2
330
2
100
AcDbEntity
  8
Profilo
  6
Continuous
370
     0
100
AcDbPolyline
 90
        8
 70
   128
 43
0.0
 10
0.2237811450480407
 20
0.1816995931142942
 10
0.2239754318435885
 20
0.1821712134463547
 10
0.2241142073607318
 20
0.1828092876056897
 10
0.2240031869470165
 20
0.1831976810241138
 10
0.2238921654617578
 20
0.1833918773868892
 10
0.2235868582524947
 20
0.1836693013561743
 10
0.2230033420816189
 20
0.1838299842649112
 10
0.2224614114180017
 20
0.1836494242867812
  0
LWPOLYLINE
  5
1BF3
330
2
100
AcDbEntity
  8
Profilo
  6
Continuous
370
     0
100
AcDbPolyline
 90
        3
 70
   128
 43
0.0
 10
0.2241419624641616
 20
0.1835583319070353
 10
0.2248913534713749
 20
0.1836415588206717
 10
0.2255852332001874
 20
0.183697043891677
  0
CIRCLE
  5
1BF4
330
2
100
AcDbEntity
  8
Profilo
  6
Continuous
370
     0
100
AcDbCircle
 10
0.2227819570384236
 20
0.1826150912429143
 30
0.0
 40
0.0003895626829801
  0
LWPOLYLINE
  5
1BF5
330
2
100
AcDbEntity
  8
Profilo
  6
Continuous
370
     0
100
AcDbPolyline
 90
       13
 70
   128
 43
0.0
 10
0.2206647190547482
 20
0.1857704208060569
 10
0.2202022722266261
 20
0.186848963839005
 10
0.2202639309464751
 20
0.1876501681257446
 10
0.2202639309464751
 20
0.1883897401942503
 10
0.2206955484146715
 20
0.1893142061459714
 10
0.2210038463000844
 20
0.1902386720976908
 10
0.2214354637682809
 20
0.1908857979174603
 10
0.2221753780503489
 20
0.1914404774884937
 10
0.2224528465758382
 20
0.1916253706788376
 10
0.2233777402320799
 20
0.1908241670849695
 10
0.2239018468515916
 20
0.1901462258489546
 10
0.2242718034568534
 20
0.1894682839200699
 10
0.2242718034568534
 20
0.1893450215622168
  0
LWPOLYLINE
  5
1BF6
330
2
100
AcDbEntity
  8
Profilo
  6
Continuous
370
     0
100
AcDbPolyline
 90
       23
 70
   128
 43
0.0
 10
0.2233777402320799
 20
0.1862942849608431
 10
0.2233777402320799
 20
0.1873420125775476
 10
0.2238093566287334
 20
0.1881124007551684
 10
0.2244259523995606
 20
0.1887903426840549
 10
0.2249808894505392
 20
0.189868885717003
 10
0.2253816764872689
 20
0.1905468276458877
 10
0.2260599320494881
 20
0.1911631380494119
 10
0.2266765278203153
 20
0.1913172158235104
 10
0.2272931235911426
 20
0.1899921480748561
 10
0.227632250836481
 20
0.1890368667068896
 10
0.227632250836481
 20
0.1880199545064323
 10
0.2277555704192626
 20
0.1871263039709565
 10
0.2278480595705781
 20
0.1857704208060569
 10
0.2275397616851653
 20
0.1845377993061388
 10
0.2273239529510664
 20
0.1840139358442223
 10
0.2283105063986999
 20
0.18546226525786
 10
0.2292045696234737
 20
0.1858012362223023
 10
0.2300061447684747
 20
0.185862867054793
 10
0.2309002079932498
 20
0.1858012362223023
 10
0.2314243146127619
 20
0.1854930806741053
 10
0.2315476341955436
 20
0.1845377993061388
 10
0.2315784635554674
 20
0.1839523043188618
 10
0.2315476341955436
 20
0.1835208871056815
  0
LWPOLYLINE
  5
1BF7
330
2
100
AcDbEntity
  8
Profilo
  6
Continuous
370
     0
100
AcDbPolyline
 90
       13
 70
   128
 43
0.0
 10
0.2284139938660369
 20
0.1809511232026098
 10
0.2291539081481049
 20
0.1819372199868217
 10
0.2303870996897597
 20
0.1825843458065894
 10
0.2316202912314141
 20
0.1833239185679667
 10
0.2325451848876558
 20
0.183971045080606
 10
0.2336550579180696
 20
0.1840943067455894
 10
0.2359056322672817
 20
0.1840018604968514
 10
0.2375704402055896
 20
0.1834471809258198
 10
0.2391119296326589
 20
0.1822145594259017
 10
0.2404992701170206
 20
0.1803964436315764
 10
0.2413625039818706
 20
0.1790097450504313
 10
0.2416399725073599
 20
0.177253259395727
 10
0.2415474833560445
 20
0.1766061335759574
  0
LWPOLYLINE
  5
1BF8
330
2
100
AcDbEntity
  8
Profilo
  6
Continuous
370
     0
100
AcDbPolyline
 90
        5
 70
   128
 43
0.0
 10
0.2366455465493495
 20
0.1707511837031768
 10
0.2379403978823962
 20
0.171367494106701
 10
0.2389269513300278
 20
0.172168697700569
 10
0.2402526320229978
 20
0.1734937654492233
 10
0.2408383984339016
 20
0.1743874152918274
  0
LWPOLYLINE
  5
1BF9
330
2
100
AcDbEntity
  8
Profilo
  6
Continuous
370
     0
100
AcDbPolyline
 90
        3
 70
   128
 43
0.0
 10
0.2294930364649841
 20
0.170381397322489
 10
0.2303870996897597
 20
0.1698883485839482
 10
0.2313119933459997
 20
0.1696726399773571
  0
LWPOLYLINE
  5
1BFA
330
2
100
AcDbEntity
  8
Profilo
  6
Continuous
370
     0
100
AcDbPolyline
 90
        6
 70
   128
 43
0.0
 10
0.2364297388867934
 20
0.1828925013547864
 10
0.2366147171894242
 20
0.1824302687253625
 10
0.2368613552834469
 20
0.1815366181898868
 10
0.2367072063407414
 20
0.1806737830706582
 10
0.2364456984463057
 20
0.1798765724895799
 10
0.2362447595126196
 20
0.1796568708702009
  0
LWPOLYLINE
  5
1BFB
330
2
100
AcDbEntity
  8
Profilo
  6
Continuous
370
     0
100
AcDbPolyline
 90
        4
 70
   128
 43
0.0
 10
0.2367380367722079
 20
0.1802115504412325
 10
0.2373854619029589
 20
0.1803348127990856
 10
0.2376629304284497
 20
0.180365628215331
 10
0.2398210156263444
 20
0.1803964436315764
  0
LWPOLYLINE
  5
1BFC
330
2
100
AcDbEntity
  8
Profilo
  6
Continuous
370
     0
100
AcDbPolyline
 90
        2
 70
   128
 43
0.0
 10
0.2257053102942439
 20
0.1852990422858079
 10
0.2260471839039586
 20
0.1895460759573706
  0
LWPOLYLINE
  5
1BFD
330
2
100
AcDbEntity
  8
Profilo
  6
Continuous
370
     0
100
AcDbPolyline
 90
        2
 70
   128
 43
0.0
 10
0.2224819314639697
 20
0.1866170870989011
 10
0.2223354140495857
 20
0.1901806906142132
  0
LWPOLYLINE
  5
1BFE
330
2
100
AcDbEntity
  8
Profilo
  6
Continuous
370
     0
100
AcDbPolyline
 90
        2
 70
   128
 43
0.0
 10
0.2226284488783539
 20
0.1885697465688368
 10
0.2232145174643461
 20
0.189350810495386
  0
LWPOLYLINE
  5
1BFF
330
2
100
AcDbEntity
  8
Profilo
  6
Continuous
370
     0
100
AcDbPolyline
 90
        2
 70
   128
 43
0.0
 10
0.2220912190733084
 20
0.1873005179480214
 10
0.2212609544394941
 20
0.1878374995274368
  0
LWPOLYLINE
  5
1C00
330
2
100
AcDbEntity
  8
Profilo
  6
Continuous
370
     0
100
AcDbPolyline
 90
        2
 70
   128
 43
0.0
 10
0.2221888966352015
 20
0.1884232972991318
 10
0.2216516668301557
 20
0.1890579112631046
  0
LWPOLYLINE
  5
1C01
330
2
100
AcDbEntity
  8
Profilo
  6
Continuous
370
     0
100
AcDbPolyline
 90
        2
 70
   128
 43
0.0
 10
0.2281961031241414
 20
0.183151116661016
 10
0.2299054711727162
 20
0.1844691614741092
  0
LWPOLYLINE
  5
1C02
330
2
100
AcDbEntity
  8
Profilo
  6
Continuous
370
     0
100
AcDbPolyline
 90
        2
 70
   128
 43
0.0
 10
0.2255099540989132
 20
0.1868611694460349
 10
0.2249238855129208
 20
0.1876422333725825
  0
LWPOLYLINE
  5
1C03
330
2
100
AcDbEntity
  8
Profilo
  6
Continuous
370
     0
100
AcDbPolyline
 90
        2
 70
   128
 43
0.0
 10
0.2251680804891982
 20
0.1855919408252178
 10
0.2247773680985366
 20
0.186128922404635
  0
LWPOLYLINE
  5
1C04
330
2
100
AcDbEntity
  8
Profilo
  6
Continuous
370
     0
100
AcDbPolyline
 90
        2
 70
   128
 43
0.0
 10
0.2262913788802359
 20
0.1879839487971435
 10
0.2268286086852816
 20
0.1884232972991318
  0
LWPOLYLINE
  5
1C05
330
2
100
AcDbEntity
  8
Profilo
  6
Continuous
370
     0
100
AcDbPolyline
 90
       12
 70
   128
 43
0.0
 10
0.2354731254185034
 20
0.1843227122044042
 10
0.2368894586383099
 20
0.186128922404635
 10
0.2377685620530704
 20
0.1882768473365553
 10
0.2377685620530704
 20
0.1913034699653236
 10
0.2370359760526939
 20
0.1923774324312828
 10
0.2361080338569852
 20
0.1932073125501099
 10
0.2342033096130813
 20
0.1947206235180592
 10
0.2322009078072829
 20
0.1950623389426203
 10
0.2297101149773855
 20
0.194281275016071
 10
0.2282937817575792
 20
0.193060863280405
 10
0.2274635171237649
 20
0.1914987354273081
 10
0.2273658384903274
 20
0.1905712222310521
  0
LWPOLYLINE
  5
1C06
330
2
100
AcDbEntity
  8
Profilo
  6
Continuous
370
     0
100
AcDbPolyline
 90
       10
 70
   128
 43
0.0
 10
0.2353754478566086
 20
0.1892043605328096
 10
0.2349358956134578
 20
0.1916940015821625
 10
0.2341544708321349
 20
0.1928655971255506
 10
0.2335684011745982
 20
0.1933049456275389
 10
0.2332265275648831
 20
0.193549027974671
 10
0.2339591146368023
 20
0.1935978441669506
 10
0.2345940220037428
 20
0.193549027974671
 10
0.2352289304422261
 20
0.193060863280405
 10
0.2353754478566086
 20
0.1925726985861389
 10
0.2352289304422261
 20
0.1918404508518674
  0
LWPOLYLINE
  5
1C07
330
2
100
AcDbEntity
  8
Profilo
  6
Continuous
370
     0
100
AcDbPolyline
 90
       11
 70
   128
 43
0.0
 10
0.2374266884433553
 20
0.1920357170067235
 10
0.2376708834196326
 20
0.1929144140106982
 10
0.2384034704915519
 20
0.193060863280405
 10
0.2391848952728766
 20
0.1928655971255506
 10
0.2393314126872609
 20
0.1920357170067235
 10
0.2394779301016434
 20
0.190815304578186
 10
0.2393802514682073
 20
0.1892043605328096
 10
0.2390383778584924
 20
0.1875934164874331
 10
0.2384523092725002
 20
0.1856895739026467
 10
0.2375243670767915
 20
0.1844203452818314
 10
0.2369871372717456
 20
0.1839321805875636
  0
LWPOLYLINE
  5
1C08
330
2
100
AcDbEntity
  8
Profilo
  6
Continuous
370
     0
100
AcDbPolyline
 90
       11
 70
   128
 43
0.0
 10
0.2393314126872609
 20
0.1888138289159707
 10
0.2407965846880136
 20
0.1897901589973743
 10
0.2424082741031507
 20
0.1900342413445082
 10
0.2434827337132419
 20
0.189936608267081
 10
0.2427989864938121
 20
0.1888626451082485
 10
0.2421640791268715
 20
0.1874469672177282
 10
0.2417245268837209
 20
0.1863730047517671
 10
0.240698907126119
 20
0.1849085099760974
 10
0.2401128374685839
 20
0.1845667945515364
 10
0.2392337340538231
 20
0.1835904651630043
 10
0.238745344101267
 20
0.1829558505061599
  0
LWPOLYLINE
  5
1C09
330
2
100
AcDbEntity
  8
Profilo
  6
Continuous
370
     0
100
AcDbPolyline
 90
        8
 70
   128
 43
0.0
 10
0.2408942633214497
 20
0.1849085099760974
 10
0.2412849757121129
 20
0.185054959938674
 10
0.2416268493218259
 20
0.185054959938674
 10
0.2419198830790517
 20
0.1841762629346975
 10
0.2418710442981049
 20
0.1836392813552821
 10
0.2414803319074437
 20
0.1824676858118939
 10
0.2409919408833443
 20
0.1815889888079174
 10
0.2406500672736294
 20
0.1813449064607853
  0
LWPOLYLINE
  5
1C0A
330
2
100
AcDbEntity
  8
Profilo
  6
Continuous
370
     0
100
AcDbPolyline
 90
        7
 70
   128
 43
0.0
 10
0.2419198830790517
 20
0.1831999328532939
 10
0.2431896999560164
 20
0.1830534835835889
 10
0.2431896999560164
 20
0.1821259703873328
 10
0.2434338949322954
 20
0.182077154195055
 10
0.2438246073229568
 20
0.1818330718479211
 10
0.2431408601035272
 20
0.1811008241136514
 10
0.2416756881027744
 20
0.1793922469908478
  0
LWPOLYLINE
  5
1C0B
330
2
100
AcDbEntity
  8
Profilo
  6
Continuous
370
     0
100
AcDbPolyline
 90
       22
 70
   128
 43
0.0
 10
0.2433850561513471
 20
0.1830046673913093
 10
0.2447525495186642
 20
0.1845179783592586
 10
0.2456316529334246
 20
0.1858848400575011
 10
0.2456316529334246
 20
0.1898877913819317
 10
0.2455828141524782
 20
0.1926215147784168
 10
0.2448990669330484
 20
0.1940860095540864
 10
0.2442641595661079
 20
0.1952087882123253
 10
0.2443129983470561
 20
0.1968197322577017
 10
0.2450455843474324
 20
0.1977960623391053
 10
0.2463154001528547
 20
0.1977960623391053
 10
0.2470968260057203
 20
0.1969173653351288
 10
0.2474386996154354
 20
0.1958922190614474
 10
0.2473898597629459
 20
0.1946718073257814
 10
0.2470968260057203
 20
0.194037192668937
 10
0.2479270895679917
 20
0.1944277249786475
 10
0.2479759294204809
 20
0.1936466610520982
 10
0.2475852159582766
 20
0.1928655971255506
 10
0.2471945035676151
 20
0.1916940015821625
 10
0.2472921822010512
 20
0.1917916346595896
 10
0.2476828945917127
 20
0.1921333500841507
 10
0.2484154805920906
 20
0.1921333500841507
 10
0.2487085154208573
 20
0.1913522861576014
  0
LWPOLYLINE
  5
1C0C
330
2
100
AcDbEntity
  8
Profilo
  6
Continuous
370
     0
100
AcDbPolyline
 90
       27
 70
   128
 43
0.0
 10
0.2468037911769519
 20
0.186763536368606
 10
0.2471456647866669
 20
0.1890579112631046
 10
0.2478294120060966
 20
0.1903759567690675
 10
0.2490503890305724
 20
0.1914011023498792
 10
0.2503202048359943
 20
0.1918404508518674
 10
0.2518342156176954
 20
0.1918892677370168
 10
0.2522737678608464
 20
0.1918892677370168
 10
0.2524202852752304
 20
0.1906200391162014
 10
0.2522737678608464
 20
0.1891555443405317
 10
0.2516388594223646
 20
0.1881303980668485
 10
0.2533970662518841
 20
0.1881303980668485
 10
0.2550087556670229
 20
0.1876422333725825
 10
0.2557413416673995
 20
0.1869588025234621
 10
0.2556436641055046
 20
0.1861777385969128
 10
0.2543250084475932
 20
0.1853966746703635
 10
0.2527133190324562
 20
0.1846644276289636
 10
0.2511016296173192
 20
0.1846644276289636
 10
0.2496364576165644
 20
0.1846644276289636
 10
0.2486108367874213
 20
0.1851525923232314
 10
0.2482689631777064
 20
0.1853966746703635
 10
0.2488061929827522
 20
0.1841274460495481
 10
0.2484154805920906
 20
0.1840786298572703
 10
0.2474875383963819
 20
0.1843715290895518
 10
0.2466572737625694
 20
0.1847132445141129
 10
0.2462665613719062
 20
0.1848596937838197
 10
0.2449479057139949
 20
0.1830534835835889
 10
0.2440688033707772
 20
0.182077154195055
  0
LWPOLYLINE
  5
1C0D
330
2
100
AcDbEntity
  8
Profilo
  6
Continuous
370
     0
100
AcDbPolyline
 90
        2
 70
   128
 43
0.0
 10
0.2477805721536074
 20
0.1863241885594893
 10
0.2509062734219885
 20
0.1904247729613471
  0
LWPOLYLINE
  5
1C0E
330
2
100
AcDbEntity
  8
Profilo
  6
Continuous
370
     0
100
AcDbPolyline
 90
        2
 70
   128
 43
0.0
 10
0.2489527103971363
 20
0.1863730047517671
 10
0.2533482274709376
 20
0.1864218209440467
  0
LWPOLYLINE
  5
1C0F
330
2
100
AcDbEntity
  8
Profilo
  6
Continuous
370
     0
100
AcDbPolyline
 90
        2
 70
   128
 43
0.0
 10
0.2487085154208573
 20
0.1884721134914096
 10
0.2485619980064733
 20
0.1895460759573706
  0
LWPOLYLINE
  5
1C10
330
2
100
AcDbEntity
  8
Profilo
  6
Continuous
370
     0
100
AcDbPolyline
 90
        2
 70
   128
 43
0.0
 10
0.2492945840068497
 20
0.18959489284252
 10
0.2493434227877978
 20
0.1903271398839199
  0
LWPOLYLINE
  5
1C11
330
2
100
AcDbEntity
  8
Profilo
  6
Continuous
370
     0
100
AcDbPolyline
 90
        2
 70
   128
 43
0.0
 10
0.2458758489812449
 20
0.1950135227503407
 10
0.2454851365905835
 20
0.1963315675634356
  0
LWPOLYLINE
  5
1C12
330
2
100
AcDbEntity
  8
Profilo
  6
Continuous
370
     0
100
AcDbPolyline
 90
        2
 70
   128
 43
0.0
 10
0.2505155610313252
 20
0.1866170870989011
 10
0.2509551122029348
 20
0.1873981510254503
  0
LWPOLYLINE
  5
1C13
330
2
100
AcDbEntity
  8
Profilo
  6
Continuous
370
     0
100
AcDbPolyline
 90
        2
 70
   128
 43
0.0
 10
0.2517853768367471
 20
0.186763536368606
 10
0.2521272504464621
 20
0.1872517017557436
  0
LWPOLYLINE
  5
1C14
330
2
100
AcDbEntity
  8
Profilo
  6
Continuous
370
     0
100
AcDbPolyline
 90
        2
 70
   128
 43
0.0
 10
0.2504178823978891
 20
0.1891555443405317
 10
0.2509062734219885
 20
0.1891555443405317
  0
LWPOLYLINE
  5
1C15
330
2
100
AcDbEntity
  8
Profilo
  6
Continuous
370
     0
100
AcDbPolyline
 90
        2
 70
   128
 43
0.0
 10
0.2390181267697844
 20
0.1857737327271285
 10
0.2415537797419511
 20
0.1884618174355261
  0
LWPOLYLINE
  5
1C16
330
2
100
AcDbEntity
  8
Profilo
  6
Continuous
370
     0
100
AcDbPolyline
 90
        2
 70
   128
 43
0.0
 10
0.2397480874901281
 20
0.1871177754277622
 10
0.2397480874901281
 20
0.1876553923694417
  0
LWPOLYLINE
  5
1C17
330
2
100
AcDbEntity
  8
Profilo
  6
Continuous
370
     0
100
AcDbPolyline
 90
        2
 70
   128
 43
0.0
 10
0.2407853999235319
 20
0.1879242004938466
 10
0.2407469808254566
 20
0.1886154226719321
  0
LWPOLYLINE
  5
1C18
330
2
100
AcDbEntity
  8
Profilo
  6
Continuous
370
     0
100
AcDbPolyline
 90
       11
 70
   128
 43
0.0
 10
0.2161092581343957
 20
0.1749799138142927
 10
0.2128597797344269
 20
0.176294570490557
 10
0.210770830482528
 20
0.1785372198294746
 10
0.2099971443838153
 20
0.1808572018325419
 10
0.2092234593566438
 20
0.1830225185073116
 10
0.2104613560430433
 20
0.1829451858431619
 10
0.2129371483442977
 20
0.1820945258446583
 10
0.2145618880800542
 20
0.1807798691683922
 10
0.2156450475467106
 20
0.1785372198294746
 10
0.2164187325738804
 20
0.1764492358188545
 10
0.2164961011837512
 20
0.1752892451637558
  0
LWPOLYLINE
  5
1C19
330
2
100
AcDbEntity
  8
Profilo
  6
Continuous
370
     0
100
AcDbPolyline
 90
        9
 70
   128
 43
0.0
 10
0.2128597797344269
 20
0.1824038571941231
 10
0.2129371483442977
 20
0.183873179198685
 10
0.2132466227837839
 20
0.1854971665315444
 10
0.2140976764208247
 20
0.186347826530048
 10
0.2148713614479961
 20
0.1870438212002559
 10
0.2155676789368379
 20
0.1870438212002559
 10
0.2161866267442665
 20
0.1859611632093068
 10
0.2171150489911794
 20
0.1841051771911304
 10
0.2171924176010502
 20
0.182867853179014
  0
LWPOLYLINE
  5
1C1A
330
2
100
AcDbEntity
  8
Profilo
  6
Continuous
370
     0
100
AcDbPolyline
 90
        2
 70
   128
 43
0.0
 10
0.2155676789368379
 20
0.1759079064769442
 10
0.2112350410702131
 20
0.1809345344966897
  0
LWPOLYLINE
  5
1C1B
330
2
100
AcDbEntity
  8
Profilo
  6
Continuous
370
     0
100
AcDbPolyline
 90
        2
 70
   128
 43
0.0
 10
0.2123955691467416
 20
0.180161207162334
 10
0.2123182005368691
 20
0.1813211985103025
  0
LWPOLYLINE
  5
1C1C
330
2
100
AcDbEntity
  8
Profilo
  6
Continuous
370
     0
100
AcDbPolyline
 90
        2
 70
   128
 43
0.0
 10
0.2137108344430119
 20
0.1785372198294746
 10
0.2136334658331394
 20
0.1797745438415927
  0
LWPOLYLINE
  5
1C1D
330
2
100
AcDbEntity
  8
Profilo
  6
Continuous
370
     0
100
AcDbPolyline
 90
        2
 70
   128
 43
0.0
 10
0.2147166252997956
 20
0.1771452304890607
 10
0.2147166252997956
 20
0.1783052218370291
  0
LWPOLYLINE
  5
1C1E
330
2
100
AcDbEntity
  8
Profilo
  6
Continuous
370
     0
100
AcDbPolyline
 90
        2
 70
   128
 43
0.0
 10
0.2151034672776102
 20
0.1812438658461546
 10
0.2150260986677395
 20
0.1857291645239898
  0
LWPOLYLINE
  5
1C1F
330
2
100
AcDbEntity
  8
Profilo
  6
Continuous
370
     0
100
AcDbPolyline
 90
        2
 70
   128
 43
0.0
 10
0.2145618880800542
 20
0.1817851951880649
 10
0.2141750450306972
 20
0.182481189858271
  0
LWPOLYLINE
  5
1C20
330
2
100
AcDbEntity
  8
Profilo
  6
Continuous
370
     0
100
AcDbPolyline
 90
        2
 70
   128
 43
0.0
 10
0.2147166252997956
 20
0.1834091825209243
 10
0.2141750450306972
 20
0.184259842519428
  0
LWPOLYLINE
  5
1C21
330
2
100
AcDbEntity
  8
Profilo
  6
Continuous
370
     0
100
AcDbPolyline
 90
        2
 70
   128
 43
0.0
 10
0.2157224161565812
 20
0.1825585225224207
 10
0.2161866267442665
 20
0.1834865151850722
  0
LWPOLYLINE
  5
1C22
330
2
100
AcDbEntity
  8
Profilo
  6
Continuous
370
     0
100
AcDbPolyline
 90
       10
 70
   128
 43
0.0
 10
0.2097235580581447
 20
0.1832153894087889
 10
0.2092186116966992
 20
0.1840004983134152
 10
0.2091251035081132
 20
0.1850846958626531
 10
0.2094430324208456
 20
0.1861315068116629
 10
0.2097235580581447
 20
0.1871409318533126
 10
0.209760961333578
 20
0.1875521796057407
 10
0.2104155207967622
 20
0.1872530902682592
 10
0.2116498342438011
 20
0.1864679820565027
 10
0.2122669904315502
 20
0.1858884970280905
 10
0.2128093400684309
 20
0.1849725374477065
  0
LWPOLYLINE
  5
1C23
330
2
100
AcDbEntity
  8
Profilo
  6
Continuous
370
     0
100
AcDbPolyline
 90
        2
 70
   128
 43
0.0
 10
0.2118181489832557
 20
0.1829910725788939
 10
0.2104716267814559
 20
0.1859445758891281
  0
LWPOLYLINE
  5
1C24
330
2
100
AcDbEntity
  8
Profilo
  6
Continuous
370
     0
100
AcDbPolyline
 90
        2
 70
   128
 43
0.0
 10
0.2117620440701049
 20
0.1835705576073079
 10
0.2119677631565354
 20
0.1844117453729734
  0
LWPOLYLINE
  5
1C25
330
2
100
AcDbEntity
  8
Profilo
  6
Continuous
370
     0
100
AcDbPolyline
 90
        2
 70
   128
 43
0.0
 10
0.2112570977086576
 20
0.1848416860790807
 10
0.2114067118819372
 20
0.1856641801981973
  0
LWPOLYLINE
  5
1C26
330
2
100
AcDbEntity
  8
Profilo
  6
Continuous
370
     0
100
AcDbPolyline
 90
        2
 70
   128
 43
0.0
 10
0.211088782969205
 20
0.1833088548700563
 10
0.2104903284191735
 20
0.1838883398984686
  0
ELLIPSE
  5
1C27
330
2
100
AcDbEntity
  8
Profilo
  6
Continuous
370
     0
100
AcDbEllipse
 10
0.2057970810157446
 20
0.1811484548044757
 30
0.0
 11
-0.0034470987653846
 21
0.0004067607229598
 31
0.0
210
0.0
220
0.0
230
1.0
 40
0.8860152059964633
 41
0.0
 42
6.283185307179585
  0
ELLIPSE
  5
1C28
330
2
100
AcDbEntity
  8
Profilo
  6
Continuous
370
     0
100
AcDbEllipse
 10
0.2072333727930544
 20
0.186843107697396
 30
0.0
 11
-0.0015320437766661
 21
-0.0018423877414079
 31
0.0
210
0.0
220
0.0
230
1.0
 40
0.9061727005979458
 41
0.0
 42
6.283185307179585
  0
ELLIPSE
  5
1C29
330
2
100
AcDbEntity
  8
Profilo
  6
Continuous
370
     0
100
AcDbEllipse
 10
0.2058743012169291
 20
0.1830664856452757
 30
0.0
 11
-0.0011675118571853
 21
-0.0003387980932487
 31
0.0
210
0.0
220
0.0
230
1.0
 40
0.7077600500025547
 41
0.0
 42
6.283185307179585
  0
ELLIPSE
  5
1C2A
330
2
100
AcDbEntity
  8
Profilo
  6
Continuous
370
     0
100
AcDbEllipse
 10
0.2066463655355075
 20
0.1878849514576673
 30
0.0
 11
-0.0005837561964784
 21
-0.0006399525313062
 31
0.0
210
0.0
220
0.0
230
1.0
 40
0.8075659387820749
 41
0.0
 42
6.283185307179585
  0
LWPOLYLINE
  5
1C2B
330
2
100
AcDbEntity
  8
Profilo
  6
Continuous
370
     0
100
AcDbPolyline
 90
       11
 70
   128
 43
0.0
 10
0.2082727768781403
 20
0.1892719327299841
 10
0.2085740700878105
 20
0.1931869359210752
 10
0.2092971740053275
 20
0.1952950145624315
 10
0.2112857111179263
 20
0.1963189386125213
 10
0.2133345064438417
 20
0.1968610155617196
 10
0.2157448542642875
 20
0.1969212467957662
 10
0.2180346845865562
 20
0.1966200927041428
 10
0.2200232206276121
 20
0.1957768609704531
 10
0.2208065838299872
 20
0.1943915522875632
 10
0.2208065838299872
 20
0.1928255512882768
 10
0.2211078770396574
 20
0.1909583955044956
  0
LWPOLYLINE
  5
1C2C
330
2
100
AcDbEntity
  8
Profilo
  6
Continuous
370
     0
100
AcDbPolyline
 90
        9
 70
   128
 43
0.0
 10
0.2206860663318106
 20
0.1952950145624315
 10
0.2223130509498812
 20
0.1964394003877445
 10
0.2235182248601029
 20
0.1966200927041428
 10
0.2253259862612082
 20
0.1964996309289196
 10
0.2262901251750784
 20
0.1958973227456764
 10
0.2270132290925939
 20
0.1949938604708082
 10
0.2273145223022639
 20
0.1936687823290968
 10
0.2271940048040873
 20
0.1922834736462087
 10
0.2268927115944189
 20
0.1913800113713404
  0
LWPOLYLINE
  5
1C2D
330
2
100
AcDbEntity
  8
Profilo
  6
Continuous
370
     0
100
AcDbPolyline
 90
        7
 70
   128
 43
0.0
 10
0.2239400355679499
 20
0.1908379337292723
 10
0.2246028812721499
 20
0.1928255512882768
 10
0.2246631405570096
 20
0.1946927063791866
 10
0.2242413298491629
 20
0.1954154763376548
 10
0.2233977073619264
 20
0.1954154763376548
 10
0.2221925334517043
 20
0.19445178282874
 10
0.2215296877475041
 20
0.1937290135631434
  0
LWPOLYLINE
  5
1C2E
330
2
100
AcDbEntity
  8
Profilo
  6
Continuous
370
     0
100
AcDbPolyline
 90
        9
 70
   128
 43
0.0
 10
0.2261093483920422
 20
0.196379169153698
 10
0.2274350398004406
 20
0.1981258631622542
 10
0.2291222837033691
 20
0.1990895559782975
 10
0.2305082333250864
 20
0.1994509413039673
 10
0.2311710790292849
 20
0.1990293254371225
 10
0.2311710790292849
 20
0.1976440167542326
 10
0.2310505615311098
 20
0.1960177845208979
 10
0.2317736654486251
 20
0.1959575532868514
 10
0.2316531479504487
 20
0.1952950145624315
  0
LWPOLYLINE
  5
1C2F
330
2
100
AcDbEntity
  8
Profilo
  6
Continuous
370
     0
100
AcDbPolyline
 90
        3
 70
   128
 43
0.0
 10
0.227736333010111
 20
0.1929460123706286
 10
0.2291825419166862
 20
0.196379169153698
 10
0.2302069401154161
 20
0.1978849396118094
  0
LWPOLYLINE
  5
1C30
330
2
100
AcDbEntity
  8
Profilo
  6
Continuous
370
     0
100
AcDbPolyline
 90
        2
 70
   128
 43
0.0
 10
0.2277965922949707
 20
0.1946324758380098
 10
0.2273747815871236
 20
0.196198476837298
  0
LWPOLYLINE
  5
1C31
330
2
100
AcDbEntity
  8
Profilo
  6
Continuous
370
     0
100
AcDbPolyline
 90
        2
 70
   128
 43
0.0
 10
0.2285799554973473
 20
0.1962587073784747
 10
0.2285196962124877
 20
0.1975235549790111
  0
LWPOLYLINE
  5
1C32
330
2
100
AcDbEntity
  8
Profilo
  6
Continuous
370
     0
100
AcDbPolyline
 90
        2
 70
   128
 43
0.0
 10
0.2295440944112161
 20
0.1974633237449628
 10
0.2295440944112161
 20
0.198186093703431
  0
LWPOLYLINE
  5
1C33
330
2
100
AcDbEntity
  8
Profilo
  6
Continuous
370
     0
100
AcDbPolyline
 90
       40
 70
   128
 43
0.0
 10
0.2322028601583921
 20
0.1952621177631522
 10
0.2323482738836187
 20
0.1963833617131959
 10
0.2330545695796704
 20
0.1971516220854608
 10
0.2335946775488656
 20
0.1982521027847199
 10
0.2339685988627491
 20
0.1999132051125661
 10
0.234404840038432
 20
0.2011797959753232
 10
0.2349449490791702
 20
0.2021141665110844
 10
0.2358797512923327
 20
0.2028408989960391
 10
0.2371261549575796
 20
0.2027370799706359
 10
0.2373962094779489
 20
0.2019272924039321
 10
0.2373546625462351
 20
0.2011175048372285
 10
0.2371677018892935
 20
0.200432300239584
 10
0.2382686918293142
 20
0.2012420878062877
 10
0.2392865879059056
 20
0.2020518753729896
 10
0.2404498977077254
 20
0.2025709698071378
 10
0.2411354194021471
 20
0.2024256235872959
 10
0.2415924345794582
 20
0.2020311114293354
 10
0.2413016071290036
 20
0.201345906831691
 10
0.2402213901190702
 20
0.2007852845102342
 10
0.2396397352181594
 20
0.200743756622924
 10
0.2404498977077254
 20
0.2007022294284853
 10
0.2404706717093537
 20
0.2000377880816236
 10
0.2400967503954702
 20
0.1996225126728804
 10
0.2393489077677049
 20
0.1997678588927223
 10
0.2382479178276859
 20
0.1996432759236648
 10
0.2372507957527223
 20
0.1995186936474771
 10
0.2367106867119841
 20
0.1990203624641134
 10
0.2371053820274944
 20
0.1989373073823644
 10
0.2383102387610276
 20
0.1988750162442714
 10
0.238912666592022
 20
0.1987711972188664
 10
0.2391204012505921
 20
0.1983559218101232
 10
0.2388087997985093
 20
0.1977952994886665
 10
0.2377701297202897
 20
0.1976291893251685
 10
0.2373754354763207
 20
0.1975253702997652
 10
0.2375000762714634
 20
0.1967986378148106
 10
0.2369184213705544
 20
0.1967571099275003
 10
0.2357758844988198
 20
0.1967986378148106
 10
0.2349034021474564
 20
0.1965494718766938
 10
0.2347372144205999
 20
0.1957396843099902
 10
0.2340309197960911
 20
0.1949091334925019
  0
LWPOLYLINE
  5
1C34
330
2
100
AcDbEntity
  8
Profilo
  6
Continuous
370
     0
100
AcDbPolyline
 90
        2
 70
   128
 43
0.0
 10
0.2354227361150234
 20
0.1996017487292261
 10
0.2362744455363016
 20
0.2018650012658374
  0
LWPOLYLINE
  5
1C35
330
2
100
AcDbEntity
  8
Profilo
  6
Continuous
370
     0
100
AcDbPolyline
 90
       38
 70
   128
 43
0.0
 10
0.2214403960801143
 20
0.1961254468990608
 10
0.2215391205393924
 20
0.1972767011498093
 10
0.2224934591221701
 20
0.1980661335664622
 10
0.2237110629296883
 20
0.1990858158632478
 10
0.2238426955420594
 20
0.2002041781648107
 10
0.2240072363075236
 20
0.2017830416123769
 10
0.2226909080407259
 20
0.2015198977044492
 10
0.2218352939172277
 20
0.2010265025306492
 10
0.2213416716208348
 20
0.2000397128759208
 10
0.2208151400998078
 20
0.1988226719553201
 10
0.2208151400998078
 20
0.1998752482799007
 10
0.2211771297838294
 20
0.201158074484614
 10
0.2220656520604212
 20
0.2022764367861769
 10
0.2229541732654678
 20
0.2021777574742676
 10
0.2239743281544304
 20
0.2020790788552298
 10
0.2240401444606168
 20
0.2026053666710852
 10
0.2241388699914377
 20
0.2028027246020323
 10
0.2263108123817337
 20
0.2030000825329777
 10
0.2281536721695586
 20
0.2038553002337431
 10
0.2296345422733637
 20
0.204973662535306
 10
0.2301610727228494
 20
0.2064538466709647
 10
0.2298648993450141
 20
0.20714459977571
 10
0.2286802036905874
 20
0.20747352966062
 10
0.2270018846682249
 20
0.2075064229955452
 10
0.2258500971668914
 20
0.2071117071336546
 10
0.2261462705447267
 20
0.2083945340312376
 10
0.2260146379323556
 20
0.2093155377089837
 10
0.2256855553298844
 20
0.2101378620748223
 10
0.2252906574927711
 20
0.2107299365605297
 10
0.2247312178186509
 20
0.2108944011565499
 10
0.2237439710827816
 20
0.210466792652602
 10
0.2228225406530969
 20
0.2098747181668946
 10
0.2219340194480481
 20
0.209052393801056
 10
0.2214074879270211
 20
0.2081313894304384
 10
0.2212429460900141
 20
0.2069472418447646
 10
0.2214074879270211
 20
0.2057302009241622
 10
0.2215062123862992
 20
0.2046447319575262
 10
0.2215062123862992
 20
0.2041842301186532
  0
LWPOLYLINE
  5
1C36
330
2
100
AcDbEntity
  8
Profilo
  6
Continuous
370
     0
100
AcDbPolyline
 90
        3
 70
   128
 43
0.0
 10
0.2226250917345411
 20
0.2042500160956338
 10
0.2241059618383444
 20
0.2081313894304384
 10
0.2245008596754594
 20
0.2093813236859661
  0
LWPOLYLINE
  5
1C37
330
2
100
AcDbEntity
  8
Profilo
  6
Continuous
370
     0
100
AcDbPolyline
 90
        2
 70
   128
 43
0.0
 10
0.2226909080407259
 20
0.2061249167860546
 10
0.2225263672752616
 20
0.2070788137987277
  0
LWPOLYLINE
  5
1C38
330
2
100
AcDbEntity
  8
Profilo
  6
Continuous
370
     0
100
AcDbPolyline
 90
        2
 70
   128
 43
0.0
 10
0.2233161640210324
 20
0.2074406370185629
 10
0.2230528987962903
 20
0.2080656034534561
  0
LWPOLYLINE
  5
1C39
330
2
100
AcDbEntity
  8
Profilo
  6
Continuous
370
     0
100
AcDbPolyline
 90
        2
 70
   128
 43
0.0
 10
0.2247312178186509
 20
0.2044144813845237
 10
0.2251919330334934
 20
0.2051381271313262
  0
LWPOLYLINE
  5
1C3A
330
2
100
AcDbEntity
  8
Profilo
  6
Continuous
370
     0
100
AcDbPolyline
 90
        2
 70
   128
 43
0.0
 10
0.2261462705447267
 20
0.2052039131083068
 10
0.2264095368410116
 20
0.2062893820749445
  0
LWPOLYLINE
  5
1C3B
330
2
100
AcDbEntity
  8
Profilo
  6
Continuous
370
     0
100
AcDbPolyline
 90
        2
 70
   128
 43
0.0
 10
0.2271664254336891
 20
0.2050065551773615
 10
0.2282194884757449
 20
0.2049407692003791
  0
LWPOLYLINE
  5
1C3C
330
2
100
AcDbEntity
  8
Profilo
  6
Continuous
370
     0
100
AcDbPolyline
 90
       33
 70
   128
 43
0.0
 10
0.2216378449986702
 20
0.2090852864431114
 10
0.2215391205393924
 20
0.2096773602359492
 10
0.2211771297838294
 20
0.2098418255248391
 10
0.2206835064158938
 20
0.2094800023050038
 10
0.2203544248849654
 20
0.2087563565582013
 10
0.2200911585886807
 20
0.209512895639929
 10
0.2197949852108452
 20
0.2100720760978398
 10
0.2196304444453812
 20
0.2105654712716398
 10
0.2206505982628006
 20
0.2119798701231876
 10
0.2208480482529012
 20
0.2129337671358606
 10
0.2205189656504296
 20
0.2133942689747337
 10
0.2198278933639384
 20
0.2133284829977514
 10
0.2190710036997179
 20
0.2132298036858438
 10
0.2186431977095116
 20
0.2127364092049153
 10
0.2183141151070405
 20
0.2117167262152599
 10
0.2179192161983845
 20
0.2117496188573154
 10
0.2168003368501439
 20
0.2122430140311154
 10
0.2160105401043733
 20
0.2122430140311154
 10
0.2150232933685039
 20
0.2116180469033506
 10
0.2147271199906684
 20
0.2110917590874952
 10
0.2156485493488104
 20
0.2101378620748223
 10
0.2169319705340579
 20
0.2098747181668946
 10
0.2178863080452911
 20
0.2098089321899139
 10
0.2186102895564184
 20
0.2094142163280215
 10
0.2191039129243542
 20
0.2080327108114006
 10
0.2196304444453812
 20
0.2066183119598546
 10
0.2200911585886807
 20
0.2043158020726161
 10
0.2204860574973364
 20
0.2030329758679046
 10
0.220288608578781
 20
0.2017830416123769
 10
0.2199266178232164
 20
0.2004344287378115
 10
0.2197620770577522
 20
0.1987897793132629
 10
0.2199266178232164
 20
0.1975727383926622
 10
0.2201569748948668
 20
0.1959609816101709
  0
LWPOLYLINE
  5
1C3D
330
2
100
AcDbEntity
  8
Profilo
  6
Continuous
370
     0
100
AcDbPolyline
 90
        9
 70
   128
 43
0.0
 10
0.2152207433586042
 20
0.1970793432188622
 10
0.2154181922771596
 20
0.1988226719553201
 10
0.2149245689092258
 20
0.2003686427608291
 10
0.2143980373881971
 20
0.2016514696584122
 10
0.2136082406424282
 20
0.2024737947171222
 10
0.2129500754374853
 20
0.20273693862505
 10
0.2122590031509941
 20
0.2025395806941046
 10
0.2116995634768739
 20
0.2017172556353945
 10
0.2116008390175961
 20
0.2012238611544661
  0
LWPOLYLINE
  5
1C3E
330
2
100
AcDbEntity
  8
Profilo
  6
Continuous
370
     0
100
AcDbPolyline
 90
       14
 70
   128
 43
0.0
 10
0.211995737926252
 20
0.1965530554030068
 10
0.2125551776003723
 20
0.1974411664386992
 10
0.2126209939065586
 20
0.1990858158632478
 10
0.2120944623855299
 20
0.2003686427608291
 10
0.2114033900990386
 20
0.2014541117274669
 10
0.2106794085879116
 20
0.2020461855203046
 10
0.2102516025977053
 20
0.2021777574742676
 10
0.209527621086578
 20
0.2015856836814316
 10
0.2090998150963716
 20
0.2009936098885938
 10
0.2085403754222515
 20
0.2001054988529032
 10
0.2081783846666869
 20
0.19898713724421
 10
0.2082112928197801
 20
0.1978029896585345
 10
0.2086061917284379
 20
0.196750413333954
 10
0.2090998150963716
 20
0.195500479771296
  0
LWPOLYLINE
  5
1C3F
330
2
100
AcDbEntity
  8
Profilo
  6
Continuous
370
     0
100
AcDbPolyline
 90
        2
 70
   128
 43
0.0
 10
0.2102845107507985
 20
0.1961912328760431
 10
0.2103174189038917
 20
0.2006975726457392
  0
LWPOLYLINE
  5
1C40
330
2
100
AcDbEntity
  8
Profilo
  6
Continuous
370
     0
100
AcDbPolyline
 90
        2
 70
   128
 43
0.0
 10
0.2132462498868637
 20
0.1970793432188622
 10
0.2129829846621214
 20
0.2010593958655762
  0
LWPOLYLINE
  5
1C41
330
2
100
AcDbEntity
  8
Profilo
  6
Continuous
370
     0
100
AcDbPolyline
 90
       13
 70
   128
 43
0.0
 10
0.2078365582048594
 20
0.1989793563083038
 10
0.2060990042926221
 20
0.2002950758479423
 10
0.2047826760258242
 20
0.2006634778733365
 10
0.2036243071081809
 20
0.2007161062392009
 10
0.2024659381905376
 20
0.2006108488146024
 10
0.2024132847169724
 20
0.1995582731828915
 10
0.203361040811896
 20
0.1995056441241592
 10
0.2042561445047972
 20
0.1993477576408283
 10
0.2052039016712637
 20
0.1989793563083038
 10
0.206362270588907
 20
0.1978215232519962
 10
0.2074153336309628
 20
0.195874257779034
 10
0.2076259464536825
 20
0.1942427652727337
 10
0.207783905802837
 20
0.1918744694085146
  0
LWPOLYLINE
  5
1C42
330
2
100
AcDbEntity
  8
Profilo
  6
Continuous
370
     0
100
AcDbPolyline
 90
       10
 70
   128
 43
0.0
 10
0.2137391531779904
 20
0.196500836523621
 10
0.2150028290427659
 20
0.1960798068252321
 10
0.2153187477410732
 20
0.1957114047998361
 10
0.2152134418654854
 20
0.1943956852601976
 10
0.2151607883919187
 20
0.1929220792372282
 10
0.2151607883919187
 20
0.1922379049380436
 10
0.2155293605637929
 20
0.1941851697181343
 10
0.2160032386112547
 20
0.1948167156514562
 10
0.2167403829550014
 20
0.1953956325260458
 10
0.2167930364285682
 20
0.1959745487077638
  0
LWPOLYLINE
  5
1C43
330
2
100
AcDbEntity
  8
Profilo
  6
Continuous
370
     0
100
AcDbPolyline
 90
        5
 70
   128
 43
0.0
 10
0.2243224360005649
 20
0.1953956325260458
 10
0.2250069268707484
 20
0.1957114047998361
 10
0.2252175396934679
 20
0.1957114047998361
 10
0.2249542733971814
 20
0.1950272305006515
 10
0.2247436616460044
 20
0.1950272305006515
  0
ELLIPSE
  5
1C44
330
2
100
AcDbEntity
  8
Profilo
  6
Continuous
370
     0
100
AcDbEllipse
 10
0.2034270387445971
 20
0.1939277911857791
 30
0.0
 11
-0.0008552846240659
 21
-0.0007531163013732
 31
0.0
210
0.0
220
0.0
230
0.9999999999999998
 40
0.8856997419174092
 41
0.0
 42
6.283185307179585
  0
ELLIPSE
  5
1C45
330
2
100
AcDbEntity
  8
Profilo
  6
Continuous
370
     0
100
AcDbEllipse
 10
0.2043943253156495
 20
0.1957800502534419
 30
0.0
 11
-0.0008858305609008
 21
-0.0004070898364555
 31
0.0
210
0.0
220
0.0
230
1.0
 40
0.8510245698034522
 41
0.0
 42
6.283185307179585
  0
ELLIPSE
  5
1C46
330
2
100
AcDbEntity
  8
Profilo
  6
Continuous
370
     0
100
AcDbEllipse
 10
0.2055448864361675
 20
0.1971438013094997
 30
0.0
 11
-0.0005090980542977
 21
-0.0004885080116078
 31
0.0
210
0.0
220
0.0
230
1.0
 40
0.8656006181371376
 41
0.0
 42
6.283185307179585
  0
ELLIPSE
  5
1C47
330
2
100
AcDbEntity
  8
Profilo
  6
Continuous
370
     0
100
AcDbEllipse
 10
0.2043128693054992
 20
0.1978867403822826
 30
0.0
 11
-0.0005600081276132
 21
-0.0006208119832729
 31
0.0
210
0.0
220
0.0
230
1.0
 40
0.8948011605061346
 41
0.0
 42
6.283185307179585
  0
ELLIPSE
  5
1C48
330
2
100
AcDbEntity
  8
Profilo
  6
Continuous
370
     0
100
AcDbEllipse
 10
0.2064612629339038
 20
0.1952508329810408
 30
0.0
 11
-0.0006923731395364
 21
-0.0002849630933801
 31
0.0
210
0.0
220
0.0
230
1.0
 40
0.9121712030365268
 41
0.0
 42
6.283185307179585
  0
ELLIPSE
  5
1C49
330
2
100
AcDbEntity
  8
Profilo
  6
Continuous
370
     0
100
AcDbEllipse
 10
0.2052496099397156
 20
0.1936937142353466
 30
0.0
 11
-0.0006618272027013
 21
-0.0008040024443213
 31
0.0
210
0.0
220
0.0
230
1.0
 40
0.6828613750677927
 41
0.0
 42
6.283185307179585
  0
ELLIPSE
  5
1C4A
330
2
100
AcDbEntity
  8
Profilo
  6
Continuous
370
     0
100
AcDbEllipse
 10
0.2066852652205593
 20
0.1926759892977725
 30
0.0
 11
-0.0005090980542977
 21
-0.0006818757012458
 31
0.0
210
0.0
220
0.0
230
1.0
 40
0.8345986087823987
 41
0.0
 42
6.283185307179585
  0
ELLIPSE
  5
1C4B
330
2
100
AcDbEntity
  8
Profilo
  6
Continuous
370
     0
100
AcDbEllipse
 10
0.2049645147078454
 20
0.1916887963924023
 30
0.0
 11
-0.0004989157181717
 21
-0.000793825562167
 31
0.0
210
0.0
220
0.0
230
1.0
 40
0.7514979673535091
 41
0.0
 42
6.283185307179585
  0
ELLIPSE
  5
1C4C
330
2
100
AcDbEntity
  8
Profilo
  6
Continuous
370
     0
100
AcDbEllipse
 10
0.2063492609869175
 20
0.1907830213157494
 30
0.0
 11
-0.0006821913391818
 21
-0.0008040024443213
 31
0.0
210
0.0
220
0.0
230
1.0
 40
0.816441103618377
 41
0.0
 42
6.283185307179585
  0
ELLIPSE
  5
1C4D
330
2
100
AcDbEntity
  8
Profilo
  6
Continuous
370
     0
100
AcDbEllipse
 10
0.205717979185281
 20
0.1891953705378513
 30
0.0
 11
-0.0009265582980904
 21
-0.0002340766039966
 31
0.0
210
0.0
220
0.0
230
1.0
 40
0.61551108465787
 41
0.0
 42
6.283185307179585
  0
LWPOLYLINE
  5
1C4E
330
2
100
AcDbEntity
  8
Profilo
  6
Continuous
370
     0
100
AcDbPolyline
 90
       15
 70
   128
 43
0.0
 10
0.2023282856503197
 20
0.199646825499324
 10
0.2018395517325036
 20
0.1997770941638444
 10
0.2019372978731411
 20
0.2004284381793213
 10
0.2012204881984452
 20
0.200786677179972
 10
0.200438513715629
 20
0.2007541101870598
 10
0.2000475270099915
 20
0.2002981695148009
 10
0.199917197393751
 20
0.1996142585064101
 10
0.1993958810718748
 20
0.199028049169629
 10
0.1984835780443592
 20
0.1987675111477168
 10
0.1977993507737252
 20
0.1982790034825439
 10
0.1970173762909091
 20
0.197627659467067
 10
0.196235401808093
 20
0.1968460467870679
 10
0.1956489206780947
 20
0.1958364637709402
 10
0.1957140854862149
 20
0.1945989104186823
 10
0.1959095788390328
 20
0.193784730745771
  0
LWPOLYLINE
  5
1C4F
330
2
100
AcDbEntity
  8
Profilo
  6
Continuous
370
     0
100
AcDbPolyline
 90
       12
 70
   128
 43
0.0
 10
0.1995913754962355
 20
0.1864245453109192
 10
0.1995913754962355
 20
0.1869130529760921
 10
0.1995913754962355
 20
0.1878575020063935
 10
0.2000149446059314
 20
0.188704248672217
 10
0.2006340070684469
 20
0.189355592687694
 10
0.2016766397122012
 20
0.1898115333599546
 10
0.2025889438112596
 20
0.1896161300167383
 10
0.2030450953250156
 20
0.1886716816793049
 10
0.2029473481128352
 20
0.1870107546477002
 10
0.2032405886778335
 20
0.1861640079818768
 10
0.2042506389175294
 20
0.1860011716315726
 10
0.2046090442906479
 20
0.1861965749747889
  0
LWPOLYLINE
  5
1C50
330
2
100
AcDbEntity
  8
Profilo
  6
Continuous
370
     0
100
AcDbPolyline
 90
       15
 70
   128
 43
0.0
 10
0.199917197393751
 20
0.1898441003528668
 10
0.1996239579002956
 20
0.1902349070393012
 10
0.1991026415784176
 20
0.1908862503619084
 10
0.1982880846915413
 20
0.1916678630419058
 10
0.1975386926127853
 20
0.1923192070573827
 10
0.1965286423730912
 20
0.1929705510728597
 10
0.1956163393455774
 20
0.1935893274025547
 10
0.194769200054641
 20
0.1938172984315547
 10
0.1940849727840053
 20
0.1934264917451203
 10
0.1935636564621272
 20
0.1925146104006008
 10
0.1933355807052492
 20
0.1911142213909085
 10
0.1926187710305534
 20
0.1898441003528668
 10
0.1924232766061926
 20
0.1890950553586515
 10
0.1918367965477372
 20
0.1869130529760921
 10
0.192521023818373
 20
0.1860337386244848
  0
LWPOLYLINE
  5
1C51
330
2
100
AcDbEntity
  8
Profilo
  6
Continuous
370
     0
100
AcDbPolyline
 90
       43
 70
   128
 43
0.0
 10
0.1995577440517049
 20
0.1860571721982418
 10
0.198840934377009
 20
0.1862851425343721
 10
0.1985476938120108
 20
0.1867736501995432
 10
0.1980589598941929
 20
0.1871644561931078
 10
0.1973747326235571
 20
0.1867736501995432
 10
0.1970163272504386
 20
0.1859594705266336
 10
0.1970489096544987
 20
0.1847870511602001
 10
0.1964950109285606
 20
0.1849173198247223
 10
0.1959085297985623
 20
0.1849824545034183
 10
0.1958759484660451
 20
0.1840380061659848
 10
0.1961040242229248
 20
0.1832238258002037
 10
0.1959411122026224
 20
0.1827678851279449
 10
0.1951591377198063
 20
0.1831912588072915
 10
0.1939861765313544
 20
0.1847544841672879
 10
0.1935951898257169
 20
0.1853406935040689
 10
0.1931716196444781
 20
0.1856989325047196
 10
0.1925525571819626
 20
0.1859920375195459
 10
0.1918683299113268
 20
0.1865131128705007
 10
0.1911515191650881
 20
0.1868713518711532
 10
0.1898156470278784
 20
0.1870667552143695
 10
0.1888381791922427
 20
0.1870667552143695
 10
0.1881213695175485
 20
0.1869364858569775
 10
0.1878607113566086
 20
0.1858292018621115
 10
0.1886426858394248
 20
0.1842659765021151
 10
0.1893594955141207
 20
0.1834192291434201
 10
0.1906302039147547
 20
0.1823770791343802
 10
0.1919986584560245
 20
0.1812697944466426
 10
0.1933671140688389
 20
0.1805207487595575
 10
0.1950613915791688
 20
0.1799996741014725
 10
0.1955501254969867
 20
0.1795111657434298
 10
0.1949310619629283
 20
0.1797065690866462
 10
0.1939861765313544
 20
0.1797065690866462
 10
0.193627772229777
 20
0.1795111657434298
 10
0.1936614304628808
 20
0.1786891753411806
 10
0.1945411510863344
 20
0.1773213533244005
 10
0.1950624674082106
 20
0.1762792033153588
 10
0.1936288480588206
 20
0.1759209643147082
 10
0.1935962656547587
 20
0.1751393516347109
 10
0.1940524171685165
 20
0.1742600372831036
 10
0.1943456577335147
 20
0.1738692305966691
 10
0.1943438071789785
 20
0.1730784838046451
 10
0.1940505666139785
 20
0.172362005803342
 10
0.1937899084530403
 20
0.1721014684742995
  0
LWPOLYLINE
  5
1C52
330
2
100
AcDbEntity
  8
Profilo
  6
Continuous
370
     0
100
AcDbPolyline
 90
       10
 70
   128
 43
0.0
 10
0.1970155525249424
 20
0.1741532014994687
 10
0.1985795014905747
 20
0.1765306065323764
 10
0.1997198813465111
 20
0.1775727565414163
 10
0.2002737790009046
 20
0.178191533563981
 10
0.200143450456207
 20
0.1783543692214153
 10
0.1992311463571503
 20
0.1788103098936742
 10
0.1996547165383908
 20
0.1800152962530199
 10
0.2002086152643272
 20
0.1807643419401068
 10
0.201186083099963
 20
0.1811877149265819
 10
0.201642234613719
 20
0.1812528496052779
  0
LWPOLYLINE
  5
1C53
330
2
100
AcDbEntity
  8
Profilo
  6
Continuous
370
     0
100
AcDbPolyline
 90
        6
 70
   128
 43
0.0
 10
0.1961032494974286
 20
0.1750976498369003
 10
0.1968200591721245
 20
0.1773773531981999
 10
0.1972762106858823
 20
0.1784846378859358
 10
0.1976346160590008
 20
0.1800804302388461
 10
0.1969829701208823
 20
0.1815133869343204
 10
0.1962661604461864
 20
0.1826532386149702
  0
LWPOLYLINE
  5
1C54
330
2
100
AcDbEntity
  8
Profilo
  6
Continuous
370
     0
100
AcDbPolyline
 90
        2
 70
   128
 43
0.0
 10
0.198449172945877
 20
0.1817739249562345
 10
0.1985795014905747
 20
0.185193479998182
  0
LWPOLYLINE
  5
1C55
330
2
100
AcDbEntity
  8
Profilo
  6
Continuous
370
     0
100
AcDbPolyline
 90
        2
 70
   128
 43
0.0
 10
0.1999805384359063
 20
0.1821647309497974
 10
0.2009905886756005
 20
0.1867567053581785
  0
LWPOLYLINE
  5
1C56
330
2
100
AcDbEntity
  8
Profilo
  6
Continuous
370
     0
100
AcDbPolyline
 90
        2
 70
   128
 43
0.0
 10
0.2010231710796606
 20
0.1827183732936662
 10
0.2026522848534131
 20
0.1850957783265739
  0
LWPOLYLINE
  5
1C57
330
2
100
AcDbEntity
  8
Profilo
  6
Continuous
370
     0
100
AcDbPolyline
 90
        3
 70
   128
 43
0.0
 10
0.2000443509569247
 20
0.1985613516825926
 10
0.2000443509569247
 20
0.1961513789639012
 10
0.2003050091178629
 20
0.1944904519322965
  0
LWPOLYLINE
  5
1C58
330
2
100
AcDbEntity
  8
Profilo
  6
Continuous
370
     0
100
AcDbPolyline
 90
        3
 70
   128
 43
0.0
 10
0.2024228557378904
 20
0.1950115272832531
 10
0.2024554381419505
 20
0.1980077093387238
 10
0.201836375679435
 20
0.1992778296838957
  0
LWPOLYLINE
  5
1C59
330
2
100
AcDbEntity
  8
Profilo
  6
Continuous
370
     0
100
AcDbPolyline
 90
        3
 70
   128
 43
0.0
 10
0.1974377693475364
 20
0.1932854662658223
 10
0.1973400232068989
 20
0.1958257069561627
 10
0.1975029341556584
 20
0.1972260966587265
  0
CIRCLE
  5
1C5A
330
2
100
AcDbEntity
  8
Profilo
  6
Continuous
370
     0
100
AcDbCircle
 10
0.1955154160803285
 20
0.1902567172174376
 30
0.0
 40
0.0002950434510173
  0
CIRCLE
  5
1C5B
330
2
100
AcDbEntity
  8
Profilo
  6
Continuous
370
     0
100
AcDbCircle
 10
0.1945379482446945
 20
0.1914291358909997
 30
0.0
 40
0.0002950434510173
  0
CIRCLE
  5
1C5C
330
2
100
AcDbEntity
  8
Profilo
  6
Continuous
370
     0
100
AcDbCircle
 10
0.1960041499981464
 20
0.1914291358909997
 30
0.0
 40
0.0002950434510173
  0
CIRCLE
  5
1C5D
330
2
100
AcDbEntity
  8
Profilo
  6
Continuous
370
     0
100
AcDbCircle
 10
0.1966883772687822
 20
0.1904521198677842
 30
0.0
 40
0.0002950434510173
  0
CIRCLE
  5
1C5E
330
2
100
AcDbEntity
  8
Profilo
  6
Continuous
370
     0
100
AcDbCircle
 10
0.197372605610959
 20
0.1901264478600457
 30
0.0
 40
0.0002950434510173
  0
CIRCLE
  5
1C5F
330
2
100
AcDbEntity
  8
Profilo
  6
Continuous
370
     0
100
AcDbCircle
 10
0.1983826558506549
 20
0.1894425368516566
 30
0.0
 40
0.0002950434510173
  0
CIRCLE
  5
1C60
330
2
100
AcDbEntity
  8
Profilo
  6
Continuous
370
     0
100
AcDbCircle
 10
0.1963299729672048
 20
0.1889214621935698
 30
0.0
 40
0.0002950434510173
  0
CIRCLE
  5
1C61
330
2
100
AcDbEntity
  8
Profilo
  6
Continuous
370
     0
100
AcDbCircle
 10
0.1957434918372065
 20
0.1874885054980955
 30
0.0
 40
0.0002950434510173
  0
CIRCLE
  5
1C62
330
2
100
AcDbEntity
  8
Profilo
  6
Continuous
370
     0
100
AcDbCircle
 10
0.1949289360218731
 20
0.1883026851710068
 30
0.0
 40
0.0002950434510173
  0
CIRCLE
  5
1C63
330
2
100
AcDbEntity
  8
Profilo
  6
Continuous
370
     0
100
AcDbCircle
 10
0.1934301518643611
 20
0.1890842978510042
 30
0.0
 40
0.0002950434510173
  0
CIRCLE
  5
1C64
330
2
100
AcDbEntity
  8
Profilo
  6
Continuous
370
     0
100
AcDbCircle
 10
0.1932998222481206
 20
0.1877164758342258
 30
0.0
 40
0.0002950434510173
  0
CIRCLE
  5
1C65
330
2
100
AcDbEntity
  8
Profilo
  6
Continuous
370
     0
100
AcDbCircle
 10
0.1943098724878147
 20
0.1869348631542267
 30
0.0
 40
0.0002950434510173
  0
CIRCLE
  5
1C66
330
2
100
AcDbEntity
  8
Profilo
  6
Continuous
370
     0
100
AcDbCircle
 10
0.1942772900837564
 20
0.1856647428090566
 30
0.0
 40
0.0002950434510173
  0
CIRCLE
  5
1C67
330
2
100
AcDbEntity
  8
Profilo
  6
Continuous
370
     0
100
AcDbCircle
 10
0.1952873403234505
 20
0.1863160868245335
 30
0.0
 40
0.0002950434510173
  0
CIRCLE
  5
1C68
330
2
100
AcDbEntity
  8
Profilo
  6
Continuous
370
     0
100
AcDbCircle
 10
0.194896353617813
 20
0.184590025114233
 30
0.0
 40
0.0002950434510173
  0
CIRCLE
  5
1C69
330
2
100
AcDbEntity
  8
Profilo
  6
Continuous
370
     0
100
AcDbCircle
 10
0.1961344796143869
 20
0.1856647428090566
 30
0.0
 40
0.0002950434510173
  0
CIRCLE
  5
1C6A
330
2
100
AcDbEntity
  8
Profilo
  6
Continuous
370
     0
100
AcDbCircle
 10
0.1968838716931429
 20
0.187227968169053
 30
0.0
 40
0.0002950434510173
  0
CIRCLE
  5
1C6B
330
2
100
AcDbEntity
  8
Profilo
  6
Continuous
370
     0
100
AcDbCircle
 10
0.1982197438303526
 20
0.1879118791774421
 30
0.0
 40
0.0002950434510173
  0
LWPOLYLINE
  5
1C6C
330
2
100
AcDbEntity
  8
Profilo
  6
Continuous
370
     0
100
AcDbPolyline
 90
      104
 70
   128
 43
0.0
 10
0.1926523135370253
 20
0.1938910233189213
 10
0.1931214982267153
 20
0.1958190013552987
 10
0.1932778931232775
 20
0.1971216886933829
 10
0.1933300247554655
 20
0.1986328067261458
 10
0.1935906829164053
 20
0.197903301373382
 10
0.1942162625026575
 20
0.1970174740389141
 10
0.1949461053532857
 20
0.1970695813661476
 10
0.1952588951464118
 20
0.1977990867189132
 10
0.195780210396747
 20
0.1988933440551883
 10
0.1964579216151872
 20
0.1996228494079522
 10
0.1975005542589432
 20
0.200300246740611
 10
0.1977090807876933
 20
0.2011860747679486
 10
0.1975526858911294
 20
0.2017592574461386
 10
0.1966664481439391
 20
0.2017592574461386
 10
0.1953110267785998
 20
0.2017071494260336
 10
0.1946333155601596
 20
0.2012902894224174
 10
0.1942162625026575
 20
0.2019676874479459
 10
0.1933821563876534
 20
0.2021761174497549
 10
0.1928087084335892
 20
0.2021240101225197
 10
0.1929651033301514
 20
0.2009776447661395
 10
0.1933300247554655
 20
0.1999876020843332
 10
0.1931736298589033
 20
0.199779172082526
 10
0.1927044451692133
 20
0.199779172082526
 10
0.191713944157647
 20
0.2004565694151847
 10
0.191088364571393
 20
0.2005086767424183
 10
0.1906713115138909
 20
0.2013423974425224
 10
0.1899936013669936
 20
0.2018634721006074
 10
0.1894201534129276
 20
0.2016550420987984
 10
0.1894722850451156
 20
0.2008213220915658
 10
0.1888467054588634
 20
0.2005607847625233
 10
0.1886903105622995
 20
0.2011339674407133
 10
0.1884296524013613
 20
0.2023324401243287
 10
0.1878562044472953
 20
0.2026450847806047
 10
0.1873348881254191
 20
0.202540870126136
 10
0.1876476779185452
 20
0.2016550420987984
 10
0.1872306248610431
 20
0.2011860747679486
 10
0.186344387113851
 20
0.2016029347715649
 10
0.1854581493666607
 20
0.2022803321042237
 10
0.1854581493666607
 20
0.2036351274624111
 10
0.1853017544700968
 20
0.2041562028133677
 10
0.186500782010415
 20
0.2045209554897487
 10
0.1874912830219813
 20
0.204937815493365
 10
0.1882732575047974
 20
0.2059278581751713
 10
0.187979073982073
 20
0.2071450328197835
 10
0.1874151991920125
 20
0.207478076969823
 10
0.1862361891440567
 20
0.2076574084885263
 10
0.1857235758933722
 20
0.2076574084885263
 10
0.1862618193779724
 20
0.2082466415122437
 10
0.1863643424567278
 20
0.209194536880498
 10
0.1862361891440567
 20
0.2100655762795207
 10
0.1858517292060433
 20
0.2106804274977355
 10
0.1852365928766051
 20
0.2110903283098779
 10
0.1846214576187097
 20
0.211039090535142
 10
0.1841088443680252
 20
0.2107316652724714
 10
0.1833911860313762
 20
0.2100143385047848
 10
0.1826652093074255
 20
0.2090665768605402
 10
0.1823063806748724
 20
0.2084261067549584
 10
0.1823832724481658
 20
0.2079137310862138
 10
0.182332010908788
 20
0.2076319240180386
 10
0.1816656141115167
 20
0.2075294491614384
 10
0.180845432696114
 20
0.2070683105745599
 10
0.1803584507508897
 20
0.2065559342129455
 10
0.1799996210467938
 20
0.2058129892507635
 10
0.1803840809848072
 20
0.2051212813704439
 10
0.1814349377200919
 20
0.2047369994456685
 10
0.1823832724481658
 20
0.2046857616709343
 10
0.1836135440354993
 20
0.2046089057017011
 10
0.1837673275820861
 20
0.2046345245890682
 10
0.1838442193553813
 20
0.2034304403471361
 10
0.1840492644413458
 20
0.2028668269036573
 10
0.184177417754017
 20
0.2023800701222815
 10
0.1838698506608416
 20
0.2024569260915148
 10
0.1834597594173679
 20
0.202610638722851
 10
0.1828958856988503
 20
0.2024313072041459
 10
0.1825883175341303
 20
0.2021495008288423
 10
0.18256268622867
 20
0.2012016047677166
 10
0.1825370559947543
 20
0.2004586598055345
 10
0.1822294878300343
 20
0.1999462834439201
 10
0.1815118294933853
 20
0.1988446754443296
 10
0.1812298926341274
 20
0.1979480171579398
 10
0.1817937674241878
 20
0.1973587848270921
 10
0.1829471461666834
 20
0.1973331659397251
 10
0.1838442193553813
 20
0.1975381163457972
 10
0.1842799408327707
 20
0.1979736360453068
 10
0.1846131392314063
 20
0.1982042053387461
 10
0.1853564278019728
 20
0.1979223982705727
 10
0.1861253476779996
 20
0.1980248738200427
 10
0.1867404840074378
 20
0.1985372494887874
 10
0.1863303927639641
 20
0.1992545762564722
 10
0.1858690410526573
 20
0.199920664556553
 10
0.1851513827160083
 20
0.2009966543616461
 10
0.1851257524820908
 20
0.2013040803171884
 10
0.1857921492793639
 20
0.200791703955574
 10
0.1869711593273198
 20
0.2001512338499922
 10
0.1874581423440869
 20
0.200074377880759
 10
0.1886115221581253
 20
0.199920664556553
 10
0.1895342255807388
 20
0.1997669519252168
 10
0.190380037230059
 20
0.1994082888878084
 10
0.1911745873400032
 20
0.198895912526194
 10
0.1917897236694397
 20
0.1983322990827153
 10
0.1917384621300637
 20
0.1974868785710613
 10
0.1917640923639812
 20
0.1960778446159286
 10
0.1911745873400032
 20
0.1949249988416022
 10
0.1910720642612478
 20
0.1945919539986912
  0
ELLIPSE
  5
1C6D
330
2
100
AcDbEntity
  8
Profilo
  6
Continuous
370
     0
100
AcDbEllipse
 10
0.1875505811328864
 20
0.1964746740793317
 30
0.0
 11
-0.0010581732300042
 21
-0.0004828555739297
 31
0.0
210
0.0
220
0.0
230
1.0
 40
0.7165684840575618
 41
0.0
 42
6.283185307179585
  0
ELLIPSE
  5
1C6E
330
2
100
AcDbEntity
  8
Profilo
  6
Continuous
370
     0
100
AcDbEllipse
 10
0.186961874944118
 20
0.1947624344429753
 30
0.0
 11
-0.000475014418676
 21
-0.0005991455757696
 31
0.0
210
0.0
220
0.0
230
0.9999999999999998
 40
0.8863280300931869
 41
0.0
 42
6.283185307179585
  0
ELLIPSE
  5
1C6F
330
2
100
AcDbEntity
  8
Profilo
  6
Continuous
370
     0
100
AcDbEllipse
 10
0.1887940734161553
 20
0.1951015734285187
 30
0.0
 11
-0.0009047893689068
 21
-0.0004860992472552
 31
0.0
210
0.0
220
0.0
230
1.0
 40
0.7260280798044806
 41
0.0
 42
6.283185307179585
  0
ELLIPSE
  5
1C70
330
2
100
AcDbEntity
  8
Profilo
  6
Continuous
370
     0
100
AcDbEllipse
 10
0.1888393128846004
 20
0.1933493555097638
 30
0.0
 11
-0.0008821690989127
 21
-0.0003165299277014
 31
0.0
210
0.0
220
0.0
230
1.0
 40
0.8474142716970078
 41
0.0
 42
6.283185307179585
  0
ELLIPSE
  5
1C71
330
2
100
AcDbEntity
  8
Profilo
  6
Continuous
370
     0
100
AcDbEllipse
 10
0.1902530460056322
 20
0.1942650310132348
 30
0.0
 11
-0.0006899016259057
 21
-0.0000113045289209
 31
0.0
210
0.0
220
0.0
230
1.0
 40
0.8033378795834115
 41
0.0
 42
6.283185307179585
  0
ELLIPSE
  5
1C72
330
2
100
AcDbEntity
  8
Profilo
  6
Continuous
370
     0
100
AcDbEllipse
 10
0.1902304257356373
 20
0.1916988790441665
 30
0.0
 11
-0.0007803805627964
 21
-0.0010400260144709
 31
0.0
210
0.0
220
0.0
230
1.0
 40
0.7744537340651793
 41
0.0
 42
6.283185307179585
  0
ELLIPSE
  5
1C73
330
2
100
AcDbEntity
  8
Profilo
  6
Continuous
370
     0
100
AcDbEllipse
 10
0.1923906100860175
 20
0.1928971701957054
 30
0.0
 11
-0.0010405072384714
 21
-0.0004974037761761
 31
0.0
210
0.0
220
0.0
230
1.0
 40
0.7777740223686051
 41
0.0
 42
6.283185307179585
  0
ELLIPSE
  5
1C74
330
2
100
AcDbEntity
  8
Profilo
  6
Continuous
370
     0
100
AcDbEllipse
 10
0.1919947650050051
 20
0.1909866871398838
 30
0.0
 11
-0.0007577613643452
 21
-0.0005087086515322
 31
0.0
210
0.0
220
0.0
230
1.0
 40
0.8242370819100013
 41
0.0
 42
6.283185307179585
  0
ELLIPSE
  5
1C75
330
2
100
AcDbEntity
  8
Profilo
  6
Continuous
370
     0
100
AcDbEllipse
 10
0.1909768775007563
 20
0.189245773750049
 30
0.0
 11
-0.0010518173734684
 21
-0.0005087086515322
 31
0.0
210
0.0
220
0.0
230
1.0
 40
0.7661787591732359
 41
0.0
 42
6.283185307179585
  0
ELLIPSE
  5
1C76
330
2
100
AcDbEntity
  8
Profilo
  6
Continuous
370
     0
100
AcDbEllipse
 10
0.1911125959060935
 20
0.1875839927555317
 30
0.0
 11
-0.0007351410943511
 21
-0.0003165295812661
 31
0.0
210
0.0
220
0.0
230
1.0
 40
0.8972861480905564
 41
0.0
 42
6.283185307179585
  0
ELLIPSE
  5
1C77
330
2
100
AcDbEntity
  8
Profilo
  6
Continuous
370
     0
100
AcDbEllipse
 10
0.1873124810924558
 20
0.1930667398616959
 30
0.0
 11
-0.000531563486347
 21
-0.0003052250523452
 31
0.0
210
0.0
220
0.0
230
1.0
 40
0.9145895039097473
 41
0.0
 42
6.283185307179585
  0
LWPOLYLINE
  5
1C78
330
2
100
AcDbEntity
  8
Profilo
  6
Continuous
370
     0
100
AcDbPolyline
 90
       51
 70
   128
 43
0.0
 10
0.1895857635781766
 20
0.1903423234484305
 10
0.1888393128846004
 20
0.1893249061453663
 10
0.1883869182001472
 20
0.1887596748492286
 10
0.1879797629841391
 20
0.1884431445750931
 10
0.187640467506571
 20
0.1886466281742796
 10
0.1877988051103567
 20
0.1889631577555453
 10
0.188341678731702
 20
0.1891892504125736
 10
0.1886131155423729
 20
0.1895057799938393
 10
0.1887488339477101
 20
0.1899579653078978
 10
0.1887714531461604
 20
0.1904779784883499
 10
0.1887940734161553
 20
0.1911562564594367
 10
0.1888166926146055
 20
0.1918345344305235
 10
0.1887488339477101
 20
0.1922641106867382
 10
0.1884321576685923
 20
0.1924902033437665
 10
0.1880928621910243
 20
0.1924902033437665
 10
0.187572607768131
 20
0.1922188925710544
 10
0.1871202130836778
 20
0.1921962828203427
 10
0.1867130578676697
 20
0.1920380180297099
 10
0.1864190018585468
 20
0.1917214884484442
 10
0.1861249447778792
 20
0.1913145219429411
 10
0.186102325579429
 20
0.1918571441812351
 10
0.1858535090387512
 20
0.1925128124016084
 10
0.1854689730211934
 20
0.1928971705421412
 10
0.1847225223276172
 20
0.1928971705421412
 10
0.1840665494993885
 20
0.192942388657825
 10
0.1833200988058123
 20
0.192942388657825
 10
0.1827093665175716
 20
0.1929197795999831
 10
0.1825284086437893
 20
0.1924449852280845
 10
0.1825736481122344
 20
0.1915858327156533
 10
0.1826867462475767
 20
0.1909075547445664
 10
0.1830712822651346
 20
0.1899805750586095
 10
0.1836593942833804
 20
0.189415343069602
 10
0.1834784374811409
 20
0.1890083765640989
 10
0.1830034225266945
 20
0.1881266149938257
 10
0.1830034225266945
 20
0.1874483370227407
 10
0.1832974796073603
 20
0.1867700590516539
 10
0.1839308310940531
 20
0.186498747586072
 10
0.1847677617960624
 20
0.1864761385282301
 10
0.1855142124896385
 20
0.1865213573367837
 10
0.1860570861109838
 20
0.1867248402431003
 10
0.1867130578676697
 20
0.1870413705172376
 10
0.1871202130836778
 20
0.187538773946978
 10
0.1874595096327887
 20
0.188171833802381
 10
0.1876630867050213
 20
0.1878326944704019
 10
0.1876178472365761
 20
0.187538773946978
 10
0.1868940157414503
 20
0.1863178737375972
 10
0.1865567336929359
 20
0.1850001310160487
 10
0.186476883389777
 20
0.1843616265841228
 10
0.186476883389777
 20
0.1831245235977002
 10
0.1866964714555788
 20
0.1821867191956561
 10
0.1865966583087431
 20
0.1813287286270815
  0
LWPOLYLINE
  5
1C79
330
2
100
AcDbEntity
  8
Profilo
  6
Continuous
370
     0
100
AcDbPolyline
 90
        5
 70
   128
 43
0.0
 10
0.1880339594794378
 20
0.1813087753419329
 10
0.1879740720199539
 20
0.1827254578947036
 10
0.187994033792086
 20
0.1835834484632781
 10
0.1880139966357628
 20
0.1844015331544218
 10
0.1880339594794378
 20
0.1849203178754491
  0
LWPOLYLINE
  5
1C7A
330
2
100
AcDbEntity
  8
Profilo
  6
Continuous
370
     0
100
AcDbPolyline
 90
       34
 70
   128
 43
0.0
 10
0.1888979712844108
 20
0.1575172819975905
 10
0.1889490753069871
 20
0.1609907479087291
 10
0.1887957632392616
 20
0.1626253202244769
 10
0.1888979712844108
 20
0.1635447670221723
 10
0.1883358270360869
 20
0.1644131333267401
 10
0.1873137476561293
 20
0.1655879818972044
 10
0.1864449792723526
 20
0.166864991453926
 10
0.1859339390466033
 20
0.1684995637696756
 10
0.1859339390466033
 20
0.1704916981515798
 10
0.1860361470917524
 20
0.171462225442403
 10
0.1873648516787039
 20
0.1708492609106061
 10
0.1885402431263869
 20
0.1702362963788091
 10
0.1885913471489615
 20
0.1705427786447076
 10
0.1880803069232104
 20
0.1729435569716373
 10
0.188438035081236
 20
0.1751400133260544
 10
0.1890512833521363
 20
0.1760083796306202
 10
0.1901244678262131
 20
0.1769789069214452
 10
0.1911465482777135
 20
0.1769278264283156
 10
0.1923219407969394
 20
0.176110539924006
 10
0.1928329810226887
 20
0.1749867718466693
 10
0.1928840850452633
 20
0.1740162445558462
 10
0.1924241488420886
 20
0.1721262704673276
 10
0.1918620045937629
 20
0.1705938591378354
 10
0.1925774609098141
 20
0.1707981804174783
 10
0.1931396051581398
 20
0.1714111449492752
 10
0.1936506453838891
 20
0.1717176272151737
 10
0.1939572695193401
 20
0.1704916981515798
 10
0.1940594775644893
 20
0.1691125283014725
 10
0.1942127896322148
 20
0.1674779559857229
 10
0.1936506453838891
 20
0.1660987854427458
 10
0.1925263568872395
 20
0.164259891847355
 10
0.1911976523002881
 20
0.16201235569268
 10
0.1902266758713622
 20
0.1605310241634457
 10
0.189920051735913
 20
0.1581813270225152
  0
LWPOLYLINE
  5
1C7B
330
2
100
AcDbEntity
  8
Profilo
  6
Continuous
370
     0
100
AcDbPolyline
 90
        9
 70
   128
 43
0.0
 10
0.1894601155327364
 20
0.157670522784104
 10
0.1897667396681875
 20
0.16201235569268
 10
0.1902266758713622
 20
0.1629828822906334
 10
0.1902777798939368
 20
0.1638512492880708
 10
0.1902777798939368
 20
0.1653325801244355
 10
0.1901755718487876
 20
0.1670693127335689
 10
0.1902266758713622
 20
0.1686017240630613
 10
0.1910443402325626
 20
0.1697254928332694
 10
0.1916575885034628
 20
0.1702873768719368
  0
LWPOLYLINE
  5
1C7C
330
2
100
AcDbEntity
  8
Profilo
  6
Continuous
370
     0
100
AcDbPolyline
 90
        4
 70
   128
 43
0.0
 10
0.189817843690762
 20
0.1697254928332694
 10
0.1903799879390877
 20
0.1720751899741999
 10
0.1905333000068132
 20
0.1744759683011297
 10
0.1905333000068132
 20
0.176110539924006
  0
LWPOLYLINE
  5
1C7D
330
2
100
AcDbEntity
  8
Profilo
  6
Continuous
370
     0
100
AcDbPolyline
 90
        3
 70
   128
 43
0.0
 10
0.1915042764357373
 20
0.1640044900745843
 10
0.1924241488420886
 20
0.1667117506674125
 10
0.1931396051581398
 20
0.1697254928332694
  0
LWPOLYLINE
  5
1C7E
330
2
100
AcDbEntity
  8
Profilo
  6
Continuous
370
     0
100
AcDbPolyline
 90
        2
 70
   128
 43
0.0
 10
0.1915553804583137
 20
0.1657923031768473
 10
0.1910443402325626
 20
0.1666606701742848
  0
LWPOLYLINE
  5
1C7F
330
2
100
AcDbEntity
  8
Profilo
  6
Continuous
370
     0
100
AcDbPolyline
 90
        2
 70
   128
 43
0.0
 10
0.1921175247066393
 20
0.1677333577584936
 10
0.1914531724131627
 20
0.1685506442628033
  0
LWPOLYLINE
  5
1C80
330
2
100
AcDbEntity
  8
Profilo
  6
Continuous
370
     0
100
AcDbPolyline
 90
        2
 70
   128
 43
0.0
 10
0.1897156356456129
 20
0.1722284314535831
 10
0.1892556994424364
 20
0.1730967977581508
  0
LWPOLYLINE
  5
1C81
330
2
100
AcDbEntity
  8
Profilo
  6
Continuous
370
     0
100
AcDbPolyline
 90
        2
 70
   128
 43
0.0
 10
0.1901755718487876
 20
0.1741694860352312
 10
0.189613427600462
 20
0.1749867718466693
  0
LWPOLYLINE
  5
1C82
330
2
100
AcDbEntity
  8
Profilo
  6
Continuous
370
     0
100
AcDbPolyline
 90
        2
 70
   128
 43
0.0
 10
0.1894601155327364
 20
0.1657412233765894
 10
0.1870071235206783
 20
0.1697254928332694
  0
LWPOLYLINE
  5
1C83
330
2
100
AcDbEntity
  8
Profilo
  6
Continuous
370
     0
100
AcDbPolyline
 90
        2
 70
   128
 43
0.0
 10
0.1877225798367295
 20
0.1675801169719802
 10
0.1868538114529528
 20
0.1677844382516214
  0
LWPOLYLINE
  5
1C84
330
2
100
AcDbEntity
  8
Profilo
  6
Continuous
370
     0
100
AcDbPolyline
 90
        2
 70
   128
 43
0.0
 10
0.1886935551941107
 20
0.1660987854427458
 10
0.187773683859304
 20
0.1662009464290013
  0
LWPOLYLINE
  5
1C85
330
2
100
AcDbEntity
  8
Profilo
  6
Continuous
370
     0
100
AcDbPolyline
 90
       15
 70
   128
 43
0.0
 10
0.1855759076419445
 20
0.1713592621120878
 10
0.1841960990324203
 20
0.1725851911756817
 10
0.1828162904228943
 20
0.1734024769871199
 10
0.1821008341068431
 20
0.1746794865438415
 10
0.1826629783551688
 20
0.1770802641779015
 10
0.1841449950098439
 20
0.1786126755073938
 10
0.1860358438451211
 20
0.1799407655572431
 10
0.1871601323417706
 20
0.1807580520615528
 10
0.1887443559700539
 20
0.180962373341194
 10
0.1891531881506541
 20
0.1819839811251467
 10
0.1900730605570053
 20
0.1817796591526339
 10
0.1901241645795799
 20
0.181166694620837
 10
0.1911973490536549
 20
0.1801961673300139
 10
0.1923727415728809
 20
0.1798386052638574
 10
0.1932415099566576
 20
0.1794810425048313
  0
LWPOLYLINE
  5
1C86
330
2
100
AcDbEntity
  8
Profilo
  6
Continuous
370
     0
100
AcDbPolyline
 90
       13
 70
   128
 43
0.0
 10
0.1862913639579957
 20
0.1826991059503276
 10
0.1859336357999701
 20
0.1833120704821245
 10
0.1854736995967954
 20
0.1840271960001787
 10
0.184656035235595
 20
0.1848955623047446
 10
0.1838383708743947
 20
0.1852531250637726
 10
0.1828162904228943
 20
0.1852531250637726
 10
0.1816408979036683
 20
0.1852531250637726
 10
0.1805677134295915
 20
0.1847423215182312
 10
0.1795967370006675
 20
0.1840271960001787
 10
0.1788812806846163
 20
0.1833120704821245
 10
0.1783191364362906
 20
0.1817796591526339
 10
0.1784213444814415
 20
0.1807580520615528
 10
0.1784213444814415
 20
0.1801450875297559
  0
LWPOLYLINE
  5
1C87
330
2
100
AcDbEntity
  8
Profilo
  6
Continuous
370
     0
100
AcDbPolyline
 90
        2
 70
   128
 43
0.0
 10
0.1819986260616939
 20
0.1811156141277075
 10
0.1827651864003179
 20
0.1835163924546373
  0
LWPOLYLINE
  5
1C88
330
2
100
AcDbEntity
  8
Profilo
  6
Continuous
370
     0
100
AcDbPolyline
 90
       10
 70
   128
 43
0.0
 10
0.1820413281166207
 20
0.1853191341450598
 10
0.1818880160488969
 20
0.1871580284333203
 10
0.1814280798457204
 20
0.1881796355244014
 10
0.1809170396199711
 20
0.1889458415355834
 10
0.1801504792813453
 20
0.1895588060673803
 10
0.1795883350330196
 20
0.1896098865605081
 10
0.1789239827395448
 20
0.1896098865605081
 10
0.17846404653637
 20
0.1893544847877373
 10
0.178157422400919
 20
0.1883839574969142
 10
0.178157422400919
 20
0.188026394737888
  0
LWPOLYLINE
  5
1C89
330
2
100
AcDbEntity
  8
Profilo
  6
Continuous
370
     0
100
AcDbPolyline
 90
       13
 70
   128
 43
0.0
 10
0.179537231010445
 20
0.1846040093198771
 10
0.1791283988298449
 20
0.1866472241949109
 10
0.1787195666492447
 20
0.1874645106992188
 10
0.1782085264234936
 20
0.1881796355244014
 10
0.1776974861977443
 20
0.1885882787765572
 10
0.1769820309532359
 20
0.1885882787765572
 10
0.1763176786597611
 20
0.1885882787765572
 10
0.1757555344114354
 20
0.1879753142447602
 10
0.1757044303888608
 20
0.1866983046880386
 10
0.17580663843401
 20
0.1858810188765987
 10
0.1760621585468864
 20
0.1850637323722908
 10
0.1766243027952103
 20
0.1840932050814659
 10
0.1769309269306614
 20
0.1838378033086969
  0
LWPOLYLINE
  5
1C8A
330
2
100
AcDbEntity
  8
Profilo
  6
Continuous
370
     0
100
AcDbPolyline
 90
       10
 70
   128
 43
0.0
 10
0.1754489102759862
 20
0.1865450639015251
 10
0.1744779338470603
 20
0.187873153258503
 10
0.1737624775310091
 20
0.1888947610424556
 10
0.1730470212149597
 20
0.1895077255742526
 10
0.1721271488086085
 20
0.1903760918788185
 10
0.1723826689214831
 20
0.1908868961172296
 10
0.1729448131698088
 20
0.1906825741447169
 10
0.1740179976438838
 20
0.189814207840151
 10
0.1749378700502351
 20
0.1888436805493279
 10
0.1755000142985608
 20
0.1881285550312737
  0
LWPOLYLINE
  5
1C8B
330
2
100
AcDbEntity
  8
Profilo
  6
Continuous
370
     0
100
AcDbPolyline
 90
       76
 70
   128
 43
0.0
 10
0.1726892930569341
 20
0.1835313210427985
 10
0.1719227327183084
 20
0.1849104915857756
 10
0.1708495482442334
 20
0.1855745366107002
 10
0.1700829879056076
 20
0.1855745366107002
 10
0.1697763637701566
 20
0.1847061696132628
 10
0.1699296758378821
 20
0.1836845625221817
 10
0.1696741557250074
 20
0.1836334820290539
 10
0.1689075953863817
 20
0.1842975270539786
 10
0.1687031792960816
 20
0.1851148128654186
 10
0.1691631154992563
 20
0.1862896614358829
 10
0.1688053873412325
 20
0.1870558674470648
 10
0.1680388270026067
 20
0.1872091082335783
 10
0.1673744747091301
 20
0.1869026259676799
 10
0.1675277867768556
 20
0.1859320993697282
 10
0.16696564252853
 20
0.1864939834083956
 10
0.1670167465511063
 20
0.1875666709926045
 10
0.1680388270026067
 20
0.188026394737888
 10
0.1690609074541072
 20
0.1884350379900437
 10
0.1698785718153075
 20
0.189456645081123
 10
0.1698785718153075
 20
0.1903760918788185
 10
0.1695208436572819
 20
0.190427172371948
 10
0.168652075273507
 20
0.1892012433083541
 10
0.1680899310251813
 20
0.1892012433083541
 10
0.1681410350477559
 20
0.1899163688264065
 10
0.1676810988445812
 20
0.1901206901060495
 10
0.167272266663981
 20
0.1901206901060495
 10
0.1673744747091301
 20
0.1913976996627711
 10
0.1681410350477559
 20
0.1924703879398497
 10
0.1688564913638071
 20
0.1932365932581619
 10
0.170031883883033
 20
0.1933898347375451
 10
0.1712583804248335
 20
0.1935430755240586
 10
0.172178252831183
 20
0.1939006382830866
 10
0.1721271488086085
 20
0.1954841301057066
 10
0.171105068357108
 20
0.1960970946375036
 10
0.1694697396347073
 20
0.1960970946375036
 10
0.1688053873412325
 20
0.1951265673466805
 10
0.168652075273507
 20
0.1937984772968293
 10
0.1679877229800304
 20
0.1935941560171881
 10
0.1672211626414064
 20
0.1928279500060062
 10
0.1667612264382299
 20
0.1931344322719047
 10
0.1663012902350551
 20
0.1937473968037016
 10
0.1648703786744974
 20
0.194462522321754
 10
0.1635927781101223
 20
0.1939006382830866
 10
0.1641549223584462
 20
0.1927257897126204
 10
0.1655347309679722
 20
0.192419307446722
 10
0.166199082189906
 20
0.192010664194568
 10
0.1663523942576297
 20
0.190222851092305
 10
0.1652792108550976
 20
0.1906314936515892
 10
0.1646659625841973
 20
0.1906314936515892
 10
0.165125898787372
 20
0.1886393592696849
 10
0.1656369379415803
 20
0.1876688319788618
 10
0.1655858349905468
 20
0.1861875011424972
 10
0.1650747947647975
 20
0.1857788578903432
 10
0.1656880419641549
 20
0.1849615720789051
 10
0.1665057063253552
 20
0.1847572501063923
 10
0.1675277867768556
 20
0.1840421252812097
 10
0.1666079143705061
 20
0.1838888838018247
 10
0.1648703786744974
 20
0.1833780802562832
 10
0.1642571304035971
 20
0.1827140352313585
 10
0.1648703786744974
 20
0.1812327043949957
 10
0.1663012902350551
 20
0.1812327043949957
 10
0.1680899310251813
 20
0.1813859451815092
 10
0.1691120114766818
 20
0.1814881061677647
 10
0.1700829879056076
 20
0.18164134695428
 10
0.1705940281313569
 20
0.1814370256746369
 10
0.1699296758378821
 20
0.1807219001565846
 10
0.1693675315895564
 20
0.1795981320792479
 10
0.1702874039959077
 20
0.1784743633090398
 10
0.1706962361765079
 20
0.1781168012428833
 10
0.170031883883033
 20
0.1779124792703706
 10
0.1691114489166743
 20
0.1774845555103384
 10
0.1681404724877484
 20
0.1774845555103384
 10
0.1664540397427732
 20
0.1764118679261295
 10
0.1660963115847476
 20
0.1753902601421768
 10
0.1668628719233733
 20
0.174317572557968
 10
0.1682426805328994
 20
0.1733470452671449
  0
LWPOLYLINE
  5
1C8C
330
2
100
AcDbEntity
  8
Profilo
  6
Continuous
370
     0
100
AcDbPolyline
 90
       16
 70
   128
 43
0.0
 10
0.1767770523029284
 20
0.1715081516717541
 10
0.1751417235805277
 20
0.1727851605356059
 10
0.1730975626775268
 20
0.1732959647740171
 10
0.1709000897068005
 20
0.1734492055605306
 10
0.1695713851198508
 20
0.1734492055605306
 10
0.1679360563974483
 20
0.1729894825081186
 10
0.1667095598556478
 20
0.1724275984694495
 10
0.1659429995170238
 20
0.1718146339376525
 10
0.1653297512461218
 20
0.1708951871399571
 10
0.1666073518104987
 20
0.1703333024084181
 10
0.1673739121491244
 20
0.1702822219152904
 10
0.1678849523748738
 20
0.1686987307855401
 10
0.1689581368489506
 20
0.1676771230015893
 10
0.1709511937293751
 20
0.1668087566970215
 10
0.1722287942937519
 20
0.1666555152176383
 10
0.1733019787678269
 20
0.1666044347245088
  0
LWPOLYLINE
  5
1C8D
330
2
100
AcDbEntity
  8
Profilo
  6
Continuous
370
     0
100
AcDbPolyline
 90
       26
 70
   128
 43
0.0
 10
0.1672717041039735
 20
0.1694138556107227
 10
0.1664029357201986
 20
0.1694138556107227
 10
0.1665051437653477
 20
0.1685965697992847
 10
0.1662496236524731
 20
0.1678303637881027
 10
0.1651764391783981
 20
0.167319560242563
 10
0.1643587758887406
 20
0.1676771230015893
 10
0.1644609839338897
 20
0.1685965697992847
 10
0.1651764391783981
 20
0.1692606148242093
 10
0.1644098799113152
 20
0.169362775117595
 10
0.1637455276178403
 20
0.169362775117595
 10
0.1629789672792146
 20
0.1691073733448243
 10
0.1622635109631634
 20
0.1685454893061569
 10
0.1613947425793885
 20
0.1675238815222042
 10
0.1606281822407627
 20
0.1672173992563057
 10
0.1597083098344132
 20
0.1672173992563057
 10
0.1592483736312367
 20
0.1680857662537432
 10
0.1599638299472879
 20
0.1695160165969801
 10
0.1607814943084882
 20
0.1698735793560062
 10
0.1611903264890884
 20
0.1700268201425197
 10
0.1607814943084882
 20
0.1708441066468294
 10
0.161445846601963
 20
0.1726319197490924
 10
0.1621101988954379
 20
0.1726830002422202
 10
0.1630811753243637
 20
0.1718146339376525
 10
0.1631322793469401
 20
0.1709462669402151
 10
0.1641543597984405
 20
0.1705887041811889
 10
0.1652275432009727
 20
0.1705887041811889
  0
LWPOLYLINE
  5
1C8E
330
2
100
AcDbEntity
  8
Profilo
  6
Continuous
370
     0
100
AcDbPolyline
 90
        4
 70
   128
 43
0.0
 10
0.1749373074902276
 20
0.169311695317337
 10
0.1724843144066266
 20
0.1706908651674444
 10
0.169980217300451
 20
0.1708441066468294
 10
0.1685493046683504
 20
0.1708441066468294
  0
LWPOLYLINE
  5
1C8F
330
2
100
AcDbEntity
  8
Profilo
  6
Continuous
370
     0
100
AcDbPolyline
 90
        2
 70
   128
 43
0.0
 10
0.1747839954225039
 20
0.1701289811287769
 10
0.1740685391064527
 20
0.1717635534445248
  0
LWPOLYLINE
  5
1C90
330
2
100
AcDbEntity
  8
Profilo
  6
Continuous
370
     0
100
AcDbPolyline
 90
        2
 70
   128
 43
0.0
 10
0.1729953546323777
 20
0.1707930261537016
 10
0.1727909385420776
 20
0.1718657137379105
  0
LWPOLYLINE
  5
1C91
330
2
100
AcDbEntity
  8
Profilo
  6
Continuous
370
     0
100
AcDbPolyline
 90
        2
 70
   128
 43
0.0
 10
0.1715133379777007
 20
0.1714059906854985
 10
0.1710022977519514
 20
0.1720700357104232
  0
LWPOLYLINE
  5
1C92
330
2
100
AcDbEntity
  8
Profilo
  6
Continuous
370
     0
100
AcDbPolyline
 90
        2
 70
   128
 43
0.0
 10
0.1739663310613018
 20
0.1766672696988984
 10
0.1712578178648261
 20
0.1776377969897234
  0
LWPOLYLINE
  5
1C93
330
2
100
AcDbEntity
  8
Profilo
  6
Continuous
370
     0
100
AcDbPolyline
 90
        2
 70
   128
 43
0.0
 10
0.1739663310613018
 20
0.1777910377762369
 10
0.1721776902711773
 20
0.1794256100919846
  0
LWPOLYLINE
  5
1C94
330
2
100
AcDbEntity
  8
Profilo
  6
Continuous
370
     0
100
AcDbPolyline
 90
        2
 70
   128
 43
0.0
 10
0.1737108109484271
 20
0.1741132505854552
 10
0.172433210384052
 20
0.1757989033943326
  0
LWPOLYLINE
  5
1C95
330
2
100
AcDbEntity
  8
Profilo
  6
Continuous
370
     0
100
AcDbPolyline
 90
        2
 70
   128
 43
0.0
 10
0.1714622339551262
 20
0.17477729561038
 10
0.1705423615487749
 20
0.1759010636877183
  0
LWPOLYLINE
  5
1C96
330
2
100
AcDbEntity
  8
Profilo
  6
Continuous
370
     0
100
AcDbPolyline
 90
        4
 70
   128
 43
0.0
 10
0.1772299484694464
 20
0.1764984109180596
 10
0.1759033258902931
 20
0.1775833276668952
 10
0.1758631248164242
 20
0.1785878804430703
 10
0.1759837269664863
 20
0.1785878804430703
  0
LWPOLYLINE
  5
1C97
330
2
100
AcDbEntity
  8
Profilo
  6
Continuous
370
     0
100
AcDbPolyline
 90
        4
 70
   128
 43
0.0
 10
0.1734108828843748
 20
0.1815211734131919
 10
0.1731696785842469
 20
0.1819631763021303
 10
0.1732098796581158
 20
0.1826060894691559
 10
0.1732500796604419
 20
0.1830079107181999
  0
LWPOLYLINE
  5
1C98
330
2
100
AcDbEntity
  8
Profilo
  6
Continuous
370
     0
100
AcDbPolyline
 90
       11
 70
   128
 43
0.0
 10
0.174415900087207
 20
0.1665734336189648
 10
0.175219914063782
 20
0.1677387143404609
 10
0.175581720513972
 20
0.16870308478387
 10
0.1754209172900392
 20
0.169627272894513
 10
0.1767475398691924
 20
0.1706318249778165
 10
0.1773505506195085
 20
0.1713551028103742
 10
0.1782751667461475
 20
0.1723998372264437
 10
0.1794007860990436
 20
0.1729222047809125
 10
0.1803656022280069
 20
0.1729623864208087
 10
0.1816922248071602
 20
0.1729623864208087
 10
0.1832198516841152
 20
0.1728418401153822
  0
LWPOLYLINE
  5
1C99
330
2
100
AcDbEntity
  8
Profilo
  6
Continuous
370
     0
100
AcDbPolyline
 90
        8
 70
   128
 43
0.0
 10
0.1783957688962097
 20
0.167377075424183
 10
0.1777927581458936
 20
0.1677387143404609
 10
0.1770691463170564
 20
0.1686227201183397
 10
0.1771897473955775
 20
0.169627272894513
 10
0.1776721559958314
 20
0.1704309146997311
 10
0.1779937613721525
 20
0.1704309146997311
 10
0.1780339624460214
 20
0.1694263626164258
 10
0.1782751667461475
 20
0.1681003532567389
  0
LWPOLYLINE
  5
1C9A
330
2
100
AcDbEntity
  8
Profilo
  6
Continuous
370
     0
100
AcDbPolyline
 90
       11
 70
   128
 43
0.0
 10
0.2102448261605925
 20
0.1416904315556899
 10
0.2054207433726887
 20
0.1418833059215196
 10
0.2026549358504759
 20
0.1425262190885453
 10
0.1995675229519402
 20
0.1438763375707439
 10
0.1971233208060468
 20
0.1456764955470083
 10
0.1962871466133034
 20
0.1469623225739292
 10
0.1955796143567798
 20
0.1481195666902982
 10
0.1949364036041377
 20
0.14844102327381
 10
0.1941002283398514
 20
0.1479266930173382
 10
0.1942931917799526
 20
0.1467694482080994
 10
0.1961585046770835
 20
0.1447764165588752
  0
LWPOLYLINE
  5
1C9B
330
2
100
AcDbEntity
  8
Profilo
  6
Continuous
370
     0
100
AcDbPolyline
 90
       21
 70
   128
 43
0.0
 10
0.1945504767239352
 20
0.1488910627678757
 10
0.1930067702746665
 20
0.1510769687829296
 10
0.1921705960819231
 20
0.1539057886578807
 10
0.1916560272655008
 20
0.1580204348668812
 10
0.1919133111379405
 20
0.1616207508194098
 10
0.1933283756509894
 20
0.1645138621496369
 10
0.1941645498437328
 20
0.1665711852541372
 10
0.195075811331576
 20
0.16843530072209
 10
0.1964154295826617
 20
0.1703545312681904
 10
0.198737432979615
 20
0.1722291284813235
 10
0.2016399382973482
 20
0.1737466597235913
 10
0.2036493651382052
 20
0.1748178583290607
 10
0.2044084814685092
 20
0.1754427236048568
 10
0.2053462143514249
 20
0.175398090964761
 10
0.2065072160499006
 20
0.1753088242988263
 10
0.2076235644138815
 20
0.1758890569345284
 10
0.2080701031165482
 20
0.1767370888751611
 10
0.2074449489328145
 20
0.1774512208168919
 10
0.206239292828301
 20
0.1774512208168919
 10
0.2054355220919575
 20
0.1774065881767961
 10
0.2053462143514249
 20
0.1778975541465635
  0
LWPOLYLINE
  5
1C9C
330
2
100
AcDbEntity
  8
Profilo
  6
Continuous
370
     0
100
AcDbPolyline
 90
        4
 70
   128
 43
0.0
 10
0.2081147575225859
 20
0.1757997902685938
 10
0.2095883368487008
 20
0.175844423601561
 10
0.2110172628403191
 20
0.1757997902685938
 10
0.2127587653880334
 20
0.1756658902696935
  0
LWPOLYLINE
  5
1C9D
330
2
100
AcDbEntity
  8
Profilo
  6
Continuous
370
     0
100
AcDbPolyline
 90
        4
 70
   128
 43
0.0
 10
0.2082040652631203
 20
0.1771387881789939
 10
0.2091864514805291
 20
0.1771834215119612
 10
0.2103027998445099
 20
0.1771834215119612
 10
0.2111958783213861
 20
0.1771387881789939
  0
LWPOLYLINE
  5
1C9E
330
2
100
AcDbEntity
  8
Profilo
  6
Continuous
370
     0
100
AcDbPolyline
 90
        3
 70
   128
 43
0.0
 10
0.2018866288969707
 20
0.1399187152212798
 10
0.1990492337386722
 20
0.140706515927866
 10
0.1956207144551161
 20
0.1420457771290615
  0
LWPOLYLINE
  5
1C9F
330
2
100
AcDbEntity
  8
Profilo
  6
Continuous
370
     0
100
AcDbPolyline
 90
        2
 70
   128
 43
0.0
 10
0.1984975177455606
 20
0.1411004162811573
 10
0.1986945594778262
 20
0.142242727652143
  0
LWPOLYLINE
  5
1CA0
330
2
100
AcDbEntity
  8
Profilo
  6
Continuous
370
     0
100
AcDbPolyline
 90
        2
 70
   128
 43
0.0
 10
0.1971182288343278
 20
0.1418488272988498
 10
0.1970000044378934
 20
0.1425972376236708
  0
LWPOLYLINE
  5
1CA1
330
2
100
AcDbEntity
  8
Profilo
  6
Continuous
370
     0
100
AcDbPolyline
 90
        2
 70
   128
 43
0.0
 10
0.2005861562500264
 20
0.1404307860269953
 10
0.200192073857038
 20
0.1412973668042405
  0
LWPOLYLINE
  5
1CA2
330
2
100
AcDbEntity
  8
Profilo
  6
Continuous
370
     0
100
AcDbPolyline
 90
        2
 70
   128
 43
0.0
 10
0.200822606114438
 20
0.13763409317218
 10
0.195344856458562
 20
0.1369250725362527
  0
LWPOLYLINE
  5
1CA3
330
2
100
AcDbEntity
  8
Profilo
  6
Continuous
370
     0
100
AcDbPolyline
 90
        2
 70
   128
 43
0.0
 10
0.1976305366952935
 20
0.1375159227197558
 10
0.1969211871020604
 20
0.1381067735961321
  0
LWPOLYLINE
  5
1CA4
330
2
100
AcDbEntity
  8
Profilo
  6
Continuous
370
     0
100
AcDbPolyline
 90
        2
 70
   128
 43
0.0
 10
0.1997979903925049
 20
0.1370432422958054
 10
0.1992068673387937
 20
0.1362948319709827
  0
LWPOLYLINE
  5
1CA5
330
2
100
AcDbEntity
  8
Profilo
  6
Continuous
370
     0
100
AcDbPolyline
 90
        8
 70
   128
 43
0.0
 10
0.2227710798067464
 20
0.1470180182775711
 10
0.2251761931402698
 20
0.1500583715213755
 10
0.2253176700169921
 20
0.1515431951180166
 10
0.2258835785954206
 20
0.1522502542375101
 10
0.2262372723945389
 20
0.1527451952054322
 10
0.2266617040962466
 20
0.1543714309031192
 10
0.2270153968238222
 20
0.1559976666008063
 10
0.2272983516488076
 20
0.1584723728261648
  0
LWPOLYLINE
  5
1CA6
330
2
100
AcDbEntity
  8
Profilo
  6
Continuous
370
     0
100
AcDbPolyline
 90
        4
 70
   128
 43
0.0
 10
0.2250347151920049
 20
0.1466644887178252
 10
0.2263787492712611
 20
0.1487149593329122
 10
0.2276520443763832
 20
0.1518260186272387
 10
0.2280764760780909
 20
0.1536643717836257
  0
DIMENSION
  5
1CA7
102
{ACAD_XDICTIONARY
360
1CB1
102
}
102
{ACAD_REACTORS
330
1CB8
102
}
330
2
100
AcDbEntity
  8
Text
  6
ACAD_ISO10W100
100
AcDbDimension
  2
*D6
 10
0.152784369909937
 20
0.1141318449910611
 30
0.0
 11
0.283619187795713
 21
0.2054122756710057
 31
0.0
 70
    35
  1
d 575 mm
 71
     5
 42
0.14375
  3
Bovelacci
100
AcDbDiametricDimension
 15
0.2653415959966366
 25
0.2035462362022504
 35
0.0
 40
0.0
1001
ACAD
1000
DSTYLE
1002
{
1070
   288
1070
     1
1002
}
  0
ENDSEC
  0
SECTION
  2
OBJECTS
  0
DICTIONARY
  5
9
330
0
100
AcDbDictionary
281
     1
  3
ACAD_2007HEADERVARS_RT
350
208
  3
ACAD_COLOR
350
184
  3
ACAD_GROUP
350
17F
  3
ACAD_LAYOUT
350
164
  3
ACAD_MATERIAL
350
B
  3
ACAD_MLINESTYLE
350
180
  3
ACAD_PLOTSETTINGS
350
181
  3
ACAD_PLOTSTYLENAME
350
8
  3
ACAD_TABLESTYLE
350
185
  3
ACAD_VISUALSTYLE
350
17A
  3
ACDBHEADERROUNDTRIPXREC
350
1CC7
  3
AcDbVariableDictionary
350
18B
  3
DWGPROPS
350
1CC6
  0
DICTIONARY
  5
16E
330
16D
100
AcDbDictionary
280
     1
281
     1
  3
ACAD_LAYERSTATES
360
16F
  0
DICTIONARY
  5
3
330
2
100
AcDbDictionary
280
     1
281
     1
  3
ACAD_SORTENTS
360
18A
  0
DICTIONARY
  5
1CC8
330
18
100
AcDbDictionary
280
     1
281
     1
  3
ACAD_MTEXT_RT
360
1CC9
  0
DICTIONARY
  5
1CB1
330
1CA7
100
AcDbDictionary
280
     1
281
     1
  3
ACAD_DIMASSOC
360
1CB8
  0
DICTIONARY
  5
208
102
{ACAD_REACTORS
330
9
102
}
330
9
100
AcDbDictionary
281
     1
  3
DIMFXL
350
209
  0
DICTIONARY
  5
184
102
{ACAD_REACTORS
330
9
102
}
330
9
100
AcDbDictionary
281
     1
  0
DICTIONARY
  5
17F
102
{ACAD_REACTORS
330
9
102
}
330
9
100
AcDbDictionary
281
     1
  0
DICTIONARY
  5
164
102
{ACAD_REACTORS
330
9
102
}
330
9
100
AcDbDictionary
281
     1
  3
Layout1
350
168
  3
Layout2
350
16C
  3
Model
350
163
  0
DICTIONARY
  5
B
102
{ACAD_REACTORS
330
9
102
}
330
9
100
AcDbDictionary
281
     1
  3
ByBlock
350
183
  3
ByLayer
350
182
  3
Global
350
A
  0
DICTIONARY
  5
180
102
{ACAD_REACTORS
330
9
102
}
330
9
100
AcDbDictionary
281
     1
  3
Standard
350
186
  0
DICTIONARY
  5
181
102
{ACAD_REACTORS
330
9
102
}
330
9
100
AcDbDictionary
281
     1
  0
ACDBDICTIONARYWDFLT
  5
8
102
{ACAD_REACTORS
330
9
102
}
330
9
100
AcDbDictionary
281
     1
  3
Normal
350
7
100
AcDbDictionaryWithDefault
340
7
  0
DICTIONARY
  5
185
102
{ACAD_REACTORS
330
9
102
}
330
9
100
AcDbDictionary
281
     1
  3
Standard
350
187
  0
DICTIONARY
  5
17A
102
{ACAD_REACTORS
330
9
102
}
330
9
100
AcDbDictionary
281
     1
  3
2dWireframe
350
179
  3
3D Hidden
350
1BD
  3
3dWireframe
350
189
  3
Basic
350
1BC
  3
Brighten
350
1C0
  3
ColorChange
350
1C4
  3
Conceptual
350
1BE
  3
Dim
350
1BF
  3
Facepattern
350
1C3
  3
Flat
350
1B8
  3
FlatWithEdges
350
1B9
  3
Gouraud
350
1BA
  3
GouraudWithEdges
350
1BB
  3
Linepattern
350
1C2
  3
Realistic
350
188
  3
Thicken
350
1C1
  0
DICTIONARY
  5
1CC7
102
{ACAD_REACTORS
330
9
102
}
330
9
100
AcDbDictionary
281
     1
  0
DICTIONARY
  5
18B
102
{ACAD_REACTORS
330
9
102
}
330
9
100
AcDbDictionary
281
     1
  3
CTABLESTYLE
350
18C
  3
DIMASSOC
350
190
  3
HIDETEXT
350
18F
  3
INDEXCTL
350
18E
  3
PROJECTNAME
350
2F9
  3
SORTENTS
350
18D
  0
XRECORD
  5
1CC6
102
{ACAD_REACTORS
330
9
102
}
330
9
100
AcDbXrecord
280
     1
  1
DWGPROPS COOKIE
  2

  3

  4

  6

  7

  8
Mario
  9

300
=
301
=
302
=
303
=
304
=
305
=
306
=
307
=
308
=
309
=
 40
0.1612355439814815
 41
2454297.625402373
 42
2454311.583685255
  1

 90
        0
  0
DICTIONARY
  5
16F
102
{ACAD_REACTORS
330
16E
102
}
330
16E
100
AcDbDictionary
281
     1
  0
SORTENTSTABLE
  5
18A
102
{ACAD_REACTORS
330
3
102
}
330
3
100
AcDbSortentsTable
330
2
331
18
  5
1C
331
16
  5
12
331
14
  5
10
331
23
  5
24
331
12
  5
16
331
10
  5
14
331
21
  5
22
331
1F
  5
21
331
1D
  5
1E
331
15
  5
11
331
24
  5
18
331
13
  5
D
331
22
  5
23
331
11
  5
15
331
1E
  5
1F
331
D
  5
13
331
1C
  5
1D
  0
XRECORD
  5
1CC9
102
{ACAD_REACTORS
330
1CC8
102
}
330
1CC8
100
AcDbXrecord
280
     1
 40
7955300.0
  1
{\fTimes New Roman|b0|i0|c238|p18;\H1.6x;\C4;Bovelacci\P\pt0.09;\H0.4375x;\T0.95;via del Commercio, 5  47100 Forli - Italy  \fTimes New Roman|b0|i0|c0|p18;\P\fTimes New Roman|b0|i0|c238|p18;tel.+39-0543721386  fax +39-0543721127\fTimes New Roman|b0|i
  1
0|c0|p18; \fTimes New Roman|b0|i0|c238|p18;www.bovelacci.it\fTimes New Roman|b0|i0|c0|p18; \fTimes New Roman|b0|i0|c238|p18;e-mail: bovelacci@bovelacci\fTimes New Roman|b0|i0|c0|p18;.it}
  0
DIMASSOC
  5
1CB8
102
{ACAD_REACTORS
330
1CB1
102
}
330
1CB1
100
AcDbDimAssoc
330
1CA7
 90
        2
 70
     0
 71
     0
  1
AcDbOsnapPointRef
 72
     3
331
1A6B
 73
     2
 91
        0
 40
0.0
 10
0.0
 20
0.0
 30
0.0
 75
     0
  0
XRECORD
  5
209
102
{ACAD_REACTORS
330
208
102
}
330
208
100
AcDbXrecord
280
     1
 40
0.18
  0
LAYOUT
  5
168
102
{ACAD_XDICTIONARY
360
1CCC
102
}
102
{ACAD_REACTORS
330
164
102
}
330
164
100
AcDbPlotSettings
  1

  2
C:\Documents and Settings\All Users\Dati applicazioni\Autodesk\ADT 2006\enu\Plotters\Default Windows System Printer.pc3
  4

  6

 40
0.0
 41
0.0
 42
0.0
 43
0.0
 44
0.0
 45
0.0
 46
0.0
 47
0.0
 48
0.0
 49
0.0
140
0.0
141
0.0
142
1.0
143
1.0
 70
   688
 72
     0
 73
     0
 74
     5
  7

 75
    16
147
1.0
148
0.0
149
0.0
100
AcDbLayout
  1
Layout1
 70
     1
 71
     1
 10
0.0
 20
0.0
 11
420.0
 21
297.0
 12
0.0
 22
0.0
 32
0.0
 14
1.000000000000000E+20
 24
1.000000000000000E+20
 34
1.000000000000000E+20
 15
-1.000000000000000E+20
 25
-1.000000000000000E+20
 35
-1.000000000000000E+20
146
0.0
 13
0.0
 23
0.0
 33
0.0
 16
1.0
 26
0.0
 36
0.0
 17
0.0
 27
1.0
 37
0.0
 76
     0
330
165
  0
LAYOUT
  5
16C
102
{ACAD_XDICTIONARY
360
1CCE
102
}
102
{ACAD_REACTORS
330
164
102
}
330
164
100
AcDbPlotSettings
  1

  2
C:\Documents and Settings\All Users\Dati applicazioni\Autodesk\ADT 2006\enu\Plotters\Default Windows System Printer.pc3
  4

  6

 40
0.0
 41
0.0
 42
0.0
 43
0.0
 44
0.0
 45
0.0
 46
0.0
 47
0.0
 48
0.0
 49
0.0
140
0.0
141
0.0
142
1.0
143
1.0
 70
   688
 72
     0
 73
     0
 74
     5
  7

 75
    16
147
1.0
148
0.0
149
0.0
100
AcDbLayout
  1
Layout2
 70
     1
 71
     2
 10
0.0
 20
0.0
 11
12.0
 21
9.0
 12
0.0
 22
0.0
 32
0.0
 14
0.0
 24
0.0
 34
0.0
 15
0.0
 25
0.0
 35
0.0
146
0.0
 13
0.0
 23
0.0
 33
0.0
 16
1.0
 26
0.0
 36
0.0
 17
0.0
 27
1.0
 37
0.0
 76
     0
330
169
  0
LAYOUT
  5
163
102
{ACAD_XDICTIONARY
360
1CCA
102
}
102
{ACAD_REACTORS
330
164
102
}
330
164
100
AcDbPlotSettings
  1

  2
C:\Documents and Settings\All Users\Dati applicazioni\Autodesk\ADT 2006\enu\Plotters\Default Windows System Printer.pc3
  4

  6

 40
0.0
 41
0.0
 42
0.0
 43
0.0
 44
0.0
 45
0.0
 46
0.0
 47
0.0
 48
0.0
 49
0.0
140
0.0
141
0.0
142
1.0
143
1.0
 70
  1712
 72
     0
 73
     0
 74
     0
  7

 75
     0
147
1.0
148
0.0
149
0.0
100
AcDbLayout
  1
Model
 70
     1
 71
     0
 10
0.0
 20
0.0
 11
12.0
 21
9.0
 12
0.0
 22
0.0
 32
0.0
 14
0.0
 24
0.0
 34
0.0
 15
0.0
 25
0.0
 35
0.0
146
0.0
 13
0.0
 23
0.0
 33
0.0
 16
1.0
 26
0.0
 36
0.0
 17
0.0
 27
1.0
 37
0.0
 76
     0
330
2
  0
MATERIAL
  5
183
102
{ACAD_XDICTIONARY
360
1B0
102
}
102
{ACAD_REACTORS
330
B
102
}
330
B
100
AcDbMaterial
  1
ByBlock
  0
MATERIAL
  5
182
102
{ACAD_XDICTIONARY
360
1AE
102
}
102
{ACAD_REACTORS
330
B
102
}
330
B
100
AcDbMaterial
  1
ByLayer
  0
MATERIAL
  5
A
102
{ACAD_XDICTIONARY
360
193
102
}
102
{ACAD_REACTORS
330
B
102
}
330
B
100
AcDbMaterial
  1
Global
  0
MLINESTYLE
  5
186
102
{ACAD_REACTORS
330
180
102
}
330
180
100
AcDbMlineStyle
  2
STANDARD
 70
     0
  3

 62
   256
 51
90.0
 52
90.0
 71
     2
 49
0.5
 62
   256
  6
BYLAYER
 49
-0.5
 62
   256
  6
BYLAYER
  0
ACDBPLACEHOLDER
  5
7
102
{ACAD_REACTORS
330
8
102
}
330
8
  0
TABLESTYLE
  5
187
102
{ACAD_XDICTIONARY
360
21A
102
}
102
{ACAD_REACTORS
330
185
102
}
330
185
100
AcDbTableStyle
  3
Standard
 70
     0
 71
     0
 40
1.5
 41
1.5
280
     0
281
     0
  7
Standard
140
4.5
170
     2
 62
     0
 63
     7
283
     0
274
    -2
284
     1
 64
     0
275
    -2
285
     1
 65
     0
276
    -2
286
     1
 66
     0
277
    -2
287
     1
 67
     0
278
    -2
288
     1
 68
     0
279
    -2
289
     1
 69
     0
  7
Standard
140
6.0
170
     5
 62
     0
 63
     7
283
     0
274
    -2
284
     1
 64
     0
275
    -2
285
     1
 65
     0
276
    -2
286
     1
 66
     0
277
    -2
287
     1
 67
     0
278
    -2
288
     1
 68
     0
279
    -2
289
     1
 69
     0
  7
Standard
140
4.5
170
     5
 62
     0
 63
     7
283
     0
274
    -2
284
     1
 64
     0
275
    -2
285
     1
 65
     0
276
    -2
286
     1
 66
     0
277
    -2
287
     1
 67
     0
278
    -2
288
     1
 68
     0
279
    -2
289
     1
 69
     0
  0
VISUALSTYLE
  5
179
102
{ACAD_REACTORS
330
17A
102
}
330
17A
100
AcDbVisualStyle
  2
2dWireframe
 70
     4
 71
     0
 72
     2
 73
     0
 90
        0
 40
-0.6
 41
-30.0
 62
     5
 63
     7
 74
     1
 91
        4
 64
     7
 65
   257
 75
     1
175
     1
 42
1.0
 92
        0
 66
   257
 43
1.0
 76
     1
 77
     6
 78
     2
 67
     7
 79
     5
170
     0
171
     0
290
     0
174
     0
 93
        1
 44
0.0
173
     0
291
     0
 45
0.0
1001
ACAD
1000
AcDbSavedByObjectVersion
1070
     0
1000
AcDbSavedByObjectVersion
1070
     0
1000
AcDbSavedByObjectVersion
1070
     0
1001
ACAD
1000
AcRTDxfName
1000
VISUALSTYLE
  0
VISUALSTYLE
  5
1BD
102
{ACAD_REACTORS
330
17A
102
}
330
17A
100
AcDbVisualStyle
  2
3D Hidden
 70
     6
 71
     1
 72
     2
 73
     2
 90
        0
 40
-0.6
 41
-30.0
 62
     5
 63
     7
 74
     2
 91
        2
 64
     7
 65
   257
 75
     2
175
     1
 42
40.0
 92
        0
 66
   257
 43
1.0
 76
     1
 77
     6
 78
     2
 67
     7
 79
     3
170
     0
171
     0
290
     0
174
     0
 93
        1
 44
0.0
173
     0
291
     0
 45
0.0
1001
ACAD
1000
AcDbSavedByObjectVersion
1070
     0
1000
AcDbSavedByObjectVersion
1070
     0
1001
ACAD
1000
AcRTDxfName
1000
VISUALSTYLE
  0
VISUALSTYLE
  5
189
102
{ACAD_REACTORS
330
17A
102
}
330
17A
100
AcDbVisualStyle
  2
3dWireframe
 70
     5
 71
     0
 72
     2
 73
     0
 90
        0
 40
-0.6
 41
-30.0
 62
     5
 63
     7
 74
     1
 91
        4
 64
     7
 65
   257
 75
     1
175
     1
 42
1.0
 92
        0
 66
   257
 43
1.0
 76
     1
 77
     6
 78
     2
 67
     7
 79
     5
170
     0
171
     0
290
     0
174
     0
 93
        1
 44
0.0
173
     0
291
     0
 45
0.0
1001
ACAD
1000
AcDbSavedByObjectVersion
1070
     0
1000
AcDbSavedByObjectVersion
1070
     0
1000
AcDbSavedByObjectVersion
1070
     0
1001
ACAD
1000
AcRTDxfName
1000
VISUALSTYLE
  0
VISUALSTYLE
  5
1BC
102
{ACAD_REACTORS
330
17A
102
}
330
17A
100
AcDbVisualStyle
  2
Basic
 70
     7
 71
     1
 72
     0
 73
     1
 90
        0
 40
-0.6
 41
-30.0
 62
     5
 63
     7
 74
     0
 91
        4
 64
     7
 65
   257
 75
     1
175
     1
 42
1.0
 92
        8
 66
     7
 43
1.0
 76
     1
 77
     6
 78
     2
 67
     7
 79
     5
170
     0
171
     0
290
     0
174
     0
 93
        1
 44
0.0
173
     0
291
     1
 45
0.0
1001
ACAD
1000
AcDbSavedByObjectVersion
1070
     0
1000
AcDbSavedByObjectVersion
1070
     0
1001
ACAD
1000
AcRTDxfName
1000
VISUALSTYLE
  0
VISUALSTYLE
  5
1C0
102
{ACAD_REACTORS
330
17A
102
}
330
17A
100
AcDbVisualStyle
  2
Brighten
 70
    12
 71
     2
 72
     2
 73
     0
 90
        0
 40
-0.6
 41
-30.0
 62
     5
 63
     7
 74
     1
 91
        4
 64
     7
 65
   257
 75
     1
175
     1
 42
1.0
 92
        8
 66
     7
 43
1.0
 76
     1
 77
     6
 78
     2
 67
     7
 79
     5
170
     0
171
     0
290
     0
174
     0
 93
        1
 44
50.0
173
     0
291
     1
 45
0.0
1001
ACAD
1000
AcDbSavedByObjectVersion
1070
     0
1000
AcDbSavedByObjectVersion
1070
     0
1001
ACAD
1000
AcRTDxfName
1000
VISUALSTYLE
  0
VISUALSTYLE
  5
1C4
102
{ACAD_REACTORS
330
17A
102
}
330
17A
100
AcDbVisualStyle
  2
ColorChange
 70
    16
 71
     2
 72
     2
 73
     3
 90
        0
 40
-0.6
 41
-30.0
 62
     5
 63
     8
 74
     1
 91
        4
 64
     7
 65
   257
 75
     1
175
     1
 42
1.0
 92
        8
 66
     8
 43
1.0
 76
     1
 77
     6
 78
     2
 67
     7
 79
     5
170
     0
171
     0
290
     0
174
     0
 93
        1
 44
0.0
173
     0
291
     1
 45
0.0
1001
ACAD
1000
AcDbSavedByObjectVersion
1070
     0
1000
AcDbSavedByObjectVersion
1070
     0
1001
ACAD
1000
AcRTDxfName
1000
VISUALSTYLE
  0
VISUALSTYLE
  5
1BE
102
{ACAD_REACTORS
330
17A
102
}
330
17A
100
AcDbVisualStyle
  2
Conceptual
 70
     9
 71
     3
 72
     2
 73
     0
 90
        0
 40
-0.6
 41
-30.0
 62
     5
 63
     7
 74
     2
 91
        2
 64
     7
 65
   257
 75
     1
175
     1
 42
40.0
 92
        8
 66
     7
 43
1.0
 76
     1
 77
     6
 78
     2
 67
     7
 79
     3
170
     0
171
     0
290
     0
174
     0
 93
        1
 44
0.0
173
     0
291
     0
 45
0.0
1001
ACAD
1000
AcDbSavedByObjectVersion
1070
     0
1000
AcDbSavedByObjectVersion
1070
     0
1001
ACAD
1000
AcRTDxfName
1000
VISUALSTYLE
  0
VISUALSTYLE
  5
1BF
102
{ACAD_REACTORS
330
17A
102
}
330
17A
100
AcDbVisualStyle
  2
Dim
 70
    11
 71
     2
 72
     2
 73
     0
 90
        0
 40
-0.6
 41
-30.0
 62
     5
 63
     7
 74
     1
 91
        4
 64
     7
 65
   257
 75
     1
175
     1
 42
1.0
 92
        8
 66
     7
 43
1.0
 76
     1
 77
     6
 78
     2
 67
     7
 79
     5
170
     0
171
     0
290
     0
174
     0
 93
        1
 44
-50.0
173
     0
291
     1
 45
0.0
1001
ACAD
1000
AcDbSavedByObjectVersion
1070
     0
1000
AcDbSavedByObjectVersion
1070
     0
1001
ACAD
1000
AcRTDxfName
1000
VISUALSTYLE
  0
VISUALSTYLE
  5
1C3
102
{ACAD_REACTORS
330
17A
102
}
330
17A
100
AcDbVisualStyle
  2
Facepattern
 70
    15
 71
     2
 72
     2
 73
     0
 90
        0
 40
-0.6
 41
-30.0
 62
     5
 63
     7
 74
     1
 91
        4
 64
     7
 65
   257
 75
     1
175
     1
 42
1.0
 92
        8
 66
     7
 43
1.0
 76
     1
 77
     6
 78
     2
 67
     7
 79
     5
170
     0
171
     0
290
     0
174
     0
 93
        1
 44
0.0
173
     0
291
     1
 45
0.0
1001
ACAD
1000
AcDbSavedByObjectVersion
1070
     0
1000
AcDbSavedByObjectVersion
1070
     0
1001
ACAD
1000
AcRTDxfName
1000
VISUALSTYLE
  0
VISUALSTYLE
  5
1B8
102
{ACAD_REACTORS
330
17A
102
}
330
17A
100
AcDbVisualStyle
  2
Flat
 70
     0
 71
     2
 72
     1
 73
     1
 90
        2
 40
-0.6
 41
30.0
 62
     5
 63
     7
 74
     0
 91
        4
 64
     7
 65
   257
 75
     1
175
     1
 42
1.0
 92
        8
 66
     7
 43
1.0
 76
     1
 77
     6
 78
     2
 67
     7
 79
     5
170
     0
171
     0
290
     0
174
     0
 93
       13
 44
0.0
173
     0
291
     1
 45
0.0
1001
ACAD
1000
AcDbSavedByObjectVersion
1070
     0
1000
AcDbSavedByObjectVersion
1070
     0
1001
ACAD
1000
AcRTDxfName
1000
VISUALSTYLE
  0
VISUALSTYLE
  5
1B9
102
{ACAD_REACTORS
330
17A
102
}
330
17A
100
AcDbVisualStyle
  2
FlatWithEdges
 70
     1
 71
     2
 72
     1
 73
     1
 90
        2
 40
-0.6
 41
30.0
 62
     5
 63
     7
 74
     1
 91
        4
 64
     7
 65
   257
 75
     1
175
     1
 42
1.0
 92
        0
 66
   257
 43
1.0
 76
     1
 77
     6
 78
     2
 67
     7
 79
     5
170
     0
171
     0
290
     0
174
     0
 93
       13
 44
0.0
173
     0
291
     1
 45
0.0
1001
ACAD
1000
AcDbSavedByObjectVersion
1070
     0
1000
AcDbSavedByObjectVersion
1070
     0
1001
ACAD
1000
AcRTDxfName
1000
VISUALSTYLE
  0
VISUALSTYLE
  5
1BA
102
{ACAD_REACTORS
330
17A
102
}
330
17A
100
AcDbVisualStyle
  2
Gouraud
 70
     2
 71
     2
 72
     2
 73
     1
 90
        2
 40
-0.6
 41
30.0
 62
     5
 63
     7
 74
     0
 91
        4
 64
     7
 65
   257
 75
     1
175
     1
 42
1.0
 92
        0
 66
     7
 43
1.0
 76
     1
 77
     6
 78
     2
 67
     7
 79
     5
170
     0
171
     0
290
     0
174
     0
 93
       13
 44
0.0
173
     0
291
     1
 45
0.0
1001
ACAD
1000
AcDbSavedByObjectVersion
1070
     0
1000
AcDbSavedByObjectVersion
1070
     0
1001
ACAD
1000
AcRTDxfName
1000
VISUALSTYLE
  0
VISUALSTYLE
  5
1BB
102
{ACAD_REACTORS
330
17A
102
}
330
17A
100
AcDbVisualStyle
  2
GouraudWithEdges
 70
     3
 71
     2
 72
     2
 73
     1
 90
        2
 40
-0.6
 41
30.0
 62
     5
 63
     7
 74
     1
 91
        4
 64
     7
 65
   257
 75
     1
175
     1
 42
1.0
 92
        0
 66
   257
 43
1.0
 76
     1
 77
     6
 78
     2
 67
     7
 79
     5
170
     0
171
     0
290
     0
174
     0
 93
       13
 44
0.0
173
     0
291
     1
 45
0.0
1001
ACAD
1000
AcDbSavedByObjectVersion
1070
     0
1000
AcDbSavedByObjectVersion
1070
     0
1001
ACAD
1000
AcRTDxfName
1000
VISUALSTYLE
  0
VISUALSTYLE
  5
1C2
102
{ACAD_REACTORS
330
17A
102
}
330
17A
100
AcDbVisualStyle
  2
Linepattern
 70
    14
 71
     2
 72
     2
 73
     0
 90
        0
 40
-0.6
 41
-30.0
 62
     5
 63
     7
 74
     1
 91
        4
 64
     7
 65
   257
 75
     7
175
     7
 42
1.0
 92
        8
 66
     7
 43
1.0
 76
     1
 77
     6
 78
     2
 67
     7
 79
     5
170
     0
171
     0
290
     0
174
     0
 93
        1
 44
0.0
173
     0
291
     1
 45
0.0
1001
ACAD
1000
AcDbSavedByObjectVersion
1070
     0
1000
AcDbSavedByObjectVersion
1070
     0
1001
ACAD
1000
AcRTDxfName
1000
VISUALSTYLE
  0
VISUALSTYLE
  5
188
102
{ACAD_REACTORS
330
17A
102
}
330
17A
100
AcDbVisualStyle
  2
Realistic
 70
     8
 71
     2
 72
     2
 73
     0
 90
        0
 40
-0.6
 41
-30.0
 62
     5
 63
     7
 74
     1
 91
        0
 64
     7
 65
   257
 75
     1
175
     1
 42
1.0
 92
        8
 66
     8
 43
1.0
 76
     1
 77
     6
 78
     2
 67
     7
 79
     5
170
     0
171
     0
290
     0
174
     0
 93
       13
 44
0.0
173
     0
291
     0
 45
0.0
1001
ACAD
1000
AcDbSavedByObjectVersion
1070
     0
1000
AcDbSavedByObjectVersion
1070
     0
1000
AcDbSavedByObjectVersion
1070
     0
1001
ACAD
1000
AcRTDxfName
1000
VISUALSTYLE
  0
VISUALSTYLE
  5
1C1
102
{ACAD_REACTORS
330
17A
102
}
330
17A
100
AcDbVisualStyle
  2
Thicken
 70
    13
 71
     2
 72
     2
 73
     0
 90
        0
 40
-0.6
 41
-30.0
 62
     5
 63
     7
 74
     1
 91
        4
 64
     7
 65
   257
 75
     1
175
     1
 42
1.0
 92
       12
 66
     7
 43
1.0
 76
     1
 77
     6
 78
     2
 67
     7
 79
     5
170
     0
171
     0
290
     0
174
     0
 93
        1
 44
0.0
173
     0
291
     1
 45
0.0
1001
ACAD
1000
AcDbSavedByObjectVersion
1070
     0
1000
AcDbSavedByObjectVersion
1070
     0
1001
ACAD
1000
AcRTDxfName
1000
VISUALSTYLE
  0
DICTIONARYVAR
  5
18C
102
{ACAD_REACTORS
330
18B
102
}
330
18B
100
DictionaryVariables
280
     0
  1
STANDARD
  0
DICTIONARYVAR
  5
190
102
{ACAD_REACTORS
330
18B
102
}
330
18B
100
DictionaryVariables
280
     0
  1
2
  0
DICTIONARYVAR
  5
18F
102
{ACAD_REACTORS
330
18B
102
}
330
18B
100
DictionaryVariables
280
     0
  1
1
  0
DICTIONARYVAR
  5
18E
102
{ACAD_REACTORS
330
18B
102
}
330
18B
100
DictionaryVariables
280
     0
  1
0
  0
DICTIONARYVAR
  5
2F9
102
{ACAD_REACTORS
330
18B
102
}
330
18B
100
DictionaryVariables
280
     0
  1

  0
DICTIONARYVAR
  5
18D
102
{ACAD_REACTORS
330
18B
102
}
330
18B
100
DictionaryVariables
280
     0
  1
127
  0
DICTIONARY
  5
1CCC
330
168
100
AcDbDictionary
280
     1
281
     1
  3
ACAD_XREC_ROUNDTRIP
360
1CCD
  0
DICTIONARY
  5
1CCE
330
16C
100
AcDbDictionary
280
     1
281
     1
  3
ACAD_XREC_ROUNDTRIP
360
1CCF
  0
DICTIONARY
  5
1CCA
330
163
100
AcDbDictionary
280
     1
281
     1
  3
ACAD_XREC_ROUNDTRIP
360
1CCB
  0
DICTIONARY
  5
1B0
330
183
100
AcDbDictionary
280
     1
281
     1
  3
ACAD_XREC_ROUNDTRIP
360
1B1
  0
DICTIONARY
  5
1AE
330
182
100
AcDbDictionary
280
     1
281
     1
  3
ACAD_XREC_ROUNDTRIP
360
1AF
  0
DICTIONARY
  5
193
330
A
100
AcDbDictionary
280
     1
281
     1
  3
ACAD_XREC_ROUNDTRIP
360
194
  0
DICTIONARY
  5
21A
330
187
100
AcDbDictionary
280
     1
281
     1
  3
ACAD_XREC_ROUNDTRIP
360
21B
  0
XRECORD
  5
1CCD
102
{ACAD_REACTORS
330
1CCC
102
}
330
1CCC
100
AcDbXrecord
280
     1
102
SHADEPLOT
 70
     0
102
SHADEPLOTRESLEVEL
 70
     2
102
SHADEPLOTCUSTOMDPI
 70
   300
  0
XRECORD
  5
1CCF
102
{ACAD_REACTORS
330
1CCE
102
}
330
1CCE
100
AcDbXrecord
280
     1
102
SHADEPLOT
 70
     0
102
SHADEPLOTRESLEVEL
 70
     2
102
SHADEPLOTCUSTOMDPI
 70
   300
  0
XRECORD
  5
1CCB
102
{ACAD_REACTORS
330
1CCA
102
}
330
1CCA
100
AcDbXrecord
280
     1
102
SHADEPLOT
 70
     0
102
SHADEPLOTRESLEVEL
 70
     2
102
SHADEPLOTCUSTOMDPI
 70
   300
  0
XRECORD
  5
1B1
102
{ACAD_REACTORS
330
1B0
102
}
330
1B0
100
AcDbXrecord
280
     1
102
MATERIAL
148
0.0
149
0.0
149
0.0
 93
        0
 94
       63
282
     0
 72
     1
 77
     1
171
     1
175
     1
179
     1
273
     0
  0
XRECORD
  5
1AF
102
{ACAD_REACTORS
330
1AE
102
}
330
1AE
100
AcDbXrecord
280
     1
102
MATERIAL
148
0.0
149
0.0
149
0.0
 93
        0
 94
       63
282
     0
 72
     1
 77
     1
171
     1
175
     1
179
     1
273
     0
  0
XRECORD
  5
194
102
{ACAD_REACTORS
330
193
102
}
330
193
100
AcDbXrecord
280
     1
102
MATERIAL
148
0.0
149
0.0
149
0.0
 93
        0
 94
       63
282
     0
 72
     1
 77
     1
171
     1
175
     1
179
     1
273
     0
  0
XRECORD
  5
21B
102
{ACAD_REACTORS
330
21A
102
}
330
21A
100
AcDbXrecord
280
     1
102
ACAD_ROUNDTRIP_PRE2007_TABLESTYLE
 90
        4
 91
        0
  1

 92
        4
 93
        0
  2

 94
        4
 95
        0
  3

  0
ENDSEC
  0
EOF
