  0
SECTION
  2
HEADER
  9
$ACADVER
  1
AC1015
  9
$ACADMAINTVER
 70
    20
  9
$DWGCODEPAGE
  3
ANSI_1252
  9
$INSBASE
 10
0.0
 20
0.0
 30
0.0
  9
$EXTMIN
 10
0.0149993919942055
 20
-0.0504455555351982
 30
-0.0015258207003583
  9
$EXTMAX
 10
1.241348269210835
 20
0.7095947279706536
 30
0.0000000349246037
  9
$LIMMIN
 10
0.0
 20
0.0
  9
$LIMMAX
 10
1.0
 20
0.5
  9
$ORTHOMODE
 70
     0
  9
$REGENMODE
 70
     1
  9
$FILLMODE
 70
     1
  9
$QTEXTMODE
 70
     0
  9
$MIRRTEXT
 70
     0
  9
$LTSCALE
 40
1.0
  9
$ATTMODE
 70
     1
  9
$TEXTSIZE
 40
0.008
  9
$TRACEWID
 40
1.0
  9
$TEXTSTYLE
  7
style1
  9
$CLAYER
  8
Text
  9
$CELTYPE
  6
ACAD_ISO10W100
  9
$CECOLOR
 62
   256
  9
$CELTSCALE
 40
1.0
  9
$DISPSILH
 70
     0
  9
$DIMSCALE
 40
0.001
  9
$DIMASZ
 40
1.5
  9
$DIMEXO
 40
0.0625
  9
$DIMDLI
 40
0.38
  9
$DIMRND
 40
0.0
  9
$DIMDLE
 40
0.0
  9
$DIMEXE
 40
0.18
  9
$DIMTP
 40
0.0
  9
$DIMTM
 40
0.0
  9
$DIMTXT
 40
3.0
  9
$DIMCEN
 40
0.0
  9
$DIMTSZ
 40
0.0
  9
$DIMTOL
 70
     0
  9
$DIMLIM
 70
     0
  9
$DIMTIH
 70
     1
  9
$DIMTOH
 70
     1
  9
$DIMSE1
 70
     0
  9
$DIMSE2
 70
     0
  9
$DIMTAD
 70
     0
  9
$DIMZIN
 70
     0
  9
$DIMBLK
  1
ArchTick
  9
$DIMASO
 70
     1
  9
$DIMSHO
 70
     1
  9
$DIMPOST
  1

  9
$DIMAPOST
  1

  9
$DIMALT
 70
     0
  9
$DIMALTD
 70
     2
  9
$DIMALTF
 40
25.4
  9
$DIMLFAC
 40
1.0
  9
$DIMTOFL
 70
     0
  9
$DIMTVP
 40
0.0
  9
$DIMTIX
 70
     0
  9
$DIMSOXD
 70
     0
  9
$DIMSAH
 70
     0
  9
$DIMBLK1
  1

  9
$DIMBLK2
  1

  9
$DIMSTYLE
  2
Bovelacci
  9
$DIMCLRD
 70
     5
  9
$DIMCLRE
 70
     5
  9
$DIMCLRT
 70
     4
  9
$DIMTFAC
 40
1.0
  9
$DIMGAP
 40
2.0
  9
$DIMJUST
 70
     0
  9
$DIMSD1
 70
     0
  9
$DIMSD2
 70
     0
  9
$DIMTOLJ
 70
     1
  9
$DIMTZIN
 70
     0
  9
$DIMALTZ
 70
     0
  9
$DIMALTTZ
 70
     0
  9
$DIMUPT
 70
     0
  9
$DIMDEC
 70
     2
  9
$DIMTDEC
 70
     2
  9
$DIMALTU
 70
     2
  9
$DIMALTTD
 70
     2
  9
$DIMTXSTY
  7
ROMANS
  9
$DIMAUNIT
 70
     0
  9
$DIMADEC
 70
     0
  9
$DIMALTRND
 40
0.0
  9
$DIMAZIN
 70
     0
  9
$DIMDSEP
 70
    46
  9
$DIMATFIT
 70
     3
  9
$DIMFRAC
 70
     0
  9
$DIMLDRBLK
  1

  9
$DIMLUNIT
 70
     2
  9
$DIMLWD
 70
    -2
  9
$DIMLWE
 70
    -2
  9
$DIMTMOVE
 70
     2
  9
$LUNITS
 70
     2
  9
$LUPREC
 70
     2
  9
$SKETCHINC
 40
1.0
  9
$FILLETRAD
 40
0.0
  9
$AUNITS
 70
     0
  9
$AUPREC
 70
     0
  9
$MENU
  1
.
  9
$ELEVATION
 40
0.0
  9
$PELEVATION
 40
0.0
  9
$THICKNESS
 40
0.0
  9
$LIMCHECK
 70
     0
  9
$CHAMFERA
 40
0.0
  9
$CHAMFERB
 40
0.0
  9
$CHAMFERC
 40
0.0
  9
$CHAMFERD
 40
0.0
  9
$SKPOLY
 70
     0
  9
$TDCREATE
 40
2454297.625402373
  9
$TDUCREATE
 40
2454297.542069039
  9
$TDUPDATE
 40
2454311.614820960
  9
$TDUUPDATE
 40
2454311.531487627
  9
$TDINDWG
 40
0.1923721528
  9
$TDUSRTIMER
 40
0.1923701505
  9
$USRTIMER
 70
     1
  9
$ANGBASE
 50
0.0
  9
$ANGDIR
 70
     0
  9
$PDMODE
 70
     0
  9
$PDSIZE
 40
0.0
  9
$PLINEWID
 40
0.0
  9
$SPLFRAME
 70
     0
  9
$SPLINETYPE
 70
     6
  9
$SPLINESEGS
 70
     8
  9
$HANDSEED
  5
2465
  9
$SURFTAB1
 70
     6
  9
$SURFTAB2
 70
     6
  9
$SURFTYPE
 70
     6
  9
$SURFU
 70
     6
  9
$SURFV
 70
     6
  9
$UCSBASE
  2

  9
$UCSNAME
  2

  9
$UCSORG
 10
0.0
 20
0.0
 30
0.0
  9
$UCSXDIR
 10
1.0
 20
0.0
 30
0.0
  9
$UCSYDIR
 10
0.0
 20
1.0
 30
0.0
  9
$UCSORTHOREF
  2

  9
$UCSORTHOVIEW
 70
     0
  9
$UCSORGTOP
 10
0.0
 20
0.0
 30
0.0
  9
$UCSORGBOTTOM
 10
0.0
 20
0.0
 30
0.0
  9
$UCSORGLEFT
 10
0.0
 20
0.0
 30
0.0
  9
$UCSORGRIGHT
 10
0.0
 20
0.0
 30
0.0
  9
$UCSORGFRONT
 10
0.0
 20
0.0
 30
0.0
  9
$UCSORGBACK
 10
0.0
 20
0.0
 30
0.0
  9
$PUCSBASE
  2

  9
$PUCSNAME
  2

  9
$PUCSORG
 10
0.0
 20
0.0
 30
0.0
  9
$PUCSXDIR
 10
1.0
 20
0.0
 30
0.0
  9
$PUCSYDIR
 10
0.0
 20
1.0
 30
0.0
  9
$PUCSORTHOREF
  2

  9
$PUCSORTHOVIEW
 70
     0
  9
$PUCSORGTOP
 10
0.0
 20
0.0
 30
0.0
  9
$PUCSORGBOTTOM
 10
0.0
 20
0.0
 30
0.0
  9
$PUCSORGLEFT
 10
0.0
 20
0.0
 30
0.0
  9
$PUCSORGRIGHT
 10
0.0
 20
0.0
 30
0.0
  9
$PUCSORGFRONT
 10
0.0
 20
0.0
 30
0.0
  9
$PUCSORGBACK
 10
0.0
 20
0.0
 30
0.0
  9
$USERI1
 70
     0
  9
$USERI2
 70
     0
  9
$USERI3
 70
     0
  9
$USERI4
 70
     0
  9
$USERI5
 70
     0
  9
$USERR1
 40
0.0
  9
$USERR2
 40
0.0
  9
$USERR3
 40
0.0
  9
$USERR4
 40
0.0
  9
$USERR5
 40
0.0
  9
$WORLDVIEW
 70
     1
  9
$SHADEDGE
 70
     3
  9
$SHADEDIF
 70
    70
  9
$TILEMODE
 70
     1
  9
$MAXACTVP
 70
    64
  9
$PINSBASE
 10
0.0
 20
0.0
 30
0.0
  9
$PLIMCHECK
 70
     0
  9
$PEXTMIN
 10
1.000000000000000E+20
 20
1.000000000000000E+20
 30
1.000000000000000E+20
  9
$PEXTMAX
 10
-1.000000000000000E+20
 20
-1.000000000000000E+20
 30
-1.000000000000000E+20
  9
$PLIMMIN
 10
0.0
 20
0.0
  9
$PLIMMAX
 10
420.0
 20
297.0
  9
$UNITMODE
 70
     0
  9
$VISRETAIN
 70
     1
  9
$PLINEGEN
 70
     0
  9
$PSLTSCALE
 70
     1
  9
$TREEDEPTH
 70
  3020
  9
$CMLSTYLE
  2
Standard
  9
$CMLJUST
 70
     0
  9
$CMLSCALE
 40
20.0
  9
$PROXYGRAPHICS
 70
     1
  9
$MEASUREMENT
 70
     1
  9
$CELWEIGHT
370
    -1
  9
$ENDCAPS
280
     0
  9
$JOINSTYLE
280
     0
  9
$LWDISPLAY
290
     0
  9
$INSUNITS
 70
     4
  9
$HYPERLINKBASE
  1

  9
$STYLESHEET
  1

  9
$XEDIT
290
     1
  9
$CEPSNTYPE
380
     0
  9
$PSTYLEMODE
290
     1
  9
$FINGERPRINTGUID
  2
{904A8C64-524F-4709-A9C6-320D2C273A6D}
  9
$VERSIONGUID
  2
{1FC19AB0-54BA-4664-8E4C-FAE0D5520317}
  9
$EXTNAMES
290
     1
  9
$PSVPSCALE
 40
0.0
  9
$OLESTARTUP
290
     0
  0
ENDSEC
  0
SECTION
  2
CLASSES
  0
CLASS
  1
ACDBDICTIONARYWDFLT
  2
AcDbDictionaryWithDefault
  3
ObjectDBX Classes
 90
        0
280
     0
281
     0
  0
CLASS
  1
TABLESTYLE
  2
AcDbTableStyle
  3
ObjectDBX Classes
 90
     2047
280
     0
281
     0
  0
CLASS
  1
SORTENTSTABLE
  2
AcDbSortentsTable
  3
ObjectDBX Classes
 90
        0
280
     0
281
     0
  0
CLASS
  1
DICTIONARYVAR
  2
AcDbDictionaryVar
  3
ObjectDBX Classes
 90
        0
280
     0
281
     0
  0
CLASS
  1
ACDBPLACEHOLDER
  2
AcDbPlaceHolder
  3
ObjectDBX Classes
 90
        0
280
     0
281
     0
  0
CLASS
  1
LAYOUT
  2
AcDbLayout
  3
ObjectDBX Classes
 90
        0
280
     0
281
     0
  0
CLASS
  1
DIMASSOC
  2
AcDbDimAssoc
  3
"AcDbDimAssoc|Product Desc:     AcDim ARX App For Dimension|Company:          Autodesk, Inc.|WEB Address:      www.autodesk.com"
 90
        0
280
     0
281
     0
  0
CLASS
  1
MATERIAL
  2
AcDbMaterial
  3
ObjectDBX Classes
 90
        0
280
     0
281
     0
  0
CLASS
  1
VISUALSTYLE
  2
AcDbVisualStyle
  3
ObjectDBX Classes
 90
     4095
280
     0
281
     0
  0
ENDSEC
  0
SECTION
  2
TABLES
  0
TABLE
  2
VPORT
  5
177
330
0
100
AcDbSymbolTable
 70
    11
  0
VPORT
  5
245A
330
177
100
AcDbSymbolTableRecord
100
AcDbViewportTableRecord
  2
*Active
 70
     0
 10
0.0
 20
0.0
 11
1.0
 21
1.0
 12
0.208948075564236
 22
0.1482428814197948
 13
0.0
 23
0.0
 14
10.0
 24
10.0
 15
10.0
 25
10.0
 16
0.0
 26
0.0
 36
1.0
 17
0.0
 27
0.0
 37
0.0
 40
0.2759717185265153
 41
1.546526867627784
 42
50.0
 43
0.0
 44
0.0
 50
0.0
 51
0.0
 71
     0
 72
  1000
 73
     1
 74
     3
 75
     0
 76
     0
 77
     0
 78
     0
281
     0
 65
     1
110
0.0
120
0.0
130
0.0
111
1.0
121
0.0
131
0.0
112
0.0
122
1.0
132
0.0
 79
     0
146
0.0
  0
ENDTAB
  0
TABLE
  2
LTYPE
  5
172
330
0
100
AcDbSymbolTable
 70
     2
  0
LTYPE
  5
173
330
172
100
AcDbSymbolTableRecord
100
AcDbLinetypeTableRecord
  2
ByBlock
 70
     0
  3

 72
    65
 73
     0
 40
0.0
  0
LTYPE
  5
174
330
172
100
AcDbSymbolTableRecord
100
AcDbLinetypeTableRecord
  2
ByLayer
 70
     0
  3

 72
    65
 73
     0
 40
0.0
  0
LTYPE
  5
C
330
172
100
AcDbSymbolTableRecord
100
AcDbLinetypeTableRecord
  2
Continuous
 70
     0
  3
Solid line
 72
    65
 73
     0
 40
0.0
  0
LTYPE
  5
14E
330
172
100
AcDbSymbolTableRecord
100
AcDbLinetypeTableRecord
  2
ACAD_ISO10W100
 70
     0
  3
ISO dash dot __ . __ . __ . __ . __ . __ . __ .
 72
    65
 73
     4
 40
18.0
 49
12.0
 74
     0
 49
-3.0
 74
     0
 49
0.0
 74
     0
 49
-3.0
 74
     0
  0
ENDTAB
  0
TABLE
  2
LAYER
  5
16D
102
{ACAD_XDICTIONARY
360
16E
102
}
330
0
100
AcDbSymbolTable
 70
     8
  0
LAYER
  5
6
330
16D
100
AcDbSymbolTableRecord
100
AcDbLayerTableRecord
  2
0
 70
     0
 62
     7
  6
Continuous
370
    -3
390
7
  0
LAYER
  5
15F
330
16D
100
AcDbSymbolTableRecord
100
AcDbLayerTableRecord
  2
Defpoints
 70
     0
 62
     7
  6
Continuous
290
     0
370
    -3
390
7
  0
LAYER
  5
28
330
16D
100
AcDbSymbolTableRecord
100
AcDbLayerTableRecord
  2
Profilo
 70
     0
 62
     1
  6
Continuous
370
    -3
390
7
1001
AcAecLayerStandard
1000

1000

  0
LAYER
  5
14D
330
16D
100
AcDbSymbolTableRecord
100
AcDbLayerTableRecord
  2
Sezione
 70
     0
 62
     2
  6
Continuous
370
    -3
390
7
1001
AcAecLayerStandard
1000

1000

  0
LAYER
  5
E
330
16D
100
AcDbSymbolTableRecord
100
AcDbLayerTableRecord
  2
Table
 70
     0
 62
     3
  6
Continuous
370
    -3
390
7
1001
AcAecLayerStandard
1000

1000

  0
LAYER
  5
19
330
16D
100
AcDbSymbolTableRecord
100
AcDbLayerTableRecord
  2
Text
 70
     0
 62
     4
  6
Continuous
370
    -3
390
7
1001
AcAecLayerStandard
1000

1000

  0
LAYER
  5
23D
330
16D
100
AcDbSymbolTableRecord
100
AcDbLayerTableRecord
  2
Bovelacci
 70
     0
 62
     9
  6
Continuous
370
    -3
390
7
1001
AcAecLayerStandard
1000

1000

  0
LAYER
  5
1826
330
16D
100
AcDbSymbolTableRecord
100
AcDbLayerTableRecord
  2
Layer1
 70
     0
 62
     7
  6
Continuous
370
    -3
390
7
1001
AcAecLayerStandard
1000

1000

  0
ENDTAB
  0
TABLE
  2
STYLE
  5
170
330
0
100
AcDbSymbolTable
 70
     3
  0
STYLE
  5
1A
330
170
100
AcDbSymbolTableRecord
100
AcDbTextStyleTableRecord
  2
Standard
 70
     0
 40
0.0
 41
1.0
 50
0.0
 71
     0
 42
2.5
  3
txt
  4

  0
STYLE
  5
20
330
170
100
AcDbSymbolTableRecord
100
AcDbTextStyleTableRecord
  2
ROMANS
 70
     0
 40
0.0
 41
1.0
 50
0.0
 71
     0
 42
2.5
  3
romans
  4

  0
STYLE
  5
26
330
170
100
AcDbSymbolTableRecord
100
AcDbTextStyleTableRecord
  2
style1
 70
     0
 40
0.0
 41
1.0
 50
0.0
 71
     0
 42
0.008
  3
TIMES.TTF
  4

1001
ACAD
1000
Times New Roman
1071
       18
  0
ENDTAB
  0
TABLE
  2
VIEW
  5
175
330
0
100
AcDbSymbolTable
 70
     2
  0
ENDTAB
  0
TABLE
  2
UCS
  5
176
330
0
100
AcDbSymbolTable
 70
     0
  0
ENDTAB
  0
TABLE
  2
APPID
  5
17B
330
0
100
AcDbSymbolTable
 70
    10
  0
APPID
  5
1B
330
17B
100
AcDbSymbolTableRecord
100
AcDbRegAppTableRecord
  2
ACAD
 70
     0
  0
APPID
  5
157
330
17B
100
AcDbSymbolTableRecord
100
AcDbRegAppTableRecord
  2
ACAD_DSTYLE_DIMJOGGED_JOGANGLE_SYMBOL
 70
     0
  0
APPID
  5
F
330
17B
100
AcDbSymbolTableRecord
100
AcDbRegAppTableRecord
  2
AcAecLayerStandard
 70
     0
  0
APPID
  5
19C
330
17B
100
AcDbSymbolTableRecord
100
AcDbRegAppTableRecord
  2
ACAD_DSTYLE_DIMFLIPARROW_WHICH_SYMBOL
 70
     0
  0
APPID
  5
1A7
330
17B
100
AcDbSymbolTableRecord
100
AcDbRegAppTableRecord
  2
ACAD_DSTYLE_DIMEXT_LENGTH
 70
     0
  0
APPID
  5
1D2
330
17B
100
AcDbSymbolTableRecord
100
AcDbRegAppTableRecord
  2
ACAD_EXEMPT_FROM_CAD_STANDARDS
 70
     0
  0
APPID
  5
1D3
330
17B
100
AcDbSymbolTableRecord
100
AcDbRegAppTableRecord
  2
ACAD_DSTYLE_DIM_LINETYPE
 70
     0
  0
APPID
  5
1D4
330
17B
100
AcDbSymbolTableRecord
100
AcDbRegAppTableRecord
  2
ACAD_DSTYLE_DIM_EXT1_LINETYPE
 70
     0
  0
APPID
  5
1D5
330
17B
100
AcDbSymbolTableRecord
100
AcDbRegAppTableRecord
  2
ACAD_DSTYLE_DIM_EXT2_LINETYPE
 70
     0
  0
APPID
  5
243
330
17B
100
AcDbSymbolTableRecord
100
AcDbRegAppTableRecord
  2
ACAD_PSEXT
 70
     0
  0
ENDTAB
  0
TABLE
  2
DIMSTYLE
  5
17C
330
0
100
AcDbSymbolTable
 70
     7
100
AcDbDimStyleTable
 71
     2
340
156
340
17D
  0
DIMSTYLE
105
17D
330
17C
100
AcDbSymbolTableRecord
100
AcDbDimStyleTableRecord
  2
ISO-25
 70
     0
 41
2.5
 42
0.625
 43
3.75
 44
1.25
 73
     0
 74
     0
 77
     1
 78
     8
140
2.5
141
2.5
143
0.03937007874016
147
0.625
171
     3
172
     1
271
     2
272
     2
274
     3
278
    44
283
     0
284
     8
340
1A
  0
DIMSTYLE
105
156
102
{ACAD_REACTORS
330
2433
102
}
330
17C
100
AcDbSymbolTableRecord
100
AcDbDimStyleTableRecord
  2
Bovelacci
 70
     0
 40
0.001
 41
1.5
140
3.0
141
0.0
147
2.0
176
     5
177
     5
178
     4
271
     2
272
     2
279
     2
340
20
342
152
1001
ACAD_DSTYLE_DIMJOGGED_JOGANGLE_SYMBOL
1070
   384
1040
0.7853981633974483
1001
ACAD_DSTYLE_DIMEXT_LENGTH
1070
   378
1040
0.18
  0
DIMSTYLE
105
23E
330
17C
100
AcDbSymbolTableRecord
100
AcDbDimStyleTableRecord
  2
Dim 1-100
 70
     0
 40
0.1
 41
1.5
 42
0.0
 43
5.0
 44
1.25
 45
0.005
 46
1.25
 73
     0
 74
     0
 77
     1
 78
     9
140
2.0
141
2.5
147
1.0
172
     1
174
     1
179
     2
279
     2
289
     2
340
20
342
152
  0
DIMSTYLE
105
23F
330
17C
100
AcDbSymbolTableRecord
100
AcDbDimStyleTableRecord
  2
Standard
 70
     0
 42
0.0
 73
     0
 74
     0
 77
     1
271
     2
272
     2
340
20
  0
DIMSTYLE
105
240
330
17C
100
AcDbSymbolTableRecord
100
AcDbDimStyleTableRecord
  2
Dim 1-50
 70
     0
 40
0.05
 41
1.5
 42
0.0
 43
5.0
 44
1.25
 45
0.005
 46
1.25
 73
     0
 74
     0
 77
     1
 78
     9
140
2.0
141
2.5
147
1.0
172
     1
174
     1
179
     2
279
     2
289
     2
340
20
342
152
  0
DIMSTYLE
105
241
330
17C
100
AcDbSymbolTableRecord
100
AcDbDimStyleTableRecord
  2
Dim 1-200
 70
     0
 40
0.2
 41
1.5
 42
0.0
 43
5.0
 44
1.25
 45
0.005
 46
1.25
 73
     0
 74
     0
 77
     1
 78
     9
140
2.0
141
2.5
147
1.0
172
     1
174
     1
179
     2
271
     2
272
     2
279
     2
289
     2
340
20
342
152
  0
DIMSTYLE
105
242
330
17C
100
AcDbSymbolTableRecord
100
AcDbDimStyleTableRecord
  2
AEC Scale - Italiano
 70
     0
 41
1.0
 42
10.0
 43
10.0
 44
10.0
 73
     0
 74
     0
 75
     1
 76
     1
 77
     1
140
10.0
141
1.0
147
10.0
173
     1
271
     0
272
     0
279
     2
340
1A
343
238
344
232
  0
ENDTAB
  0
TABLE
  2
BLOCK_RECORD
  5
1
330
0
100
AcDbSymbolTable
 70
    15
  0
BLOCK_RECORD
  5
2
102
{ACAD_XDICTIONARY
360
3
102
}
330
1
100
AcDbSymbolTableRecord
100
AcDbBlockTableRecord
  2
*Model_Space
340
163
  0
BLOCK_RECORD
  5
165
330
1
100
AcDbSymbolTableRecord
100
AcDbBlockTableRecord
  2
*Paper_Space
340
168
  0
BLOCK_RECORD
  5
169
330
1
100
AcDbSymbolTableRecord
100
AcDbBlockTableRecord
  2
*Paper_Space0
340
16C
  0
BLOCK_RECORD
  5
152
330
1
100
AcDbSymbolTableRecord
100
AcDbBlockTableRecord
  2
_ArchTick
340
0
310
2800000020000000200000000100080000000000000400000000000000000000000000000000000000000000000080000080000000808000800000008000800080800000C0C0C000C0DCC000F0CAA6000020400000206000002080000020A0000020C0000020E00000400000004020000040400000406000004080000040A0
310
000040C0000040E00000600000006020000060400000606000006080000060A0000060C0000060E00000800000008020000080400000806000008080000080A0000080C0000080E00000A0000000A0200000A0400000A0600000A0800000A0A00000A0C00000A0E00000C0000000C0200000C0400000C0600000C0800000C0
310
A00000C0C00000C0E00000E0000000E0200000E0400000E0600000E0800000E0A00000E0C00000E0E00040000000400020004000400040006000400080004000A0004000C0004000E00040200000402020004020400040206000402080004020A0004020C0004020E000404000004040200040404000404060004040800040
310
40A0004040C0004040E00040600000406020004060400040606000406080004060A0004060C0004060E00040800000408020004080400040806000408080004080A0004080C0004080E00040A0000040A0200040A0400040A0600040A0800040A0A00040A0C00040A0E00040C0000040C0200040C0400040C0600040C08000
310
40C0A00040C0C00040C0E00040E0000040E0200040E0400040E0600040E0800040E0A00040E0C00040E0E00080000000800020008000400080006000800080008000A0008000C0008000E00080200000802020008020400080206000802080008020A0008020C0008020E00080400000804020008040400080406000804080
310
008040A0008040C0008040E00080600000806020008060400080606000806080008060A0008060C0008060E00080800000808020008080400080806000808080008080A0008080C0008080E00080A0000080A0200080A0400080A0600080A0800080A0A00080A0C00080A0E00080C0000080C0200080C0400080C0600080C0
310
800080C0A00080C0C00080C0E00080E0000080E0200080E0400080E0600080E0800080E0A00080E0C00080E0E000C0000000C0002000C0004000C0006000C0008000C000A000C000C000C000E000C0200000C0202000C0204000C0206000C0208000C020A000C020C000C020E000C0400000C0402000C0404000C0406000C0
310
408000C040A000C040C000C040E000C0600000C0602000C0604000C0606000C0608000C060A000C060C000C060E000C0800000C0802000C0804000C0806000C0808000C080A000C080C000C080E000C0A00000C0A02000C0A04000C0A06000C0A08000C0A0A000C0A0C000C0A0E000C0C00000C0C02000C0C04000C0C06000
310
C0C08000C0C0A000F0FBFF00A4A0A000808080000000FF0000FF000000FFFF00FF000000FF00FF00FFFF0000FFFFFF00000000FF000000000000000000000000000000000000000000000000000000000000FF00FF00000000000000000000000000000000000000000000000000000000FF000000FF000000000000000000
310
0000000000000000000000000000000000FF0000000000FF0000000000000000000000000000000000000000000000000000FF0000000000FF0000000000000000000000000000000000000000000000000000FF0000000000FF0000000000000000000000000000000000000000000000000000FF0000000000FF00000000
310
00000000000000000000000000000000000000000000FF0000000000FF0000000000000000000000000000000000000000000000000000FF0000000000FF0000000000000000000000000000000000000000000000000000FF0000000000FF0000000000000000000000000000000000000000000000000000FF0000000000
310
FF0000000000000000000000000000000000000000000000000000FF0000000000FF0000000000000000000000000000000000000000000000000000FF0000000000FF0000000000000000000000000000000000000000000000000000FF0000000000FF0000000000000000000000000000000000000000000000000000FF
310
0000000000FF0000000000000000000000000000000000000000000000000000FF0000000000FF0000000000000000000000000000000000000000000000000000FF0000000000FF0000000000000000000000000000000000000000000000000000FF0000000000FF00000000000000000000000000000000000000000000
310
00000000FF0000000000FF0000000000000000000000000000000000000000000000000000FF0000000000FF0000000000000000000000000000000000000000000000000000FF0000000000FF0000000000000000000000000000000000000000000000000000FF0000000000FF0000000000000000000000000000000000
310
000000000000000000FF0000000000FF0000000000000000000000000000000000000000000000000000FF0000000000FF0000000000000000000000000000000000000000000000000000FF0000000000FF0000000000000000000000000000000000000000000000000000FF0000000000FF000000000000000000000000
310
0000000000000000000000000000FF0000000000FF0000000000000000000000000000000000000000000000000000FF0000000000FF0000000000000000000000000000000000000000000000000000FF0000000000FF0000000000000000000000000000000000000000000000000000FF000000FF000000000000000000
310
00000000000000000000000000000000000000FF00FF000000000000000000000000000000000000000000000000000000000000FF000000
102
{BLKREFS
331
180C
331
1CC2
331
1CD6
331
1DAE
331
235E
331
2373
331
2455
102
}
  0
BLOCK_RECORD
  5
232
330
1
100
AcDbSymbolTableRecord
100
AcDbBlockTableRecord
  2
_Arrivo
340
0
310
2800000020000000200000000100080000000000000400000000000000000000000000000000000000000000000080000080000000808000800000008000800080800000C0C0C000C0DCC000F0CAA6000020400000206000002080000020A0000020C0000020E00000400000004020000040400000406000004080000040A0
310
000040C0000040E00000600000006020000060400000606000006080000060A0000060C0000060E00000800000008020000080400000806000008080000080A0000080C0000080E00000A0000000A0200000A0400000A0600000A0800000A0A00000A0C00000A0E00000C0000000C0200000C0400000C0600000C0800000C0
310
A00000C0C00000C0E00000E0000000E0200000E0400000E0600000E0800000E0A00000E0C00000E0E00040000000400020004000400040006000400080004000A0004000C0004000E00040200000402020004020400040206000402080004020A0004020C0004020E000404000004040200040404000404060004040800040
310
40A0004040C0004040E00040600000406020004060400040606000406080004060A0004060C0004060E00040800000408020004080400040806000408080004080A0004080C0004080E00040A0000040A0200040A0400040A0600040A0800040A0A00040A0C00040A0E00040C0000040C0200040C0400040C0600040C08000
310
40C0A00040C0C00040C0E00040E0000040E0200040E0400040E0600040E0800040E0A00040E0C00040E0E00080000000800020008000400080006000800080008000A0008000C0008000E00080200000802020008020400080206000802080008020A0008020C0008020E00080400000804020008040400080406000804080
310
008040A0008040C0008040E00080600000806020008060400080606000806080008060A0008060C0008060E00080800000808020008080400080806000808080008080A0008080C0008080E00080A0000080A0200080A0400080A0600080A0800080A0A00080A0C00080A0E00080C0000080C0200080C0400080C0600080C0
310
800080C0A00080C0C00080C0E00080E0000080E0200080E0400080E0600080E0800080E0A00080E0C00080E0E000C0000000C0002000C0004000C0006000C0008000C000A000C000C000C000E000C0200000C0202000C0204000C0206000C0208000C020A000C020C000C020E000C0400000C0402000C0404000C0406000C0
310
408000C040A000C040C000C040E000C0600000C0602000C0604000C0606000C0608000C060A000C060C000C060E000C0800000C0802000C0804000C0806000C0808000C080A000C080C000C080E000C0A00000C0A02000C0A04000C0A06000C0A08000C0A0A000C0A0C000C0A0E000C0C00000C0C02000C0C04000C0C06000
310
C0C08000C0C0A000F0FBFF00A4A0A000808080000000FF0000FF000000FFFF00FF000000FF00FF00FFFF0000FFFFFF00000000000000000000000000000000000000000000000000000000000000000000000000000000000000FF0000000000000000000000000000000000000000000000000000000000000000FF000000
310
00000000000000000000000000000000000000000000000000000000FF0000000000000000000000000000000000000000000000000000000000000000FF00000000000000000000000000000000000000000000000000000000000000FF0000000000000000000000000000000000000000000000000000000000000000FF
310
0000000000000000000000000000000000000000000000000000000000000000FF00000000000000000000000000000000000000000000000000000000000000FF0000000000000000000000000000000000000000000000000000000000000000FF0000000000000000000000000000000000000000000000000000000000
310
0000FF0000000000000000000000000000000000000000000000000000000000000000FF00000000000000000000000000000000000000000000000000000000000000FF0000000000000000000000000000000000000000000000000000000000000000FF0000FF0000000000000000000000000000000000000000000000
310
000000000000FFFF000000000000000000000000000000000000000000000000000000000000FFFF00000000000000000000000000000000000000000000000000000000FFFFFFFFFFFF00000000000000000000000000000000000000000000000000000000FFFF0000000000000000000000000000000000000000000000
310
000000000000FF0000FF000000000000000000000000000000000000000000000000000000FF00000000000000000000000000000000000000000000000000000000000000FF000000000000000000000000000000000000000000000000000000000000FF0000000000000000000000000000000000000000000000000000
310
0000000000FF000000000000000000000000000000000000000000000000000000000000FF00000000000000000000000000000000000000000000000000000000000000FF000000000000000000000000000000000000000000000000000000000000FF000000000000000000000000000000000000000000000000000000
310
000000FF00000000000000000000000000000000000000000000000000000000000000FF000000000000000000000000000000000000000000000000000000000000FF00000000000000000000000000000000000000000000000000000000000000FF00000000000000000000000000000000000000000000000000000000
310
0000FF0000000000000000000000000000000000000000000000000000000000000000000000000000000000000000000000000000000000
  0
BLOCK_RECORD
  5
238
330
1
100
AcDbSymbolTableRecord
100
AcDbBlockTableRecord
  2
_Partenza
340
0
310
2800000020000000200000000100080000000000000400000000000000000000000000000000000000000000000080000080000000808000800000008000800080800000C0C0C000C0DCC000F0CAA6000020400000206000002080000020A0000020C0000020E00000400000004020000040400000406000004080000040A0
310
000040C0000040E00000600000006020000060400000606000006080000060A0000060C0000060E00000800000008020000080400000806000008080000080A0000080C0000080E00000A0000000A0200000A0400000A0600000A0800000A0A00000A0C00000A0E00000C0000000C0200000C0400000C0600000C0800000C0
310
A00000C0C00000C0E00000E0000000E0200000E0400000E0600000E0800000E0A00000E0C00000E0E00040000000400020004000400040006000400080004000A0004000C0004000E00040200000402020004020400040206000402080004020A0004020C0004020E000404000004040200040404000404060004040800040
310
40A0004040C0004040E00040600000406020004060400040606000406080004060A0004060C0004060E00040800000408020004080400040806000408080004080A0004080C0004080E00040A0000040A0200040A0400040A0600040A0800040A0A00040A0C00040A0E00040C0000040C0200040C0400040C0600040C08000
310
40C0A00040C0C00040C0E00040E0000040E0200040E0400040E0600040E0800040E0A00040E0C00040E0E00080000000800020008000400080006000800080008000A0008000C0008000E00080200000802020008020400080206000802080008020A0008020C0008020E00080400000804020008040400080406000804080
310
008040A0008040C0008040E00080600000806020008060400080606000806080008060A0008060C0008060E00080800000808020008080400080806000808080008080A0008080C0008080E00080A0000080A0200080A0400080A0600080A0800080A0A00080A0C00080A0E00080C0000080C0200080C0400080C0600080C0
310
800080C0A00080C0C00080C0E00080E0000080E0200080E0400080E0600080E0800080E0A00080E0C00080E0E000C0000000C0002000C0004000C0006000C0008000C000A000C000C000C000E000C0200000C0202000C0204000C0206000C0208000C020A000C020C000C020E000C0400000C0402000C0404000C0406000C0
310
408000C040A000C040C000C040E000C0600000C0602000C0604000C0606000C0608000C060A000C060C000C060E000C0800000C0802000C0804000C0806000C0808000C080A000C080C000C080E000C0A00000C0A02000C0A04000C0A06000C0A08000C0A0A000C0A0C000C0A0E000C0C00000C0C02000C0C04000C0C06000
310
C0C08000C0C0A000F0FBFF00A4A0A000808080000000FF0000FF000000FFFF00FF000000FF00FF00FFFF0000FFFFFF0000000000000000000000000000000000000000000000000000000000000000000000000000000000000000000000000000000000000000000000000000000000000000000000000000000000000000
310
000000000000000000000000000000000000000000000000000000000000000000000000000000000000000000000000000000000000000000000000000000000000000000000000000000000000000000000000000000000000000000000000000000000000000000000000000000000000FFFFFFFFFFFFFFFFFFFFFFFFFF
310
FFFFFFFFFFFFFFFFFFFFFFFFFFFFFFFFFF0000000000000000000000000000000000000000000000000000000000000000000000000000000000000000000000000000000000000000000000000000000000000000000000000000000000000000000000000000000000000000000000000000000000000000000000000000
310
00000000000000000000000000000000000000000000000000000000000000000000000000000000000000000000000000000000000000000000000000000000000000000000000000000000000000000000000000000000000000000000000000000000000000000000000000000000000000000000000000000000000000
310
00000000000000000000000000000000000000000000000000000000000000000000000000000000000000000000000000000000000000000000000000000000000000000000000000000000000000000000000000000000000000000000000000000000000000000000000000000000000000000000000000000000000000
310
00000000000000000000000000000000000000000000000000000000000000000000000000000000000000000000000000000000000000000000000000000000000000000000000000000000000000000000000000000000000000000000000000000000000000000000000000000000000000000000000000000000000000
310
000000000000000000000000000000000000000000000000000000000000000000000000000000000000000000000000000000000000000000000000000000000000000000000000000000000000000000000000000000FFFFFFFFFFFFFFFFFFFFFFFFFFFFFFFFFFFFFFFFFFFFFFFFFFFFFFFFFFFF00000000000000000000
310
00000000000000000000000000000000000000000000000000000000000000000000000000000000000000000000000000000000000000000000000000000000000000000000000000000000000000000000000000000000000000000000000000000000000000000000000000000000000000000000000000000000000000
310
0000000000000000000000000000000000000000000000000000000000000000000000000000000000000000000000000000000000000000
  0
BLOCK_RECORD
  5
17F2
330
1
100
AcDbSymbolTableRecord
100
AcDbBlockTableRecord
  2
*D4
340
0
  0
BLOCK_RECORD
  5
1CA8
330
1
100
AcDbSymbolTableRecord
100
AcDbBlockTableRecord
  2
*D6
340
0
  0
BLOCK_RECORD
  5
1CD1
330
1
100
AcDbSymbolTableRecord
100
AcDbBlockTableRecord
  2
*D7
340
0
  0
BLOCK_RECORD
  5
1DA2
330
1
100
AcDbSymbolTableRecord
100
AcDbBlockTableRecord
  2
*D9
340
0
  0
BLOCK_RECORD
  5
2344
330
1
100
AcDbSymbolTableRecord
100
AcDbBlockTableRecord
  2
*D11
340
0
  0
BLOCK_RECORD
  5
236E
330
1
100
AcDbSymbolTableRecord
100
AcDbBlockTableRecord
  2
*D12
340
0
  0
BLOCK_RECORD
  5
2443
330
1
100
AcDbSymbolTableRecord
100
AcDbBlockTableRecord
  2
*D14
340
0
  0
ENDTAB
  0
ENDSEC
  0
SECTION
  2
BLOCKS
  0
BLOCK
  5
5
330
2
100
AcDbEntity
  8
0
100
AcDbBlockBegin
  2
*Model_Space
 70
     0
 10
0.0
 20
0.0
 30
0.0
  3
*Model_Space
  1

  0
ENDBLK
  5
162
330
2
100
AcDbEntity
  8
0
100
AcDbBlockEnd
  0
BLOCK
  5
166
330
165
100
AcDbEntity
 67
     1
  8
0
100
AcDbBlockBegin
  2
*Paper_Space
 70
     0
 10
0.0
 20
0.0
 30
0.0
  3
*Paper_Space
  1

  0
ENDBLK
  5
167
330
165
100
AcDbEntity
 67
     1
  8
0
100
AcDbBlockEnd
  0
BLOCK
  5
16A
330
169
100
AcDbEntity
 67
     1
  8
0
100
AcDbBlockBegin
  2
*Paper_Space0
 70
     0
 10
0.0
 20
0.0
 30
0.0
  3
*Paper_Space0
  1

  0
ENDBLK
  5
16B
330
169
100
AcDbEntity
 67
     1
  8
0
100
AcDbBlockEnd
  0
BLOCK
  5
153
330
152
100
AcDbEntity
  8
0
 62
     1
100
AcDbBlockBegin
  2
_ArchTick
 70
     0
 10
0.0
 20
0.0
 30
0.0
  3
_ArchTick
  1

  0
LWPOLYLINE
  5
154
330
152
100
AcDbEntity
  8
0
  6
ByBlock
 62
     0
100
AcDbPolyline
 90
        2
 70
     0
 43
0.15
 10
-0.5
 20
-0.5
 10
0.5
 20
0.5
  0
ENDBLK
  5
155
330
152
100
AcDbEntity
  8
0
 62
     1
100
AcDbBlockEnd
  0
BLOCK
  5
233
330
232
100
AcDbEntity
  8
0
100
AcDbBlockBegin
  2
_Arrivo
 70
     0
 10
0.0
 20
0.0
 30
0.0
  3
_Arrivo
  1

  0
LINE
  5
234
330
232
100
AcDbEntity
  8
0
  6
ByBlock
 62
     0
370
    -2
100
AcDbLine
 10
0.025
 20
-0.0433012701891858
 30
0.0
 11
-0.15
 21
0.2598076211353328
 31
0.0
  0
LINE
  5
235
330
232
100
AcDbEntity
  8
0
  6
ByBlock
 62
     0
370
    -2
100
AcDbLine
 10
0.025
 20
0.0433012701892585
 30
0.0
 11
-0.15
 21
-0.2598076211353328
 31
0.0
  0
LINE
  5
236
330
232
100
AcDbEntity
  8
0
  6
ByBlock
 62
     0
370
    -2
100
AcDbLine
 10
-0.05
 20
0.0
 30
0.0
 11
0.05
 21
0.0
 31
0.0
  0
ENDBLK
  5
237
330
232
100
AcDbEntity
  8
0
100
AcDbBlockEnd
  0
BLOCK
  5
239
330
238
100
AcDbEntity
  8
0
100
AcDbBlockBegin
  2
_Partenza
 70
     0
 10
0.0
 20
0.0
 30
0.0
  3
_Partenza
  1

  0
LINE
  5
23A
330
238
100
AcDbEntity
  8
0
  6
ByBlock
 62
     0
370
    -2
100
AcDbLine
 10
-0.05
 20
0.05
 30
0.0
 11
0.1
 21
0.05
 31
0.0
  0
LINE
  5
23B
330
238
100
AcDbEntity
  8
0
  6
ByBlock
 62
     0
370
    -2
100
AcDbLine
 10
-0.05
 20
-0.05
 30
0.0
 11
0.1
 21
-0.05
 31
0.0
  0
ENDBLK
  5
23C
330
238
100
AcDbEntity
  8
0
100
AcDbBlockEnd
  0
BLOCK
  5
17F9
330
17F2
100
AcDbEntity
  8
0
100
AcDbBlockBegin
  2
*D4
 70
     1
 10
0.0
 20
0.0
 30
0.0
  3
*D4
  1

  0
LINE
  5
1809
330
17F2
100
AcDbEntity
  8
Text
  6
ACAD_ISO10W100
 62
     5
370
    -2
100
AcDbLine
 10
0.2752844982296152
 20
0.2095478102390275
 30
0.0
 11
0.2737844982296151
 21
0.2095478102390275
 31
0.0
  0
LINE
  5
180A
330
17F2
100
AcDbEntity
  8
Text
  6
ACAD_ISO10W100
 62
     5
370
    -2
100
AcDbLine
 10
0.2737844982296151
 20
0.2095478102390275
 30
0.0
 11
0.2714845230051905
 21
0.2076216446264612
 31
0.0
  0
MTEXT
  5
180B
330
17F2
100
AcDbEntity
  8
Text
  6
ACAD_ISO10W100
 62
     4
100
AcDbMText
 10
0.2897130696581866
 20
0.2095478102390275
 30
0.0
 40
0.003
 41
0.0
 71
     5
 72
     1
  1
\A1;d 335 mm
  7
ROMANS
 73
     1
 44
1.0
1001
ACAD
1000
MTEXTBEGIN
1070
    73
1070
     1
1070
    44
1040
1.0
1070
    74
1070
     0
1000
MTEXTEND
  0
INSERT
  5
180C
330
17F2
100
AcDbEntity
  8
Text
  6
ACAD_ISO10W100
 62
     5
370
    -2
100
AcDbBlockReference
  2
_ArchTick
 10
0.2714845230051905
 20
0.2076216446264612
 30
0.0
 41
0.0015
 42
0.0015
 43
0.0015
 50
219.9452421704756
  0
POINT
  5
180D
330
17F2
100
AcDbEntity
  8
Defpoints
  6
ACAD_ISO10W100
 62
     0
100
AcDbPoint
 10
0.2714845230051905
 20
0.2076216446264612
 30
0.0
  0
POINT
  5
180E
330
17F2
100
AcDbEntity
  8
Defpoints
  6
ACAD_ISO10W100
 62
     0
100
AcDbPoint
 10
0.1430692396414827
 20
0.1000773979248426
 30
0.0
  0
ENDBLK
  5
17FA
330
17F2
100
AcDbEntity
  8
0
100
AcDbBlockEnd
  0
BLOCK
  5
1CAF
330
1CA8
100
AcDbEntity
  8
0
100
AcDbBlockBegin
  2
*D6
 70
     1
 10
0.0
 20
0.0
 30
0.0
  3
*D6
  1

  0
LINE
  5
1CBF
330
1CA8
100
AcDbEntity
  8
Text
  6
ACAD_ISO10W100
 62
     5
370
    -2
100
AcDbLine
 10
0.2691906163671416
 20
0.2054122756710057
 30
0.0
 11
0.2676906163671416
 21
0.2054122756710057
 31
0.0
  0
LINE
  5
1CC0
330
1CA8
100
AcDbEntity
  8
Text
  6
ACAD_ISO10W100
 62
     5
370
    -2
100
AcDbLine
 10
0.2676906163671416
 20
0.2054122756710057
 30
0.0
 11
0.2653415959966366
 21
0.2035462362022504
 31
0.0
  0
MTEXT
  5
1CC1
330
1CA8
100
AcDbEntity
  8
Text
  6
ACAD_ISO10W100
 62
     4
100
AcDbMText
 10
0.283619187795713
 20
0.2054122756710057
 30
0.0
 40
0.003
 41
0.0
 71
     5
 72
     1
  1
\A1;d 575 mm
  7
ROMANS
 73
     1
 44
1.0
1001
ACAD
1000
MTEXTBEGIN
1070
    73
1070
     1
1070
    44
1040
1.0
1070
    74
1070
     0
1000
MTEXTEND
  0
INSERT
  5
1CC2
330
1CA8
100
AcDbEntity
  8
Text
  6
ACAD_ISO10W100
 62
     5
370
    -2
100
AcDbBlockReference
  2
_ArchTick
 10
0.2653415959966366
 20
0.2035462362022504
 30
0.0
 41
0.0015
 42
0.0015
 43
0.0015
 50
218.4632953061788
  0
POINT
  5
1CC3
330
1CA8
100
AcDbEntity
  8
Defpoints
  6
ACAD_ISO10W100
 62
     0
100
AcDbPoint
 10
0.2653415959966366
 20
0.2035462362022504
 30
0.0
  0
POINT
  5
1CC4
330
1CA8
100
AcDbEntity
  8
Defpoints
  6
ACAD_ISO10W100
 62
     0
100
AcDbPoint
 10
0.152784369909937
 20
0.1141318449910611
 30
0.0
  0
ENDBLK
  5
1CB0
330
1CA8
100
AcDbEntity
  8
0
100
AcDbBlockEnd
  0
BLOCK
  5
1CD2
330
1CD1
100
AcDbEntity
  8
0
100
AcDbBlockBegin
  2
*D7
 70
     1
 10
0.0
 20
0.0
 30
0.0
  3
*D7
  1

  0
LINE
  5
1CD3
330
1CD1
100
AcDbEntity
  8
Sezione
  6
ACAD_ISO10W100
 62
     5
370
    -2
100
AcDbLine
 10
0.2562973870742004
 20
0.2029310940913176
 30
0.0
 11
0.2547973870742004
 21
0.2029310940913175
 31
0.0
  0
LINE
  5
1CD4
330
1CD1
100
AcDbEntity
  8
Sezione
  6
ACAD_ISO10W100
 62
     5
370
    -2
100
AcDbLine
 10
0.2547973870742004
 20
0.2029310940913175
 30
0.0
 11
0.2526178576673925
 21
0.2008696257881754
 31
0.0
  0
MTEXT
  5
1CD5
330
1CD1
100
AcDbEntity
  8
Sezione
  6
ACAD_ISO10W100
 62
     4
100
AcDbMText
 10
0.2707259585027718
 20
0.2029310940913175
 30
0.0
 40
0.003
 41
0.0
 71
     5
 72
     1
  1
\A1;d 480 mm
  7
ROMANS
 73
     1
 44
1.0
1001
ACAD
1000
MTEXTBEGIN
1070
    73
1070
     1
1070
    44
1040
1.0
1070
    74
1070
     0
1000
MTEXTEND
  0
INSERT
  5
1CD6
330
1CD1
100
AcDbEntity
  8
Sezione
  6
ACAD_ISO10W100
 62
     5
370
    -2
100
AcDbBlockReference
  2
_ArchTick
 10
0.2526178576673925
 20
0.2008696257881754
 30
0.0
 41
0.0015
 42
0.0015
 43
0.0015
 50
223.4054090887448
  0
POINT
  5
1CD7
330
1CD1
100
AcDbEntity
  8
Defpoints
  6
ACAD_ISO10W100
 62
     0
100
AcDbPoint
 10
0.2526178576673925
 20
0.2008696257881754
 30
0.0
  0
POINT
  5
1CD8
330
1CD1
100
AcDbEntity
  8
Defpoints
  6
ACAD_ISO10W100
 62
     0
100
AcDbPoint
 10
0.1663436619896651
 20
0.1192687447846005
 30
0.0
  0
ENDBLK
  5
1CD9
330
1CD1
100
AcDbEntity
  8
0
100
AcDbBlockEnd
  0
BLOCK
  5
1DA9
330
1DA2
100
AcDbEntity
  8
0
100
AcDbBlockBegin
  2
*D9
 70
     1
 10
0.0
 20
0.0
 30
0.0
  3
*D9
  1

  0
LINE
  5
1DAB
330
1DA2
100
AcDbEntity
  8
Sezione
  6
ACAD_ISO10W100
 62
     5
370
    -2
100
AcDbLine
 10
0.2549649902511389
 20
0.2069811191221192
 30
0.0
 11
0.2534649902511389
 21
0.2069811191221192
 31
0.0
  0
LINE
  5
1DAC
330
1DA2
100
AcDbEntity
  8
Sezione
  6
ACAD_ISO10W100
 62
     5
370
    -2
100
AcDbLine
 10
0.2534649902511389
 20
0.2069811191221192
 30
0.0
 11
0.251285460844331
 21
0.204919650818977
 31
0.0
  0
MTEXT
  5
1DAD
330
1DA2
100
AcDbEntity
  8
Sezione
  6
ACAD_ISO10W100
 62
     4
100
AcDbMText
 10
0.2693935616797103
 20
0.2069811191221191
 30
0.0
 40
0.003
 41
0.0
 71
     5
 72
     1
  1
\A1;d 480 mm
  7
ROMANS
 73
     1
 44
1.0
1001
ACAD
1000
MTEXTBEGIN
1070
    73
1070
     1
1070
    44
1040
1.0
1070
    74
1070
     0
1000
MTEXTEND
  0
INSERT
  5
1DAE
330
1DA2
100
AcDbEntity
  8
Sezione
  6
ACAD_ISO10W100
 62
     5
370
    -2
100
AcDbBlockReference
  2
_ArchTick
 10
0.251285460844331
 20
0.204919650818977
 30
0.0
 41
0.0015
 42
0.0015
 43
0.0015
 50
223.4054090887448
  0
POINT
  5
1DAF
330
1DA2
100
AcDbEntity
  8
Defpoints
  6
ACAD_ISO10W100
 62
     0
100
AcDbPoint
 10
0.251285460844331
 20
0.204919650818977
 30
0.0
  0
POINT
  5
1DB0
330
1DA2
100
AcDbEntity
  8
Defpoints
  6
ACAD_ISO10W100
 62
     0
100
AcDbPoint
 10
0.1650112651666035
 20
0.123318769815402
 30
0.0
  0
ENDBLK
  5
1DAA
330
1DA2
100
AcDbEntity
  8
0
100
AcDbBlockEnd
  0
BLOCK
  5
234B
330
2344
100
AcDbEntity
  8
0
100
AcDbBlockBegin
  2
*D11
 70
     1
 10
0.0
 20
0.0
 30
0.0
  3
*D11
  1

  0
LINE
  5
235B
330
2344
100
AcDbEntity
  8
Text
  6
ACAD_ISO10W100
 62
     5
370
    -2
100
AcDbLine
 10
0.2539622836031374
 20
0.185536727195532
 30
0.0
 11
0.2524622836031375
 21
0.185536727195532
 31
0.0
  0
LINE
  5
235C
330
2344
100
AcDbEntity
  8
Text
  6
ACAD_ISO10W100
 62
     5
370
    -2
100
AcDbLine
 10
0.2524622836031375
 20
0.185536727195532
 30
0.0
 11
0.2499364145109395
 21
0.183918090321777
 31
0.0
  0
MTEXT
  5
235D
330
2344
100
AcDbEntity
  8
Text
  6
ACAD_ISO10W100
 62
     4
100
AcDbMText
 10
0.2683908550317089
 20
0.185536727195532
 30
0.0
 40
0.003
 41
0.0
 71
     5
 72
     1
  1
\A1;d 760 mm
  7
ROMANS
 73
     1
 44
1.0
1001
ACAD
1000
MTEXTBEGIN
1070
    73
1070
     1
1070
    44
1040
1.0
1070
    74
1070
     0
1000
MTEXTEND
  0
INSERT
  5
235E
330
2344
100
AcDbEntity
  8
Text
  6
ACAD_ISO10W100
 62
     5
370
    -2
100
AcDbBlockReference
  2
_ArchTick
 10
0.2499364145109395
 20
0.183918090321777
 30
0.0
 41
0.0015
 42
0.0015
 43
0.0015
 50
212.6527128990553
  0
POINT
  5
235F
330
2344
100
AcDbEntity
  8
Defpoints
  6
ACAD_ISO10W100
 62
     0
100
AcDbPoint
 10
0.2499364145109395
 20
0.183918090321777
 30
0.0
  0
POINT
  5
2360
330
2344
100
AcDbEntity
  8
Defpoints
  6
ACAD_ISO10W100
 62
     0
100
AcDbPoint
 10
0.1699505599246723
 20
0.1326612559862026
 30
0.0
  0
ENDBLK
  5
234C
330
2344
100
AcDbEntity
  8
0
100
AcDbBlockEnd
  0
BLOCK
  5
236F
330
236E
100
AcDbEntity
  8
0
100
AcDbBlockBegin
  2
*D12
 70
     1
 10
0.0
 20
0.0
 30
0.0
  3
*D12
  1

  0
LINE
  5
2370
330
236E
100
AcDbEntity
  8
Sezione
  6
ACAD_ISO10W100
 62
     5
370
    -2
100
AcDbLine
 10
0.2759037661605144
 20
0.2036876842792695
 30
0.0
 11
0.2744037661605144
 21
0.2036876842792696
 31
0.0
  0
LINE
  5
2371
330
236E
100
AcDbEntity
  8
Sezione
  6
ACAD_ISO10W100
 62
     5
370
    -2
100
AcDbLine
 10
0.2744037661605144
 20
0.2036876842792696
 30
0.0
 11
0.2719719355577186
 21
0.2019309259238588
 31
0.0
  0
MTEXT
  5
2372
330
236E
100
AcDbEntity
  8
Sezione
  6
ACAD_ISO10W100
 62
     4
100
AcDbMText
 10
0.2903323375890858
 20
0.2036876842792696
 30
0.0
 40
0.003
 41
0.0
 71
     5
 72
     1
  1
\A1;d 160 mm
  7
ROMANS
 73
     1
 44
1.0
1001
ACAD
1000
MTEXTBEGIN
1070
    73
1070
     1
1070
    44
1040
1.0
1070
    74
1070
     0
1000
MTEXTEND
  0
INSERT
  5
2373
330
236E
100
AcDbEntity
  8
Sezione
  6
ACAD_ISO10W100
 62
     5
370
    -2
100
AcDbBlockReference
  2
_ArchTick
 10
0.2719719355577186
 20
0.2019309259238588
 30
0.0
 41
0.0015
 42
0.0015
 43
0.0015
 50
215.844407392604
  0
POINT
  5
2374
330
236E
100
AcDbEntity
  8
Defpoints
  6
ACAD_ISO10W100
 62
     0
100
AcDbPoint
 10
0.2719719355577186
 20
0.2019309259238588
 30
0.0
  0
POINT
  5
2375
330
236E
100
AcDbEntity
  8
Defpoints
  6
ACAD_ISO10W100
 62
     0
100
AcDbPoint
 10
0.1422743034086082
 20
0.1082371469686151
 30
0.0
  0
ENDBLK
  5
2376
330
236E
100
AcDbEntity
  8
0
100
AcDbBlockEnd
  0
BLOCK
  5
244A
330
2443
100
AcDbEntity
  8
0
100
AcDbBlockBegin
  2
*D14
 70
     1
 10
0.0
 20
0.0
 30
0.0
  3
*D14
  1

  0
LINE
  5
2452
330
2443
100
AcDbEntity
  8
Sezione
  6
ACAD_ISO10W100
 62
     5
370
    -2
100
AcDbLine
 10
0.2775036338652906
 20
0.2044243815932924
 30
0.0
 11
0.2760036338652906
 21
0.2044243815932924
 31
0.0
  0
LINE
  5
2453
330
2443
100
AcDbEntity
  8
Sezione
  6
ACAD_ISO10W100
 62
     5
370
    -2
100
AcDbLine
 10
0.2760036338652906
 20
0.2044243815932924
 30
0.0
 11
0.2735718032624948
 21
0.2026676232378816
 31
0.0
  0
MTEXT
  5
2454
330
2443
100
AcDbEntity
  8
Sezione
  6
ACAD_ISO10W100
 62
     4
100
AcDbMText
 10
0.2919322052938621
 20
0.2044243815932924
 30
0.0
 40
0.003
 41
0.0
 71
     5
 72
     1
  1
\A1;d 165 mm
  7
ROMANS
 73
     1
 44
1.0
1001
ACAD
1000
MTEXTBEGIN
1070
    73
1070
     1
1070
    44
1040
1.0
1070
    74
1070
     0
1000
MTEXTEND
  0
INSERT
  5
2455
330
2443
100
AcDbEntity
  8
Sezione
  6
ACAD_ISO10W100
 62
     5
370
    -2
100
AcDbBlockReference
  2
_ArchTick
 10
0.2735718032624948
 20
0.2026676232378816
 30
0.0
 41
0.0015
 42
0.0015
 43
0.0015
 50
215.844407392604
  0
POINT
  5
2456
330
2443
100
AcDbEntity
  8
Defpoints
  6
ACAD_ISO10W100
 62
     0
100
AcDbPoint
 10
0.2735718032624948
 20
0.2026676232378816
 30
0.0
  0
POINT
  5
2457
330
2443
100
AcDbEntity
  8
Defpoints
  6
ACAD_ISO10W100
 62
     0
100
AcDbPoint
 10
0.1438741711133845
 20
0.108973844282638
 30
0.0
  0
ENDBLK
  5
244B
330
2443
100
AcDbEntity
  8
0
100
AcDbBlockEnd
  0
ENDSEC
  0
SECTION
  2
ENTITIES
  0
LINE
  5
D
330
2
100
AcDbEntity
  8
Table
100
AcDbLine
 10
0.02
 20
0.02
 30
0.0
 11
0.4
 21
0.02
 31
0.0
  0
LINE
  5
10
330
2
100
AcDbEntity
  8
Table
100
AcDbLine
 10
0.4
 20
0.02
 30
0.0
 11
0.4
 21
0.2769999999999999
 31
0.0
  0
LINE
  5
11
330
2
100
AcDbEntity
  8
Table
100
AcDbLine
 10
0.4
 20
0.2769999999999999
 30
0.0
 11
0.02
 21
0.277
 31
0.0
  0
LINE
  5
12
330
2
100
AcDbEntity
  8
Table
100
AcDbLine
 10
0.02
 20
0.277
 30
0.0
 11
0.02
 21
0.02
 31
0.0
  0
LINE
  5
13
330
2
100
AcDbEntity
  8
Table
 62
     2
100
AcDbLine
 10
0.015
 20
0.015
 30
0.0
 11
0.4050000000000001
 21
0.015
 31
0.0
  0
LINE
  5
14
330
2
100
AcDbEntity
  8
Table
 62
     2
100
AcDbLine
 10
0.4050000000000001
 20
0.015
 30
0.0
 11
0.4050000000000001
 21
0.2819999999999998
 31
0.0
  0
LINE
  5
15
330
2
100
AcDbEntity
  8
Table
 62
     2
100
AcDbLine
 10
0.4050000000000001
 20
0.2819999999999998
 30
0.0
 11
0.0149999999999999
 21
0.282
 31
0.0
  0
LINE
  5
16
330
2
100
AcDbEntity
  8
Table
 62
     2
100
AcDbLine
 10
0.0149999999999999
 20
0.282
 30
0.0
 11
0.015
 21
0.015
 31
0.0
  0
LINE
  5
17
330
2
100
AcDbEntity
  8
Table
100
AcDbLine
 10
0.21
 20
0.2769999999999999
 30
0.0
 11
0.21
 21
0.2532994226089223
 31
0.0
  0
MTEXT
  5
18
102
{ACAD_XDICTIONARY
360
245D
102
}
330
2
100
AcDbEntity
  8
Text
100
AcDbMText
 10
0.305
 20
0.0471738284815141
 30
0.0
 40
0.005
 41
0.1900000000000001
 71
     2
 72
     5
  3
{\fTimes New Roman|b0|i0|c238|p18;\H1.6x;\C4;Bovelacci\P\H0.4375x;\T0.95;via del Commercio, 5  47100 Forli - Italy  \fTimes New Roman|b0|i0|c0|p18;\P\fTimes New Roman|b0|i0|c238|p18;tel.+39-0543721386  fax +39-0543721127\fTimes New Roman|b0|i0|c0|p18
  1
; \fTimes New Roman|b0|i0|c238|p18;www.bovelacci.it\fTimes New Roman|b0|i0|c0|p18; \fTimes New Roman|b0|i0|c238|p18;e-mail: bovelacci@bovelacci\fTimes New Roman|b0|i0|c0|p18;.it}
 73
     1
 44
1.0
1001
ACAD
1000
ACAD_MTEXT_DEFINED_HEIGHT_BEGIN
1070
    46
1040
0.0271738284815141
1000
ACAD_MTEXT_DEFINED_HEIGHT_END
1000
MTEXTBEGIN
1070
    73
1070
     1
1070
    44
1040
1.0
1070
    74
1070
     0
1000
MTEXTEND
  0
MTEXT
  5
1C
330
2
100
AcDbEntity
  8
Text
100
AcDbMText
 10
0.0219676065851835
 20
0.0500313976452307
 30
0.0
 40
0.002
 41
0.1863544980601608
 71
     1
 72
     5
  3
{\fArial|b0|i0|c0|p34;\H1.25x;Le caratteristiche tecniche indicate vengono fornite a titolo indicativo e potranno essere modificate senza preavviso. Non devono quindi essere considerate a scopo di specifica.\P\fArial|b0|i1|c0|p34;The given values are
  3
 indicative and can be changed without notice. They cannot be considered like a state.\PThis lealfet and designs embodied within are protected by copyright law and international treaties. Unauthorized repro- duction of the leaflet or any portion of i
  1
t or reproduction of any of the designs embodied therein may result in severe civil penalties and will be prosecuted to the maximum.\PAll right reserved, Bovelacci Forlì Italy.}
 73
     1
 44
1.0
1001
ACAD
1000
MTEXTBEGIN
1070
    73
1070
     1
1070
    44
1040
1.0
1070
    74
1070
     0
1000
MTEXTEND
  0
LINE
  5
1D
330
2
100
AcDbEntity
  8
Table
100
AcDbLine
 10
0.02
 20
0.0528099428524846
 30
0.0
 11
0.4
 21
0.0528099428524846
 31
0.0
  0
MTEXT
  5
1E
330
2
100
AcDbEntity
  8
Text
100
AcDbMText
 10
0.1133313047219695
 20
0.2610796890771976
 30
0.0
 40
0.003
 41
0.1103605678262056
 71
     2
 72
     5
  1
{\fTimes New Roman|b0|i0|c0|p18;Rosoni\fTimes New Roman|b0|i1|c0|p18;   Ceiling centres}
 73
     1
 44
1.0
1001
ACAD
1000
ACAD_MTEXT_DEFINED_HEIGHT_BEGIN
1070
    46
1040
0.0141952763113409
1000
ACAD_MTEXT_DEFINED_HEIGHT_END
1000
MTEXTBEGIN
1070
    73
1070
     1
1070
    44
1040
1.0
1070
    74
1070
     0
1000
MTEXTEND
  0
TEXT
  5
1F
330
2
100
AcDbEntity
  8
Text
100
AcDbText
 10
0.2180556919891047
 20
0.269976982173197
 30
0.0
 40
0.003
  1
Rosone - Ceiling centre : D 165 mm
  7
ROMANS
100
AcDbText
  0
TEXT
  5
21
330
2
100
AcDbEntity
  8
Text
100
AcDbText
 10
0.2184542410678115
 20
0.2576348370183962
 30
0.0
 40
0.003
  1
File : C - R3321
  7
ROMANS
100
AcDbText
  0
LINE
  5
22
330
2
100
AcDbEntity
  8
Table
100
AcDbLine
 10
0.4
 20
0.2654452889427402
 30
0.0
 11
0.02
 21
0.2654452889427403
 31
0.0
  0
LINE
  5
23
330
2
100
AcDbEntity
  8
Table
100
AcDbLine
 10
0.4
 20
0.2532994226089223
 30
0.0
 11
0.02
 21
0.2532994226089225
 31
0.0
  0
LINE
  5
24
330
2
100
AcDbEntity
  8
Table
100
AcDbLine
 10
0.21
 20
0.0528099428524846
 30
0.0
 11
0.21
 21
0.02
 31
0.0
  0
TEXT
  5
25
330
2
100
AcDbEntity
  8
Text
100
AcDbText
 10
0.0896473531074035
 20
0.2687784133392506
 30
0.0
 40
0.005
  1
CLASSICSTYL
  7
style1
 72
     1
 11
0.1140561490699125
 21
0.2687784133392506
 31
0.0
100
AcDbText
  0
TEXT
  5
252
330
2
100
AcDbEntity
  8
Text
  6
ACAD_ISO10W100
100
AcDbText
 10
0.2951589460841571
 20
0.0876218606849342
 30
0.0
 40
0.005
  1
scala 1 : 1
  7
style1
100
AcDbText
  0
CIRCLE
  5
23E0
102
{ACAD_REACTORS
330
2435
102
}
330
2
100
AcDbEntity
  8
Sezione
  6
ACAD_ISO10W100
 62
     3
 48
0.001
100
AcDbCircle
 10
0.2087229871879397
 20
0.1558207337602598
 30
0.0
 40
0.08
  0
CIRCLE
  5
23E1
330
2
100
AcDbEntity
  8
Profilo
  6
Continuous
370
     0
100
AcDbCircle
 10
0.2087229871879397
 20
0.1558207337602598
 30
0.0
 40
0.0191334148117492
  0
LWPOLYLINE
  5
23E2
330
2
100
AcDbEntity
  8
Profilo
  6
Continuous
370
     0
100
AcDbPolyline
 90
       16
 70
   128
 43
0.0
 10
0.2004448939816306
 20
0.1781914913734796
 10
0.1982987201349071
 20
0.1827882281331278
 10
0.1977064522368592
 20
0.1862283683863931
 10
0.1977064522368592
 20
0.1889740633506348
 10
0.1977064522368592
 20
0.1922392100467558
 10
0.1979291843129949
 20
0.1949106901340139
 10
0.1998595220699477
 20
0.1960980168008656
 10
0.202086822122634
 20
0.1961722251269736
 10
0.2040914004535206
 20
0.19505910678623
 10
0.2049080778297952
 20
0.1932781200613921
 10
0.205130809905929
 20
0.1909034667276897
 10
0.205130809905929
 20
0.1882319800895562
 10
0.2052793014081309
 20
0.1848184167412182
 10
0.2053535419820647
 20
0.1817758950234206
 10
0.205799006134336
 20
0.1796980749941504
 10
0.205873246708268
 20
0.178584956653407
  0
LWPOLYLINE
  5
23E3
330
2
100
AcDbEntity
  8
Profilo
  6
Continuous
370
     0
100
AcDbPolyline
 90
       17
 70
   128
 43
0.0
 10
0.1978023747859399
 20
0.194875636395225
 10
0.1956220419917432
 20
0.1954567777287071
 10
0.1930056364261037
 20
0.1954567777287071
 10
0.190679949492869
 20
0.195311492395337
 10
0.1882089084206
 20
0.1941492097283719
 10
0.1861739297654359
 20
0.192551064510419
 10
0.1849384092293032
 20
0.1908076405099715
 10
0.183848242832203
 20
0.1886283539585366
 10
0.1832668159217277
 20
0.1860132114069886
 10
0.1832668159217277
 20
0.18506885674008
 10
0.1845750135273803
 20
0.1852141420734509
 10
0.1865373151130263
 20
0.184923571406709
 10
0.1885722937681886
 20
0.1839065675222392
 10
0.1908979807014215
 20
0.1820178581884207
 10
0.1924968969394807
 20
0.1802744276370971
 10
0.1949679380117497
 20
0.1774413570854934
 10
0.1960581044088498
 20
0.1758432184184171
  0
LWPOLYLINE
  5
23E4
330
2
100
AcDbEntity
  8
Profilo
  6
Continuous
370
     0
100
AcDbPolyline
 90
       16
 70
   128
 43
0.0
 10
0.1870509769378752
 20
0.1657857523273723
 10
0.1822830191231755
 20
0.1675185619808265
 10
0.1794316759748695
 20
0.1695323118351534
 10
0.1774901764465837
 20
0.1714738113634383
 10
0.1751813690761881
 20
0.1737826187338348
 10
0.1734498427521074
 20
0.1758291357807627
 10
0.1739752309324145
 20
0.1780336574362991
 10
0.1754976966927955
 20
0.1796610696179027
 10
0.1777022411509868
 20
0.1802914270220891
 10
0.1795390670521289
 20
0.179609557342558
 10
0.1813756958887782
 20
0.1780879192287513
 10
0.1832647222064518
 20
0.1761988929110787
 10
0.1857834753462266
 20
0.1738901384676142
 10
0.1879873590980572
 20
0.1717912467423197
 10
0.1897715904536859
 20
0.1706369968323845
 10
0.1906111799939558
 20
0.1699023993186488
  0
LWPOLYLINE
  5
23E5
330
2
100
AcDbEntity
  8
Profilo
  6
Continuous
370
     0
100
AcDbPolyline
 90
       17
 70
   128
 43
0.0
 10
0.1733849616120113
 20
0.1757146811678599
 10
0.1714323045302577
 20
0.1745838820415722
 10
0.16958222641246
 20
0.1727338039237745
 10
0.168040449655487
 20
0.1709865626779362
 10
0.167115017712161
 20
0.1684174148236773
 10
0.1668061298264596
 20
0.1658484082961048
 10
0.1671652718102652
 20
0.1637419764135098
 10
0.1679353960569219
 20
0.1614301240628304
 10
0.1693734501777295
 20
0.1591698081197002
 10
0.1700412097665462
 20
0.1585020485308844
 10
0.1708635129202007
 20
0.1595298161734061
 10
0.172456534167011
 20
0.1607119084424829
 10
0.1746146117168492
 20
0.1614317253059159
 10
0.1775946398958879
 20
0.1617407151296886
 10
0.1799580359757367
 20
0.1616385280788009
 10
0.1837086092731481
 20
0.1613825345789735
 10
0.1856095280139249
 20
0.1610233439422187
  0
LWPOLYLINE
  5
23E6
330
2
100
AcDbEntity
  8
Profilo
  6
Continuous
370
     0
100
AcDbPolyline
 90
       16
 70
   128
 43
0.0
 10
0.1863522295747191
 20
0.1475426405539507
 10
0.1817554928150709
 20
0.1453964667072273
 10
0.1783153525618064
 20
0.1448041988091784
 10
0.1755696575975647
 20
0.1448041988091784
 10
0.1723045109014438
 20
0.1448041988091784
 10
0.1696330308141856
 20
0.1450269308853141
 10
0.1684457041473339
 20
0.1469572686422669
 10
0.1683714958212259
 20
0.1491845686949541
 10
0.1694846141619695
 20
0.1511891470258398
 10
0.1712656008868065
 20
0.1520058244021145
 10
0.1736402542205098
 20
0.1522285564782482
 10
0.1763117408586434
 20
0.1522285564782482
 10
0.1797253042069822
 20
0.1523770479804501
 10
0.1827678259247789
 20
0.1524512885543839
 10
0.18484564595405
 20
0.1528967527066552
 10
0.1859587642947917
 20
0.152970993280589
  0
LWPOLYLINE
  5
23E7
330
2
100
AcDbEntity
  8
Profilo
  6
Continuous
370
     0
100
AcDbPolyline
 90
       17
 70
   128
 43
0.0
 10
0.1696680845529754
 20
0.14490012135826
 10
0.1690869432194915
 20
0.1427197885640624
 10
0.1690869432194915
 20
0.1401033829984229
 10
0.1692322285528625
 20
0.1377776960651891
 10
0.1703945112198268
 20
0.135306654992921
 10
0.1719926564377814
 20
0.133271676337756
 10
0.173736080438228
 20
0.1320361558016224
 10
0.1759153669896629
 20
0.1309459894045222
 10
0.1785305095412109
 20
0.1303645624940478
 10
0.1794748642081188
 20
0.1303645624940478
 10
0.1793295788747478
 20
0.1316727600997004
 10
0.1796201495414897
 20
0.1336350616853456
 10
0.1806371534259603
 20
0.1356700403405078
 10
0.1825258627597779
 20
0.1379957272737416
 10
0.1842692933111016
 20
0.1395946435117999
 10
0.1871023638627061
 20
0.1420656845840689
 10
0.1887005025297817
 20
0.1431558509811691
  0
LWPOLYLINE
  5
23E8
330
2
100
AcDbEntity
  8
Profilo
  6
Continuous
370
     0
100
AcDbPolyline
 90
       16
 70
   128
 43
0.0
 10
0.1987579686208263
 20
0.1341487235101962
 10
0.1970251589673739
 20
0.1293807656954956
 10
0.1950114091130461
 20
0.1265294225471896
 10
0.1930699095847603
 20
0.1245879230189047
 10
0.1907611022143647
 20
0.1222791156485082
 10
0.1887145851674368
 20
0.1205475893244266
 10
0.1865100635118995
 20
0.1210729775047338
 10
0.1848826513302977
 20
0.1225954432651156
 10
0.1842522939261104
 20
0.1247999877233069
 10
0.1849341636056407
 20
0.1266368136244481
 10
0.1864558017194482
 20
0.1284734424610983
 10
0.1883448280371218
 20
0.1303624687787719
 10
0.1906535824805853
 20
0.1328812219185476
 10
0.1927524742058799
 20
0.1350851056703765
 10
0.1939067241158159
 20
0.1368693370260051
 10
0.1946413216295499
 20
0.137708926566276
  0
LWPOLYLINE
  5
23E9
330
2
100
AcDbEntity
  8
Profilo
  6
Continuous
370
     0
100
AcDbPolyline
 90
       17
 70
   128
 43
0.0
 10
0.1888290397803387
 20
0.1204827081843314
 10
0.1899598389066273
 20
0.1185300511025778
 10
0.191809917024425
 20
0.1166799729847801
 10
0.1935571582702642
 20
0.1151381962278062
 10
0.1961263061245222
 20
0.1142127642844811
 10
0.1986953126520947
 20
0.1139038763987797
 10
0.2008017445346897
 20
0.1142630183825844
 10
0.2031135968853692
 20
0.115033142629242
 10
0.2053739128284984
 20
0.1164711967500496
 10
0.2060416724173151
 20
0.1171389563388663
 10
0.2050139047747925
 20
0.1179612594925208
 10
0.2038318125057166
 20
0.1195542807393311
 10
0.2031119956422827
 20
0.1217123582891684
 10
0.2028030058185109
 20
0.124692386468208
 10
0.2029051928693995
 20
0.1270557825480568
 10
0.2031611863692251
 20
0.1308063558454673
 10
0.2035203770059808
 20
0.132707274586245
  0
LWPOLYLINE
  5
23EA
330
2
100
AcDbEntity
  8
Profilo
  6
Continuous
370
     0
100
AcDbPolyline
 90
       16
 70
   128
 43
0.0
 10
0.2170010803942488
 20
0.1334499761470401
 10
0.2191472542409723
 20
0.1288532393873918
 10
0.2197395221390202
 20
0.1254130991341265
 10
0.2197395221390202
 20
0.1226674041698839
 10
0.2197395221390202
 20
0.119402257473763
 10
0.2195167900628845
 20
0.1167307773865057
 10
0.2175864523059317
 20
0.1155434507196532
 10
0.2153591522532454
 20
0.115469242393546
 10
0.2133545739223588
 20
0.1165823607342896
 10
0.2125378965460842
 20
0.1183633474591275
 10
0.2123151644699504
 20
0.1207380007928299
 10
0.2123151644699504
 20
0.1234094874309635
 10
0.2121666729677485
 20
0.1268230507793014
 10
0.2120924323938147
 20
0.129865572497099
 10
0.2116469682415434
 20
0.1319433925263692
 10
0.2115727276676096
 20
0.1330565108671127
  0
LWPOLYLINE
  5
23EB
330
2
100
AcDbEntity
  8
Profilo
  6
Continuous
370
     0
100
AcDbPolyline
 90
       17
 70
   128
 43
0.0
 10
0.2196435995899395
 20
0.1167658311252946
 10
0.2218239323841362
 20
0.1161846897918125
 10
0.2244403379497757
 20
0.1161846897918125
 10
0.2267660248830104
 20
0.1163299751251817
 10
0.2292370659552776
 20
0.1174922577921469
 10
0.2312720446104435
 20
0.1190904030101006
 10
0.2325075651465762
 20
0.1208338270105472
 10
0.2335977315436764
 20
0.1230131135619821
 10
0.2341791584541517
 20
0.1256282561135301
 10
0.2341791584541517
 20
0.1265726107804389
 10
0.2328709608484991
 20
0.1264273254470687
 10
0.2309086592628531
 20
0.1267178961138098
 10
0.2288736806076908
 20
0.1277348999982804
 10
0.2265479936744579
 20
0.1296236093320989
 10
0.2249490774363987
 20
0.1313670398834226
 10
0.2224780363641297
 20
0.1342001104350253
 10
0.2213878699670296
 20
0.1357982491021026
  0
LWPOLYLINE
  5
23EC
330
2
100
AcDbEntity
  8
Profilo
  6
Continuous
370
     0
100
AcDbPolyline
 90
       16
 70
   128
 43
0.0
 10
0.2303949974380024
 20
0.1458557151931464
 10
0.2351629552527039
 20
0.1441229055396931
 10
0.2380142984010099
 20
0.1421091556853654
 10
0.2399557979292957
 20
0.1401676561570804
 10
0.2422646052996913
 20
0.1378588487866849
 10
0.243996131623772
 20
0.1358123317397569
 10
0.2434707434434649
 20
0.1336078100842205
 10
0.2419482776830839
 20
0.1319803979026169
 10
0.2397437332248926
 20
0.1313500404984305
 10
0.2379069073237505
 20
0.1320319101779617
 10
0.2360702784871012
 20
0.1335535482917683
 10
0.2341812521694276
 20
0.135442574609441
 10
0.2316624990296528
 20
0.1377513290529054
 10
0.2294586152778222
 20
0.1398502207781991
 10
0.2276743839221935
 20
0.1410044706881351
 10
0.2268347943819236
 20
0.14173906820187
  0
LWPOLYLINE
  5
23ED
330
2
100
AcDbEntity
  8
Profilo
  6
Continuous
370
     0
100
AcDbPolyline
 90
       17
 70
   128
 43
0.0
 10
0.2440610127638681
 20
0.1359267863526588
 10
0.2460136698456217
 20
0.1370575854789465
 10
0.2478637479634194
 20
0.1389076635967442
 10
0.2494055247203924
 20
0.1406549048425834
 10
0.2503309566637184
 20
0.1432240526968415
 10
0.2506398445494198
 20
0.1457930592244139
 10
0.2502807025656142
 20
0.1478994911070089
 10
0.2495105783189575
 20
0.1502113434576884
 10
0.2480725241981499
 20
0.1524716594008185
 10
0.2474047646093332
 20
0.1531394189896352
 10
0.2465824614556787
 20
0.1521116513471126
 10
0.2449894402088684
 20
0.1509295590780367
 10
0.2428313626590302
 20
0.1502097422146028
 10
0.2398513344799915
 20
0.1499007523908301
 10
0.2374879384001427
 20
0.1500029394417187
 10
0.2337373651027313
 20
0.1502589329415452
 10
0.2318364463619545
 20
0.1506181235783009
  0
LWPOLYLINE
  5
23EE
330
2
100
AcDbEntity
  8
Profilo
  6
Continuous
370
     0
100
AcDbPolyline
 90
       16
 70
   128
 43
0.0
 10
0.2310937448011603
 20
0.1640988269665681
 10
0.2356904815608085
 20
0.1662450008132915
 10
0.239130621814073
 20
0.1668372687113404
 10
0.2418763167783147
 20
0.1668372687113404
 10
0.2451414634744356
 20
0.1668372687113404
 10
0.2478129435616938
 20
0.1666145366352046
 10
0.2490002702285455
 20
0.1646841988782518
 10
0.2490744785546535
 20
0.1624568988255646
 10
0.2479613602139099
 20
0.1604523204946789
 10
0.2461803734890711
 20
0.1596356431184043
 10
0.2438057201553696
 20
0.1594129110422715
 10
0.241134233517236
 20
0.1594129110422715
 10
0.2377206701688972
 20
0.1592644195400686
 10
0.2346781484511005
 20
0.1591901789661348
 10
0.2326003284218294
 20
0.1587447148138635
 10
0.2314872100810877
 20
0.1586704742399306
  0
LWPOLYLINE
  5
23EF
330
2
100
AcDbEntity
  8
Profilo
  6
Continuous
370
     0
100
AcDbPolyline
 90
       17
 70
   128
 43
0.0
 10
0.247777889822904
 20
0.1667413461622587
 10
0.2483590311563879
 20
0.1689216789564564
 10
0.2483590311563879
 20
0.1715380845220958
 10
0.2482137458230169
 20
0.1738637714553297
 10
0.2470514631560526
 20
0.1763348125275986
 10
0.245453317938098
 20
0.1783697911827627
 10
0.2437098939376514
 20
0.1796053117188963
 10
0.2415306073862165
 20
0.1806954781159965
 10
0.2389154648346685
 20
0.181276905026471
 10
0.2379711101677606
 20
0.181276905026471
 10
0.2381163955011316
 20
0.1799687074208192
 10
0.2378258248343897
 20
0.1780064058351732
 10
0.2368088209499191
 20
0.1759714271800109
 10
0.2349201116160997
 20
0.1736457402467771
 10
0.2331766810647778
 20
0.1720468240087188
 10
0.2303436105131733
 20
0.1695757829364498
 10
0.2287454718460977
 20
0.1684856165393497
  0
LWPOLYLINE
  5
23F0
330
2
100
AcDbEntity
  8
Profilo
  6
Continuous
370
     0
100
AcDbPolyline
 90
       16
 70
   128
 43
0.0
 10
0.2186880057550531
 20
0.1774927440103234
 10
0.2204208154085072
 20
0.1822607018250232
 10
0.2224345652628333
 20
0.1851120449733291
 10
0.2243760647911191
 20
0.187053544501614
 10
0.2266848721615147
 20
0.1893623518720105
 10
0.2287313892084426
 20
0.1910938781960921
 10
0.2309359108639799
 20
0.190568490015785
 10
0.2325633230455835
 20
0.189046024255404
 10
0.233193680449769
 20
0.1868414797972119
 10
0.2325118107702387
 20
0.1850046538960706
 10
0.2309901726564312
 20
0.1831680250594204
 10
0.2291011463387576
 20
0.1812789987417469
 10
0.2267923918952941
 20
0.178760245601972
 10
0.2246935001699995
 20
0.1765563618501423
 10
0.2235392502600635
 20
0.1747721304945136
 10
0.2228046527463295
 20
0.1739325409542428
  0
LWPOLYLINE
  5
23F1
330
2
100
AcDbEntity
  8
Profilo
  6
Continuous
370
     0
100
AcDbPolyline
 90
       17
 70
   128
 43
0.0
 10
0.2286169345955407
 20
0.1911587593361873
 10
0.2274861354692521
 20
0.1931114164179409
 10
0.2256360573514544
 20
0.1949614945357386
 10
0.223888816105617
 20
0.1965032712927126
 10
0.2213196682513572
 20
0.1974287032360376
 10
0.2187506617237847
 20
0.197737591121739
 10
0.2166442298411897
 20
0.1973784491379352
 10
0.2143323774905119
 20
0.1966083248912776
 10
0.212072061547381
 20
0.1951702707704691
 10
0.2114043019585643
 20
0.1945025111816534
 10
0.2124320696010869
 20
0.193680208027998
 10
0.2136141618701628
 20
0.1920871867811876
 10
0.2143339787335967
 20
0.1899291092313503
 10
0.2146429685573685
 20
0.1869490810523108
 10
0.2145407815064817
 20
0.1845856849724619
 10
0.2142847880066543
 20
0.1808351116750515
 10
0.2139255973698986
 20
0.1789341929342738
  0
LWPOLYLINE
  5
23F2
330
2
100
AcDbEntity
  8
Profilo
  6
Continuous
370
     0
100
AcDbPolyline
 90
        7
 70
   128
 43
0.0
 10
0.183279230768052
 20
0.1849589919945681
 10
0.181414135668891
 20
0.1847606707671153
 10
0.1805411203619633
 20
0.1842053791912964
 10
0.1794299967930875
 20
0.1831344615953263
 10
0.1792712648546781
 20
0.1818255637671136
 10
0.1791125329162653
 20
0.1803976692719019
 10
0.1798268266391143
 20
0.1793664106807212
  0
LWPOLYLINE
  5
23F3
330
2
100
AcDbEntity
  8
Profilo
  6
Continuous
370
     0
100
AcDbPolyline
 90
        7
 70
   128
 43
0.0
 10
0.1701276744951339
 20
0.1584331410463422
 10
0.1689490873877442
 20
0.1569740853693835
 10
0.1687244227829328
 20
0.1559641198869775
 10
0.1686959928668474
 20
0.1544211837824861
 10
0.1695092829670162
 20
0.1533834128222365
 10
0.1704067164173568
 20
0.1522614985118114
 10
0.1716410082955231
 20
0.1520373705040158
  0
LWPOLYLINE
  5
23F4
330
2
100
AcDbEntity
  8
Profilo
  6
Continuous
370
     0
100
AcDbPolyline
 90
        7
 70
   128
 43
0.0
 10
0.1795847289536314
 20
0.1303769773403712
 10
0.1797830501810842
 20
0.1285118822412111
 10
0.1803383417569022
 20
0.1276388669342834
 10
0.1814092593528733
 20
0.1265277433654067
 10
0.1827181571810867
 20
0.1263690114269974
 10
0.1841460516762967
 20
0.1262102794885854
 10
0.1851773102674783
 20
0.1269245732114344
  0
LWPOLYLINE
  5
23F5
330
2
100
AcDbEntity
  8
Profilo
  6
Continuous
370
     0
100
AcDbPolyline
 90
        7
 70
   128
 43
0.0
 10
0.2061105799018566
 20
0.117225421067454
 10
0.207569635578817
 20
0.1160468339600643
 10
0.208579601061222
 20
0.1158221693552529
 10
0.2101225371657125
 20
0.1157937394391675
 10
0.211160308125963
 20
0.1166070295393372
 10
0.2122822224363872
 20
0.1175044629896778
 10
0.2125063504441829
 20
0.1187387548678441
  0
LWPOLYLINE
  5
23F6
330
2
100
AcDbEntity
  8
Profilo
  6
Continuous
370
     0
100
AcDbPolyline
 90
        7
 70
   128
 43
0.0
 10
0.2341667436078274
 20
0.1266824755259515
 10
0.2360318387069884
 20
0.1268807967534044
 10
0.2369048540139161
 20
0.1274360883292223
 10
0.2380159775827919
 20
0.1285070059251934
 10
0.2381747095212013
 20
0.129815903753406
 10
0.2383334414596141
 20
0.1312437982486168
 10
0.2376191477367651
 20
0.1322750568397975
  0
LWPOLYLINE
  5
23F7
330
2
100
AcDbEntity
  8
Profilo
  6
Continuous
370
     0
100
AcDbPolyline
 90
        7
 70
   128
 43
0.0
 10
0.2473182998807455
 20
0.1532083264741768
 10
0.2484968869881352
 20
0.1546673821511362
 10
0.2487215515929466
 20
0.1556773476335412
 10
0.248749981509032
 20
0.1572202837380326
 10
0.2479366914088632
 20
0.1582580546982831
 10
0.2470392579585208
 20
0.1593799690087082
 10
0.2458049660803545
 20
0.159604097016503
  0
LWPOLYLINE
  5
23F8
330
2
100
AcDbEntity
  8
Profilo
  6
Continuous
370
     0
100
AcDbPolyline
 90
        7
 70
   128
 43
0.0
 10
0.237861245422248
 20
0.1812644901801475
 10
0.2376629241947952
 20
0.1831295852793076
 10
0.2371076326189772
 20
0.1840026005862362
 10
0.2360367150230061
 20
0.185113724155112
 10
0.2347278171947927
 20
0.1852724560935222
 10
0.2332999226995827
 20
0.1854311880319333
 10
0.2322686641084011
 20
0.1847168943090852
  0
LWPOLYLINE
  5
23F9
330
2
100
AcDbEntity
  8
Profilo
  6
Continuous
370
     0
100
AcDbPolyline
 90
        7
 70
   128
 43
0.0
 10
0.2113353944740228
 20
0.1944160464530656
 10
0.2098763387970624
 20
0.1955946335604545
 10
0.2088663733146574
 20
0.1958192981652659
 10
0.2073234372101669
 20
0.1958477280813513
 10
0.2062856662499164
 20
0.1950344379811824
 10
0.2051637519394922
 20
0.1941370045308409
 10
0.2049396239316965
 20
0.1929027126526755
  0
LWPOLYLINE
  5
23FA
330
2
100
AcDbEntity
  8
Profilo
  6
Continuous
370
     0
100
AcDbPolyline
 90
        6
 70
   128
 43
0.0
 10
0.2020366139576413
 20
0.1965612358110541
 10
0.202215474721116
 20
0.2026662790718267
 10
0.202215474721116
 20
0.2072273987173288
 10
0.2020365207686346
 20
0.2115202141244497
 10
0.2016786128636681
 20
0.2149186908047937
 10
0.201410187112113
 20
0.2207318794270801
  0
LWPOLYLINE
  5
23FB
330
2
100
AcDbEntity
  8
Profilo
  6
Continuous
370
     0
100
AcDbPolyline
 90
        6
 70
   128
 43
0.0
 10
0.2086577963018175
 20
0.1969425295629179
 10
0.2069577389304018
 20
0.2026662790718267
 10
0.2055261073105412
 20
0.2092843738583871
 10
0.2046313479024646
 20
0.2142926563164015
 10
0.2037365781400502
 20
0.2184960391610184
 10
0.2035576241875687
 20
0.2212684813529701
  0
LWPOLYLINE
  5
23FC
330
2
100
AcDbEntity
  8
Profilo
  6
Continuous
370
     0
100
AcDbPolyline
 90
       37
 70
   128
 43
0.0
 10
0.194520475473039
 20
0.198731200465593
 10
0.1930888542075126
 20
0.2038289220369851
 10
0.190583509227094
 20
0.2071379661548276
 10
0.1875413023892256
 20
0.2095526715458929
 10
0.1836937975880182
 20
0.2111624773235635
 10
0.1806515907501516
 20
0.2115202141244497
 10
0.1788620615796588
 20
0.2115202141244497
 10
0.1779672918172479
 20
0.2132194524646217
 10
0.1778778200181743
 20
0.2147398256797891
 10
0.176893568102352
 20
0.215813029531569
 10
0.1755514186359011
 20
0.2167073682583442
 10
0.1738513612644836
 20
0.2180488697976307
 10
0.1734934533595207
 20
0.2202847166145688
 10
0.1738513612644836
 20
0.2230571588065206
 10
0.176088280493349
 20
0.2254718641975879
 10
0.1786831076271791
 20
0.225740168435971
 10
0.1817253144650475
 20
0.2254718641975879
 10
0.182172694169084
 20
0.224398660345808
 10
0.1836937975880182
 20
0.2256507358734678
 10
0.1844096133979494
 20
0.2277971435770274
 10
0.1867360044258866
 20
0.2290492125538116
 10
0.1881676360457454
 20
0.2285126106279227
 10
0.1895992573112717
 20
0.2276182719011474
 10
0.190583509227094
 20
0.2271711090886352
 10
0.191388796836097
 20
0.2271711090886352
 10
0.1926414641491401
 20
0.2296752470422047
 10
0.194520475473039
 20
0.2313744919332528
 10
0.1960415788919732
 20
0.2329842977109226
 10
0.1982784981208368
 20
0.2340575015627023
 10
0.2003364633972171
 20
0.2345941034885922
 10
0.2032891984360119
 20
0.2349518337386014
 10
0.2056155894639509
 20
0.2345941034885922
 10
0.2075840725869234
 20
0.2335208996368125
 10
0.2096420378633037
 20
0.2325371283475349
 10
0.211431577388129
 20
0.2313744919332528
 10
0.2127737268545817
 20
0.2298541187180854
 10
0.2094630839108205
 20
0.2211790487904679
  0
LWPOLYLINE
  5
23FD
330
2
100
AcDbEntity
  8
Profilo
  6
Continuous
370
     0
100
AcDbPolyline
 90
        2
 70
   128
 43
0.0
 10
0.1948783833780037
 20
0.2209107511029611
 10
0.1914782686351706
 20
0.2263662029243631
  0
LWPOLYLINE
  5
23FE
330
2
100
AcDbEntity
  8
Profilo
  6
Continuous
370
     0
100
AcDbPolyline
 90
        6
 70
   128
 43
0.0
 10
0.1751871220661889
 20
0.1799006391766323
 10
0.1709966782358019
 20
0.1843440303245039
 10
0.1677714796046632
 20
0.1875692289556417
 10
0.1646094611665876
 20
0.1904781682870789
 10
0.161953296153571
 20
0.1926281750868125
 10
0.1576529453892639
 20
0.1965489145127773
  0
LWPOLYLINE
  5
23FF
330
2
100
AcDbEntity
  8
Profilo
  6
Continuous
370
     0
100
AcDbPolyline
 90
        6
 70
   128
 43
0.0
 10
0.1795993896036623
 20
0.1848521375092397
 10
0.1743499654163663
 20
0.1876973175050683
 10
0.1686579492876894
 20
0.1913647007806148
 10
0.1644838683545475
 20
0.1942734008237926
 10
0.1608789300745932
 20
0.1966129435705417
 10
0.1587919778468971
 20
0.1984468166915992
  0
LWPOLYLINE
  5
2400
330
2
100
AcDbEntity
  8
Profilo
  6
Continuous
370
     0
100
AcDbPolyline
 90
       37
 70
   128
 43
0.0
 10
0.1683380128532312
 20
0.1761203234079927
 10
0.1637210702565546
 20
0.1787126477947803
 10
0.1596096762967174
 20
0.1792809489048864
 10
0.1557510566552973
 20
0.1788372383766478
 10
0.1518921553379324
 20
0.1772549462228506
 10
0.1494880321353178
 20
0.1753567392558093
 10
0.1482226439237322
 20
0.1740913510442227
 10
0.1463884032039426
 20
0.1746601962308086
 10
0.1452500708777129
 20
0.1756719963253389
 10
0.1437952299524503
 20
0.1757348948424536
 10
0.1422137939849768
 20
0.175418244831741
 10
0.1400630870538389
 20
0.1751647075714081
 10
0.1382290255012477
 20
0.1764926109107189
 10
0.136521691933511
 20
0.1787061026917359
 10
0.1363959781326165
 20
0.1819952980040246
 10
0.1380410782485728
 20
0.1840198376127436
 10
0.140381963079784
 20
0.1859812829511903
 10
0.141457178023463
 20
0.1855387584524911
 10
0.14164740946971
 20
0.1874996920910723
 10
0.1406358282406148
 20
0.1895235897467325
 10
0.1413954886481643
 20
0.1920539430822757
 10
0.1427872399353212
 20
0.1926868246482457
 10
0.1444319420186466
 20
0.1930667407748093
 10
0.1454441050797413
 20
0.1934465201218618
 10
0.1460135294088736
 20
0.1940159444509931
 10
0.1451286060325017
 20
0.196672406930613
 10
0.1452557200961997
 20
0.1992026161650244
 10
0.1451929980568312
 20
0.2014165032892226
 10
0.1460158690913373
 20
0.2037571137661071
 10
0.1470916354331186
 20
0.205591749829077
 10
0.1489265809164801
 20
0.2079326022836712
 10
0.1508245412736442
 20
0.2093246556696025
 10
0.1529753387597377
 20
0.2099577137133179
 10
0.1551261713118985
 20
0.21071728356591
 10
0.1572136749376969
 20
0.2111605710065215
 10
0.1592377841371699
 20
0.2110345477852355
 10
0.1630310068346357
 20
0.2025593689365301
  0
LWPOLYLINE
  5
2401
330
2
100
AcDbEntity
  8
Profilo
  6
Continuous
370
     0
100
AcDbPolyline
 90
        6
 70
   128
 43
0.0
 10
0.1679824851371445
 20
0.1491343605299605
 10
0.161877441876372
 20
0.1493132212934362
 10
0.1573163222308707
 20
0.1493132212934362
 10
0.1530235068237498
 20
0.1491342673409555
 10
0.1496250301434059
 20
0.1487763594359892
 10
0.1438118415211203
 20
0.1485079336844322
  0
LWPOLYLINE
  5
2402
330
2
100
AcDbEntity
  8
Profilo
  6
Continuous
370
     0
100
AcDbPolyline
 90
        6
 70
   128
 43
0.0
 10
0.1676011913852817
 20
0.1557555428741376
 10
0.161877441876372
 20
0.1540554855027219
 10
0.1552593470898116
 20
0.1526238538828613
 10
0.1502510646317989
 20
0.1517290944747838
 10
0.1460476817871803
 20
0.1508343247123703
 10
0.1432752395952295
 20
0.1506553707598897
  0
LWPOLYLINE
  5
2403
330
2
100
AcDbEntity
  8
Profilo
  6
Continuous
370
     0
100
AcDbPolyline
 90
       37
 70
   128
 43
0.0
 10
0.1658125204826066
 20
0.1416182220453591
 10
0.1607147989112145
 20
0.1401866007798327
 10
0.1574057547933712
 20
0.1376812557994141
 10
0.1549910494023066
 20
0.1346390489615448
 10
0.153381243624636
 20
0.1307915441603383
 10
0.1530235068237498
 20
0.1277493373224717
 10
0.1530235068237498
 20
0.1259598081519789
 10
0.1513242684835787
 20
0.1250650383895671
 10
0.1498038952684104
 20
0.1249755665904944
 10
0.1487306914166306
 20
0.123991314674673
 10
0.1478363526898554
 20
0.1226491652082212
 10
0.1464948511505688
 20
0.1209491078368037
 10
0.1442590043336298
 20
0.1205911999318399
 10
0.141486562141679
 20
0.1209491078368037
 10
0.1390718567506108
 20
0.1231860270656691
 10
0.1388035525122286
 20
0.1257808541994984
 10
0.1390718567506108
 20
0.1288230610373667
 10
0.1401450606023906
 20
0.1292704407414041
 10
0.1388929850747309
 20
0.1307915441603383
 10
0.1367465773711713
 20
0.1315073599702686
 10
0.135494508394387
 20
0.1338337509982067
 10
0.136031110320276
 20
0.1352653826180655
 10
0.1369254490470513
 20
0.1366970038835918
 10
0.1373726118595644
 20
0.1376812557994141
 10
0.1373726118595644
 20
0.1384865434084171
 10
0.134868473905994
 20
0.1397392107214602
 10
0.1331692290149458
 20
0.1416182220453591
 10
0.131559423237277
 20
0.1431393254642933
 10
0.1304862193854972
 20
0.145376244693156
 10
0.1299496174596064
 20
0.1474342099695381
 10
0.1295918872095974
 20
0.1503869450083312
 10
0.1299496174596064
 20
0.152713336036271
 10
0.1310228213113862
 20
0.1546818191592426
 10
0.1320065926006637
 20
0.1567397844356247
 10
0.1331692290149458
 20
0.15852932396045
 10
0.1346896022301141
 20
0.1598714734269011
 10
0.1433646721577317
 20
0.1565608304831415
  0
LWPOLYLINE
  5
2404
330
2
100
AcDbEntity
  8
Profilo
  6
Continuous
370
     0
100
AcDbPolyline
 90
        6
 70
   128
 43
0.0
 10
0.1846430817715663
 20
0.122284868638509
 10
0.1801996906236964
 20
0.118094424808122
 10
0.1769744919925578
 20
0.1148692261769842
 10
0.1740655526611206
 20
0.1117072077389077
 10
0.1719155458613861
 20
0.1090510427258903
 10
0.1679948064354213
 20
0.104750691961584
  0
LWPOLYLINE
  5
2405
330
2
100
AcDbEntity
  8
Profilo
  6
Continuous
370
     0
100
AcDbPolyline
 90
        6
 70
   128
 43
0.0
 10
0.1796915834389607
 20
0.1266971361759833
 10
0.1768464034431303
 20
0.1214477119886855
 10
0.1731790201675838
 20
0.1157556958600095
 10
0.1702703201244069
 20
0.1115816149268685
 10
0.167930777377657
 20
0.1079766766469124
 10
0.1660969042565994
 20
0.1058897244192163
  0
LWPOLYLINE
  5
2406
330
2
100
AcDbEntity
  8
Profilo
  6
Continuous
370
     0
100
AcDbPolyline
 90
       37
 70
   128
 43
0.0
 10
0.1884233975402068
 20
0.1154357594255513
 10
0.1858310731534192
 20
0.1108188168288747
 10
0.1852627720433122
 20
0.1067074228690366
 10
0.1857064825715518
 20
0.1028488032276174
 10
0.1872887747253489
 20
0.0989899019102526
 10
0.1891869816923903
 20
0.0965857787076389
 10
0.190452369903976
 20
0.0953203904960524
 10
0.1898835247173909
 20
0.0934861497762619
 10
0.1888717246228615
 20
0.092347817450034
 10
0.188808826105745
 20
0.0908929765247705
 10
0.1891254761164585
 20
0.089311540557297
 10
0.1893790133767914
 20
0.0871608336261591
 10
0.1880511100374806
 20
0.0853267720735679
 10
0.1858376182564636
 20
0.0836194385058312
 10
0.1825484229441758
 20
0.0834937247049367
 10
0.1805238833354568
 20
0.085138824820893
 10
0.1785624379970083
 20
0.0874797096521033
 10
0.1790049624957084
 20
0.0885549245957823
 10
0.1770440288571282
 20
0.0887451560420311
 10
0.175020131201467
 20
0.087733574812935
 10
0.1724897778659229
 20
0.0884932352204845
 10
0.1718568962999529
 20
0.0898849865076414
 10
0.1714769801733893
 20
0.0915296885909668
 10
0.1710972008263378
 20
0.0925418516520615
 10
0.1705277764972055
 20
0.0931112759811938
 10
0.1678713140175865
 20
0.0922263526048219
 10
0.1653411047831752
 20
0.0923534666685199
 10
0.1631272176589777
 20
0.0922907446291505
 10
0.1607866071820925
 20
0.0931136156636575
 10
0.1589519711191225
 20
0.0941893820054388
 10
0.1566111186645283
 20
0.0960243274887995
 10
0.155219065278597
 20
0.0979222878459644
 10
0.1545860072348808
 20
0.1000730853320578
 10
0.1538264373822904
 20
0.1022239178842186
 10
0.153383149941678
 20
0.1043114215100179
 10
0.1535091731629641
 20
0.10633553070949
 10
0.1619843520116695
 20
0.1101287534069567
  0
LWPOLYLINE
  5
2407
330
2
100
AcDbEntity
  8
Profilo
  6
Continuous
370
     0
100
AcDbPolyline
 90
        6
 70
   128
 43
0.0
 10
0.2154093604182381
 20
0.1150802317094646
 10
0.2152304996547634
 20
0.1089751884486921
 10
0.2152304996547634
 20
0.1044140688031899
 10
0.2154094536072431
 20
0.1001212533960699
 10
0.2157673615122096
 20
0.0967227767157261
 10
0.2160357872637664
 20
0.0909095880934396
  0
LWPOLYLINE
  5
2408
330
2
100
AcDbEntity
  8
Profilo
  6
Continuous
370
     0
100
AcDbPolyline
 90
        6
 70
   128
 43
0.0
 10
0.2087881780740619
 20
0.1146989379576018
 10
0.2104882354454776
 20
0.1089751884486921
 10
0.2119198670653382
 20
0.1023570936621326
 10
0.2128146264734148
 20
0.0973488112041182
 10
0.2137093962358292
 20
0.0931454283595005
 10
0.2138883501883089
 20
0.0903729861675488
  0
LWPOLYLINE
  5
2409
330
2
100
AcDbEntity
  8
Profilo
  6
Continuous
370
     0
100
AcDbPolyline
 90
       37
 70
   128
 43
0.0
 10
0.2229254989028404
 20
0.1129102670549267
 10
0.2243571201683668
 20
0.1078125454835337
 10
0.2268624651487854
 20
0.1045035013656921
 10
0.2299046719866538
 20
0.1020887959746258
 10
0.2337521767878612
 20
0.1004789901969561
 10
0.2367943836257278
 20
0.1001212533960699
 10
0.2385839127962206
 20
0.1001212533960699
 10
0.2394786825586315
 20
0.098422015055898
 10
0.2395681543577051
 20
0.0969016418407306
 10
0.2405524062735274
 20
0.0958284379889508
 10
0.2418945557399783
 20
0.0949340992621756
 10
0.2435946131113958
 20
0.0935925977228881
 10
0.2439525210163587
 20
0.0913567509059509
 10
0.2435946131113958
 20
0.0885843087139983
 10
0.2413576938825304
 20
0.0861696033229319
 10
0.2387628667487003
 20
0.0859012990845488
 10
0.2357206599108319
 20
0.0861696033229319
 10
0.2352732802067954
 20
0.0872428071747117
 10
0.2337521767878612
 20
0.0859907316470511
 10
0.23303636097793
 20
0.0838443239434915
 10
0.2307099699499928
 20
0.0825922549667072
 10
0.229278338330134
 20
0.0831288568925971
 10
0.2278467170646077
 20
0.0840231956193724
 10
0.2268624651487854
 20
0.0844703584318837
 10
0.2260571775397824
 20
0.0844703584318837
 10
0.2248045102267393
 20
0.0819662204783142
 10
0.2229254989028404
 20
0.0802669755872669
 10
0.2214043954839062
 20
0.0786571698095963
 10
0.2191674762550426
 20
0.0775839659578165
 10
0.2171095109786623
 20
0.0770473640319275
 10
0.2141567759398675
 20
0.0766896337819184
 10
0.2118303849119285
 20
0.0770473640319275
 10
0.209861901788956
 20
0.0781205678837073
 10
0.2078039365125757
 20
0.0791043391729839
 10
0.2060143969877486
 20
0.0802669755872669
 10
0.2046722475212977
 20
0.0817873488024343
 10
0.2079828904650571
 20
0.0904624187300519
  0
LWPOLYLINE
  5
240A
330
2
100
AcDbEntity
  8
Profilo
  6
Continuous
370
     0
100
AcDbPolyline
 90
        6
 70
   128
 43
0.0
 10
0.2422588523096905
 20
0.1317408283438873
 10
0.2464492961400775
 20
0.1272974371960157
 10
0.2496744947712144
 20
0.1240722385648779
 10
0.2528365132092918
 20
0.1211632992334407
 10
0.2554926782223084
 20
0.1190132924337071
 10
0.2597930289866155
 20
0.1150925530077423
  0
LWPOLYLINE
  5
240B
330
2
100
AcDbEntity
  8
Profilo
  6
Continuous
370
     0
100
AcDbPolyline
 90
        6
 70
   128
 43
0.0
 10
0.2378465847722171
 20
0.12678933001128
 10
0.2430960089595131
 20
0.1239441500154513
 10
0.24878802508819
 20
0.1202767667399039
 10
0.2529621060213301
 20
0.1173680666967261
 10
0.2565670443012862
 20
0.1150285239499771
 10
0.2586539965289823
 20
0.1131946508289204
  0
LWPOLYLINE
  5
240C
330
2
100
AcDbEntity
  8
Profilo
  6
Continuous
370
     0
100
AcDbPolyline
 90
       37
 70
   128
 43
0.0
 10
0.2491079615226482
 20
0.135521144112526
 10
0.2537249041193248
 20
0.1329288197257384
 10
0.257836298079162
 20
0.1323605186156324
 10
0.2616949177205821
 20
0.132804229143871
 10
0.265553819037947
 20
0.1343865212976681
 10
0.2679579422405598
 20
0.1362847282647096
 10
0.2692233304521472
 20
0.1375501164762961
 10
0.2710575711719368
 20
0.1369812712897102
 10
0.2721959034981665
 20
0.1359694711951807
 10
0.2736507444234291
 20
0.1359065726780652
 10
0.2752321803909026
 20
0.1362232226887777
 10
0.2773828873220405
 20
0.1364767599491115
 10
0.2792169488746317
 20
0.1351488566098007
 10
0.2809242824423684
 20
0.1329353648287828
 10
0.2810499962432629
 20
0.129646169516495
 10
0.2794048961273066
 20
0.127621629907776
 10
0.2770640112960954
 20
0.1256601845693284
 10
0.2759887963524164
 20
0.1261027090680276
 10
0.2757985649061676
 20
0.1241417754294474
 10
0.2768101461352646
 20
0.1221178777737871
 10
0.2760504857277151
 20
0.119587524438243
 10
0.2746587344405582
 20
0.118954642872273
 10
0.2730140323572328
 20
0.1185747267457094
 10
0.2720018692961381
 20
0.1181949473986579
 10
0.2714324449670058
 20
0.1176255230695256
 10
0.2723173683433777
 20
0.1149690605899066
 10
0.2721902542796797
 20
0.1124388513554953
 10
0.2722529763190482
 20
0.110224964231297
 10
0.2714301052845421
 20
0.1078843537544126
 10
0.2703543389427608
 20
0.1060497176914426
 10
0.2685193934593993
 20
0.1037088652368475
 10
0.2666214331022352
 20
0.1023168118509162
 10
0.2644706356161417
 20
0.1016837538072009
 10
0.2623198030639809
 20
0.1009241839546096
 10
0.2602322994381807
 20
0.1004808965139981
 10
0.2582081902387095
 20
0.1006069197352833
 10
0.2544149675412437
 20
0.1090820985839896
  0
LWPOLYLINE
  5
240D
330
2
100
AcDbEntity
  8
Profilo
  6
Continuous
370
     0
100
AcDbPolyline
 90
        6
 70
   128
 43
0.0
 10
0.2494634892387349
 20
0.1625071069905582
 10
0.2555685324995074
 20
0.1623282462270826
 10
0.2601296521450087
 20
0.1623282462270826
 10
0.2644224675521296
 20
0.1625072001795642
 10
0.2678209442324735
 20
0.1628651080845305
 10
0.2736341328547591
 20
0.1631335338360865
  0
LWPOLYLINE
  5
240E
330
2
100
AcDbEntity
  8
Profilo
  6
Continuous
370
     0
100
AcDbPolyline
 90
        6
 70
   128
 43
0.0
 10
0.2498447829905977
 20
0.1558859246463811
 10
0.2555685324995074
 20
0.1575859820177968
 10
0.2621866272860678
 20
0.1590176136376583
 10
0.2671949097440805
 20
0.1599123730457349
 10
0.2713982925886991
 20
0.1608071428081484
 10
0.2741707347806499
 20
0.1609860967606299
  0
LWPOLYLINE
  5
240F
330
2
100
AcDbEntity
  8
Profilo
  6
Continuous
370
     0
100
AcDbPolyline
 90
       37
 70
   128
 43
0.0
 10
0.2516334538932728
 20
0.1700232454751597
 10
0.2567311754646649
 20
0.1714548667406861
 10
0.2600402195825082
 20
0.1739602117211055
 10
0.2624549249735728
 20
0.1770024185589739
 10
0.2640647307512434
 20
0.1808499233601804
 10
0.2644224675521296
 20
0.183892130198047
 10
0.2644224675521296
 20
0.1856816593685398
 10
0.2661217058923007
 20
0.1865764291309516
 10
0.2676420791074689
 20
0.1866659009300243
 10
0.2687152829592488
 20
0.1876501528458466
 10
0.269609621686024
 20
0.1889923023122975
 10
0.2709511232253106
 20
0.190692359683715
 10
0.2731869700422496
 20
0.1910502675886788
 10
0.2759594122342004
 20
0.190692359683715
 10
0.2783741176252686
 20
0.1884554404548496
 10
0.2786424218636508
 20
0.1858606133210213
 10
0.2783741176252686
 20
0.1828184064831521
 10
0.2773009137734888
 20
0.1823710267791155
 10
0.2785529893011485
 20
0.1808499233601804
 10
0.2806993970047081
 20
0.1801341075502501
 10
0.2819514659814924
 20
0.1778077165223121
 10
0.2814148640556034
 20
0.1763760849024532
 10
0.2805205253288281
 20
0.1749444636369269
 10
0.280073362516315
 20
0.1739602117211055
 10
0.280073362516315
 20
0.1731549241121016
 10
0.2825775004698854
 20
0.1719022567990585
 10
0.2842767453609336
 20
0.1700232454751597
 10
0.2858865511386024
 20
0.1685021420562256
 10
0.2869597549903822
 20
0.1662652228273627
 10
0.287496356916273
 20
0.1642072575509815
 10
0.287854087166282
 20
0.1612545225121876
 10
0.287496356916273
 20
0.1589281314842477
 10
0.2864231530644932
 20
0.1569596483612761
 10
0.2854393817752157
 20
0.1549016830848949
 10
0.2842767453609336
 20
0.1531121435600696
 10
0.2827563721457653
 20
0.1517699940936186
 10
0.2740813022181477
 20
0.1550806370373781
  0
LWPOLYLINE
  5
2410
330
2
100
AcDbEntity
  8
Profilo
  6
Continuous
370
     0
100
AcDbPolyline
 90
        6
 70
   128
 43
0.0
 10
0.2328028926043131
 20
0.1893565988820097
 10
0.2372462837521847
 20
0.1935470427123967
 10
0.2404714823833216
 20
0.1967722413435345
 10
0.2433804217147588
 20
0.199934259781611
 10
0.2455304285144933
 20
0.2025904247946294
 10
0.2494511679404581
 20
0.2068907755589348
  0
LWPOLYLINE
  5
2411
330
2
100
AcDbEntity
  8
Profilo
  6
Continuous
370
     0
100
AcDbPolyline
 90
        6
 70
   128
 43
0.0
 10
0.2377543909369187
 20
0.1849443313445364
 10
0.2405995709327491
 20
0.1901937555318323
 10
0.2442669542082956
 20
0.1958857716605092
 10
0.2471756542514725
 20
0.2000598525936502
 10
0.2495151969982224
 20
0.2036647908736064
 10
0.2513490701192782
 20
0.2057517431013025
  0
LWPOLYLINE
  5
2412
330
2
100
AcDbEntity
  8
Profilo
  6
Continuous
370
     0
100
AcDbPolyline
 90
       37
 70
   128
 43
0.0
 10
0.2290225768356726
 20
0.1962057080949675
 10
0.2316149012224602
 20
0.200822650691645
 10
0.2321832023325672
 20
0.2049340446514821
 10
0.2317394918043276
 20
0.2087926642929022
 10
0.2301571996505305
 20
0.2126515656102672
 10
0.2282589926834891
 20
0.2150556888128809
 10
0.2269936044719034
 20
0.2163210770244674
 10
0.2275624496584885
 20
0.218155317744257
 10
0.2285742497530197
 20
0.2192936500704858
 10
0.2286371482701344
 20
0.2207484909957484
 10
0.2283204982594209
 20
0.2223299269632219
 10
0.228066960999088
 20
0.2244806338943599
 10
0.2293948643383988
 20
0.2263146954469518
 10
0.2316083561194158
 20
0.2280220290146877
 10
0.2348975514317036
 20
0.2281477428155822
 10
0.2369220910404226
 20
0.2265026426996267
 10
0.2388835363788711
 20
0.2241617578684155
 10
0.238441011880171
 20
0.2230865429247366
 10
0.240401945518753
 20
0.2228963114784887
 10
0.2424258431744124
 20
0.2239078927075838
 10
0.2449561965099565
 20
0.2231482323000352
 10
0.2455890780759265
 20
0.2217564810128775
 10
0.2459689942024901
 20
0.220111778929552
 10
0.2463487735495416
 20
0.2190996158684574
 10
0.2469181978786739
 20
0.218530191539325
 10
0.2495746603582929
 20
0.2194151149156978
 10
0.2521048695927042
 20
0.219288000851999
 10
0.2543187567169034
 20
0.2193507228913683
 10
0.2566593671937869
 20
0.2185278518568622
 10
0.2584940032567569
 20
0.2174520855150801
 10
0.2608348557113511
 20
0.2156171400317195
 10
0.2622269090972824
 20
0.2137191796745545
 10
0.2628599671409986
 20
0.2115683821884609
 10
0.263619536993589
 20
0.2094175496363002
 10
0.2640628244342014
 20
0.2073300460105018
 10
0.2639368012129153
 20
0.2053059368110287
 10
0.2554616223642099
 20
0.2015127141135629
  0
LWPOLYLINE
  5
2413
330
2
100
AcDbEntity
  8
Profilo
  6
Continuous
370
     0
100
AcDbPolyline
 90
        9
 70
   128
 43
0.0
 10
0.2129022655553921
 20
0.2299399548495291
 10
0.2148626515892693
 20
0.2311591580801906
 10
0.2166923348665555
 20
0.2314639638010128
 10
0.2188705346679743
 20
0.2315510511498191
 10
0.2215715040784274
 20
0.2313768764522059
 10
0.2248387934262204
 20
0.2306366470891044
 10
0.2270169932276409
 20
0.2297222430283891
 10
0.2287595551396424
 20
0.2290255507888137
 10
0.2307635018561611
 20
0.2277628038837499
  0
LWPOLYLINE
  5
2414
330
2
100
AcDbEntity
  8
Profilo
  6
Continuous
370
     0
100
AcDbPolyline
 90
        3
 70
   128
 43
0.0
 10
0.2091596708650783
 20
0.2067402690088444
 10
0.2104957319832059
 20
0.2150866683734776
 10
0.2133905448782652
 20
0.2198719328005926
  0
LWPOLYLINE
  5
2415
330
2
100
AcDbEntity
  8
Profilo
  6
Continuous
370
     0
100
AcDbPolyline
 90
        9
 70
   128
 43
0.0
 10
0.2139472456394311
 20
0.1989502945216202
 10
0.2129451946236674
 20
0.2039581315200491
 10
0.2131678645737973
 20
0.2071854076005958
 10
0.2151719666053249
 20
0.2113029674155217
 10
0.217621418891452
 20
0.2146415232308509
 10
0.2199595413796778
 20
0.2158656592713236
 10
0.2225203338180371
 20
0.2160882318426383
 10
0.2251924664086285
 20
0.2163108044139514
 10
0.2257491568154602
 20
0.2163108044139514
  0
LWPOLYLINE
  5
2416
330
2
100
AcDbEntity
  8
Profilo
  6
Continuous
370
     0
100
AcDbPolyline
 90
        5
 70
   128
 43
0.0
 10
0.1956876677598855
 20
0.2077418324780051
 10
0.1931268753215281
 20
0.2121932445990255
 10
0.189564031867405
 20
0.2156430932508869
 10
0.1855558381586841
 20
0.217534940454426
 10
0.1822156646546964
 20
0.2176462267400828
  0
LWPOLYLINE
  5
2417
330
2
100
AcDbEntity
  8
Profilo
  6
Continuous
370
     0
100
AcDbPolyline
 90
        9
 70
   128
 43
0.0
 10
0.1592679794135434
 20
0.2111861336828395
 10
0.1597920747997974
 20
0.2134344428131829
 10
0.160870326060452
 20
0.2149437544581118
 10
0.1623489658559172
 20
0.2165455543633711
 10
0.1643819997516185
 20
0.2183322680394867
 10
0.1672157434078261
 20
0.220119169291128
 10
0.1694025445702638
 20
0.221012807829414
 10
0.1711273577218821
 20
0.2217523493670237
 10
0.1734372589337627
 20
0.2222764567799186
  0
LWPOLYLINE
  5
2418
330
2
100
AcDbEntity
  8
Profilo
  6
Continuous
370
     0
100
AcDbPolyline
 90
        3
 70
   128
 43
0.0
 10
0.1730262205081359
 20
0.192135064418739
 10
0.168069162795621
 20
0.1989815978846714
 10
0.1667324116978004
 20
0.2044122326392177
  0
LWPOLYLINE
  5
2419
330
2
100
AcDbEntity
  8
Profilo
  6
Continuous
370
     0
100
AcDbPolyline
 90
        9
 70
   128
 43
0.0
 10
0.1819198908817046
 20
0.1900120472219358
 10
0.1776702583126979
 20
0.1928445656542603
 10
0.175545680943086
 20
0.1952840458872796
 10
0.1740512406126924
 20
0.199612714491038
 10
0.1734225494780168
 20
0.2037054542691389
 10
0.1742102568493737
 20
0.206224351431123
 10
0.1758636279732655
 20
0.2081924877039789
 10
0.1775957284738197
 20
0.2102393533534979
 10
0.1779893680355129
 20
0.2106329929151903
  0
LWPOLYLINE
  5
241A
330
2
100
AcDbEntity
  8
Profilo
  6
Continuous
370
     0
100
AcDbPolyline
 90
        5
 70
   128
 43
0.0
 10
0.1627918634354564
 20
0.1833171319877234
 10
0.157833486040452
 20
0.1846540019859793
 10
0.1528747638979371
 20
0.1845741025950609
 10
0.1487028049596009
 20
0.1830776196299073
 10
0.1462622543373491
 20
0.1807944515821384
  0
LWPOLYLINE
  5
241B
330
2
100
AcDbEntity
  8
Profilo
  6
Continuous
370
     0
100
AcDbPolyline
 90
        9
 70
   128
 43
0.0
 10
0.1346037660986705
 20
0.1600000121277123
 10
0.133384562868009
 20
0.1619603981615903
 10
0.1330797571471876
 20
0.1637900814388747
 10
0.1329926697983796
 20
0.1659682812402945
 10
0.1331668444959937
 20
0.1686692506507466
 10
0.1339070738590951
 20
0.1719365399985405
 10
0.1348214779198105
 20
0.1741147397999601
 10
0.1355181701593859
 20
0.1758573017119616
 10
0.1367809170644487
 20
0.1778612484284813
  0
LWPOLYLINE
  5
241C
330
2
100
AcDbEntity
  8
Profilo
  6
Continuous
370
     0
100
AcDbPolyline
 90
        3
 70
   128
 43
0.0
 10
0.1578034519393543
 20
0.1562574174373985
 10
0.149457052574721
 20
0.1575934785555261
 10
0.1446717881476061
 20
0.1604882914505861
  0
LWPOLYLINE
  5
241D
330
2
100
AcDbEntity
  8
Profilo
  6
Continuous
370
     0
100
AcDbPolyline
 90
        9
 70
   128
 43
0.0
 10
0.1655934264265801
 20
0.1610449922117512
 10
0.1605855894281496
 20
0.1600429411959876
 10
0.1573583133476037
 20
0.1602656111461183
 10
0.1532407535326779
 20
0.162269713177645
 10
0.1499021977173487
 20
0.1647191654637714
 10
0.148678061676875
 20
0.1670572879519988
 10
0.1484554891055612
 20
0.1696180803903564
 10
0.1482329165342473
 20
0.1722902129809477
 10
0.1482329165342473
 20
0.1728469033877804
  0
LWPOLYLINE
  5
241E
330
2
100
AcDbEntity
  8
Profilo
  6
Continuous
370
     0
100
AcDbPolyline
 90
        5
 70
   128
 43
0.0
 10
0.1568018884701945
 20
0.1427854143322056
 10
0.1523504763491732
 20
0.1402246218938482
 10
0.1489006276973135
 20
0.1366617784397242
 10
0.1470087804937736
 20
0.1326535847310042
 10
0.1468974942081167
 20
0.1293134112270166
  0
LWPOLYLINE
  5
241F
330
2
100
AcDbEntity
  8
Profilo
  6
Continuous
370
     0
100
AcDbPolyline
 90
        9
 70
   128
 43
0.0
 10
0.153357587265361
 20
0.1063657259858644
 10
0.1511092781350167
 20
0.1068898213721175
 10
0.1495999664900878
 20
0.1079680726327712
 10
0.1479981665848284
 20
0.1094467124282373
 10
0.146211452908712
 20
0.1114797463239395
 10
0.1444245516570706
 20
0.1143134899801453
 10
0.1435309131187856
 20
0.1165002911425848
 10
0.1427913715811751
 20
0.1182251042942022
 10
0.1422672641682818
 20
0.1205350055060828
  0
LWPOLYLINE
  5
2420
330
2
100
AcDbEntity
  8
Profilo
  6
Continuous
370
     0
100
AcDbPolyline
 90
        3
 70
   128
 43
0.0
 10
0.1724086565294605
 20
0.120123967080456
 10
0.1655621230635282
 20
0.1151669093679402
 10
0.1601314883089819
 20
0.1138301582701196
  0
LWPOLYLINE
  5
2421
330
2
100
AcDbEntity
  8
Profilo
  6
Continuous
370
     0
100
AcDbPolyline
 90
        9
 70
   128
 43
0.0
 10
0.1745316737262637
 20
0.1290176374540256
 10
0.1716991552939393
 20
0.124768004885018
 10
0.169259675060919
 20
0.1226434275154052
 10
0.1649310064571607
 20
0.1211489871850134
 10
0.1608382666790606
 20
0.1205202960503369
 10
0.1583193695170766
 20
0.1213080034216938
 10
0.1563512332442207
 20
0.1229613745455847
 10
0.1543043675947024
 20
0.1246934750461406
 10
0.1539107280330092
 20
0.1250871146078331
  0
LWPOLYLINE
  5
2422
330
2
100
AcDbEntity
  8
Profilo
  6
Continuous
370
     0
100
AcDbPolyline
 90
        5
 70
   128
 43
0.0
 10
0.1812265889604752
 20
0.1098896100077765
 10
0.1798897189622202
 20
0.104931232612773
 10
0.1799696183531387
 20
0.0999725104702573
 10
0.1814661013182923
 20
0.0958005515319211
 10
0.1837492693660603
 20
0.0933600009096702
  0
LWPOLYLINE
  5
2423
330
2
100
AcDbEntity
  8
Profilo
  6
Continuous
370
     0
100
AcDbPolyline
 90
        9
 70
   128
 43
0.0
 10
0.2045437088204873
 20
0.0817015126709907
 10
0.2025833227866083
 20
0.0804823094403292
 10
0.2007536395093239
 20
0.0801775037195069
 10
0.1985754397079051
 20
0.0800904163707007
 10
0.195874470297452
 20
0.080264591068313
 10
0.192607180949659
 20
0.0810048204314153
 10
0.1904289811482385
 20
0.0819192244921307
 10
0.188686419236237
 20
0.0826159167317061
 10
0.1866824725197183
 20
0.0838786636367698
  0
LWPOLYLINE
  5
2424
330
2
100
AcDbEntity
  8
Profilo
  6
Continuous
370
     0
100
AcDbPolyline
 90
        3
 70
   128
 43
0.0
 10
0.2082863035108011
 20
0.1049011985116753
 10
0.2069502423926735
 20
0.0965547991470421
 10
0.2040554294976142
 20
0.0917695347199263
  0
LWPOLYLINE
  5
2425
330
2
100
AcDbEntity
  8
Profilo
  6
Continuous
370
     0
100
AcDbPolyline
 90
        9
 70
   128
 43
0.0
 10
0.2034987287364483
 20
0.1126911729988994
 10
0.204500779752212
 20
0.1076833360004697
 10
0.2042781098020803
 20
0.104456059919923
 10
0.2022740077705545
 20
0.1003385001049971
 10
0.1998245554844274
 20
0.0969999442896689
 10
0.1974864329962016
 20
0.0957758082491952
 10
0.1949256405578423
 20
0.0955532356778814
 10
0.1922535079672509
 20
0.0953306631065684
 10
0.1916968175604192
 20
0.0953306631065684
  0
LWPOLYLINE
  5
2426
330
2
100
AcDbEntity
  8
Profilo
  6
Continuous
370
     0
100
AcDbPolyline
 90
        5
 70
   128
 43
0.0
 10
0.2217583066159939
 20
0.1038996350425146
 10
0.2243190990543513
 20
0.0994482229214943
 10
0.2278819425084744
 20
0.0959983742696328
 10
0.2318901362171953
 20
0.0941065270660929
 10
0.235230309721183
 20
0.093995240780436
  0
LWPOLYLINE
  5
2427
330
2
100
AcDbEntity
  8
Profilo
  6
Continuous
370
     0
100
AcDbPolyline
 90
        9
 70
   128
 43
0.0
 10
0.2581779949623342
 20
0.1004553338376802
 10
0.257653899576082
 20
0.0982070247073369
 10
0.2565756483154274
 20
0.0966977130624071
 10
0.2550970085199622
 20
0.0950959131571478
 10
0.2530639746242591
 20
0.0933091994810322
 10
0.2502302309680533
 20
0.0915222982293908
 10
0.2480434298056138
 20
0.0906286596911049
 10
0.2463186166539973
 20
0.0898891181534953
 10
0.2440087154421167
 20
0.0893650107406011
  0
LWPOLYLINE
  5
2428
330
2
100
AcDbEntity
  8
Profilo
  6
Continuous
370
     0
100
AcDbPolyline
 90
        3
 70
   128
 43
0.0
 10
0.2444197538677435
 20
0.1195064031017797
 10
0.2493768115802584
 20
0.1126598696358483
 10
0.250713562678079
 20
0.1072292348813011
  0
LWPOLYLINE
  5
2429
330
2
100
AcDbEntity
  8
Profilo
  6
Continuous
370
     0
100
AcDbPolyline
 90
        9
 70
   128
 43
0.0
 10
0.2355260834941748
 20
0.1216294202985838
 10
0.2397757160631815
 20
0.1187969018662585
 10
0.2419002934327934
 20
0.1163574216332391
 10
0.2433947337631852
 20
0.1120287530294808
 10
0.2440234248978626
 20
0.1079360132513799
 10
0.2432357175265057
 20
0.1054171160893967
 10
0.2415823464026139
 20
0.1034489798165399
 10
0.239850245902058
 20
0.1014021141670217
 10
0.2394566063403665
 20
0.1010084746053284
  0
LWPOLYLINE
  5
242A
330
2
100
AcDbEntity
  8
Profilo
  6
Continuous
370
     0
100
AcDbPolyline
 90
        5
 70
   128
 43
0.0
 10
0.254654110940423
 20
0.1283243355327953
 10
0.2596124883354256
 20
0.1269874655345394
 10
0.2645712104779423
 20
0.1270673649254579
 10
0.2687431694162785
 20
0.1285638478906115
 10
0.2711837200385303
 20
0.1308470159383804
  0
LWPOLYLINE
  5
242B
330
2
100
AcDbEntity
  8
Profilo
  6
Continuous
370
     0
100
AcDbPolyline
 90
        9
 70
   128
 43
0.0
 10
0.2828422082772089
 20
0.1516414553928067
 10
0.2840614115078704
 20
0.1496810693589293
 10
0.2843662172286918
 20
0.147851386081644
 10
0.2844533045774998
 20
0.1456731862802252
 10
0.2842791298798857
 20
0.1429722168697721
 10
0.2835389005167843
 20
0.1397049275219782
 10
0.2826244964560689
 20
0.1375267277205586
 10
0.2819278042164935
 20
0.135784165808558
 10
0.2806650573114289
 20
0.1337802190920384
  0
LWPOLYLINE
  5
242C
330
2
100
AcDbEntity
  8
Profilo
  6
Continuous
370
     0
100
AcDbPolyline
 90
        3
 70
   128
 43
0.0
 10
0.2596425224365251
 20
0.1553840500831212
 10
0.2679889218011584
 20
0.1540479889649927
 10
0.2727741862282733
 20
0.1511531760699336
  0
LWPOLYLINE
  5
242D
330
2
100
AcDbEntity
  8
Profilo
  6
Continuous
370
     0
100
AcDbPolyline
 90
        9
 70
   128
 43
0.0
 10
0.2518525479492993
 20
0.1505964753087685
 10
0.2568603849477298
 20
0.1515985263245321
 10
0.2600876610282757
 20
0.1513758563744013
 10
0.2642052208432015
 20
0.1493717543428737
 10
0.2675437766585307
 20
0.1469223020567476
 10
0.2687679126990044
 20
0.1445841795685208
 10
0.2689904852703182
 20
0.1420233871301633
 10
0.2692130578416321
 20
0.139351254539571
 10
0.2692130578416321
 20
0.1387945641327384
  0
LWPOLYLINE
  5
242E
330
2
100
AcDbEntity
  8
Profilo
  6
Continuous
370
     0
100
AcDbPolyline
 90
        5
 70
   128
 43
0.0
 10
0.2606440859056849
 20
0.1688560531883132
 10
0.2650954980267062
 20
0.1714168456266706
 10
0.2685453466785659
 20
0.1749796890807945
 10
0.2704371938821058
 20
0.1789878827895146
 10
0.2705484801677627
 20
0.1823280562935031
  0
LWPOLYLINE
  5
242F
330
2
100
AcDbEntity
  8
Profilo
  6
Continuous
370
     0
100
AcDbPolyline
 90
        9
 70
   128
 43
0.0
 10
0.2640883871105184
 20
0.2052757415346552
 10
0.2663366962408627
 20
0.2047516461484013
 10
0.2678460078857916
 20
0.2036733948877476
 10
0.269447807791051
 20
0.2021947550922814
 10
0.2712345214671674
 20
0.2001617211965792
 10
0.2730214227188088
 20
0.1973279775403734
 10
0.2739150612570938
 20
0.1951411763779339
 10
0.2746546027947043
 20
0.1934163632263166
 10
0.2751787102075993
 20
0.1911064620144368
  0
LWPOLYLINE
  5
2430
330
2
100
AcDbEntity
  8
Profilo
  6
Continuous
370
     0
100
AcDbPolyline
 90
        3
 70
   128
 43
0.0
 10
0.2450373178464189
 20
0.1915175004400636
 10
0.2518838513123512
 20
0.1964745581525786
 10
0.2573144860668975
 20
0.1978113092503991
  0
LWPOLYLINE
  5
2431
330
2
100
AcDbEntity
  8
Profilo
  6
Continuous
370
     0
100
AcDbPolyline
 90
        9
 70
   128
 43
0.0
 10
0.2429143006496157
 20
0.182623830066494
 10
0.2457468190819401
 20
0.1868734626355016
 10
0.2481862993149604
 20
0.1889980400051135
 10
0.2525149679187187
 20
0.1904924803355062
 10
0.2566077076968188
 20
0.1911211714701818
 10
0.2591266048588028
 20
0.1903334640988258
 10
0.2610947411316604
 20
0.188680092974934
 10
0.2631416067811787
 20
0.186947992474379
 10
0.2635352463428702
 20
0.1865543529126857
  0
LWPOLYLINE
  5
2432
330
2
100
AcDbEntity
  8
Profilo
  6
Continuous
370
     0
100
AcDbPolyline
 90
        5
 70
   128
 43
0.0
 10
0.2362193854154042
 20
0.2017518575127422
 10
0.237556255413661
 20
0.2067102349077467
 10
0.2374763560227407
 20
0.2116689570502615
 10
0.2359798730575871
 20
0.2158409159885986
 10
0.2336967050098191
 20
0.2182814666108495
  0
DIMENSION
  5
2433
102
{ACAD_XDICTIONARY
360
2434
102
}
102
{ACAD_REACTORS
330
2435
102
}
330
2
100
AcDbEntity
  8
Sezione
  6
ACAD_ISO10W100
100
AcDbDimension
  2
*D14
 10
0.1438741711133845
 20
0.108973844282638
 30
0.0
 11
0.2919322052938621
 21
0.2044243815932924
 31
0.0
 70
    35
  1
d 165 mm
 71
     5
 42
0.1599999999999999
  3
Bovelacci
100
AcDbDiametricDimension
 15
0.2735718032624948
 25
0.2026676232378816
 35
0.0
 40
0.0
1001
ACAD
1000
DSTYLE
1002
{
1070
   288
1070
     1
1002
}
  0
ARC
  5
2436
330
2
100
AcDbEntity
  8
Profilo
  6
ACAD_ISO10W100
100
AcDbCircle
 10
0.2004448939816306
 20
0.1781914913734796
 30
0.0
 40
0.0137842795162245
100
AcDbArc
 50
236.9954746161997
 51
342.8236057849565
  0
ARC
  5
2437
330
2
100
AcDbEntity
  8
Profilo
  6
ACAD_ISO10W100
100
AcDbCircle
 10
0.1848890609036584
 20
0.1548607435534286
 30
0.0
 40
0.0137842795162245
100
AcDbArc
 50
308.9954746161995
 51
54.82360578495654
  0
ARC
  5
2438
330
2
100
AcDbEntity
  8
Profilo
  6
ACAD_ISO10W100
100
AcDbCircle
 10
0.2022709038652034
 20
0.1328566695703513
 30
0.0
 40
0.0137842795162245
100
AcDbArc
 50
20.9954746161998
 51
126.8236057849565
  0
ARC
  5
2439
330
2
100
AcDbEntity
  8
Profilo
  6
ACAD_ISO10W100
100
AcDbCircle
 10
0.2285693066805236
 20
0.1425881517778933
 30
0.0
 40
0.0137842795162245
100
AcDbArc
 50
92.99547461619935
 51
198.8236057849566
  0
ARC
  5
243A
330
2
100
AcDbEntity
  8
Profilo
  6
ACAD_ISO10W100
100
AcDbCircle
 10
0.2274407705086825
 20
0.1706066125261463
 30
0.0
 40
0.0137842795162245
100
AcDbArc
 50
164.9954746161993
 51
270.8236057849564
  0
LWPOLYLINE
  5
243B
330
2
100
AcDbEntity
  8
Profilo
  6
ACAD_ISO10W100
100
AcDbPolyline
 90
       20
 70
     0
 43
0.0
 10
0.1819198908817046
 20
0.1900120472219358
 10
0.1823124629460171
 20
0.1903985025124619
 10
0.1815342596634577
 20
0.1916949075673256
 10
0.1797184530027245
 20
0.194417358699089
 10
0.1792024558036251
 20
0.1961389537636092
 10
0.1796451518127586
 20
0.1977761743340886
 10
0.1789368375990019
 20
0.2004311266454435
 10
0.1795123427104468
 20
0.2027320849709181
 10
0.1810617822374163
 20
0.2044578033921807
 10
0.1829211086712077
 20
0.2055197847041348
 10
0.1850017826102794
 20
0.205696781051388
 10
0.18663976153879
 20
0.2051215417928628
 10
0.1884105485710401
 20
0.2040595611265956
 10
0.1902241943215603
 20
0.2037514761272068
 10
0.191288077123982
 20
0.2027763338963097
 10
0.1922994030750522
 20
0.2011586660174794
 10
0.1929479058105183
 20
0.1999919013389647
 10
0.1935584947571849
 20
0.1988101451012826
 10
0.1939347128201065
 20
0.1985281116325048
 10
0.1944676887421033
 20
0.1987161337297943
  0
LWPOLYLINE
  5
243C
330
2
100
AcDbEntity
  8
Profilo
  6
ACAD_ISO10W100
100
AcDbPolyline
 90
       20
 70
     0
 43
0.0
 10
0.1655934264265787
 20
0.1610449922117509
 10
0.1655977516388021
 20
0.1615958477370871
 10
0.1641307820151041
 20
0.1619622717243063
 10
0.160921749155257
 20
0.1626033661778971
 10
0.1593395324921211
 20
0.1634558526039202
 10
0.1584948760744995
 20
0.1649265757216667
 10
0.1561166875076554
 20
0.1663030567209946
 10
0.1548966078393949
 20
0.1683370235230755
 10
0.1547719598378602
 20
0.1706529099177274
 10
0.1553357679804573
 20
0.1727185864346768
 10
0.1566818713148251
 20
0.1743150004038206
 10
0.1582468529031235
 20
0.1750664708311032
 10
0.1602499221522712
 20
0.1755676726190379
 10
0.161750212353384
 20
0.1766322648356512
 10
0.1631920207814528
 20
0.1766950138955426
 10
0.165051000146273
 20
0.1762662654067058
 10
0.1663345880443658
 20
0.1758997988723452
 10
0.1676019674784458
 20
0.1754959226076761
 10
0.1680674216002369
 20
0.1755625211728785
 10
0.1683113407888836
 20
0.176072343761538
  0
LWPOLYLINE
  5
243D
330
2
100
AcDbEntity
  8
Profilo
  6
ACAD_ISO10W100
100
AcDbPolyline
 90
       20
 70
     0
 43
0.0
 10
0.1745316737262636
 20
0.1290176374540247
 10
0.1741452184357375
 20
0.1294102095183373
 10
0.1728488133808738
 20
0.1286320062357779
 10
0.1701263622491104
 20
0.1268161995750446
 10
0.1684047671845902
 20
0.1263002023759453
 10
0.1667675466141109
 20
0.1267428983850788
 10
0.164112594302756
 20
0.1260345841713221
 10
0.1618116359772814
 20
0.126610089282767
 10
0.1600859175560188
 20
0.1281595288097365
 10
0.1590239362440647
 20
0.1300188552435278
 10
0.1588469398968115
 20
0.1320995291825996
 10
0.1594221791553367
 20
0.1337375081111102
 10
0.1604841598216038
 20
0.1355082951433603
 10
0.1607922448209927
 20
0.1373219408938805
 10
0.1617673870518898
 20
0.1383858236963021
 10
0.16338505493072
 20
0.1393971496473724
 10
0.1645518196092348
 20
0.1400456523828385
 10
0.1657335758469169
 20
0.140656241329505
 10
0.1660156093156946
 20
0.1410324593924267
 10
0.1658275872184051
 20
0.1415654353144234
  0
LWPOLYLINE
  5
243E
330
2
100
AcDbEntity
  8
Profilo
  6
ACAD_ISO10W100
100
AcDbPolyline
 90
       20
 70
     0
 43
0.0
 10
0.2034987287364486
 20
0.1126911729988988
 10
0.2029478732111123
 20
0.1126954982111223
 10
0.2025814492238931
 20
0.1112285285874242
 10
0.2019403547703024
 20
0.1080194957275772
 10
0.2010878683442792
 20
0.1064372790644413
 10
0.1996171452265327
 20
0.1055926226468197
 10
0.1982406642272049
 20
0.1032144340799756
 10
0.196206697425124
 20
0.101994354411715
 10
0.193890811030472
 20
0.1018697064101803
 10
0.1918251345135226
 20
0.1024335145527774
 10
0.1902287205443789
 20
0.1037796178871452
 10
0.1894772501170963
 20
0.1053445994754436
 10
0.1889760483291615
 20
0.1073476687245914
 10
0.1879114561125482
 20
0.1088479589257041
 10
0.1878487070526569
 20
0.110289767353773
 10
0.1882774555414937
 20
0.1121487467185932
 10
0.1886439220758542
 20
0.113432334616686
 10
0.1890477983405233
 20
0.114699714050766
 10
0.1889811997753209
 20
0.115165168172557
 10
0.1884713771866615
 20
0.1154090873612038
  0
LWPOLYLINE
  5
243F
330
2
100
AcDbEntity
  8
Profilo
  6
ACAD_ISO10W100
100
AcDbPolyline
 90
       20
 70
     0
 43
0.0
 10
0.2355260834941747
 20
0.1216294202985838
 10
0.2351335114298622
 20
0.1212429650080577
 10
0.2359117147124215
 20
0.119946559953194
 10
0.2377275213731548
 20
0.1172241088214306
 10
0.2382435185722541
 20
0.1155025137569104
 10
0.2378008225631206
 20
0.1138652931864311
 10
0.2385091367768774
 20
0.1112103408750761
 10
0.2379336316654324
 20
0.1089093825496015
 10
0.236384192138463
 20
0.107183664128339
 10
0.2345248657046715
 20
0.1061216828163848
 10
0.2324441917655998
 20
0.1059446864691316
 10
0.2308062128370892
 20
0.1065199257276568
 10
0.2290354258048391
 20
0.107581906393924
 10
0.2272217800543189
 20
0.1078899913933129
 10
0.2261578972518973
 20
0.1088651336242099
 10
0.2251465713008271
 20
0.1104828015030402
 10
0.2244980685653609
 20
0.1116495661815549
 10
0.2238874796186944
 20
0.112831322419237
 10
0.2235112615557727
 20
0.1131133558880148
 10
0.222978285633776
 20
0.1129253337907253
  0
LWPOLYLINE
  5
2440
330
2
100
AcDbEntity
  8
Profilo
  6
ACAD_ISO10W100
100
AcDbPolyline
 90
       20
 70
     0
 43
0.0
 10
0.2518525479493006
 20
0.1505964753087687
 10
0.2518482227370772
 20
0.1500456197834325
 10
0.2533151923607753
 20
0.1496791957962132
 10
0.2565242252206223
 20
0.1490381013426225
 10
0.2581064418837582
 20
0.1481856149165994
 10
0.2589510983013797
 20
0.1467148917988528
 10
0.2613292868682239
 20
0.145338410799525
 10
0.2625493665364845
 20
0.1433044439974441
 10
0.2626740145380192
 20
0.1409885576027922
 10
0.262110206395422
 20
0.1389228810858428
 10
0.2607641030610543
 20
0.137326467116699
 10
0.2591991214727559
 20
0.1365749966894164
 10
0.2571960522236081
 20
0.1360737949014817
 10
0.2556957620224954
 20
0.1350092026848684
 10
0.2542539535944265
 20
0.134946453624977
 10
0.2523949742296063
 20
0.1353752021138138
 10
0.2511113863315135
 20
0.1357416686481744
 10
0.2498440068974335
 20
0.1361455449128435
 10
0.2493785527756424
 20
0.1360789463476411
 10
0.2491346335869957
 20
0.1355691237589817
  0
LWPOLYLINE
  5
2441
330
2
100
AcDbEntity
  8
Profilo
  6
ACAD_ISO10W100
100
AcDbPolyline
 90
       20
 70
     0
 43
0.0
 10
0.2429143006496157
 20
0.1826238300664949
 10
0.2433007559401418
 20
0.1822312580021823
 10
0.2445971609950055
 20
0.1830094612847417
 10
0.2473196121267689
 20
0.1848252679454749
 10
0.2490412071912891
 20
0.1853412651445743
 10
0.2506784277617684
 20
0.1848985691354408
 10
0.2533333800731233
 20
0.1856068833491975
 10
0.2556343383985979
 20
0.1850313782377526
 10
0.2573600568198605
 20
0.1834819387107831
 10
0.2584220381318146
 20
0.1816226122769917
 10
0.2585990344790678
 20
0.17954193833792
 10
0.2580237952205426
 20
0.1779039594094094
 10
0.2569618145542755
 20
0.1761331723771593
 10
0.2566537295548867
 20
0.1743195266266391
 10
0.2556785873239895
 20
0.1732556438242174
 10
0.2540609194451593
 20
0.1722443178731472
 10
0.2528941547666446
 20
0.1715958151376811
 10
0.2517123985289624
 20
0.1709852261910145
 10
0.2514303650601847
 20
0.1706090081280929
 10
0.2516183871574742
 20
0.1700760322060961
  0
LWPOLYLINE
  5
2442
330
2
100
AcDbEntity
  8
Profilo
  6
ACAD_ISO10W100
100
AcDbPolyline
 90
       20
 70
     0
 43
0.0
 10
0.2139472456394308
 20
0.1989502945216207
 10
0.214498101164767
 20
0.1989459693093974
 10
0.2148645251519863
 20
0.2004129389330954
 10
0.215505619605577
 20
0.2036219717929425
 10
0.2163581060316001
 20
0.2052041884560784
 10
0.2178288291493467
 20
0.2060488448736999
 10
0.2192053101486745
 20
0.2084270334405441
 10
0.2212392769507554
 20
0.2096471131088046
 10
0.2235551633454073
 20
0.2097717611103393
 10
0.2256208398623568
 20
0.2092079529677421
 10
0.2272172538315006
 20
0.2078618496333743
 10
0.2279687242587832
 20
0.2062968680450759
 10
0.2284699260467179
 20
0.2042937987959282
 10
0.2295345182633312
 20
0.2027935085948155
 10
0.2295972673232225
 20
0.2013517001667467
 10
0.2291685188343857
 20
0.1994927208019264
 10
0.2288020523000251
 20
0.1982091329038336
 10
0.228398176035356
 20
0.1969417534697536
 10
0.2284647746005585
 20
0.1964762993479626
 10
0.2289745971892179
 20
0.1962323801593158
  0
ENDSEC
  0
SECTION
  2
OBJECTS
  0
DICTIONARY
  5
9
330
0
100
AcDbDictionary
281
     1
  3
ACAD_2007HEADERVARS_RT
350
208
  3
ACAD_COLOR
350
184
  3
ACAD_GROUP
350
17F
  3
ACAD_LAYOUT
350
164
  3
ACAD_MATERIAL
350
B
  3
ACAD_MLINESTYLE
350
180
  3
ACAD_PLOTSETTINGS
350
181
  3
ACAD_PLOTSTYLENAME
350
8
  3
ACAD_TABLESTYLE
350
185
  3
ACAD_VISUALSTYLE
350
17A
  3
ACDBHEADERROUNDTRIPXREC
350
245C
  3
AcDbVariableDictionary
350
18B
  3
DWGPROPS
350
245B
  0
DICTIONARY
  5
16E
330
16D
100
AcDbDictionary
280
     1
281
     1
  3
ACAD_LAYERSTATES
360
16F
  0
DICTIONARY
  5
3
330
2
100
AcDbDictionary
280
     1
281
     1
  3
ACAD_SORTENTS
360
18A
  0
DICTIONARY
  5
245D
330
18
100
AcDbDictionary
280
     1
281
     1
  3
ACAD_MTEXT_RT
360
245E
  0
DICTIONARY
  5
2434
330
2433
100
AcDbDictionary
280
     1
281
     1
  3
ACAD_DIMASSOC
360
2435
  0
DICTIONARY
  5
208
102
{ACAD_REACTORS
330
9
102
}
330
9
100
AcDbDictionary
281
     1
  3
DIMFXL
350
209
  0
DICTIONARY
  5
184
102
{ACAD_REACTORS
330
9
102
}
330
9
100
AcDbDictionary
281
     1
  0
DICTIONARY
  5
17F
102
{ACAD_REACTORS
330
9
102
}
330
9
100
AcDbDictionary
281
     1
  0
DICTIONARY
  5
164
102
{ACAD_REACTORS
330
9
102
}
330
9
100
AcDbDictionary
281
     1
  3
Layout1
350
168
  3
Layout2
350
16C
  3
Model
350
163
  0
DICTIONARY
  5
B
102
{ACAD_REACTORS
330
9
102
}
330
9
100
AcDbDictionary
281
     1
  3
ByBlock
350
183
  3
ByLayer
350
182
  3
Global
350
A
  0
DICTIONARY
  5
180
102
{ACAD_REACTORS
330
9
102
}
330
9
100
AcDbDictionary
281
     1
  3
Standard
350
186
  0
DICTIONARY
  5
181
102
{ACAD_REACTORS
330
9
102
}
330
9
100
AcDbDictionary
281
     1
  0
ACDBDICTIONARYWDFLT
  5
8
102
{ACAD_REACTORS
330
9
102
}
330
9
100
AcDbDictionary
281
     1
  3
Normal
350
7
100
AcDbDictionaryWithDefault
340
7
  0
DICTIONARY
  5
185
102
{ACAD_REACTORS
330
9
102
}
330
9
100
AcDbDictionary
281
     1
  3
Standard
350
187
  0
DICTIONARY
  5
17A
102
{ACAD_REACTORS
330
9
102
}
330
9
100
AcDbDictionary
281
     1
  3
2dWireframe
350
179
  3
3D Hidden
350
1BD
  3
3dWireframe
350
189
  3
Basic
350
1BC
  3
Brighten
350
1C0
  3
ColorChange
350
1C4
  3
Conceptual
350
1BE
  3
Dim
350
1BF
  3
Facepattern
350
1C3
  3
Flat
350
1B8
  3
FlatWithEdges
350
1B9
  3
Gouraud
350
1BA
  3
GouraudWithEdges
350
1BB
  3
Linepattern
350
1C2
  3
Realistic
350
188
  3
Thicken
350
1C1
  0
DICTIONARY
  5
245C
102
{ACAD_REACTORS
330
9
102
}
330
9
100
AcDbDictionary
281
     1
  0
DICTIONARY
  5
18B
102
{ACAD_REACTORS
330
9
102
}
330
9
100
AcDbDictionary
281
     1
  3
CTABLESTYLE
350
18C
  3
DIMASSOC
350
190
  3
HIDETEXT
350
18F
  3
INDEXCTL
350
18E
  3
PROJECTNAME
350
2F9
  3
SORTENTS
350
18D
  0
XRECORD
  5
245B
102
{ACAD_REACTORS
330
9
102
}
330
9
100
AcDbXrecord
280
     1
  1
DWGPROPS COOKIE
  2

  3

  4

  6

  7

  8
Mario
  9

300
=
301
=
302
=
303
=
304
=
305
=
306
=
307
=
308
=
309
=
 40
0.1923707060185185
 41
2454297.625402373
 42
2454311.61482096
  1

 90
        0
  0
DICTIONARY
  5
16F
102
{ACAD_REACTORS
330
16E
102
}
330
16E
100
AcDbDictionary
281
     1
  0
SORTENTSTABLE
  5
18A
102
{ACAD_REACTORS
330
3
102
}
330
3
100
AcDbSortentsTable
330
2
331
18
  5
1C
331
16
  5
12
331
14
  5
10
331
23
  5
24
331
12
  5
16
331
10
  5
14
331
21
  5
22
331
1F
  5
21
331
1D
  5
1E
331
15
  5
11
331
24
  5
18
331
13
  5
D
331
22
  5
23
331
11
  5
15
331
1E
  5
1F
331
D
  5
13
331
1C
  5
1D
  0
XRECORD
  5
245E
102
{ACAD_REACTORS
330
245D
102
}
330
245D
100
AcDbXrecord
280
     1
 40
7955300.0
  1
{\fTimes New Roman|b0|i0|c238|p18;\H1.6x;\C4;Bovelacci\P\pt0.09;\H0.4375x;\T0.95;via del Commercio, 5  47100 Forli - Italy  \fTimes New Roman|b0|i0|c0|p18;\P\fTimes New Roman|b0|i0|c238|p18;tel.+39-0543721386  fax +39-0543721127\fTimes New Roman|b0|i
  1
0|c0|p18; \fTimes New Roman|b0|i0|c238|p18;www.bovelacci.it\fTimes New Roman|b0|i0|c0|p18; \fTimes New Roman|b0|i0|c238|p18;e-mail: bovelacci@bovelacci\fTimes New Roman|b0|i0|c0|p18;.it}
  0
DIMASSOC
  5
2435
102
{ACAD_REACTORS
330
2434
102
}
330
2434
100
AcDbDimAssoc
330
2433
 90
        2
 70
     0
 71
     0
  1
AcDbOsnapPointRef
 72
     3
331
23E0
 73
     2
 91
        0
 40
0.0
 10
0.0
 20
0.0
 30
0.0
 75
     0
  0
XRECORD
  5
209
102
{ACAD_REACTORS
330
208
102
}
330
208
100
AcDbXrecord
280
     1
 40
0.18
  0
LAYOUT
  5
168
102
{ACAD_XDICTIONARY
360
2461
102
}
102
{ACAD_REACTORS
330
164
102
}
330
164
100
AcDbPlotSettings
  1

  2
C:\Documents and Settings\All Users\Dati applicazioni\Autodesk\ADT 2006\enu\Plotters\Default Windows System Printer.pc3
  4

  6

 40
0.0
 41
0.0
 42
0.0
 43
0.0
 44
0.0
 45
0.0
 46
0.0
 47
0.0
 48
0.0
 49
0.0
140
0.0
141
0.0
142
1.0
143
1.0
 70
   688
 72
     0
 73
     0
 74
     5
  7

 75
    16
147
1.0
148
0.0
149
0.0
100
AcDbLayout
  1
Layout1
 70
     1
 71
     1
 10
0.0
 20
0.0
 11
420.0
 21
297.0
 12
0.0
 22
0.0
 32
0.0
 14
1.000000000000000E+20
 24
1.000000000000000E+20
 34
1.000000000000000E+20
 15
-1.000000000000000E+20
 25
-1.000000000000000E+20
 35
-1.000000000000000E+20
146
0.0
 13
0.0
 23
0.0
 33
0.0
 16
1.0
 26
0.0
 36
0.0
 17
0.0
 27
1.0
 37
0.0
 76
     0
330
165
  0
LAYOUT
  5
16C
102
{ACAD_XDICTIONARY
360
2463
102
}
102
{ACAD_REACTORS
330
164
102
}
330
164
100
AcDbPlotSettings
  1

  2
C:\Documents and Settings\All Users\Dati applicazioni\Autodesk\ADT 2006\enu\Plotters\Default Windows System Printer.pc3
  4

  6

 40
0.0
 41
0.0
 42
0.0
 43
0.0
 44
0.0
 45
0.0
 46
0.0
 47
0.0
 48
0.0
 49
0.0
140
0.0
141
0.0
142
1.0
143
1.0
 70
   688
 72
     0
 73
     0
 74
     5
  7

 75
    16
147
1.0
148
0.0
149
0.0
100
AcDbLayout
  1
Layout2
 70
     1
 71
     2
 10
0.0
 20
0.0
 11
12.0
 21
9.0
 12
0.0
 22
0.0
 32
0.0
 14
0.0
 24
0.0
 34
0.0
 15
0.0
 25
0.0
 35
0.0
146
0.0
 13
0.0
 23
0.0
 33
0.0
 16
1.0
 26
0.0
 36
0.0
 17
0.0
 27
1.0
 37
0.0
 76
     0
330
169
  0
LAYOUT
  5
163
102
{ACAD_XDICTIONARY
360
245F
102
}
102
{ACAD_REACTORS
330
164
102
}
330
164
100
AcDbPlotSettings
  1

  2
C:\Documents and Settings\All Users\Dati applicazioni\Autodesk\ADT 2006\enu\Plotters\Default Windows System Printer.pc3
  4

  6

 40
0.0
 41
0.0
 42
0.0
 43
0.0
 44
0.0
 45
0.0
 46
0.0
 47
0.0
 48
0.0
 49
0.0
140
0.0
141
0.0
142
1.0
143
1.0
 70
  1712
 72
     0
 73
     0
 74
     0
  7

 75
     0
147
1.0
148
0.0
149
0.0
100
AcDbLayout
  1
Model
 70
     1
 71
     0
 10
0.0
 20
0.0
 11
12.0
 21
9.0
 12
0.0
 22
0.0
 32
0.0
 14
0.0
 24
0.0
 34
0.0
 15
0.0
 25
0.0
 35
0.0
146
0.0
 13
0.0
 23
0.0
 33
0.0
 16
1.0
 26
0.0
 36
0.0
 17
0.0
 27
1.0
 37
0.0
 76
     0
330
2
  0
MATERIAL
  5
183
102
{ACAD_XDICTIONARY
360
1B0
102
}
102
{ACAD_REACTORS
330
B
102
}
330
B
100
AcDbMaterial
  1
ByBlock
  0
MATERIAL
  5
182
102
{ACAD_XDICTIONARY
360
1AE
102
}
102
{ACAD_REACTORS
330
B
102
}
330
B
100
AcDbMaterial
  1
ByLayer
  0
MATERIAL
  5
A
102
{ACAD_XDICTIONARY
360
193
102
}
102
{ACAD_REACTORS
330
B
102
}
330
B
100
AcDbMaterial
  1
Global
  0
MLINESTYLE
  5
186
102
{ACAD_REACTORS
330
180
102
}
330
180
100
AcDbMlineStyle
  2
STANDARD
 70
     0
  3

 62
   256
 51
90.0
 52
90.0
 71
     2
 49
0.5
 62
   256
  6
BYLAYER
 49
-0.5
 62
   256
  6
BYLAYER
  0
ACDBPLACEHOLDER
  5
7
102
{ACAD_REACTORS
330
8
102
}
330
8
  0
TABLESTYLE
  5
187
102
{ACAD_XDICTIONARY
360
21A
102
}
102
{ACAD_REACTORS
330
185
102
}
330
185
100
AcDbTableStyle
  3
Standard
 70
     0
 71
     0
 40
1.5
 41
1.5
280
     0
281
     0
  7
Standard
140
4.5
170
     2
 62
     0
 63
     7
283
     0
274
    -2
284
     1
 64
     0
275
    -2
285
     1
 65
     0
276
    -2
286
     1
 66
     0
277
    -2
287
     1
 67
     0
278
    -2
288
     1
 68
     0
279
    -2
289
     1
 69
     0
  7
Standard
140
6.0
170
     5
 62
     0
 63
     7
283
     0
274
    -2
284
     1
 64
     0
275
    -2
285
     1
 65
     0
276
    -2
286
     1
 66
     0
277
    -2
287
     1
 67
     0
278
    -2
288
     1
 68
     0
279
    -2
289
     1
 69
     0
  7
Standard
140
4.5
170
     5
 62
     0
 63
     7
283
     0
274
    -2
284
     1
 64
     0
275
    -2
285
     1
 65
     0
276
    -2
286
     1
 66
     0
277
    -2
287
     1
 67
     0
278
    -2
288
     1
 68
     0
279
    -2
289
     1
 69
     0
  0
VISUALSTYLE
  5
179
102
{ACAD_REACTORS
330
17A
102
}
330
17A
100
AcDbVisualStyle
  2
2dWireframe
 70
     4
 71
     0
 72
     2
 73
     0
 90
        0
 40
-0.6
 41
-30.0
 62
     5
 63
     7
 74
     1
 91
        4
 64
     7
 65
   257
 75
     1
175
     1
 42
1.0
 92
        0
 66
   257
 43
1.0
 76
     1
 77
     6
 78
     2
 67
     7
 79
     5
170
     0
171
     0
290
     0
174
     0
 93
        1
 44
0.0
173
     0
291
     0
 45
0.0
1001
ACAD
1000
AcDbSavedByObjectVersion
1070
     0
1000
AcDbSavedByObjectVersion
1070
     0
1000
AcDbSavedByObjectVersion
1070
     0
1001
ACAD
1000
AcRTDxfName
1000
VISUALSTYLE
  0
VISUALSTYLE
  5
1BD
102
{ACAD_REACTORS
330
17A
102
}
330
17A
100
AcDbVisualStyle
  2
3D Hidden
 70
     6
 71
     1
 72
     2
 73
     2
 90
        0
 40
-0.6
 41
-30.0
 62
     5
 63
     7
 74
     2
 91
        2
 64
     7
 65
   257
 75
     2
175
     1
 42
40.0
 92
        0
 66
   257
 43
1.0
 76
     1
 77
     6
 78
     2
 67
     7
 79
     3
170
     0
171
     0
290
     0
174
     0
 93
        1
 44
0.0
173
     0
291
     0
 45
0.0
1001
ACAD
1000
AcDbSavedByObjectVersion
1070
     0
1000
AcDbSavedByObjectVersion
1070
     0
1001
ACAD
1000
AcRTDxfName
1000
VISUALSTYLE
  0
VISUALSTYLE
  5
189
102
{ACAD_REACTORS
330
17A
102
}
330
17A
100
AcDbVisualStyle
  2
3dWireframe
 70
     5
 71
     0
 72
     2
 73
     0
 90
        0
 40
-0.6
 41
-30.0
 62
     5
 63
     7
 74
     1
 91
        4
 64
     7
 65
   257
 75
     1
175
     1
 42
1.0
 92
        0
 66
   257
 43
1.0
 76
     1
 77
     6
 78
     2
 67
     7
 79
     5
170
     0
171
     0
290
     0
174
     0
 93
        1
 44
0.0
173
     0
291
     0
 45
0.0
1001
ACAD
1000
AcDbSavedByObjectVersion
1070
     0
1000
AcDbSavedByObjectVersion
1070
     0
1000
AcDbSavedByObjectVersion
1070
     0
1001
ACAD
1000
AcRTDxfName
1000
VISUALSTYLE
  0
VISUALSTYLE
  5
1BC
102
{ACAD_REACTORS
330
17A
102
}
330
17A
100
AcDbVisualStyle
  2
Basic
 70
     7
 71
     1
 72
     0
 73
     1
 90
        0
 40
-0.6
 41
-30.0
 62
     5
 63
     7
 74
     0
 91
        4
 64
     7
 65
   257
 75
     1
175
     1
 42
1.0
 92
        8
 66
     7
 43
1.0
 76
     1
 77
     6
 78
     2
 67
     7
 79
     5
170
     0
171
     0
290
     0
174
     0
 93
        1
 44
0.0
173
     0
291
     1
 45
0.0
1001
ACAD
1000
AcDbSavedByObjectVersion
1070
     0
1000
AcDbSavedByObjectVersion
1070
     0
1001
ACAD
1000
AcRTDxfName
1000
VISUALSTYLE
  0
VISUALSTYLE
  5
1C0
102
{ACAD_REACTORS
330
17A
102
}
330
17A
100
AcDbVisualStyle
  2
Brighten
 70
    12
 71
     2
 72
     2
 73
     0
 90
        0
 40
-0.6
 41
-30.0
 62
     5
 63
     7
 74
     1
 91
        4
 64
     7
 65
   257
 75
     1
175
     1
 42
1.0
 92
        8
 66
     7
 43
1.0
 76
     1
 77
     6
 78
     2
 67
     7
 79
     5
170
     0
171
     0
290
     0
174
     0
 93
        1
 44
50.0
173
     0
291
     1
 45
0.0
1001
ACAD
1000
AcDbSavedByObjectVersion
1070
     0
1000
AcDbSavedByObjectVersion
1070
     0
1001
ACAD
1000
AcRTDxfName
1000
VISUALSTYLE
  0
VISUALSTYLE
  5
1C4
102
{ACAD_REACTORS
330
17A
102
}
330
17A
100
AcDbVisualStyle
  2
ColorChange
 70
    16
 71
     2
 72
     2
 73
     3
 90
        0
 40
-0.6
 41
-30.0
 62
     5
 63
     8
 74
     1
 91
        4
 64
     7
 65
   257
 75
     1
175
     1
 42
1.0
 92
        8
 66
     8
 43
1.0
 76
     1
 77
     6
 78
     2
 67
     7
 79
     5
170
     0
171
     0
290
     0
174
     0
 93
        1
 44
0.0
173
     0
291
     1
 45
0.0
1001
ACAD
1000
AcDbSavedByObjectVersion
1070
     0
1000
AcDbSavedByObjectVersion
1070
     0
1001
ACAD
1000
AcRTDxfName
1000
VISUALSTYLE
  0
VISUALSTYLE
  5
1BE
102
{ACAD_REACTORS
330
17A
102
}
330
17A
100
AcDbVisualStyle
  2
Conceptual
 70
     9
 71
     3
 72
     2
 73
     0
 90
        0
 40
-0.6
 41
-30.0
 62
     5
 63
     7
 74
     2
 91
        2
 64
     7
 65
   257
 75
     1
175
     1
 42
40.0
 92
        8
 66
     7
 43
1.0
 76
     1
 77
     6
 78
     2
 67
     7
 79
     3
170
     0
171
     0
290
     0
174
     0
 93
        1
 44
0.0
173
     0
291
     0
 45
0.0
1001
ACAD
1000
AcDbSavedByObjectVersion
1070
     0
1000
AcDbSavedByObjectVersion
1070
     0
1001
ACAD
1000
AcRTDxfName
1000
VISUALSTYLE
  0
VISUALSTYLE
  5
1BF
102
{ACAD_REACTORS
330
17A
102
}
330
17A
100
AcDbVisualStyle
  2
Dim
 70
    11
 71
     2
 72
     2
 73
     0
 90
        0
 40
-0.6
 41
-30.0
 62
     5
 63
     7
 74
     1
 91
        4
 64
     7
 65
   257
 75
     1
175
     1
 42
1.0
 92
        8
 66
     7
 43
1.0
 76
     1
 77
     6
 78
     2
 67
     7
 79
     5
170
     0
171
     0
290
     0
174
     0
 93
        1
 44
-50.0
173
     0
291
     1
 45
0.0
1001
ACAD
1000
AcDbSavedByObjectVersion
1070
     0
1000
AcDbSavedByObjectVersion
1070
     0
1001
ACAD
1000
AcRTDxfName
1000
VISUALSTYLE
  0
VISUALSTYLE
  5
1C3
102
{ACAD_REACTORS
330
17A
102
}
330
17A
100
AcDbVisualStyle
  2
Facepattern
 70
    15
 71
     2
 72
     2
 73
     0
 90
        0
 40
-0.6
 41
-30.0
 62
     5
 63
     7
 74
     1
 91
        4
 64
     7
 65
   257
 75
     1
175
     1
 42
1.0
 92
        8
 66
     7
 43
1.0
 76
     1
 77
     6
 78
     2
 67
     7
 79
     5
170
     0
171
     0
290
     0
174
     0
 93
        1
 44
0.0
173
     0
291
     1
 45
0.0
1001
ACAD
1000
AcDbSavedByObjectVersion
1070
     0
1000
AcDbSavedByObjectVersion
1070
     0
1001
ACAD
1000
AcRTDxfName
1000
VISUALSTYLE
  0
VISUALSTYLE
  5
1B8
102
{ACAD_REACTORS
330
17A
102
}
330
17A
100
AcDbVisualStyle
  2
Flat
 70
     0
 71
     2
 72
     1
 73
     1
 90
        2
 40
-0.6
 41
30.0
 62
     5
 63
     7
 74
     0
 91
        4
 64
     7
 65
   257
 75
     1
175
     1
 42
1.0
 92
        8
 66
     7
 43
1.0
 76
     1
 77
     6
 78
     2
 67
     7
 79
     5
170
     0
171
     0
290
     0
174
     0
 93
       13
 44
0.0
173
     0
291
     1
 45
0.0
1001
ACAD
1000
AcDbSavedByObjectVersion
1070
     0
1000
AcDbSavedByObjectVersion
1070
     0
1001
ACAD
1000
AcRTDxfName
1000
VISUALSTYLE
  0
VISUALSTYLE
  5
1B9
102
{ACAD_REACTORS
330
17A
102
}
330
17A
100
AcDbVisualStyle
  2
FlatWithEdges
 70
     1
 71
     2
 72
     1
 73
     1
 90
        2
 40
-0.6
 41
30.0
 62
     5
 63
     7
 74
     1
 91
        4
 64
     7
 65
   257
 75
     1
175
     1
 42
1.0
 92
        0
 66
   257
 43
1.0
 76
     1
 77
     6
 78
     2
 67
     7
 79
     5
170
     0
171
     0
290
     0
174
     0
 93
       13
 44
0.0
173
     0
291
     1
 45
0.0
1001
ACAD
1000
AcDbSavedByObjectVersion
1070
     0
1000
AcDbSavedByObjectVersion
1070
     0
1001
ACAD
1000
AcRTDxfName
1000
VISUALSTYLE
  0
VISUALSTYLE
  5
1BA
102
{ACAD_REACTORS
330
17A
102
}
330
17A
100
AcDbVisualStyle
  2
Gouraud
 70
     2
 71
     2
 72
     2
 73
     1
 90
        2
 40
-0.6
 41
30.0
 62
     5
 63
     7
 74
     0
 91
        4
 64
     7
 65
   257
 75
     1
175
     1
 42
1.0
 92
        0
 66
     7
 43
1.0
 76
     1
 77
     6
 78
     2
 67
     7
 79
     5
170
     0
171
     0
290
     0
174
     0
 93
       13
 44
0.0
173
     0
291
     1
 45
0.0
1001
ACAD
1000
AcDbSavedByObjectVersion
1070
     0
1000
AcDbSavedByObjectVersion
1070
     0
1001
ACAD
1000
AcRTDxfName
1000
VISUALSTYLE
  0
VISUALSTYLE
  5
1BB
102
{ACAD_REACTORS
330
17A
102
}
330
17A
100
AcDbVisualStyle
  2
GouraudWithEdges
 70
     3
 71
     2
 72
     2
 73
     1
 90
        2
 40
-0.6
 41
30.0
 62
     5
 63
     7
 74
     1
 91
        4
 64
     7
 65
   257
 75
     1
175
     1
 42
1.0
 92
        0
 66
   257
 43
1.0
 76
     1
 77
     6
 78
     2
 67
     7
 79
     5
170
     0
171
     0
290
     0
174
     0
 93
       13
 44
0.0
173
     0
291
     1
 45
0.0
1001
ACAD
1000
AcDbSavedByObjectVersion
1070
     0
1000
AcDbSavedByObjectVersion
1070
     0
1001
ACAD
1000
AcRTDxfName
1000
VISUALSTYLE
  0
VISUALSTYLE
  5
1C2
102
{ACAD_REACTORS
330
17A
102
}
330
17A
100
AcDbVisualStyle
  2
Linepattern
 70
    14
 71
     2
 72
     2
 73
     0
 90
        0
 40
-0.6
 41
-30.0
 62
     5
 63
     7
 74
     1
 91
        4
 64
     7
 65
   257
 75
     7
175
     7
 42
1.0
 92
        8
 66
     7
 43
1.0
 76
     1
 77
     6
 78
     2
 67
     7
 79
     5
170
     0
171
     0
290
     0
174
     0
 93
        1
 44
0.0
173
     0
291
     1
 45
0.0
1001
ACAD
1000
AcDbSavedByObjectVersion
1070
     0
1000
AcDbSavedByObjectVersion
1070
     0
1001
ACAD
1000
AcRTDxfName
1000
VISUALSTYLE
  0
VISUALSTYLE
  5
188
102
{ACAD_REACTORS
330
17A
102
}
330
17A
100
AcDbVisualStyle
  2
Realistic
 70
     8
 71
     2
 72
     2
 73
     0
 90
        0
 40
-0.6
 41
-30.0
 62
     5
 63
     7
 74
     1
 91
        0
 64
     7
 65
   257
 75
     1
175
     1
 42
1.0
 92
        8
 66
     8
 43
1.0
 76
     1
 77
     6
 78
     2
 67
     7
 79
     5
170
     0
171
     0
290
     0
174
     0
 93
       13
 44
0.0
173
     0
291
     0
 45
0.0
1001
ACAD
1000
AcDbSavedByObjectVersion
1070
     0
1000
AcDbSavedByObjectVersion
1070
     0
1000
AcDbSavedByObjectVersion
1070
     0
1001
ACAD
1000
AcRTDxfName
1000
VISUALSTYLE
  0
VISUALSTYLE
  5
1C1
102
{ACAD_REACTORS
330
17A
102
}
330
17A
100
AcDbVisualStyle
  2
Thicken
 70
    13
 71
     2
 72
     2
 73
     0
 90
        0
 40
-0.6
 41
-30.0
 62
     5
 63
     7
 74
     1
 91
        4
 64
     7
 65
   257
 75
     1
175
     1
 42
1.0
 92
       12
 66
     7
 43
1.0
 76
     1
 77
     6
 78
     2
 67
     7
 79
     5
170
     0
171
     0
290
     0
174
     0
 93
        1
 44
0.0
173
     0
291
     1
 45
0.0
1001
ACAD
1000
AcDbSavedByObjectVersion
1070
     0
1000
AcDbSavedByObjectVersion
1070
     0
1001
ACAD
1000
AcRTDxfName
1000
VISUALSTYLE
  0
DICTIONARYVAR
  5
18C
102
{ACAD_REACTORS
330
18B
102
}
330
18B
100
DictionaryVariables
280
     0
  1
STANDARD
  0
DICTIONARYVAR
  5
190
102
{ACAD_REACTORS
330
18B
102
}
330
18B
100
DictionaryVariables
280
     0
  1
2
  0
DICTIONARYVAR
  5
18F
102
{ACAD_REACTORS
330
18B
102
}
330
18B
100
DictionaryVariables
280
     0
  1
1
  0
DICTIONARYVAR
  5
18E
102
{ACAD_REACTORS
330
18B
102
}
330
18B
100
DictionaryVariables
280
     0
  1
0
  0
DICTIONARYVAR
  5
2F9
102
{ACAD_REACTORS
330
18B
102
}
330
18B
100
DictionaryVariables
280
     0
  1

  0
DICTIONARYVAR
  5
18D
102
{ACAD_REACTORS
330
18B
102
}
330
18B
100
DictionaryVariables
280
     0
  1
127
  0
DICTIONARY
  5
2461
330
168
100
AcDbDictionary
280
     1
281
     1
  3
ACAD_XREC_ROUNDTRIP
360
2462
  0
DICTIONARY
  5
2463
330
16C
100
AcDbDictionary
280
     1
281
     1
  3
ACAD_XREC_ROUNDTRIP
360
2464
  0
DICTIONARY
  5
245F
330
163
100
AcDbDictionary
280
     1
281
     1
  3
ACAD_XREC_ROUNDTRIP
360
2460
  0
DICTIONARY
  5
1B0
330
183
100
AcDbDictionary
280
     1
281
     1
  3
ACAD_XREC_ROUNDTRIP
360
1B1
  0
DICTIONARY
  5
1AE
330
182
100
AcDbDictionary
280
     1
281
     1
  3
ACAD_XREC_ROUNDTRIP
360
1AF
  0
DICTIONARY
  5
193
330
A
100
AcDbDictionary
280
     1
281
     1
  3
ACAD_XREC_ROUNDTRIP
360
194
  0
DICTIONARY
  5
21A
330
187
100
AcDbDictionary
280
     1
281
     1
  3
ACAD_XREC_ROUNDTRIP
360
21B
  0
XRECORD
  5
2462
102
{ACAD_REACTORS
330
2461
102
}
330
2461
100
AcDbXrecord
280
     1
102
SHADEPLOT
 70
     0
102
SHADEPLOTRESLEVEL
 70
     2
102
SHADEPLOTCUSTOMDPI
 70
   300
  0
XRECORD
  5
2464
102
{ACAD_REACTORS
330
2463
102
}
330
2463
100
AcDbXrecord
280
     1
102
SHADEPLOT
 70
     0
102
SHADEPLOTRESLEVEL
 70
     2
102
SHADEPLOTCUSTOMDPI
 70
   300
  0
XRECORD
  5
2460
102
{ACAD_REACTORS
330
245F
102
}
330
245F
100
AcDbXrecord
280
     1
102
SHADEPLOT
 70
     0
102
SHADEPLOTRESLEVEL
 70
     2
102
SHADEPLOTCUSTOMDPI
 70
   300
  0
XRECORD
  5
1B1
102
{ACAD_REACTORS
330
1B0
102
}
330
1B0
100
AcDbXrecord
280
     1
102
MATERIAL
148
0.0
149
0.0
149
0.0
 93
        0
 94
       63
282
     0
 72
     1
 77
     1
171
     1
175
     1
179
     1
273
     0
  0
XRECORD
  5
1AF
102
{ACAD_REACTORS
330
1AE
102
}
330
1AE
100
AcDbXrecord
280
     1
102
MATERIAL
148
0.0
149
0.0
149
0.0
 93
        0
 94
       63
282
     0
 72
     1
 77
     1
171
     1
175
     1
179
     1
273
     0
  0
XRECORD
  5
194
102
{ACAD_REACTORS
330
193
102
}
330
193
100
AcDbXrecord
280
     1
102
MATERIAL
148
0.0
149
0.0
149
0.0
 93
        0
 94
       63
282
     0
 72
     1
 77
     1
171
     1
175
     1
179
     1
273
     0
  0
XRECORD
  5
21B
102
{ACAD_REACTORS
330
21A
102
}
330
21A
100
AcDbXrecord
280
     1
102
ACAD_ROUNDTRIP_PRE2007_TABLESTYLE
 90
        4
 91
        0
  1

 92
        4
 93
        0
  2

 94
        4
 95
        0
  3

  0
ENDSEC
  0
EOF
