  0
SECTION
  2
HEADER
  9
$ACADVER
  1
AC1015
  9
$ACADMAINTVER
 70
    20
  9
$DWGCODEPAGE
  3
ANSI_1252
  9
$INSBASE
 10
0.0
 20
0.0
 30
0.0
  9
$EXTMIN
 10
0.0149999999999999
 20
-0.026210188131048
 30
0.0
  9
$EXTMAX
 10
0.8515178529016747
 20
0.4528755680297306
 30
0.0
  9
$LIMMIN
 10
0.0
 20
0.0
  9
$LIMMAX
 10
1.0
 20
0.5
  9
$ORTHOMODE
 70
     0
  9
$REGENMODE
 70
     1
  9
$FILLMODE
 70
     1
  9
$QTEXTMODE
 70
     0
  9
$MIRRTEXT
 70
     0
  9
$LTSCALE
 40
1.0
  9
$ATTMODE
 70
     1
  9
$TEXTSIZE
 40
0.008
  9
$TRACEWID
 40
1.0
  9
$TEXTSTYLE
  7
style1
  9
$CLAYER
  8
Text
  9
$CELTYPE
  6
ACAD_ISO10W100
  9
$CECOLOR
 62
   256
  9
$CELTSCALE
 40
1.0
  9
$DISPSILH
 70
     0
  9
$DIMSCALE
 40
0.001
  9
$DIMASZ
 40
1.5
  9
$DIMEXO
 40
0.0625
  9
$DIMDLI
 40
0.38
  9
$DIMRND
 40
0.0
  9
$DIMDLE
 40
0.0
  9
$DIMEXE
 40
0.18
  9
$DIMTP
 40
0.0
  9
$DIMTM
 40
0.0
  9
$DIMTXT
 40
3.0
  9
$DIMCEN
 40
0.0
  9
$DIMTSZ
 40
0.0
  9
$DIMTOL
 70
     0
  9
$DIMLIM
 70
     0
  9
$DIMTIH
 70
     1
  9
$DIMTOH
 70
     1
  9
$DIMSE1
 70
     0
  9
$DIMSE2
 70
     0
  9
$DIMTAD
 70
     0
  9
$DIMZIN
 70
     0
  9
$DIMBLK
  1
ArchTick
  9
$DIMASO
 70
     1
  9
$DIMSHO
 70
     1
  9
$DIMPOST
  1

  9
$DIMAPOST
  1

  9
$DIMALT
 70
     0
  9
$DIMALTD
 70
     2
  9
$DIMALTF
 40
25.4
  9
$DIMLFAC
 40
1.0
  9
$DIMTOFL
 70
     0
  9
$DIMTVP
 40
0.0
  9
$DIMTIX
 70
     0
  9
$DIMSOXD
 70
     0
  9
$DIMSAH
 70
     0
  9
$DIMBLK1
  1

  9
$DIMBLK2
  1

  9
$DIMSTYLE
  2
Bovelacci
  9
$DIMCLRD
 70
     5
  9
$DIMCLRE
 70
     5
  9
$DIMCLRT
 70
     4
  9
$DIMTFAC
 40
1.0
  9
$DIMGAP
 40
2.0
  9
$DIMJUST
 70
     0
  9
$DIMSD1
 70
     0
  9
$DIMSD2
 70
     0
  9
$DIMTOLJ
 70
     1
  9
$DIMTZIN
 70
     0
  9
$DIMALTZ
 70
     0
  9
$DIMALTTZ
 70
     0
  9
$DIMUPT
 70
     0
  9
$DIMDEC
 70
     2
  9
$DIMTDEC
 70
     2
  9
$DIMALTU
 70
     2
  9
$DIMALTTD
 70
     2
  9
$DIMTXSTY
  7
ROMANS
  9
$DIMAUNIT
 70
     0
  9
$DIMADEC
 70
     0
  9
$DIMALTRND
 40
0.0
  9
$DIMAZIN
 70
     0
  9
$DIMDSEP
 70
    46
  9
$DIMATFIT
 70
     3
  9
$DIMFRAC
 70
     0
  9
$DIMLDRBLK
  1

  9
$DIMLUNIT
 70
     2
  9
$DIMLWD
 70
    -2
  9
$DIMLWE
 70
    -2
  9
$DIMTMOVE
 70
     2
  9
$LUNITS
 70
     2
  9
$LUPREC
 70
     2
  9
$SKETCHINC
 40
1.0
  9
$FILLETRAD
 40
0.0
  9
$AUNITS
 70
     0
  9
$AUPREC
 70
     0
  9
$MENU
  1
.
  9
$ELEVATION
 40
0.0
  9
$PELEVATION
 40
0.0
  9
$THICKNESS
 40
0.0
  9
$LIMCHECK
 70
     0
  9
$CHAMFERA
 40
0.0
  9
$CHAMFERB
 40
0.0
  9
$CHAMFERC
 40
0.0
  9
$CHAMFERD
 40
0.0
  9
$SKPOLY
 70
     0
  9
$TDCREATE
 40
2454297.625402373
  9
$TDUCREATE
 40
2454297.542069039
  9
$TDUPDATE
 40
2454305.948456667
  9
$TDUUPDATE
 40
2454305.865123334
  9
$TDINDWG
 40
0.1166019329
  9
$TDUSRTIMER
 40
0.1165999306
  9
$USRTIMER
 70
     1
  9
$ANGBASE
 50
0.0
  9
$ANGDIR
 70
     0
  9
$PDMODE
 70
     0
  9
$PDSIZE
 40
0.0
  9
$PLINEWID
 40
0.0
  9
$SPLFRAME
 70
     0
  9
$SPLINETYPE
 70
     6
  9
$SPLINESEGS
 70
     8
  9
$HANDSEED
  5
8D4
  9
$SURFTAB1
 70
     6
  9
$SURFTAB2
 70
     6
  9
$SURFTYPE
 70
     6
  9
$SURFU
 70
     6
  9
$SURFV
 70
     6
  9
$UCSBASE
  2

  9
$UCSNAME
  2

  9
$UCSORG
 10
0.0
 20
0.0
 30
0.0
  9
$UCSXDIR
 10
1.0
 20
0.0
 30
0.0
  9
$UCSYDIR
 10
0.0
 20
1.0
 30
0.0
  9
$UCSORTHOREF
  2

  9
$UCSORTHOVIEW
 70
     0
  9
$UCSORGTOP
 10
0.0
 20
0.0
 30
0.0
  9
$UCSORGBOTTOM
 10
0.0
 20
0.0
 30
0.0
  9
$UCSORGLEFT
 10
0.0
 20
0.0
 30
0.0
  9
$UCSORGRIGHT
 10
0.0
 20
0.0
 30
0.0
  9
$UCSORGFRONT
 10
0.0
 20
0.0
 30
0.0
  9
$UCSORGBACK
 10
0.0
 20
0.0
 30
0.0
  9
$PUCSBASE
  2

  9
$PUCSNAME
  2

  9
$PUCSORG
 10
0.0
 20
0.0
 30
0.0
  9
$PUCSXDIR
 10
1.0
 20
0.0
 30
0.0
  9
$PUCSYDIR
 10
0.0
 20
1.0
 30
0.0
  9
$PUCSORTHOREF
  2

  9
$PUCSORTHOVIEW
 70
     0
  9
$PUCSORGTOP
 10
0.0
 20
0.0
 30
0.0
  9
$PUCSORGBOTTOM
 10
0.0
 20
0.0
 30
0.0
  9
$PUCSORGLEFT
 10
0.0
 20
0.0
 30
0.0
  9
$PUCSORGRIGHT
 10
0.0
 20
0.0
 30
0.0
  9
$PUCSORGFRONT
 10
0.0
 20
0.0
 30
0.0
  9
$PUCSORGBACK
 10
0.0
 20
0.0
 30
0.0
  9
$USERI1
 70
     0
  9
$USERI2
 70
     0
  9
$USERI3
 70
     0
  9
$USERI4
 70
     0
  9
$USERI5
 70
     0
  9
$USERR1
 40
0.0
  9
$USERR2
 40
0.0
  9
$USERR3
 40
0.0
  9
$USERR4
 40
0.0
  9
$USERR5
 40
0.0
  9
$WORLDVIEW
 70
     1
  9
$SHADEDGE
 70
     3
  9
$SHADEDIF
 70
    70
  9
$TILEMODE
 70
     1
  9
$MAXACTVP
 70
    64
  9
$PINSBASE
 10
0.0
 20
0.0
 30
0.0
  9
$PLIMCHECK
 70
     0
  9
$PEXTMIN
 10
1.000000000000000E+20
 20
1.000000000000000E+20
 30
1.000000000000000E+20
  9
$PEXTMAX
 10
-1.000000000000000E+20
 20
-1.000000000000000E+20
 30
-1.000000000000000E+20
  9
$PLIMMIN
 10
0.0
 20
0.0
  9
$PLIMMAX
 10
420.0
 20
297.0
  9
$UNITMODE
 70
     0
  9
$VISRETAIN
 70
     1
  9
$PLINEGEN
 70
     0
  9
$PSLTSCALE
 70
     1
  9
$TREEDEPTH
 70
  3020
  9
$CMLSTYLE
  2
Standard
  9
$CMLJUST
 70
     0
  9
$CMLSCALE
 40
20.0
  9
$PROXYGRAPHICS
 70
     1
  9
$MEASUREMENT
 70
     1
  9
$CELWEIGHT
370
    -1
  9
$ENDCAPS
280
     0
  9
$JOINSTYLE
280
     0
  9
$LWDISPLAY
290
     0
  9
$INSUNITS
 70
     4
  9
$HYPERLINKBASE
  1

  9
$STYLESHEET
  1

  9
$XEDIT
290
     1
  9
$CEPSNTYPE
380
     0
  9
$PSTYLEMODE
290
     1
  9
$FINGERPRINTGUID
  2
{904A8C64-524F-4709-A9C6-320D2C273A6D}
  9
$VERSIONGUID
  2
{9DD373A1-C065-44DE-B7F3-ABF3115723DC}
  9
$EXTNAMES
290
     1
  9
$PSVPSCALE
 40
0.0
  9
$OLESTARTUP
290
     0
  0
ENDSEC
  0
SECTION
  2
CLASSES
  0
CLASS
  1
ACDBDICTIONARYWDFLT
  2
AcDbDictionaryWithDefault
  3
ObjectDBX Classes
 90
        0
280
     0
281
     0
  0
CLASS
  1
TABLESTYLE
  2
AcDbTableStyle
  3
ObjectDBX Classes
 90
     2047
280
     0
281
     0
  0
CLASS
  1
SORTENTSTABLE
  2
AcDbSortentsTable
  3
ObjectDBX Classes
 90
        0
280
     0
281
     0
  0
CLASS
  1
DICTIONARYVAR
  2
AcDbDictionaryVar
  3
ObjectDBX Classes
 90
        0
280
     0
281
     0
  0
CLASS
  1
ACDBPLACEHOLDER
  2
AcDbPlaceHolder
  3
ObjectDBX Classes
 90
        0
280
     0
281
     0
  0
CLASS
  1
LAYOUT
  2
AcDbLayout
  3
ObjectDBX Classes
 90
        0
280
     0
281
     0
  0
CLASS
  1
DIMASSOC
  2
AcDbDimAssoc
  3
"AcDbDimAssoc|Product Desc:     AcDim ARX App For Dimension|Company:          Autodesk, Inc.|WEB Address:      www.autodesk.com"
 90
        0
280
     0
281
     0
  0
CLASS
  1
MATERIAL
  2
AcDbMaterial
  3
ObjectDBX Classes
 90
        0
280
     0
281
     0
  0
CLASS
  1
VISUALSTYLE
  2
AcDbVisualStyle
  3
ObjectDBX Classes
 90
     4095
280
     0
281
     0
  0
ENDSEC
  0
SECTION
  2
TABLES
  0
TABLE
  2
VPORT
  5
177
330
0
100
AcDbSymbolTable
 70
    15
  0
VPORT
  5
8C9
330
177
100
AcDbSymbolTableRecord
100
AcDbViewportTableRecord
  2
*Active
 70
     0
 10
0.0
 20
0.0
 11
1.0
 21
1.0
 12
0.2061677688475342
 22
0.1492684482249025
 13
0.0
 23
0.0
 14
10.0
 24
10.0
 15
10.0
 25
10.0
 16
0.0
 26
0.0
 36
1.0
 17
0.0
 27
0.0
 37
0.0
 40
0.274351646861186
 41
1.546526867627784
 42
50.0
 43
0.0
 44
0.0
 50
0.0
 51
0.0
 71
     0
 72
  1000
 73
     1
 74
     3
 75
     0
 76
     0
 77
     0
 78
     0
281
     0
 65
     1
110
0.0
120
0.0
130
0.0
111
1.0
121
0.0
131
0.0
112
0.0
122
1.0
132
0.0
 79
     0
146
0.0
  0
ENDTAB
  0
TABLE
  2
LTYPE
  5
172
330
0
100
AcDbSymbolTable
 70
     3
  0
LTYPE
  5
173
330
172
100
AcDbSymbolTableRecord
100
AcDbLinetypeTableRecord
  2
ByBlock
 70
     0
  3

 72
    65
 73
     0
 40
0.0
  0
LTYPE
  5
174
330
172
100
AcDbSymbolTableRecord
100
AcDbLinetypeTableRecord
  2
ByLayer
 70
     0
  3

 72
    65
 73
     0
 40
0.0
  0
LTYPE
  5
C
330
172
100
AcDbSymbolTableRecord
100
AcDbLinetypeTableRecord
  2
Continuous
 70
     0
  3
Solid line
 72
    65
 73
     0
 40
0.0
  0
LTYPE
  5
14E
330
172
100
AcDbSymbolTableRecord
100
AcDbLinetypeTableRecord
  2
ACAD_ISO10W100
 70
     0
  3
ISO dash dot __ . __ . __ . __ . __ . __ . __ .
 72
    65
 73
     4
 40
18.0
 49
12.0
 74
     0
 49
-3.0
 74
     0
 49
0.0
 74
     0
 49
-3.0
 74
     0
  0
ENDTAB
  0
TABLE
  2
LAYER
  5
16D
102
{ACAD_XDICTIONARY
360
16E
102
}
330
0
100
AcDbSymbolTable
 70
     7
  0
LAYER
  5
6
330
16D
100
AcDbSymbolTableRecord
100
AcDbLayerTableRecord
  2
0
 70
     0
 62
     7
  6
Continuous
370
    -3
390
7
  0
LAYER
  5
15F
330
16D
100
AcDbSymbolTableRecord
100
AcDbLayerTableRecord
  2
Defpoints
 70
     0
 62
     7
  6
Continuous
290
     0
370
    -3
390
7
  0
LAYER
  5
28
330
16D
100
AcDbSymbolTableRecord
100
AcDbLayerTableRecord
  2
Profilo
 70
     0
 62
     1
  6
Continuous
370
    -3
390
7
1001
AcAecLayerStandard
1000

1000

  0
LAYER
  5
14D
330
16D
100
AcDbSymbolTableRecord
100
AcDbLayerTableRecord
  2
Sezione
 70
     0
 62
     2
  6
Continuous
370
    -3
390
7
1001
AcAecLayerStandard
1000

1000

  0
LAYER
  5
E
330
16D
100
AcDbSymbolTableRecord
100
AcDbLayerTableRecord
  2
Table
 70
     0
 62
     3
  6
Continuous
370
    -3
390
7
1001
AcAecLayerStandard
1000

1000

  0
LAYER
  5
19
330
16D
100
AcDbSymbolTableRecord
100
AcDbLayerTableRecord
  2
Text
 70
     0
 62
     4
  6
Continuous
370
    -3
390
7
1001
AcAecLayerStandard
1000

1000

  0
LAYER
  5
23D
330
16D
100
AcDbSymbolTableRecord
100
AcDbLayerTableRecord
  2
Bovelacci
 70
     0
 62
     9
  6
Continuous
370
    -3
390
7
1001
AcAecLayerStandard
1000

1000

  0
ENDTAB
  0
TABLE
  2
STYLE
  5
170
330
0
100
AcDbSymbolTable
 70
     3
  0
STYLE
  5
1A
330
170
100
AcDbSymbolTableRecord
100
AcDbTextStyleTableRecord
  2
Standard
 70
     0
 40
0.0
 41
1.0
 50
0.0
 71
     0
 42
2.5
  3
txt
  4

  0
STYLE
  5
20
330
170
100
AcDbSymbolTableRecord
100
AcDbTextStyleTableRecord
  2
ROMANS
 70
     0
 40
0.0
 41
1.0
 50
0.0
 71
     0
 42
2.5
  3
romans
  4

  0
STYLE
  5
26
330
170
100
AcDbSymbolTableRecord
100
AcDbTextStyleTableRecord
  2
style1
 70
     0
 40
0.0
 41
1.0
 50
0.0
 71
     0
 42
0.008
  3
TIMES.TTF
  4

1001
ACAD
1000
Times New Roman
1071
       18
  0
ENDTAB
  0
TABLE
  2
VIEW
  5
175
330
0
100
AcDbSymbolTable
 70
     5
  0
ENDTAB
  0
TABLE
  2
UCS
  5
176
330
0
100
AcDbSymbolTable
 70
     0
  0
ENDTAB
  0
TABLE
  2
APPID
  5
17B
330
0
100
AcDbSymbolTable
 70
    10
  0
APPID
  5
1B
330
17B
100
AcDbSymbolTableRecord
100
AcDbRegAppTableRecord
  2
ACAD
 70
     0
  0
APPID
  5
157
330
17B
100
AcDbSymbolTableRecord
100
AcDbRegAppTableRecord
  2
ACAD_DSTYLE_DIMJOGGED_JOGANGLE_SYMBOL
 70
     0
  0
APPID
  5
F
330
17B
100
AcDbSymbolTableRecord
100
AcDbRegAppTableRecord
  2
AcAecLayerStandard
 70
     0
  0
APPID
  5
19C
330
17B
100
AcDbSymbolTableRecord
100
AcDbRegAppTableRecord
  2
ACAD_DSTYLE_DIMFLIPARROW_WHICH_SYMBOL
 70
     0
  0
APPID
  5
1A7
330
17B
100
AcDbSymbolTableRecord
100
AcDbRegAppTableRecord
  2
ACAD_DSTYLE_DIMEXT_LENGTH
 70
     0
  0
APPID
  5
1D2
330
17B
100
AcDbSymbolTableRecord
100
AcDbRegAppTableRecord
  2
ACAD_EXEMPT_FROM_CAD_STANDARDS
 70
     0
  0
APPID
  5
1D3
330
17B
100
AcDbSymbolTableRecord
100
AcDbRegAppTableRecord
  2
ACAD_DSTYLE_DIM_LINETYPE
 70
     0
  0
APPID
  5
1D4
330
17B
100
AcDbSymbolTableRecord
100
AcDbRegAppTableRecord
  2
ACAD_DSTYLE_DIM_EXT1_LINETYPE
 70
     0
  0
APPID
  5
1D5
330
17B
100
AcDbSymbolTableRecord
100
AcDbRegAppTableRecord
  2
ACAD_DSTYLE_DIM_EXT2_LINETYPE
 70
     0
  0
APPID
  5
243
330
17B
100
AcDbSymbolTableRecord
100
AcDbRegAppTableRecord
  2
ACAD_PSEXT
 70
     0
  0
ENDTAB
  0
TABLE
  2
DIMSTYLE
  5
17C
330
0
100
AcDbSymbolTable
 70
     8
100
AcDbDimStyleTable
 71
     2
340
156
340
17D
  0
DIMSTYLE
105
17D
330
17C
100
AcDbSymbolTableRecord
100
AcDbDimStyleTableRecord
  2
ISO-25
 70
     0
 41
2.5
 42
0.625
 43
3.75
 44
1.25
 73
     0
 74
     0
 77
     1
 78
     8
140
2.5
141
2.5
143
0.03937007874016
147
0.625
171
     3
172
     1
271
     2
272
     2
274
     3
278
    44
283
     0
284
     8
340
1A
  0
DIMSTYLE
105
156
102
{ACAD_REACTORS
330
8A9
102
}
330
17C
100
AcDbSymbolTableRecord
100
AcDbDimStyleTableRecord
  2
Bovelacci
 70
     0
 40
0.001
 41
1.5
140
3.0
141
0.0
147
2.0
176
     5
177
     5
178
     4
271
     2
272
     2
279
     2
340
20
342
152
1001
ACAD_DSTYLE_DIMJOGGED_JOGANGLE_SYMBOL
1070
   384
1040
0.7853981633974483
1001
ACAD_DSTYLE_DIMEXT_LENGTH
1070
   378
1040
0.18
  0
DIMSTYLE
105
23E
330
17C
100
AcDbSymbolTableRecord
100
AcDbDimStyleTableRecord
  2
Dim 1-100
 70
     0
 40
0.1
 41
1.5
 42
0.0
 43
5.0
 44
1.25
 45
0.005
 46
1.25
 73
     0
 74
     0
 77
     1
 78
     9
140
2.0
141
2.5
147
1.0
172
     1
174
     1
179
     2
279
     2
289
     2
340
20
342
152
  0
DIMSTYLE
105
23F
330
17C
100
AcDbSymbolTableRecord
100
AcDbDimStyleTableRecord
  2
Standard
 70
     0
 42
0.0
 73
     0
 74
     0
 77
     1
271
     2
272
     2
340
20
  0
DIMSTYLE
105
240
330
17C
100
AcDbSymbolTableRecord
100
AcDbDimStyleTableRecord
  2
Dim 1-50
 70
     0
 40
0.05
 41
1.5
 42
0.0
 43
5.0
 44
1.25
 45
0.005
 46
1.25
 73
     0
 74
     0
 77
     1
 78
     9
140
2.0
141
2.5
147
1.0
172
     1
174
     1
179
     2
279
     2
289
     2
340
20
342
152
  0
DIMSTYLE
105
241
330
17C
100
AcDbSymbolTableRecord
100
AcDbDimStyleTableRecord
  2
Dim 1-200
 70
     0
 40
0.2
 41
1.5
 42
0.0
 43
5.0
 44
1.25
 45
0.005
 46
1.25
 73
     0
 74
     0
 77
     1
 78
     9
140
2.0
141
2.5
147
1.0
172
     1
174
     1
179
     2
271
     2
272
     2
279
     2
289
     2
340
20
342
152
  0
DIMSTYLE
105
242
330
17C
100
AcDbSymbolTableRecord
100
AcDbDimStyleTableRecord
  2
AEC Scale - Italiano
 70
     0
 41
1.0
 42
10.0
 43
10.0
 44
10.0
 73
     0
 74
     0
 75
     1
 76
     1
 77
     1
140
10.0
141
1.0
147
10.0
173
     1
271
     0
272
     0
279
     2
340
1A
343
238
344
232
  0
ENDTAB
  0
TABLE
  2
BLOCK_RECORD
  5
1
330
0
100
AcDbSymbolTable
 70
    22
  0
BLOCK_RECORD
  5
2
102
{ACAD_XDICTIONARY
360
3
102
}
330
1
100
AcDbSymbolTableRecord
100
AcDbBlockTableRecord
  2
*Model_Space
340
163
  0
BLOCK_RECORD
  5
165
330
1
100
AcDbSymbolTableRecord
100
AcDbBlockTableRecord
  2
*Paper_Space
340
168
  0
BLOCK_RECORD
  5
169
330
1
100
AcDbSymbolTableRecord
100
AcDbBlockTableRecord
  2
*Paper_Space0
340
16C
  0
BLOCK_RECORD
  5
152
330
1
100
AcDbSymbolTableRecord
100
AcDbBlockTableRecord
  2
_ArchTick
340
0
310
2800000020000000200000000100080000000000000400000000000000000000000000000000000000000000000080000080000000808000800000008000800080800000C0C0C000C0DCC000F0CAA6000020400000206000002080000020A0000020C0000020E00000400000004020000040400000406000004080000040A0
310
000040C0000040E00000600000006020000060400000606000006080000060A0000060C0000060E00000800000008020000080400000806000008080000080A0000080C0000080E00000A0000000A0200000A0400000A0600000A0800000A0A00000A0C00000A0E00000C0000000C0200000C0400000C0600000C0800000C0
310
A00000C0C00000C0E00000E0000000E0200000E0400000E0600000E0800000E0A00000E0C00000E0E00040000000400020004000400040006000400080004000A0004000C0004000E00040200000402020004020400040206000402080004020A0004020C0004020E000404000004040200040404000404060004040800040
310
40A0004040C0004040E00040600000406020004060400040606000406080004060A0004060C0004060E00040800000408020004080400040806000408080004080A0004080C0004080E00040A0000040A0200040A0400040A0600040A0800040A0A00040A0C00040A0E00040C0000040C0200040C0400040C0600040C08000
310
40C0A00040C0C00040C0E00040E0000040E0200040E0400040E0600040E0800040E0A00040E0C00040E0E00080000000800020008000400080006000800080008000A0008000C0008000E00080200000802020008020400080206000802080008020A0008020C0008020E00080400000804020008040400080406000804080
310
008040A0008040C0008040E00080600000806020008060400080606000806080008060A0008060C0008060E00080800000808020008080400080806000808080008080A0008080C0008080E00080A0000080A0200080A0400080A0600080A0800080A0A00080A0C00080A0E00080C0000080C0200080C0400080C0600080C0
310
800080C0A00080C0C00080C0E00080E0000080E0200080E0400080E0600080E0800080E0A00080E0C00080E0E000C0000000C0002000C0004000C0006000C0008000C000A000C000C000C000E000C0200000C0202000C0204000C0206000C0208000C020A000C020C000C020E000C0400000C0402000C0404000C0406000C0
310
408000C040A000C040C000C040E000C0600000C0602000C0604000C0606000C0608000C060A000C060C000C060E000C0800000C0802000C0804000C0806000C0808000C080A000C080C000C080E000C0A00000C0A02000C0A04000C0A06000C0A08000C0A0A000C0A0C000C0A0E000C0C00000C0C02000C0C04000C0C06000
310
C0C08000C0C0A000F0FBFF00A4A0A000808080000000FF0000FF000000FFFF00FF000000FF00FF00FFFF0000FFFFFF00000000FF000000000000000000000000000000000000000000000000000000000000FF00FF00000000000000000000000000000000000000000000000000000000FF000000FF000000000000000000
310
0000000000000000000000000000000000FF0000000000FF0000000000000000000000000000000000000000000000000000FF0000000000FF0000000000000000000000000000000000000000000000000000FF0000000000FF0000000000000000000000000000000000000000000000000000FF0000000000FF00000000
310
00000000000000000000000000000000000000000000FF0000000000FF0000000000000000000000000000000000000000000000000000FF0000000000FF0000000000000000000000000000000000000000000000000000FF0000000000FF0000000000000000000000000000000000000000000000000000FF0000000000
310
FF0000000000000000000000000000000000000000000000000000FF0000000000FF0000000000000000000000000000000000000000000000000000FF0000000000FF0000000000000000000000000000000000000000000000000000FF0000000000FF0000000000000000000000000000000000000000000000000000FF
310
0000000000FF0000000000000000000000000000000000000000000000000000FF0000000000FF0000000000000000000000000000000000000000000000000000FF0000000000FF0000000000000000000000000000000000000000000000000000FF0000000000FF00000000000000000000000000000000000000000000
310
00000000FF0000000000FF0000000000000000000000000000000000000000000000000000FF0000000000FF0000000000000000000000000000000000000000000000000000FF0000000000FF0000000000000000000000000000000000000000000000000000FF0000000000FF0000000000000000000000000000000000
310
000000000000000000FF0000000000FF0000000000000000000000000000000000000000000000000000FF0000000000FF0000000000000000000000000000000000000000000000000000FF0000000000FF0000000000000000000000000000000000000000000000000000FF0000000000FF000000000000000000000000
310
0000000000000000000000000000FF0000000000FF0000000000000000000000000000000000000000000000000000FF0000000000FF0000000000000000000000000000000000000000000000000000FF0000000000FF0000000000000000000000000000000000000000000000000000FF000000FF000000000000000000
310
00000000000000000000000000000000000000FF00FF000000000000000000000000000000000000000000000000000000000000FF000000
102
{BLKREFS
331
211
331
260
331
261
331
280
331
2D7
331
2D8
331
2F1
331
2F2
331
4FE
331
53F
331
5CC
331
7CE
331
8C4
102
}
  0
BLOCK_RECORD
  5
232
330
1
100
AcDbSymbolTableRecord
100
AcDbBlockTableRecord
  2
_Arrivo
340
0
310
2800000020000000200000000100080000000000000400000000000000000000000000000000000000000000000080000080000000808000800000008000800080800000C0C0C000C0DCC000F0CAA6000020400000206000002080000020A0000020C0000020E00000400000004020000040400000406000004080000040A0
310
000040C0000040E00000600000006020000060400000606000006080000060A0000060C0000060E00000800000008020000080400000806000008080000080A0000080C0000080E00000A0000000A0200000A0400000A0600000A0800000A0A00000A0C00000A0E00000C0000000C0200000C0400000C0600000C0800000C0
310
A00000C0C00000C0E00000E0000000E0200000E0400000E0600000E0800000E0A00000E0C00000E0E00040000000400020004000400040006000400080004000A0004000C0004000E00040200000402020004020400040206000402080004020A0004020C0004020E000404000004040200040404000404060004040800040
310
40A0004040C0004040E00040600000406020004060400040606000406080004060A0004060C0004060E00040800000408020004080400040806000408080004080A0004080C0004080E00040A0000040A0200040A0400040A0600040A0800040A0A00040A0C00040A0E00040C0000040C0200040C0400040C0600040C08000
310
40C0A00040C0C00040C0E00040E0000040E0200040E0400040E0600040E0800040E0A00040E0C00040E0E00080000000800020008000400080006000800080008000A0008000C0008000E00080200000802020008020400080206000802080008020A0008020C0008020E00080400000804020008040400080406000804080
310
008040A0008040C0008040E00080600000806020008060400080606000806080008060A0008060C0008060E00080800000808020008080400080806000808080008080A0008080C0008080E00080A0000080A0200080A0400080A0600080A0800080A0A00080A0C00080A0E00080C0000080C0200080C0400080C0600080C0
310
800080C0A00080C0C00080C0E00080E0000080E0200080E0400080E0600080E0800080E0A00080E0C00080E0E000C0000000C0002000C0004000C0006000C0008000C000A000C000C000C000E000C0200000C0202000C0204000C0206000C0208000C020A000C020C000C020E000C0400000C0402000C0404000C0406000C0
310
408000C040A000C040C000C040E000C0600000C0602000C0604000C0606000C0608000C060A000C060C000C060E000C0800000C0802000C0804000C0806000C0808000C080A000C080C000C080E000C0A00000C0A02000C0A04000C0A06000C0A08000C0A0A000C0A0C000C0A0E000C0C00000C0C02000C0C04000C0C06000
310
C0C08000C0C0A000F0FBFF00A4A0A000808080000000FF0000FF000000FFFF00FF000000FF00FF00FFFF0000FFFFFF00000000000000000000000000000000000000000000000000000000000000000000000000000000000000FF0000000000000000000000000000000000000000000000000000000000000000FF000000
310
00000000000000000000000000000000000000000000000000000000FF0000000000000000000000000000000000000000000000000000000000000000FF00000000000000000000000000000000000000000000000000000000000000FF0000000000000000000000000000000000000000000000000000000000000000FF
310
0000000000000000000000000000000000000000000000000000000000000000FF00000000000000000000000000000000000000000000000000000000000000FF0000000000000000000000000000000000000000000000000000000000000000FF0000000000000000000000000000000000000000000000000000000000
310
0000FF0000000000000000000000000000000000000000000000000000000000000000FF00000000000000000000000000000000000000000000000000000000000000FF0000000000000000000000000000000000000000000000000000000000000000FF0000FF0000000000000000000000000000000000000000000000
310
000000000000FFFF000000000000000000000000000000000000000000000000000000000000FFFF00000000000000000000000000000000000000000000000000000000FFFFFFFFFFFF00000000000000000000000000000000000000000000000000000000FFFF0000000000000000000000000000000000000000000000
310
000000000000FF0000FF000000000000000000000000000000000000000000000000000000FF00000000000000000000000000000000000000000000000000000000000000FF000000000000000000000000000000000000000000000000000000000000FF0000000000000000000000000000000000000000000000000000
310
0000000000FF000000000000000000000000000000000000000000000000000000000000FF00000000000000000000000000000000000000000000000000000000000000FF000000000000000000000000000000000000000000000000000000000000FF000000000000000000000000000000000000000000000000000000
310
000000FF00000000000000000000000000000000000000000000000000000000000000FF000000000000000000000000000000000000000000000000000000000000FF00000000000000000000000000000000000000000000000000000000000000FF00000000000000000000000000000000000000000000000000000000
310
0000FF0000000000000000000000000000000000000000000000000000000000000000000000000000000000000000000000000000000000
  0
BLOCK_RECORD
  5
238
330
1
100
AcDbSymbolTableRecord
100
AcDbBlockTableRecord
  2
_Partenza
340
0
310
2800000020000000200000000100080000000000000400000000000000000000000000000000000000000000000080000080000000808000800000008000800080800000C0C0C000C0DCC000F0CAA6000020400000206000002080000020A0000020C0000020E00000400000004020000040400000406000004080000040A0
310
000040C0000040E00000600000006020000060400000606000006080000060A0000060C0000060E00000800000008020000080400000806000008080000080A0000080C0000080E00000A0000000A0200000A0400000A0600000A0800000A0A00000A0C00000A0E00000C0000000C0200000C0400000C0600000C0800000C0
310
A00000C0C00000C0E00000E0000000E0200000E0400000E0600000E0800000E0A00000E0C00000E0E00040000000400020004000400040006000400080004000A0004000C0004000E00040200000402020004020400040206000402080004020A0004020C0004020E000404000004040200040404000404060004040800040
310
40A0004040C0004040E00040600000406020004060400040606000406080004060A0004060C0004060E00040800000408020004080400040806000408080004080A0004080C0004080E00040A0000040A0200040A0400040A0600040A0800040A0A00040A0C00040A0E00040C0000040C0200040C0400040C0600040C08000
310
40C0A00040C0C00040C0E00040E0000040E0200040E0400040E0600040E0800040E0A00040E0C00040E0E00080000000800020008000400080006000800080008000A0008000C0008000E00080200000802020008020400080206000802080008020A0008020C0008020E00080400000804020008040400080406000804080
310
008040A0008040C0008040E00080600000806020008060400080606000806080008060A0008060C0008060E00080800000808020008080400080806000808080008080A0008080C0008080E00080A0000080A0200080A0400080A0600080A0800080A0A00080A0C00080A0E00080C0000080C0200080C0400080C0600080C0
310
800080C0A00080C0C00080C0E00080E0000080E0200080E0400080E0600080E0800080E0A00080E0C00080E0E000C0000000C0002000C0004000C0006000C0008000C000A000C000C000C000E000C0200000C0202000C0204000C0206000C0208000C020A000C020C000C020E000C0400000C0402000C0404000C0406000C0
310
408000C040A000C040C000C040E000C0600000C0602000C0604000C0606000C0608000C060A000C060C000C060E000C0800000C0802000C0804000C0806000C0808000C080A000C080C000C080E000C0A00000C0A02000C0A04000C0A06000C0A08000C0A0A000C0A0C000C0A0E000C0C00000C0C02000C0C04000C0C06000
310
C0C08000C0C0A000F0FBFF00A4A0A000808080000000FF0000FF000000FFFF00FF000000FF00FF00FFFF0000FFFFFF0000000000000000000000000000000000000000000000000000000000000000000000000000000000000000000000000000000000000000000000000000000000000000000000000000000000000000
310
000000000000000000000000000000000000000000000000000000000000000000000000000000000000000000000000000000000000000000000000000000000000000000000000000000000000000000000000000000000000000000000000000000000000000000000000000000000000FFFFFFFFFFFFFFFFFFFFFFFFFF
310
FFFFFFFFFFFFFFFFFFFFFFFFFFFFFFFFFF0000000000000000000000000000000000000000000000000000000000000000000000000000000000000000000000000000000000000000000000000000000000000000000000000000000000000000000000000000000000000000000000000000000000000000000000000000
310
00000000000000000000000000000000000000000000000000000000000000000000000000000000000000000000000000000000000000000000000000000000000000000000000000000000000000000000000000000000000000000000000000000000000000000000000000000000000000000000000000000000000000
310
00000000000000000000000000000000000000000000000000000000000000000000000000000000000000000000000000000000000000000000000000000000000000000000000000000000000000000000000000000000000000000000000000000000000000000000000000000000000000000000000000000000000000
310
00000000000000000000000000000000000000000000000000000000000000000000000000000000000000000000000000000000000000000000000000000000000000000000000000000000000000000000000000000000000000000000000000000000000000000000000000000000000000000000000000000000000000
310
000000000000000000000000000000000000000000000000000000000000000000000000000000000000000000000000000000000000000000000000000000000000000000000000000000000000000000000000000000FFFFFFFFFFFFFFFFFFFFFFFFFFFFFFFFFFFFFFFFFFFFFFFFFFFFFFFFFFFF00000000000000000000
310
00000000000000000000000000000000000000000000000000000000000000000000000000000000000000000000000000000000000000000000000000000000000000000000000000000000000000000000000000000000000000000000000000000000000000000000000000000000000000000000000000000000000000
310
0000000000000000000000000000000000000000000000000000000000000000000000000000000000000000000000000000000000000000
  0
BLOCK_RECORD
  5
266
330
1
100
AcDbSymbolTableRecord
100
AcDbBlockTableRecord
  2
*D6
340
0
  0
BLOCK_RECORD
  5
2C5
330
1
100
AcDbSymbolTableRecord
100
AcDbBlockTableRecord
  2
*D8
340
0
  0
BLOCK_RECORD
  5
2DF
330
1
100
AcDbSymbolTableRecord
100
AcDbBlockTableRecord
  2
*D9
340
0
  0
BLOCK_RECORD
  5
4E4
330
1
100
AcDbSymbolTableRecord
100
AcDbBlockTableRecord
  2
*D11
340
0
  0
BLOCK_RECORD
  5
525
330
1
100
AcDbSymbolTableRecord
100
AcDbBlockTableRecord
  2
*D13
340
0
  0
BLOCK_RECORD
  5
5B2
330
1
100
AcDbSymbolTableRecord
100
AcDbBlockTableRecord
  2
*D17
340
0
  0
BLOCK_RECORD
  5
7B4
330
1
100
AcDbSymbolTableRecord
100
AcDbBlockTableRecord
  2
*D19
340
0
  0
BLOCK_RECORD
  5
8AA
330
1
100
AcDbSymbolTableRecord
100
AcDbBlockTableRecord
  2
*D21
340
0
  0
ENDTAB
  0
ENDSEC
  0
SECTION
  2
BLOCKS
  0
BLOCK
  5
5
330
2
100
AcDbEntity
  8
0
100
AcDbBlockBegin
  2
*Model_Space
 70
     0
 10
0.0
 20
0.0
 30
0.0
  3
*Model_Space
  1

  0
ENDBLK
  5
162
330
2
100
AcDbEntity
  8
0
100
AcDbBlockEnd
  0
BLOCK
  5
166
330
165
100
AcDbEntity
 67
     1
  8
0
100
AcDbBlockBegin
  2
*Paper_Space
 70
     0
 10
0.0
 20
0.0
 30
0.0
  3
*Paper_Space
  1

  0
ENDBLK
  5
167
330
165
100
AcDbEntity
 67
     1
  8
0
100
AcDbBlockEnd
  0
BLOCK
  5
16A
330
169
100
AcDbEntity
 67
     1
  8
0
100
AcDbBlockBegin
  2
*Paper_Space0
 70
     0
 10
0.0
 20
0.0
 30
0.0
  3
*Paper_Space0
  1

  0
ENDBLK
  5
16B
330
169
100
AcDbEntity
 67
     1
  8
0
100
AcDbBlockEnd
  0
BLOCK
  5
153
330
152
100
AcDbEntity
  8
0
 62
     1
100
AcDbBlockBegin
  2
_ArchTick
 70
     0
 10
0.0
 20
0.0
 30
0.0
  3
_ArchTick
  1

  0
LWPOLYLINE
  5
154
330
152
100
AcDbEntity
  8
0
  6
ByBlock
 62
     0
100
AcDbPolyline
 90
        2
 70
     0
 43
0.15
 10
-0.5
 20
-0.5
 10
0.5
 20
0.5
  0
ENDBLK
  5
155
330
152
100
AcDbEntity
  8
0
 62
     1
100
AcDbBlockEnd
  0
BLOCK
  5
233
330
232
100
AcDbEntity
  8
0
100
AcDbBlockBegin
  2
_Arrivo
 70
     0
 10
0.0
 20
0.0
 30
0.0
  3
_Arrivo
  1

  0
LINE
  5
234
330
232
100
AcDbEntity
  8
0
  6
ByBlock
 62
     0
370
    -2
100
AcDbLine
 10
0.025
 20
-0.0433012701891858
 30
0.0
 11
-0.15
 21
0.2598076211353328
 31
0.0
  0
LINE
  5
235
330
232
100
AcDbEntity
  8
0
  6
ByBlock
 62
     0
370
    -2
100
AcDbLine
 10
0.025
 20
0.0433012701892585
 30
0.0
 11
-0.15
 21
-0.2598076211353328
 31
0.0
  0
LINE
  5
236
330
232
100
AcDbEntity
  8
0
  6
ByBlock
 62
     0
370
    -2
100
AcDbLine
 10
-0.05
 20
0.0
 30
0.0
 11
0.05
 21
0.0
 31
0.0
  0
ENDBLK
  5
237
330
232
100
AcDbEntity
  8
0
100
AcDbBlockEnd
  0
BLOCK
  5
239
330
238
100
AcDbEntity
  8
0
100
AcDbBlockBegin
  2
_Partenza
 70
     0
 10
0.0
 20
0.0
 30
0.0
  3
_Partenza
  1

  0
LINE
  5
23A
330
238
100
AcDbEntity
  8
0
  6
ByBlock
 62
     0
370
    -2
100
AcDbLine
 10
-0.05
 20
0.05
 30
0.0
 11
0.1
 21
0.05
 31
0.0
  0
LINE
  5
23B
330
238
100
AcDbEntity
  8
0
  6
ByBlock
 62
     0
370
    -2
100
AcDbLine
 10
-0.05
 20
-0.05
 30
0.0
 11
0.1
 21
-0.05
 31
0.0
  0
ENDBLK
  5
23C
330
238
100
AcDbEntity
  8
0
100
AcDbBlockEnd
  0
BLOCK
  5
26D
330
266
100
AcDbEntity
  8
0
100
AcDbBlockBegin
  2
*D6
 70
     1
 10
0.0
 20
0.0
 30
0.0
  3
*D6
  1

  0
LINE
  5
27D
330
266
100
AcDbEntity
  8
Text
  6
ACAD_ISO10W100
 62
     5
370
    -2
100
AcDbLine
 10
0.265324276937575
 20
0.1924574125485932
 30
0.0
 11
0.263824276937575
 21
0.1924574125485932
 31
0.0
  0
LINE
  5
27E
330
266
100
AcDbEntity
  8
Text
  6
ACAD_ISO10W100
 62
     5
370
    -2
100
AcDbLine
 10
0.263824276937575
 20
0.1924574125485932
 30
0.0
 11
0.2613215374025681
 21
0.1908032375820575
 31
0.0
  0
MTEXT
  5
27F
330
266
100
AcDbEntity
  8
Text
  6
ACAD_ISO10W100
 62
     4
100
AcDbMText
 10
0.2797528483661464
 20
0.1924574125485932
 30
0.0
 40
0.003
 41
0.0
 71
     5
 72
     1
  1
\A1;d 120 mm
  7
ROMANS
 73
     1
 44
1.0
1001
ACAD
1000
MTEXTBEGIN
1070
    73
1070
     1
1070
    44
1040
1.0
1070
    74
1070
     0
1000
MTEXTEND
  0
INSERT
  5
280
330
266
100
AcDbEntity
  8
Text
  6
ACAD_ISO10W100
 62
     5
370
    -2
100
AcDbBlockReference
  2
_ArchTick
 10
0.2613215374025681
 20
0.1908032375820575
 30
0.0
 41
0.0015
 42
0.0015
 43
0.0015
 50
213.4625388295094
  0
POINT
  5
281
330
266
100
AcDbEntity
  8
Defpoints
  6
ACAD_ISO10W100
 62
     0
100
AcDbPoint
 10
0.2613215374025681
 20
0.1908032375820575
 30
0.0
  0
POINT
  5
282
330
266
100
AcDbEntity
  8
Defpoints
  6
ACAD_ISO10W100
 62
     0
100
AcDbPoint
 10
0.1612119560022933
 20
0.1246362389206268
 30
0.0
  0
ENDBLK
  5
26E
330
266
100
AcDbEntity
  8
0
100
AcDbBlockEnd
  0
BLOCK
  5
2D0
330
2C5
100
AcDbEntity
  8
0
100
AcDbBlockBegin
  2
*D8
 70
     1
 10
0.0
 20
0.0
 30
0.0
  3
*D8
  1

  0
LINE
  5
2D3
330
2C5
100
AcDbEntity
  8
Text
  6
ACAD_ISO10W100
 62
     5
370
    -2
100
AcDbLine
 10
0.1650797227868191
 20
0.124595709950333
 30
0.0
 11
0.1650797227868191
 21
0.1060944378993535
 31
0.0
  0
LINE
  5
2D4
330
2C5
100
AcDbEntity
  8
Text
  6
ACAD_ISO10W100
 62
     5
370
    -2
100
AcDbLine
 10
0.2550797227868189
 20
0.124595709950333
 30
0.0
 11
0.2550797227868189
 21
0.1060944378993535
 31
0.0
  0
LINE
  5
2D5
330
2C5
100
AcDbEntity
  8
Text
  6
ACAD_ISO10W100
 62
     5
370
    -2
100
AcDbLine
 10
0.1650797227868191
 20
0.1062744378993535
 30
0.0
 11
0.1999368656439618
 21
0.1062744378993535
 31
0.0
  0
LINE
  5
2D6
330
2C5
100
AcDbEntity
  8
Text
  6
ACAD_ISO10W100
 62
     5
370
    -2
100
AcDbLine
 10
0.2550797227868189
 20
0.1062744378993535
 30
0.0
 11
0.2202225799296761
 21
0.1062744378993535
 31
0.0
  0
INSERT
  5
2D7
330
2C5
100
AcDbEntity
  8
Text
  6
ACAD_ISO10W100
 62
     5
370
    -2
100
AcDbBlockReference
  2
_ArchTick
 10
0.1650797227868191
 20
0.1062744378993535
 30
0.0
 41
0.0015
 42
0.0015
 43
0.0015
 50
180.0
  0
INSERT
  5
2D8
330
2C5
100
AcDbEntity
  8
Text
  6
ACAD_ISO10W100
 62
     5
370
    -2
100
AcDbBlockReference
  2
_ArchTick
 10
0.2550797227868189
 20
0.1062744378993535
 30
0.0
 41
0.0015
 42
0.0015
 43
0.0015
  0
MTEXT
  5
2D9
330
2C5
100
AcDbEntity
  8
Text
  6
ACAD_ISO10W100
 62
     4
100
AcDbMText
 10
0.210079722786819
 20
0.1062744378993535
 30
0.0
 40
0.003
 41
0.0
 71
     5
 72
     1
  1
\A1;90 mm
  7
ROMANS
 73
     1
 44
1.0
1001
ACAD
1000
MTEXTBEGIN
1070
    73
1070
     1
1070
    44
1040
1.0
1070
    74
1070
     0
1000
MTEXTEND
  0
POINT
  5
2DA
330
2C5
100
AcDbEntity
  8
Defpoints
  6
ACAD_ISO10W100
 62
     0
100
AcDbPoint
 10
0.1650797227868191
 20
0.124658209950333
 30
0.0
  0
POINT
  5
2DB
330
2C5
100
AcDbEntity
  8
Defpoints
  6
ACAD_ISO10W100
 62
     0
100
AcDbPoint
 10
0.2550797227868189
 20
0.124658209950333
 30
0.0
  0
POINT
  5
2DC
330
2C5
100
AcDbEntity
  8
Defpoints
  6
ACAD_ISO10W100
 62
     0
100
AcDbPoint
 10
0.2550797227868189
 20
0.1062744378993535
 30
0.0
  0
ENDBLK
  5
2D1
330
2C5
100
AcDbEntity
  8
0
100
AcDbBlockEnd
  0
BLOCK
  5
2EA
330
2DF
100
AcDbEntity
  8
0
100
AcDbBlockBegin
  2
*D9
 70
     1
 10
0.0
 20
0.0
 30
0.0
  3
*D9
  1

  0
LINE
  5
2ED
330
2DF
100
AcDbEntity
  8
Text
  6
ACAD_ISO10W100
 62
     5
370
    -2
100
AcDbLine
 10
0.2518566651931464
 20
0.1197979324732989
 30
0.0
 11
0.2714595524708644
 21
0.1197979324732989
 31
0.0
  0
LINE
  5
2EE
330
2DF
100
AcDbEntity
  8
Text
  6
ACAD_ISO10W100
 62
     5
370
    -2
100
AcDbLine
 10
0.2518566651931464
 20
0.2098859792004421
 30
0.0
 11
0.2714595524708645
 21
0.2098859792004421
 31
0.0
  0
LINE
  5
2EF
330
2DF
100
AcDbEntity
  8
Text
  6
ACAD_ISO10W100
 62
     5
370
    -2
100
AcDbLine
 10
0.2712795524708644
 20
0.1197979324732989
 30
0.0
 11
0.2712795524708644
 21
0.1613419558368705
 31
0.0
  0
LINE
  5
2F0
330
2DF
100
AcDbEntity
  8
Text
  6
ACAD_ISO10W100
 62
     5
370
    -2
100
AcDbLine
 10
0.2712795524708644
 20
0.2098859792004421
 30
0.0
 11
0.2712795524708644
 21
0.1683419558368705
 31
0.0
  0
INSERT
  5
2F1
330
2DF
100
AcDbEntity
  8
Text
  6
ACAD_ISO10W100
 62
     5
370
    -2
100
AcDbBlockReference
  2
_ArchTick
 10
0.2712795524708644
 20
0.1197979324732989
 30
0.0
 41
0.0015
 42
0.0015
 43
0.0015
 50
270.0
  0
INSERT
  5
2F2
330
2DF
100
AcDbEntity
  8
Text
  6
ACAD_ISO10W100
 62
     5
370
    -2
100
AcDbBlockReference
  2
_ArchTick
 10
0.2712795524708644
 20
0.2098859792004421
 30
0.0
 41
0.0015
 42
0.0015
 43
0.0015
 50
90.0
  0
MTEXT
  5
2F3
330
2DF
100
AcDbEntity
  8
Text
  6
ACAD_ISO10W100
 62
     4
100
AcDbMText
 10
0.2712795524708644
 20
0.1648419558368706
 30
0.0
 40
0.003
 41
0.0
 71
     5
 72
     1
  1
\A1;90 mm
  7
ROMANS
 73
     1
 44
1.0
1001
ACAD
1000
MTEXTBEGIN
1070
    73
1070
     1
1070
    44
1040
1.0
1070
    74
1070
     0
1000
MTEXTEND
  0
POINT
  5
2F4
330
2DF
100
AcDbEntity
  8
Defpoints
  6
ACAD_ISO10W100
 62
     0
100
AcDbPoint
 10
0.2517941651931463
 20
0.1197979324732989
 30
0.0
  0
POINT
  5
2F5
330
2DF
100
AcDbEntity
  8
Defpoints
  6
ACAD_ISO10W100
 62
     0
100
AcDbPoint
 10
0.2517941651931463
 20
0.2098859792004421
 30
0.0
  0
POINT
  5
2F6
330
2DF
100
AcDbEntity
  8
Defpoints
  6
ACAD_ISO10W100
 62
     0
100
AcDbPoint
 10
0.2712795524708644
 20
0.2098859792004421
 30
0.0
  0
ENDBLK
  5
2EB
330
2DF
100
AcDbEntity
  8
0
100
AcDbBlockEnd
  0
BLOCK
  5
4EB
330
4E4
100
AcDbEntity
  8
0
100
AcDbBlockBegin
  2
*D11
 70
     1
 10
0.0
 20
0.0
 30
0.0
  3
*D11
  1

  0
LINE
  5
4FB
330
4E4
100
AcDbEntity
  8
Text
  6
ACAD_ISO10W100
 62
     5
370
    -2
100
AcDbLine
 10
0.2719438839007483
 20
0.1970560400174176
 30
0.0
 11
0.2704438839007483
 21
0.1970560400174176
 31
0.0
  0
LINE
  5
4FC
330
4E4
100
AcDbEntity
  8
Text
  6
ACAD_ISO10W100
 62
     5
370
    -2
100
AcDbLine
 10
0.2704438839007483
 20
0.1970560400174176
 30
0.0
 11
0.2679040154966245
 21
0.1954594597689697
 31
0.0
  0
MTEXT
  5
4FD
330
4E4
100
AcDbEntity
  8
Text
  6
ACAD_ISO10W100
 62
     4
100
AcDbMText
 10
0.2863724553293197
 20
0.1970560400174176
 30
0.0
 40
0.003
 41
0.0
 71
     5
 72
     1
  1
\A1;d 280 mm
  7
ROMANS
 73
     1
 44
1.0
1001
ACAD
1000
MTEXTBEGIN
1070
    73
1070
     1
1070
    44
1040
1.0
1070
    74
1070
     0
1000
MTEXTEND
  0
INSERT
  5
4FE
330
4E4
100
AcDbEntity
  8
Text
  6
ACAD_ISO10W100
 62
     5
370
    -2
100
AcDbBlockReference
  2
_ArchTick
 10
0.2679040154966245
 20
0.1954594597689697
 30
0.0
 41
0.0015
 42
0.0015
 43
0.0015
 50
212.1537752595364
  0
POINT
  5
4FF
330
4E4
100
AcDbEntity
  8
Defpoints
  6
ACAD_ISO10W100
 62
     0
100
AcDbPoint
 10
0.2679040154966245
 20
0.1954594597689697
 30
0.0
  0
POINT
  5
500
330
4E4
100
AcDbEntity
  8
Defpoints
  6
ACAD_ISO10W100
 62
     0
100
AcDbPoint
 10
0.1493768233041824
 20
0.1209523815080696
 30
0.0
  0
ENDBLK
  5
4EC
330
4E4
100
AcDbEntity
  8
0
100
AcDbBlockEnd
  0
BLOCK
  5
52C
330
525
100
AcDbEntity
  8
0
100
AcDbBlockBegin
  2
*D13
 70
     1
 10
0.0
 20
0.0
 30
0.0
  3
*D13
  1

  0
LINE
  5
53C
330
525
100
AcDbEntity
  8
Text
  6
ACAD_ISO10W100
 62
     5
370
    -2
100
AcDbLine
 10
0.2758442994853839
 20
0.2102749962840716
 30
0.0
 11
0.2743442994853838
 21
0.2102749962840716
 31
0.0
  0
LINE
  5
53D
330
525
100
AcDbEntity
  8
Text
  6
ACAD_ISO10W100
 62
     5
370
    -2
100
AcDbLine
 10
0.2743442994853838
 20
0.2102749962840716
 30
0.0
 11
0.2720543541117148
 21
0.2083369172904256
 31
0.0
  0
MTEXT
  5
53E
330
525
100
AcDbEntity
  8
Text
  6
ACAD_ISO10W100
 62
     4
100
AcDbMText
 10
0.2902728709139553
 20
0.2102749962840716
 30
0.0
 40
0.003
 41
0.0
 71
     5
 72
     1
  1
\A1;d 340 mm
  7
ROMANS
 73
     1
 44
1.0
1001
ACAD
1000
MTEXTBEGIN
1070
    73
1070
     1
1070
    44
1040
1.0
1070
    74
1070
     0
1000
MTEXTEND
  0
INSERT
  5
53F
330
525
100
AcDbEntity
  8
Text
  6
ACAD_ISO10W100
 62
     5
370
    -2
100
AcDbBlockReference
  2
_ArchTick
 10
0.2720543541117148
 20
0.2083369172904256
 30
0.0
 41
0.0015
 42
0.0015
 43
0.0015
 50
220.242669939943
  0
POINT
  5
540
330
525
100
AcDbEntity
  8
Defpoints
  6
ACAD_ISO10W100
 62
     0
100
AcDbPoint
 10
0.2720543541117148
 20
0.2083369172904256
 30
0.0
  0
POINT
  5
541
330
525
100
AcDbEntity
  8
Defpoints
  6
ACAD_ISO10W100
 62
     0
100
AcDbPoint
 10
0.1422907829371338
 20
0.0985124409838235
 30
0.0
  0
ENDBLK
  5
52D
330
525
100
AcDbEntity
  8
0
100
AcDbBlockEnd
  0
BLOCK
  5
5B9
330
5B2
100
AcDbEntity
  8
0
100
AcDbBlockBegin
  2
*D17
 70
     1
 10
0.0
 20
0.0
 30
0.0
  3
*D17
  1

  0
LINE
  5
5C9
330
5B2
100
AcDbEntity
  8
Text
  6
ACAD_ISO10W100
 62
     5
370
    -2
100
AcDbLine
 10
0.2339841855771125
 20
0.1851322658533807
 30
0.0
 11
0.2324841855771125
 21
0.1851322658533806
 31
0.0
  0
LINE
  5
5CA
330
5B2
100
AcDbEntity
  8
Text
  6
ACAD_ISO10W100
 62
     5
370
    -2
100
AcDbLine
 10
0.2324841855771125
 20
0.1851322658533806
 30
0.0
 11
0.2304491104323
 21
0.1829280723149256
 31
0.0
  0
MTEXT
  5
5CB
330
5B2
100
AcDbEntity
  8
Text
  6
ACAD_ISO10W100
 62
     4
100
AcDbMText
 10
0.2469841855771125
 20
0.1851322658533807
 30
0.0
 40
0.003
 41
0.0
 71
     5
 72
     1
  1
\A1;d 65 mm
  7
ROMANS
 73
     1
 44
1.0
1001
ACAD
1000
MTEXTBEGIN
1070
    73
1070
     1
1070
    44
1040
1.0
1070
    74
1070
     0
1000
MTEXTEND
  0
INSERT
  5
5CC
330
5B2
100
AcDbEntity
  8
Text
  6
ACAD_ISO10W100
 62
     5
370
    -2
100
AcDbBlockReference
  2
_ArchTick
 10
0.2304491104323
 20
0.1829280723149256
 30
0.0
 41
0.0015
 42
0.0015
 43
0.0015
 50
227.2845060028153
  0
POINT
  5
5CD
330
5B2
100
AcDbEntity
  8
Defpoints
  6
ACAD_ISO10W100
 62
     0
100
AcDbPoint
 10
0.2304491104323
 20
0.1829280723149256
 30
0.0
  0
POINT
  5
5CE
330
5B2
100
AcDbEntity
  8
Defpoints
  6
ACAD_ISO10W100
 62
     0
100
AcDbPoint
 10
0.1863558156280306
 20
0.1351705456484012
 30
0.0
  0
ENDBLK
  5
5BA
330
5B2
100
AcDbEntity
  8
0
100
AcDbBlockEnd
  0
BLOCK
  5
7BB
330
7B4
100
AcDbEntity
  8
0
100
AcDbBlockBegin
  2
*D19
 70
     1
 10
0.0
 20
0.0
 30
0.0
  3
*D19
  1

  0
LINE
  5
7CB
330
7B4
100
AcDbEntity
  8
Text
  6
ACAD_ISO10W100
 62
     5
370
    -2
100
AcDbLine
 10
0.2503141389346617
 20
0.1968373266487671
 30
0.0
 11
0.2488141389346617
 21
0.1968373266487671
 31
0.0
  0
LINE
  5
7CC
330
7B4
100
AcDbEntity
  8
Text
  6
ACAD_ISO10W100
 62
     5
370
    -2
100
AcDbLine
 10
0.2488141389346617
 20
0.1968373266487671
 30
0.0
 11
0.2466074539163463
 21
0.1948049533489173
 31
0.0
  0
MTEXT
  5
7CD
330
7B4
100
AcDbEntity
  8
Text
  6
ACAD_ISO10W100
 62
     4
100
AcDbMText
 10
0.2647427103632332
 20
0.1968373266487671
 30
0.0
 40
0.003
 41
0.0
 71
     5
 72
     1
  1
\A1;d 410 mm
  7
ROMANS
 73
     1
 44
1.0
1001
ACAD
1000
MTEXTBEGIN
1070
    73
1070
     1
1070
    44
1040
1.0
1070
    74
1070
     0
1000
MTEXTEND
  0
INSERT
  5
7CE
330
7B4
100
AcDbEntity
  8
Text
  6
ACAD_ISO10W100
 62
     5
370
    -2
100
AcDbBlockReference
  2
_ArchTick
 10
0.2466074539163463
 20
0.1948049533489173
 30
0.0
 41
0.0015
 42
0.0015
 43
0.0015
 50
222.645301951812
  0
POINT
  5
7CF
330
7B4
100
AcDbEntity
  8
Defpoints
  6
ACAD_ISO10W100
 62
     0
100
AcDbPoint
 10
0.2466074539163463
 20
0.1948049533489173
 30
0.0
  0
POINT
  5
7D0
330
7B4
100
AcDbEntity
  8
Defpoints
  6
ACAD_ISO10W100
 62
     0
100
AcDbPoint
 10
0.1712123824572375
 20
0.125365532270715
 30
0.0
  0
ENDBLK
  5
7BC
330
7B4
100
AcDbEntity
  8
0
100
AcDbBlockEnd
  0
BLOCK
  5
8B1
330
8AA
100
AcDbEntity
  8
0
100
AcDbBlockBegin
  2
*D21
 70
     1
 10
0.0
 20
0.0
 30
0.0
  3
*D21
  1

  0
LINE
  5
8C1
330
8AA
100
AcDbEntity
  8
Text
  6
ACAD_ISO10W100
 62
     5
370
    -2
100
AcDbLine
 10
0.2670886538023653
 20
0.1873887291946126
 30
0.0
 11
0.2655886538023653
 21
0.1873887291946126
 31
0.0
  0
LINE
  5
8C2
330
8AA
100
AcDbEntity
  8
Text
  6
ACAD_ISO10W100
 62
     5
370
    -2
100
AcDbLine
 10
0.2655886538023653
 20
0.1873887291946126
 30
0.0
 11
0.2629287825497108
 21
0.1860012548996068
 31
0.0
  0
MTEXT
  5
8C3
330
8AA
100
AcDbEntity
  8
Text
  6
ACAD_ISO10W100
 62
     4
100
AcDbMText
 10
0.2815172252309368
 20
0.1873887291946126
 30
0.0
 40
0.003
 41
0.0
 71
     5
 72
     1
  1
\A1;d 240 mm
  7
ROMANS
 73
     1
 44
1.0
1001
ACAD
1000
MTEXTBEGIN
1070
    73
1070
     1
1070
    44
1040
1.0
1070
    74
1070
     0
1000
MTEXTEND
  0
INSERT
  5
8C4
330
8AA
100
AcDbEntity
  8
Text
  6
ACAD_ISO10W100
 62
     5
370
    -2
100
AcDbBlockReference
  2
_ArchTick
 10
0.2629287825497108
 20
0.1860012548996068
 30
0.0
 41
0.0015
 42
0.0015
 43
0.0015
 50
207.5479922517093
  0
POINT
  5
8C5
330
8AA
100
AcDbEntity
  8
Defpoints
  6
ACAD_ISO10W100
 62
     0
100
AcDbPoint
 10
0.2629287825497108
 20
0.1860012548996068
 30
0.0
  0
POINT
  5
8C6
330
8AA
100
AcDbEntity
  8
Defpoints
  6
ACAD_ISO10W100
 62
     0
100
AcDbPoint
 10
0.1565339324435281
 20
0.1305022830993751
 30
0.0
  0
ENDBLK
  5
8B2
330
8AA
100
AcDbEntity
  8
0
100
AcDbBlockEnd
  0
ENDSEC
  0
SECTION
  2
ENTITIES
  0
LINE
  5
D
330
2
100
AcDbEntity
  8
Table
100
AcDbLine
 10
0.02
 20
0.02
 30
0.0
 11
0.4
 21
0.02
 31
0.0
  0
LINE
  5
10
330
2
100
AcDbEntity
  8
Table
100
AcDbLine
 10
0.4
 20
0.02
 30
0.0
 11
0.4
 21
0.2769999999999999
 31
0.0
  0
LINE
  5
11
330
2
100
AcDbEntity
  8
Table
100
AcDbLine
 10
0.4
 20
0.2769999999999999
 30
0.0
 11
0.02
 21
0.277
 31
0.0
  0
LINE
  5
12
330
2
100
AcDbEntity
  8
Table
100
AcDbLine
 10
0.02
 20
0.277
 30
0.0
 11
0.02
 21
0.02
 31
0.0
  0
LINE
  5
13
330
2
100
AcDbEntity
  8
Table
 62
     2
100
AcDbLine
 10
0.015
 20
0.015
 30
0.0
 11
0.4050000000000001
 21
0.015
 31
0.0
  0
LINE
  5
14
330
2
100
AcDbEntity
  8
Table
 62
     2
100
AcDbLine
 10
0.4050000000000001
 20
0.015
 30
0.0
 11
0.4050000000000001
 21
0.2819999999999998
 31
0.0
  0
LINE
  5
15
330
2
100
AcDbEntity
  8
Table
 62
     2
100
AcDbLine
 10
0.4050000000000001
 20
0.2819999999999998
 30
0.0
 11
0.0149999999999999
 21
0.282
 31
0.0
  0
LINE
  5
16
330
2
100
AcDbEntity
  8
Table
 62
     2
100
AcDbLine
 10
0.0149999999999999
 20
0.282
 30
0.0
 11
0.015
 21
0.015
 31
0.0
  0
LINE
  5
17
330
2
100
AcDbEntity
  8
Table
100
AcDbLine
 10
0.21
 20
0.2769999999999999
 30
0.0
 11
0.21
 21
0.2532994226089223
 31
0.0
  0
MTEXT
  5
18
102
{ACAD_XDICTIONARY
360
8CC
102
}
330
2
100
AcDbEntity
  8
Text
100
AcDbMText
 10
0.305
 20
0.0471738284815141
 30
0.0
 40
0.005
 41
0.1900000000000001
 71
     2
 72
     5
  3
{\fTimes New Roman|b0|i0|c238|p18;\H1.6x;\C4;Bovelacci\P\H0.4375x;\T0.95;via del Commercio, 5  47100 Forli - Italy  \fTimes New Roman|b0|i0|c0|p18;\P\fTimes New Roman|b0|i0|c238|p18;tel.+39-0543721386  fax +39-0543721127\fTimes New Roman|b0|i0|c0|p18
  1
; \fTimes New Roman|b0|i0|c238|p18;www.bovelacci.it\fTimes New Roman|b0|i0|c0|p18; \fTimes New Roman|b0|i0|c238|p18;e-mail: bovelacci@bovelacci\fTimes New Roman|b0|i0|c0|p18;.it}
 73
     1
 44
1.0
1001
ACAD
1000
ACAD_MTEXT_DEFINED_HEIGHT_BEGIN
1070
    46
1040
0.0271738284815141
1000
ACAD_MTEXT_DEFINED_HEIGHT_END
1000
MTEXTBEGIN
1070
    73
1070
     1
1070
    44
1040
1.0
1070
    74
1070
     0
1000
MTEXTEND
  0
MTEXT
  5
1C
330
2
100
AcDbEntity
  8
Text
100
AcDbMText
 10
0.0219676065851835
 20
0.0500313976452307
 30
0.0
 40
0.002
 41
0.1863544980601608
 71
     1
 72
     5
  3
{\fArial|b0|i0|c0|p34;\H1.25x;Le caratteristiche tecniche indicate vengono fornite a titolo indicativo e potranno essere modificate senza preavviso. Non devono quindi essere considerate a scopo di specifica.\P\fArial|b0|i1|c0|p34;The given values are
  3
 indicative and can be changed without notice. They cannot be considered like a state.\PThis lealfet and designs embodied within are protected by copyright law and international treaties. Unauthorized repro- duction of the leaflet or any portion of i
  1
t or reproduction of any of the designs embodied therein may result in severe civil penalties and will be prosecuted to the maximum.\PAll right reserved, Bovelacci Forlì Italy.}
 73
     1
 44
1.0
1001
ACAD
1000
MTEXTBEGIN
1070
    73
1070
     1
1070
    44
1040
1.0
1070
    74
1070
     0
1000
MTEXTEND
  0
LINE
  5
1D
330
2
100
AcDbEntity
  8
Table
100
AcDbLine
 10
0.02
 20
0.0528099428524846
 30
0.0
 11
0.4
 21
0.0528099428524846
 31
0.0
  0
MTEXT
  5
1E
330
2
100
AcDbEntity
  8
Text
100
AcDbMText
 10
0.1133313047219695
 20
0.2610796890771976
 30
0.0
 40
0.003
 41
0.1103605678262056
 71
     2
 72
     5
  1
{\fTimes New Roman|b0|i0|c0|p18;Rosoni\fTimes New Roman|b0|i1|c0|p18;   Ceiling centres}
 73
     1
 44
1.0
1001
ACAD
1000
ACAD_MTEXT_DEFINED_HEIGHT_BEGIN
1070
    46
1040
0.0141952763113409
1000
ACAD_MTEXT_DEFINED_HEIGHT_END
1000
MTEXTBEGIN
1070
    73
1070
     1
1070
    44
1040
1.0
1070
    74
1070
     0
1000
MTEXTEND
  0
TEXT
  5
1F
330
2
100
AcDbEntity
  8
Text
100
AcDbText
 10
0.2180556919891047
 20
0.269976982173197
 30
0.0
 40
0.003
  1
Rosone - Ceiling centre : D 240 mm
  7
ROMANS
100
AcDbText
  0
TEXT
  5
21
330
2
100
AcDbEntity
  8
Text
100
AcDbText
 10
0.2184542410678115
 20
0.2576348370183962
 30
0.0
 40
0.003
  1
File : E - C21
  7
ROMANS
100
AcDbText
  0
LINE
  5
22
330
2
100
AcDbEntity
  8
Table
100
AcDbLine
 10
0.4
 20
0.2654452889427402
 30
0.0
 11
0.02
 21
0.2654452889427403
 31
0.0
  0
LINE
  5
23
330
2
100
AcDbEntity
  8
Table
100
AcDbLine
 10
0.4
 20
0.2532994226089223
 30
0.0
 11
0.02
 21
0.2532994226089225
 31
0.0
  0
LINE
  5
24
330
2
100
AcDbEntity
  8
Table
100
AcDbLine
 10
0.21
 20
0.0528099428524846
 30
0.0
 11
0.21
 21
0.02
 31
0.0
  0
TEXT
  5
25
330
2
100
AcDbEntity
  8
Text
100
AcDbText
 10
0.0947789320547719
 20
0.2687784133392506
 30
0.0
 40
0.005
  1
EUROSTYL
  7
style1
 72
     1
 11
0.1140561490699125
 21
0.2687784133392506
 31
0.0
100
AcDbText
  0
TEXT
  5
252
330
2
100
AcDbEntity
  8
Text
  6
ACAD_ISO10W100
100
AcDbText
 10
0.2619444701437109
 20
0.0817475304515419
 30
0.0
 40
0.005
  1
scala 1 : 2
  7
style1
100
AcDbText
  0
CIRCLE
  5
846
330
2
100
AcDbEntity
  8
Profilo
  6
Continuous
370
     0
100
AcDbCircle
 10
0.2097313574966194
 20
0.1582517689994909
 30
0.0
 40
0.0523210807501815
  0
CIRCLE
  5
847
102
{ACAD_REACTORS
330
8BA
102
}
330
2
100
AcDbEntity
  8
Profilo
  6
Continuous
370
     0
100
AcDbCircle
 10
0.2097313574966194
 20
0.1582517689994909
 30
0.0
 40
0.06
  0
LWPOLYLINE
  5
848
330
2
100
AcDbEntity
  8
Profilo
  6
Continuous
370
     0
100
AcDbPolyline
 90
       17
 70
   128
 43
0.0
 10
0.2085509868301187
 20
0.1667523969886909
 10
0.2071966811494938
 20
0.1696189512996658
 10
0.2067186951120393
 20
0.171211479927049
 10
0.2069576908787293
 20
0.1727243862955901
 10
0.2075153403397722
 20
0.1734410248733334
 10
0.2082323276398411
 20
0.1739984085020752
 10
0.2093476320578515
 20
0.1739984085020752
 10
0.2107019322425518
 20
0.1739984085020752
 10
0.2118969055800751
 20
0.1738391570301795
 10
0.2130918789175976
 20
0.1734410248733334
 10
0.2139681930648426
 20
0.1730428892393816
 10
0.2143665156787095
 20
0.1721669991897426
 10
0.2139681930648426
 20
0.1704948413493049
 10
0.213410538107876
 20
0.169539325563718
 10
0.2128306026735557
 20
0.1684065295096897
 10
0.2121939987631673
 20
0.1672110516590693
 10
0.2118172421564867
 20
0.1662746390958969
  0
LWPOLYLINE
  5
849
330
2
100
AcDbEntity
  8
Profilo
  6
Continuous
370
     0
100
AcDbPolyline
 90
       17
 70
   128
 43
0.0
 10
0.2017794123766005
 20
0.1614798520110193
 10
0.1986197506816561
 20
0.1617402660425963
 10
0.1970015874153609
 20
0.1621225823051974
 10
0.1958108699500024
 20
0.1630860118948186
 10
0.1954690674668659
 20
0.1639272697833606
 10
0.195344852734756
 20
0.1648268908137819
 10
0.1959025049437616
 20
0.1657927727727312
 10
0.1965796550361113
 20
0.166965631137032
 10
0.1973150575251256
 20
0.1679208826682237
 10
0.1982573367557786
 20
0.1687566938569412
 10
0.1990402894025552
 20
0.1693165363531749
 10
0.1999979937433983
 20
0.1692235488308651
 10
0.2012469636054205
 20
0.1680425124081364
 10
0.2017956370709734
 20
0.1670818111560631
 10
0.2024866995139084
 20
0.166013174310373
 10
0.2032037117470126
 20
0.1648641202265176
 10
0.2038262905118024
 20
0.1640696331525028
  0
LWPOLYLINE
  5
84A
330
2
100
AcDbEntity
  8
Profilo
  6
Continuous
370
     0
100
AcDbPolyline
 90
       17
 70
   128
 43
0.0
 10
0.2029597830431013
 20
0.1529792240218184
 10
0.2011544270287819
 20
0.1503730837424204
 10
0.200014249799941
 20
0.1491628713776392
 10
0.1985845365678925
 20
0.1486133945987185
 10
0.1976850846237131
 20
0.1487380139095172
 10
0.1968438825915343
 20
0.1490802513111966
 10
0.1962862303825296
 20
0.150046133270146
 10
0.195609080290179
 20
0.1512189916344469
 10
0.1951495094416699
 20
0.1523334946375352
 10
0.1948968153348004
 20
0.1535674379830978
 10
0.1948034538343321
 20
0.1545254161132832
 10
0.1953628355613083
 20
0.1553083186406135
 10
0.1970101280371973
 20
0.1557994400583217
 10
0.1981164564597168
 20
0.1557942545918361
 10
0.1993874543369721
 20
0.1558584138001743
 10
0.2007410704804648
 20
0.1559048375669393
 10
0.2017404058519351
 20
0.1560467630560967
  0
LWPOLYLINE
  5
84B
330
2
100
AcDbEntity
  8
Profilo
  6
Continuous
370
     0
100
AcDbPolyline
 90
       17
 70
   128
 43
0.0
 10
0.2109117281631211
 20
0.1497511410102902
 10
0.2122660338437451
 20
0.1468845866993161
 10
0.2127440198811995
 20
0.1452920580719319
 10
0.2125050241145105
 20
0.1437791517033909
 10
0.2119473746534667
 20
0.1430625131256476
 10
0.2112303873533977
 20
0.1425051294969058
 10
0.2101150829353883
 20
0.1425051294969058
 10
0.2087607827506871
 20
0.1425051294969058
 10
0.2075658094131646
 20
0.1426643809688015
 10
0.2063708360756412
 20
0.1430625131256476
 10
0.2054945219283963
 20
0.1434606487595993
 10
0.2050961993145303
 20
0.1443365388092384
 10
0.2054945219283963
 20
0.1460086966496762
 10
0.2060521768853628
 20
0.1469642124352631
 10
0.2066321123196832
 20
0.1480970084892912
 10
0.2072687162300725
 20
0.1492924863399117
 10
0.2076454728367522
 20
0.150228898903084
  0
LWPOLYLINE
  5
84C
330
2
100
AcDbEntity
  8
Profilo
  6
Continuous
370
     0
100
AcDbPolyline
 90
       17
 70
   128
 43
0.0
 10
0.2176833026166393
 20
0.1550236859879618
 10
0.2208429643115827
 20
0.1547632719563856
 10
0.222461127577878
 20
0.1543809556937837
 10
0.2236518450432373
 20
0.1534175261041625
 10
0.2239936475263739
 20
0.1525762682156213
 10
0.2241178622584829
 20
0.1516766471851992
 10
0.2235602100494781
 20
0.1507107652262498
 10
0.2228830599571276
 20
0.1495379068619489
 10
0.2221476574681142
 20
0.1485826553307572
 10
0.2212053782374611
 20
0.1477468441420398
 10
0.2204224255906845
 20
0.1471870016458061
 10
0.2194647212498414
 20
0.1472799891681158
 10
0.2182157513878184
 20
0.1484610255908445
 10
0.2176670779222664
 20
0.149421726842918
 10
0.2169760154793313
 20
0.1504903636886079
 10
0.2162590032462272
 20
0.1516394177724634
 10
0.2156364244814365
 20
0.1524339048464783
  0
LWPOLYLINE
  5
84D
330
2
100
AcDbEntity
  8
Profilo
  6
Continuous
370
     0
100
AcDbPolyline
 90
       17
 70
   128
 43
0.0
 10
0.2165029319501376
 20
0.1635243139771625
 10
0.218308287964457
 20
0.1661304542565606
 10
0.2194484651932979
 20
0.1673406666213418
 10
0.2208781784253463
 20
0.1678901434002625
 10
0.2217776303695257
 20
0.1677655240894639
 10
0.2226188324017046
 20
0.1674232866877844
 10
0.2231764846107093
 20
0.1664574047288351
 10
0.2238536347030599
 20
0.1652845463645341
 10
0.224313205551569
 20
0.1641700433614457
 10
0.2245658996584384
 20
0.1629361000158831
 10
0.2246592611589077
 20
0.1619781218856977
 10
0.2240998794319306
 20
0.1611952193583675
 10
0.2224525869560415
 20
0.1607040979406594
 10
0.2213462585335221
 20
0.1607092834071449
 10
0.2200752606562667
 20
0.1606451241988068
 10
0.2187216445127741
 20
0.1605987004320418
 10
0.2177223091413038
 20
0.1604567749428852
  0
LWPOLYLINE
  5
84E
330
2
100
AcDbEntity
  8
Profilo
  6
Continuous
370
     0
100
AcDbPolyline
 90
       10
 70
   128
 43
0.0
 10
0.2142449733115032
 20
0.171604914513184
 10
0.2148343397520235
 20
0.1722276607875311
 10
0.2155752618026775
 20
0.1723118171930829
 10
0.2165350865205625
 20
0.1721266751871318
 10
0.2173770456446381
 20
0.1717059001135824
 10
0.2190165568239645
 20
0.1705079257005873
 10
0.2198753554602763
 20
0.1698851759491354
 10
0.2203636848273759
 20
0.169110949535637
 10
0.2205825929905315
 20
0.1684545413944909
 10
0.2205825929905315
 20
0.1677981332533458
  0
LWPOLYLINE
  5
84F
330
2
100
AcDbEntity
  8
Profilo
  6
Continuous
370
     0
100
AcDbPolyline
 90
       10
 70
   128
 43
0.0
 10
0.2004240021687726
 20
0.16883724771495
 10
0.200179371295336
 20
0.1696590271617516
 10
0.2004769507355641
 20
0.1703427626826184
 10
0.2011172007749681
 20
0.1710814242685113
 10
0.2019025822399784
 20
0.1716001947221344
 10
0.2037598141043792
 20
0.172421065846722
 10
0.2047285305274932
 20
0.1728534324067772
 10
0.2056431949534136
 20
0.1728892248373504
 10
0.2063211151604748
 20
0.1727506007971667
 10
0.2068895812859574
 20
0.1724223967265932
  0
LWPOLYLINE
  5
850
330
2
100
AcDbEntity
  8
Profilo
  6
Continuous
370
     0
100
AcDbPolyline
 90
       10
 70
   128
 43
0.0
 10
0.1959103863538888
 20
0.1554841022012562
 10
0.1950763890399328
 20
0.1556831353737114
 10
0.194633046429506
 20
0.1562827144890256
 10
0.194313471751025
 20
0.1572065180808705
 10
0.1942568940919597
 20
0.1581460636080421
 10
0.1944746147770341
 20
0.1601649091456248
 10
0.1945845325638363
 20
0.1612200254571328
 10
0.1950108676226571
 20
0.1620300443012035
 10
0.1954698796665618
 20
0.1625478284021658
 10
0.1960383457920453
 20
0.1628760324727383
  0
LWPOLYLINE
  5
851
330
2
100
AcDbEntity
  8
Profilo
  6
Continuous
370
     0
100
AcDbPolyline
 90
       10
 70
   128
 43
0.0
 10
0.2052177416817357
 20
0.144898623485797
 10
0.2046283752412163
 20
0.1442758772114508
 10
0.2038874531905614
 20
0.1441917208058981
 10
0.2029276284726763
 20
0.1443768628118492
 10
0.2020856693486016
 20
0.1447976378853986
 10
0.2004461581692744
 20
0.1459956122983937
 10
0.1995873595329626
 20
0.1466183620498456
 10
0.1990990301658629
 20
0.147392588463344
 10
0.1988801220027073
 20
0.14804899660449
 10
0.1988801220027073
 20
0.1487054047456361
  0
LWPOLYLINE
  5
852
330
2
100
AcDbEntity
  8
Profilo
  6
Continuous
370
     0
100
AcDbPolyline
 90
       10
 70
   128
 43
0.0
 10
0.2190387128244672
 20
0.1476662902840309
 10
0.2192833436979028
 20
0.1468445108372295
 10
0.2189857642576748
 20
0.1461607753163625
 10
0.2183455142182708
 20
0.1454221137304697
 10
0.2175601327532614
 20
0.1449033432768474
 10
0.2157029008888597
 20
0.1440824721522589
 10
0.2147341844657457
 20
0.1436501055922037
 10
0.2138195200398262
 20
0.1436143131616306
 10
0.2131415998327649
 20
0.1437529372018152
 10
0.2125731337072815
 20
0.1440811412723877
  0
LWPOLYLINE
  5
853
330
2
100
AcDbEntity
  8
Profilo
  6
Continuous
370
     0
100
AcDbPolyline
 90
       10
 70
   128
 43
0.0
 10
0.2235523286393501
 20
0.1610194357977249
 10
0.224386325953306
 20
0.1608204026252696
 10
0.2248296685637329
 20
0.1602208235099554
 10
0.2251492432422139
 20
0.1592970199181105
 10
0.2252058209012792
 20
0.1583574743909389
 10
0.2249881002162048
 20
0.1563386288533562
 10
0.2248781824294025
 20
0.1552835125418482
 10
0.2244518473705818
 20
0.1544734936977774
 10
0.223992835326677
 20
0.1539557095968152
 10
0.2234243692011936
 20
0.1536275055262426
  0
LWPOLYLINE
  5
854
330
2
100
AcDbEntity
  8
Profilo
  6
Continuous
370
     0
100
AcDbPolyline
 90
        9
 70
   128
 43
0.0
 10
0.2096011040893035
 20
0.154603255190444
 10
0.209176203185235
 20
0.1513877176212095
 10
0.2097832005511017
 20
0.1507203426865627
 10
0.2108150933251095
 20
0.1508416832676709
 10
0.2119683910682165
 20
0.1509630238487792
 10
0.2130609863267735
 20
0.151448389650317
 10
0.2131823857999472
 20
0.1522371051660721
 10
0.2126967879072551
 20
0.1532685018440436
 10
0.2120290880568402
 20
0.154785264323553
  0
LWPOLYLINE
  5
855
330
2
100
AcDbEntity
  8
Profilo
  6
Continuous
370
     0
100
AcDbPolyline
 90
        9
 70
   128
 43
0.0
 10
0.212825936437654
 20
0.1563147093353019
 10
0.2153982232074004
 20
0.1543389655736711
 10
0.2162796855375867
 20
0.1545309532452175
 10
0.2166905478988407
 20
0.1554852688920445
 10
0.2171621127446447
 20
0.1565447243262564
 10
0.2172880712596638
 20
0.1577336224769906
 10
0.2166657233232473
 20
0.1582331152626424
 10
0.215529708652399
 20
0.1583282734905318
 10
0.2138823038884298
 20
0.1585084096977253
  0
LWPOLYLINE
  5
856
330
2
100
AcDbEntity
  8
Profilo
  6
Continuous
370
     0
100
AcDbPolyline
 90
        9
 70
   128
 43
0.0
 10
0.2129561898449709
 20
0.159963223144348
 10
0.2159533775187849
 20
0.1612030169519516
 10
0.2162278424831045
 20
0.1620623795581449
 10
0.2156068120703515
 20
0.1628953546238637
 10
0.2149250791730485
 20
0.1638334694769672
 10
0.2139584424295097
 20
0.1645370018261636
 10
0.2132146950199195
 20
0.1642477790960604
 10
0.2125642782417642
 20
0.1633115406459792
 10
0.211584573328209
 20
0.1619749143736623
  0
LWPOLYLINE
  5
857
330
2
100
AcDbEntity
  8
Profilo
  6
Continuous
370
     0
100
AcDbPolyline
 90
        9
 70
   128
 43
0.0
 10
0.2098616109039363
 20
0.161900282808537
 10
0.2102865118080039
 20
0.1651158203777714
 10
0.2096795144421381
 20
0.1657831953124183
 10
0.2086476216681294
 20
0.16566185473131
 10
0.2074943239250232
 20
0.1655405141502027
 10
0.2064017286664654
 20
0.1650551483486641
 10
0.2062803291932917
 20
0.164266432832909
 10
0.2067659270859846
 20
0.1632350361549374
 10
0.2074336269363987
 20
0.1617182736754279
  0
LWPOLYLINE
  5
858
330
2
100
AcDbEntity
  8
Profilo
  6
Continuous
370
     0
100
AcDbPolyline
 90
        9
 70
   128
 43
0.0
 10
0.2066367785555848
 20
0.160188828663679
 10
0.2040644917858393
 20
0.1621645724253108
 10
0.203183029455653
 20
0.1619725847537634
 10
0.2027721670943982
 20
0.1610182691069364
 10
0.2023006022485942
 20
0.1599588136727255
 10
0.202174643733576
 20
0.1587699155219913
 10
0.2027969916699916
 20
0.1582704227363385
 10
0.2039330063408399
 20
0.1581752645084491
 10
0.20558041110481
 20
0.1579951283012558
  0
LWPOLYLINE
  5
859
330
2
100
AcDbEntity
  8
Profilo
  6
Continuous
370
     0
100
AcDbPolyline
 90
        9
 70
   128
 43
0.0
 10
0.2065065251482689
 20
0.156540314854633
 10
0.2035093374744549
 20
0.1553005210470293
 10
0.2032348725101344
 20
0.1544411584408361
 10
0.2038559029228883
 20
0.1536081833751174
 10
0.2045376358201913
 20
0.1526700685220137
 10
0.2055042725637301
 20
0.1519665361728173
 10
0.2062480199733193
 20
0.1522557589029206
 10
0.2068984367514756
 20
0.1531919973530018
 10
0.2078781416650307
 20
0.1545286236253187
  0
LWPOLYLINE
  5
85A
330
2
100
AcDbEntity
  8
Profilo
  6
Continuous
370
     0
100
AcDbPolyline
 90
        7
 70
   128
 43
0.0
 10
0.2040145464413711
 20
0.1622183128658617
 10
0.2039675507921749
 20
0.1629464119862123
 10
0.2042965258324755
 20
0.1635570753159111
 10
0.204766498812213
 20
0.1640033306249625
 10
0.205377453243618
 20
0.1643086622898128
 10
0.2058474207274318
 20
0.1643086622898128
 10
0.2061529006910962
 20
0.1642616900598164
  0
LWPOLYLINE
  5
85B
330
2
100
AcDbEntity
  8
Profilo
  6
Continuous
370
     0
100
AcDbPolyline
 90
        7
 70
   128
 43
0.0
 10
0.2034378242154932
 20
0.1552841373301954
 10
0.2027837740561979
 20
0.1556074874642992
 10
0.2024194116196688
 20
0.1561977198712594
 10
0.2022679296753259
 20
0.1568278560653308
 10
0.2023089819126883
 20
0.1575096239559069
 10
0.2025439656545957
 20
0.1579166277358424
 10
0.2027373847808772
 20
0.1581576950297248
  0
LWPOLYLINE
  5
85C
330
2
100
AcDbEntity
  8
Profilo
  6
Continuous
370
     0
100
AcDbPolyline
 90
        7
 70
   128
 43
0.0
 10
0.2091546352707415
 20
0.1513175934638238
 10
0.2085475807606433
 20
0.1509128444775769
 10
0.2078542432838136
 20
0.1508924135548393
 10
0.2072327883597324
 20
0.1510762944398592
 10
0.2066628861656897
 20
0.1514527306655851
 10
0.2064279024237824
 20
0.1518597344455206
 10
0.2063158415864005
 20
0.1521477739693993
  0
LWPOLYLINE
  5
85D
330
2
100
AcDbEntity
  8
Profilo
  6
Continuous
370
     0
100
AcDbPolyline
 90
        7
 70
   128
 43
0.0
 10
0.2154481685518678
 20
0.1542852251331193
 10
0.2154951642010649
 20
0.1535571260127695
 10
0.2151661891607643
 20
0.15294646268307
 10
0.2146962161810259
 20
0.1525002073740186
 10
0.2140852617496217
 20
0.1521948757091683
 10
0.2136152942658071
 20
0.1521948757091683
 10
0.2133098143021427
 20
0.1522418479391654
  0
LWPOLYLINE
  5
85E
330
2
100
AcDbEntity
  8
Profilo
  6
Continuous
370
     0
100
AcDbPolyline
 90
        7
 70
   128
 43
0.0
 10
0.2160248907777466
 20
0.1612194006687856
 10
0.216678940937041
 20
0.1608960505346826
 10
0.21704330337357
 20
0.1603058181277215
 10
0.2171947853179138
 20
0.1596756819336503
 10
0.2171537330805514
 20
0.1589939140430741
 10
0.2169187493386441
 20
0.1585869102631386
 10
0.2167253302123625
 20
0.1583458429692562
  0
LWPOLYLINE
  5
85F
330
2
100
AcDbEntity
  8
Profilo
  6
Continuous
370
     0
100
AcDbPolyline
 90
        7
 70
   128
 43
0.0
 10
0.2103080797224982
 20
0.1651859445351572
 10
0.2109151342325965
 20
0.165590693521404
 10
0.2116084717094252
 20
0.1656111244441416
 10
0.2122299266335074
 20
0.1654272435591227
 10
0.2127998288275491
 20
0.1650508073333959
 10
0.2130348125694565
 20
0.1646438035534603
 10
0.2131468734068393
 20
0.1643557640295817
  0
LWPOLYLINE
  5
860
330
2
100
AcDbEntity
  8
Profilo
  6
Continuous
370
     0
100
AcDbPolyline
 90
       27
 70
   128
 43
0.0
 10
0.2106357008580976
 20
0.1751554017393551
 10
0.2110663834745913
 20
0.1801059006443409
 10
0.2118200835493801
 20
0.1831192479550759
 10
0.2130044662406626
 20
0.1875316507403729
 10
0.2135428250072041
 20
0.1914059574059801
 10
0.2140811837737474
 20
0.1944193047167151
 10
0.2146195370443643
 20
0.1980783680664982
 10
0.2151578958109058
 20
0.2005536192575435
 10
0.216234607848066
 20
0.2027060106905128
 10
0.2182803667641843
 20
0.2034593466489202
 10
0.2200031082220101
 20
0.2034593466489202
 10
0.2216181735297863
 20
0.2018450548127463
 10
0.2220488616422046
 20
0.2001231395801073
 10
0.2223718736045751
 20
0.1973250321080909
 10
0.2226948910628702
 20
0.1966793160690428
 10
0.2244176325206943
 20
0.1981859879858575
 10
0.2259250271743473
 20
0.1995850434604185
 10
0.2288321568193793
 20
0.200015519660749
 10
0.2300165395106627
 20
0.199369803621701
 10
0.2303594412232898
 20
0.198188474116914
 10
0.2303966101597314
 20
0.1965910184298
 10
0.2299877573547925
 20
0.1942505572673137
 10
0.2291328938003216
 20
0.1917614984868597
 10
0.2264404404566899
 20
0.1864647319436917
 10
0.2235906662782713
 20
0.1817173968869902
 10
0.2215958271013409
 20
0.1780144767945207
 10
0.2187460584188478
 20
0.172982304137934
  0
LWPOLYLINE
  5
861
330
2
100
AcDbEntity
  8
Profilo
  6
Continuous
370
     0
100
AcDbPolyline
 90
        5
 70
   128
 43
0.0
 10
0.2146613885083609
 20
0.1750711305892926
 10
0.2162762559628594
 20
0.1791538376253821
 10
0.2182710951397898
 20
0.1841860102819698
 10
0.2199809596468415
 20
0.1891232370719289
 10
0.2218808072671451
 20
0.1947250918824992
  0
LWPOLYLINE
  5
862
330
2
100
AcDbEntity
  8
Profilo
  6
Continuous
370
     0
100
AcDbPolyline
 90
       10
 70
   128
 43
0.0
 10
0.2130465155579361
 20
0.1756408092661704
 10
0.2143764083425567
 20
0.1815275051537334
 10
0.2156113095705495
 20
0.1868445188873118
 10
0.2171311854684238
 20
0.1929211065081325
 10
0.2179861204699111
 20
0.1959593985799891
 10
0.2181761035831639
 20
0.1988077989185888
 10
0.21760614874748
 20
0.2006117877700622
 10
0.2167512192419173
 20
0.2006117877700622
 10
0.216466239076114
 20
0.1989976941289522
 10
0.216466239076114
 20
0.197573492221099
  0
LWPOLYLINE
  5
863
330
2
100
AcDbEntity
  8
Profilo
  6
Continuous
370
     0
100
AcDbPolyline
 90
       13
 70
   128
 43
0.0
 10
0.216466239076114
 20
0.1742166108354238
 10
0.2196009879244104
 20
0.1801982491125086
 10
0.2215958271013409
 20
0.1841860102819698
 10
0.2238756464440756
 20
0.1883636666617944
 10
0.2254905138985758
 20
0.1911171176566591
 10
0.2267254151265686
 20
0.1940604673389939
 10
0.2272003784056257
 20
0.1962442396569808
 10
0.2273903615188785
 20
0.197668441564834
 10
0.2267254151265686
 20
0.1978583332980909
 10
0.2257754940643792
 20
0.1970987594108505
 10
0.2253005307853221
 20
0.1965290807339735
 10
0.2247305759496391
 20
0.1955796116363689
 10
0.224255612670582
 20
0.1949149870928626
  0
LWPOLYLINE
  5
864
330
2
100
AcDbEntity
  8
Profilo
  6
Continuous
370
     0
100
AcDbPolyline
 90
        8
 70
   128
 43
0.0
 10
0.2197703833050139
 20
0.2038210526393994
 10
0.221105826973237
 20
0.2052380291202084
 10
0.2236169697722551
 20
0.2054083864698602
 10
0.2262315678514132
 20
0.2047012473467283
 10
0.2284462879701116
 20
0.2035329291739914
 10
0.2298299199031168
 20
0.2020156277429932
 10
0.2303491748365864
 20
0.2005384590737569
 10
0.2302528862418106
 20
0.1993665525272415
  0
LWPOLYLINE
  5
865
330
2
100
AcDbEntity
  8
Profilo
  6
Continuous
370
     0
100
AcDbPolyline
 90
       27
 70
   128
 43
0.0
 10
0.202062725451471
 20
0.1733429160491949
 10
0.1999604580858304
 20
0.1778455151705665
 10
0.1991065078420638
 20
0.180832000529483
 10
0.1979260119478682
 20
0.1852454447789198
 10
0.1964550909832406
 20
0.1888698721566578
 10
0.1954146496960493
 20
0.1917486868614521
 10
0.194051345629722
 20
0.1951867053117289
 10
0.1932799524023742
 20
0.197599515107193
 10
0.1931362166626308
 20
0.2000018967856126
 10
0.1945312278748047
 20
0.201677184321236
 10
0.1960231657414341
 20
0.2025385550501489
 10
0.1982289992448266
 20
0.2019480699647896
 10
0.1994629437076075
 20
0.2006721916863702
 10
0.2011417340087548
 20
0.19841046551427
 10
0.2017443333530283
 20
0.1980127677499708
 10
0.2024829352612495
 20
0.2001789546340123
 10
0.2030888495875613
 20
0.2021442695431122
 10
0.2053912596120887
 20
0.203970637690839
 10
0.2067398231300669
 20
0.2040036225430344
 10
0.2076274494765967
 20
0.2031520120379622
 10
0.2084583665633443
 20
0.2017871592997225
 10
0.2092745202291012
 20
0.1995558340739695
 10
0.2097787160643873
 20
0.1969728141613481
 10
0.2100953663418811
 20
0.1910394531052327
 10
0.2100010570366732
 20
0.1855032532566442
 10
0.2101249356792215
 20
0.1812990107999169
 10
0.2101730499335667
 20
0.1755161371018359
  0
LWPOLYLINE
  5
866
330
2
100
AcDbEntity
  8
Profilo
  6
Continuous
370
     0
100
AcDbPolyline
 90
        5
 70
   128
 43
0.0
 10
0.2055912087993316
 20
0.1752827789175655
 10
0.2049483715206274
 20
0.1796259406542789
 10
0.2041598665960204
 20
0.1849813495995785
 10
0.2031720393011768
 20
0.1901120456774532
 10
0.2020164281983935
 20
0.1959133180618713
  0
LWPOLYLINE
  5
867
330
2
100
AcDbEntity
  8
Profilo
  6
Continuous
370
     0
100
AcDbPolyline
 90
       10
 70
   128
 43
0.0
 10
0.2039078484619407
 20
0.174968698648524
 10
0.2021162214539504
 20
0.1807316732238172
 10
0.2005271704217674
 20
0.1859537928033641
 10
0.1988051277495159
 20
0.1919762100002534
 10
0.1980263771434599
 20
0.1950349156193421
 10
0.1967667071765272
 20
0.1975966942293435
 10
0.1953711173840781
 20
0.1988740169850217
 10
0.1946307267138162
 20
0.1984465522322403
 10
0.1951909734712104
 20
0.1969062160520505
 10
0.1959030744251374
 20
0.1956728210197308
  0
LWPOLYLINE
  5
868
330
2
100
AcDbEntity
  8
Profilo
  6
Continuous
370
     0
100
AcDbPolyline
 90
       13
 70
   128
 43
0.0
 10
0.2075815151179751
 20
0.1754451683865564
 10
0.2073054681165417
 20
0.1821927935149097
 10
0.2070391689354975
 20
0.1866437155803536
 10
0.2069247222124319
 20
0.1914015818049306
 10
0.2069465129543414
 20
0.1945935740418093
 10
0.2065442939477807
 20
0.1977600402529281
 10
0.2058637380543153
 20
0.1998887241959156
 10
0.2053161673027563
 20
0.2012171107848604
 10
0.2046453609682323
 20
0.2010490886536751
 10
0.204202492140407
 20
0.1999163178401784
 10
0.2040760012133171
 20
0.1991854799944799
 10
0.2040571403954078
 20
0.1980782382180053
 10
0.2039781224016321
 20
0.197265174839821
  0
LWPOLYLINE
  5
869
330
2
100
AcDbEntity
  8
Profilo
  6
Continuous
370
     0
100
AcDbPolyline
 90
        8
 70
   128
 43
0.0
 10
0.1956407670559822
 20
0.2027354391681071
 10
0.196088806957582
 20
0.2046302986311644
 10
0.1981783417392363
 20
0.2060334038231944
 10
0.2007962196580396
 20
0.2067283024181308
 10
0.2032983826294731
 20
0.2068238692601859
 10
0.2052552937484417
 20
0.2062016636422464
 10
0.2064435660464853
 20
0.2051820255157478
 10
0.2069461309505724
 20
0.2041189803782164
  0
LWPOLYLINE
  5
86A
330
2
100
AcDbEntity
  8
Profilo
  6
Continuous
370
     0
100
AcDbPolyline
 90
       27
 70
   128
 43
0.0
 10
0.1955445538083927
 20
0.1674867696942067
 10
0.1914726373035157
 20
0.1703350012335519
 10
0.189239852019388
 20
0.1724943983005204
 10
0.1860107904612328
 20
0.1757263051916217
 10
0.1829247218500364
 20
0.1781296908926005
 10
0.1805842659117863
 20
0.1801025969161441
 10
0.1776846007321254
 20
0.1823983561996008
 10
0.1758101497032028
 20
0.1841022141632982
 10
0.1744844800619444
 20
0.1861108698565242
 10
0.1748549514424383
 20
0.1882592170271045
 10
0.1757163221713512
 20
0.1897511548937339
 10
0.1779218725644876
 20
0.1903426965609535
 10
0.1796284389553254
 20
0.1898547257910955
 10
0.182213177089796
 20
0.1887354086202262
 10
0.1829338923123903
 20
0.1886922919254518
 10
0.1824904468861729
 20
0.1909375657504876
 10
0.1820325266307251
 20
0.1929425355513604
 10
0.1831132881280303
 20
0.1956754217762183
 10
0.1842646859671192
 20
0.1963782692551484
 10
0.1854591981848185
 20
0.1960845660968904
 10
0.1868612198594998
 20
0.1953180274965248
 10
0.188683692280314
 20
0.1937937199997955
 10
0.1904118486384644
 20
0.1918088570546276
 10
0.1936527563509472
 20
0.1868287407889534
 10
0.1963391820211181
 20
0.1819870964270438
 10
0.1985485853009149
 20
0.1784080549771228
 10
0.2014816903165028
 20
0.1734239965748804
  0
LWPOLYLINE
  5
86B
330
2
100
AcDbEntity
  8
Profilo
  6
Continuous
370
     0
100
AcDbPolyline
 90
        5
 70
   128
 43
0.0
 10
0.1976303785902854
 20
0.1709309818920047
 10
0.1949020843080714
 20
0.1743708516493901
 10
0.1915415145397031
 20
0.1786145193813707
 10
0.1881206829688792
 20
0.1825639188764855
 10
0.1842192582047647
 20
0.1870101625842724
  0
LWPOLYLINE
  5
86C
330
2
100
AcDbEntity
  8
Profilo
  6
Continuous
370
     0
100
AcDbPolyline
 90
       10
 70
   128
 43
0.0
 10
0.196329585908903
 20
0.1698173002314916
 10
0.1918965041182296
 20
0.1739123691110643
 10
0.1879092857666763
 20
0.1776403318124598
 10
0.1834067444676614
 20
0.181994876761029
 10
0.1812029738500599
 20
0.1842544182268296
 10
0.1788311783533104
 20
0.1858431485984966
 10
0.1769839007619492
 20
0.1862515476575209
 10
0.1765564360091679
 20
0.185511156987259
 10
0.1778117920235535
 20
0.1844573101035432
 10
0.1790451870558732
 20
0.1837452091496162
  0
LWPOLYLINE
  5
86D
330
2
100
AcDbEntity
  8
Profilo
  6
Continuous
370
     0
100
AcDbPolyline
 90
       13
 70
   128
 43
0.0
 10
0.1992728396890476
 20
0.1720667684567786
 10
0.1956599634089916
 20
0.1777723597324299
 10
0.1932038805204782
 20
0.1814938217208469
 10
0.1907258336386358
 20
0.1855570313776067
 10
0.1891487088562574
 20
0.1883322731143811
 10
0.1872171438731306
 20
0.1908734037901544
 10
0.185563423209201
 20
0.1923766202146767
 10
0.1844250197335081
 20
0.19325325137097
 10
0.1839280954723844
 20
0.1927723367697037
 10
0.1841109452236916
 20
0.1915698940546371
 10
0.1843668197903331
 20
0.1908737244506702
 10
0.1849041067311247
 20
0.1899053945351572
 10
0.1852422068302512
 20
0.1891617519978753
  0
LWPOLYLINE
  5
86E
330
2
100
AcDbEntity
  8
Profilo
  6
Continuous
370
     0
100
AcDbPolyline
 90
        8
 70
   128
 43
0.0
 10
0.1752867131363968
 20
0.1897304621987621
 10
0.1747272973415627
 20
0.191595478581171
 10
0.1758353349485516
 20
0.1938553707124771
 10
0.1777550344327733
 20
0.1957661095081485
 10
0.1798741877094158
 20
0.1970999543068442
 10
0.1818800252603613
 20
0.1975395639948155
 10
0.1834189183203295
 20
0.197250667623622
 10
0.1843856748630851
 20
0.1965813259811944
  0
LWPOLYLINE
  5
86F
330
2
100
AcDbEntity
  8
Profilo
  6
Continuous
370
     0
100
AcDbPolyline
 90
       27
 70
   128
 43
0.0
 10
0.1928277247567543
 20
0.1591561123609682
 10
0.1878772258517695
 20
0.1595867949774628
 10
0.1848638785410345
 20
0.1603404950522508
 10
0.1804514757557375
 20
0.1615248777435332
 10
0.1765771690901302
 20
0.1620632365100747
 10
0.1735638217793952
 20
0.162601595276618
 10
0.1699047584296122
 20
0.1631399485472349
 10
0.167429507238566
 20
0.1636783073137765
 10
0.1652771158055976
 20
0.1647550193509367
 10
0.1645237798471902
 20
0.1668007782670549
 10
0.1645237798471902
 20
0.1685235197248807
 10
0.1661380716833632
 20
0.1701385850326579
 10
0.1678599869160021
 20
0.1705692731450752
 10
0.1706580943880186
 20
0.1708922851074457
 10
0.1713038104270675
 20
0.1712153025657408
 10
0.1697971385102529
 20
0.1729380440235658
 10
0.1683980830356918
 20
0.1744454386772179
 10
0.1679676068353614
 20
0.17735256832225
 10
0.1686133228744094
 20
0.1785369510135334
 10
0.1697946523791963
 20
0.1788798527261604
 10
0.1713921080663104
 20
0.1789170216626029
 10
0.1737325692287958
 20
0.178508168857664
 10
0.1762216280092507
 20
0.177653305303193
 10
0.1815183945524187
 20
0.1749608519595605
 10
0.1862657296091193
 20
0.1721110777811428
 10
0.1899686497015888
 20
0.1701162386042124
 10
0.1950008223581764
 20
0.1672664699217184
  0
LWPOLYLINE
  5
870
330
2
100
AcDbEntity
  8
Profilo
  6
Continuous
370
     0
100
AcDbPolyline
 90
        5
 70
   128
 43
0.0
 10
0.1929119959068178
 20
0.1631818000112315
 10
0.1888292888707274
 20
0.1647966674657309
 10
0.1837971162141406
 20
0.1667915066426613
 10
0.1788598894241814
 20
0.1685013711497131
 10
0.1732580346136111
 20
0.1704012187700158
  0
LWPOLYLINE
  5
871
330
2
100
AcDbEntity
  8
Profilo
  6
Continuous
370
     0
100
AcDbPolyline
 90
       10
 70
   128
 43
0.0
 10
0.19234231722994
 20
0.1615669270608076
 10
0.186455621342377
 20
0.1628968198454273
 10
0.1811386076087976
 20
0.1641317210734201
 10
0.1750620199879779
 20
0.1656515969712944
 10
0.1720237279161213
 20
0.1665065319727826
 10
0.1691753275775215
 20
0.1666965150860345
 10
0.1673713387260481
 20
0.1661265602503506
 10
0.1673713387260481
 20
0.1652716307447879
 10
0.1689854323671572
 20
0.1649866505789846
 10
0.1704096342750113
 20
0.1649866505789846
  0
LWPOLYLINE
  5
872
330
2
100
AcDbEntity
  8
Profilo
  6
Continuous
370
     0
100
AcDbPolyline
 90
       13
 70
   128
 43
0.0
 10
0.1937665156606866
 20
0.1649866505789846
 10
0.1877848773836018
 20
0.168121399427282
 10
0.1837971162141406
 20
0.1701162386042124
 10
0.179619459834316
 20
0.1723960579469462
 10
0.1768660088394512
 20
0.1740109254014464
 10
0.1739226591571165
 20
0.1752458266294393
 10
0.1717388868391286
 20
0.1757207899084972
 10
0.1703146849312763
 20
0.17591077302175
 10
0.1701247931980195
 20
0.1752458266294393
 10
0.1708843670852599
 20
0.1742959055672506
 10
0.1714540457621368
 20
0.1738209422881928
 10
0.1724035148597415
 20
0.1732509874525097
 10
0.1730681394032477
 20
0.1727760241734527
  0
LWPOLYLINE
  5
873
330
2
100
AcDbEntity
  8
Profilo
  6
Continuous
370
     0
100
AcDbPolyline
 90
        8
 70
   128
 43
0.0
 10
0.164162073856711
 20
0.1682907948078845
 10
0.162745097375902
 20
0.1696262384761077
 10
0.1625747400262493
 20
0.1721373812751266
 10
0.1632818791493821
 20
0.1747519793542847
 10
0.164450197322119
 20
0.1769666994729822
 10
0.1659674987531162
 20
0.1783503314059883
 10
0.1674446674223534
 20
0.1788695863394579
 10
0.1686165739688689
 20
0.1787732977446821
  0
LWPOLYLINE
  5
874
330
2
100
AcDbEntity
  8
Profilo
  6
Continuous
370
     0
100
AcDbPolyline
 90
       27
 70
   128
 43
0.0
 10
0.1946402104469155
 20
0.1505831369543416
 10
0.1901376113255438
 20
0.148480869588701
 10
0.1871511259666273
 20
0.1476269193449345
 10
0.1827376817171905
 20
0.1464464234507397
 10
0.1791132543394517
 20
0.1449755024861113
 10
0.1762344396346583
 20
0.1439350611989199
 10
0.1727964211843814
 20
0.1425717571325926
 10
0.1703836113889173
 20
0.1418003639052457
 10
0.1679812297104978
 20
0.1416566281655014
 10
0.1663059421748735
 20
0.1430516393776753
 10
0.1654445714459615
 20
0.1445435772443047
 10
0.1660350565313208
 20
0.1467494107476972
 10
0.1673109348097402
 20
0.1479833552104781
 10
0.1695726609818403
 20
0.1496621455116255
 10
0.1699703587461395
 20
0.1502647448558989
 10
0.1678041718620981
 20
0.151003346764121
 10
0.1658388569529973
 20
0.1516092610904327
 10
0.1640124888052713
 20
0.1539116711149593
 10
0.1639795039530759
 20
0.1552602346329384
 10
0.1648311144581481
 20
0.1561478609794673
 10
0.1661959671963878
 20
0.1569787780662149
 10
0.1684272924221409
 20
0.1577949317319728
 10
0.1710103123347623
 20
0.1582991275672579
 10
0.1769436733908768
 20
0.1586157778447526
 10
0.1824798732394662
 20
0.1585214685395438
 10
0.1866841156961935
 20
0.1586453471820921
 10
0.1924669893942744
 20
0.1586934614364373
  0
LWPOLYLINE
  5
875
330
2
100
AcDbEntity
  8
Profilo
  6
Continuous
370
     0
100
AcDbPolyline
 90
        5
 70
   128
 43
0.0
 10
0.1927003475785439
 20
0.1541116203022022
 10
0.1883571858418315
 20
0.1534687830234981
 10
0.1830017768965318
 20
0.152680278098891
 10
0.1778710808186571
 20
0.1516924508040474
 10
0.172069808434239
 20
0.1505368397012642
  0
LWPOLYLINE
  5
876
330
2
100
AcDbEntity
  8
Profilo
  6
Continuous
370
     0
100
AcDbPolyline
 90
       10
 70
   128
 43
0.0
 10
0.1930144278475855
 20
0.1524282599648113
 10
0.1872514532722923
 20
0.150636632956821
 10
0.1820293336927462
 20
0.149047581924638
 10
0.176006916495857
 20
0.1473255392523865
 10
0.1729482108767683
 20
0.1465467886463306
 10
0.1703864322667669
 20
0.1452871186793978
 10
0.1691091095110887
 20
0.1438915288869496
 10
0.16953657426387
 20
0.1431511382166868
 10
0.1710769104440598
 20
0.1437113849740811
 10
0.1723103054763796
 20
0.144423485928008
  0
LWPOLYLINE
  5
877
330
2
100
AcDbEntity
  8
Profilo
  6
Continuous
370
     0
100
AcDbPolyline
 90
       13
 70
   128
 43
0.0
 10
0.192537958109554
 20
0.1561019266208457
 10
0.1857903329812006
 20
0.1558258796194123
 10
0.1813394109157568
 20
0.1555595804383681
 10
0.1765815446911797
 20
0.1554451337153025
 10
0.1733895524543011
 20
0.1554669244572129
 10
0.1702230862431814
 20
0.1550647054506513
 10
0.1680944023001948
 20
0.1543841495571867
 10
0.166766015711249
 20
0.1538365788056269
 10
0.1669340378424352
 20
0.1531657724711029
 10
0.1680668086559319
 20
0.1527229036432776
 10
0.1687976465016304
 20
0.1525964127161876
 10
0.169904888278105
 20
0.1525775518982784
 10
0.1707179516562894
 20
0.1524985339045035
  0
LWPOLYLINE
  5
878
330
2
100
AcDbEntity
  8
Profilo
  6
Continuous
370
     0
100
AcDbPolyline
 90
        8
 70
   128
 43
0.0
 10
0.1652476873280023
 20
0.1441611785588528
 10
0.1633528278649451
 20
0.1446092184604526
 10
0.161949722672916
 20
0.1466987532421069
 10
0.1612548240779795
 20
0.1493166311609102
 10
0.1611592572359236
 20
0.1518187941323437
 10
0.161781462853864
 20
0.1537757052513123
 10
0.1628011009803626
 20
0.1549639775493559
 10
0.1638641461178939
 20
0.155466542453443
  0
LWPOLYLINE
  5
879
330
2
100
AcDbEntity
  8
Profilo
  6
Continuous
370
     0
100
AcDbPolyline
 90
       27
 70
   128
 43
0.0
 10
0.2004963568019037
 20
0.1440649653112643
 10
0.1976481252625585
 20
0.1399930488063863
 10
0.19548872819559
 20
0.1377602635222586
 10
0.1922568213044887
 20
0.1345312019641043
 10
0.1898534356035099
 20
0.1314451333529079
 10
0.1878805295799662
 20
0.1291046774146569
 10
0.1855847702965095
 20
0.1262050122349969
 10
0.1838809123328112
 20
0.1243305612060744
 10
0.1818722566395862
 20
0.1230048915648151
 10
0.1797239094690058
 20
0.123375362945309
 10
0.1782319716023756
 20
0.1242367336742219
 10
0.1776404299351569
 20
0.1264422840673583
 10
0.1781284007050149
 20
0.128148850458196
 10
0.1792477178758841
 20
0.1307335885926666
 10
0.1792908345706586
 20
0.1314543038152609
 10
0.1770455607456228
 20
0.1310108583890435
 10
0.17504059094475
 20
0.1305529381335966
 10
0.1723077047198921
 20
0.1316336996309018
 10
0.171604857240962
 20
0.1327850974699908
 10
0.171898560399219
 20
0.1339796096876891
 10
0.1726650989995856
 20
0.1353816313623704
 10
0.174189406496314
 20
0.1372041037831846
 10
0.1761742694414828
 20
0.138932260141335
 10
0.181154385707157
 20
0.1421731678538179
 10
0.1859960300690665
 20
0.1448595935239887
 10
0.1895750715189875
 20
0.1470689968037865
 10
0.1945591299212291
 20
0.1500021018193734
  0
LWPOLYLINE
  5
87A
330
2
100
AcDbEntity
  8
Profilo
  6
Continuous
370
     0
100
AcDbPolyline
 90
        5
 70
   128
 43
0.0
 10
0.1970521446041057
 20
0.146150790093156
 10
0.1936122748467203
 20
0.1434224958109429
 10
0.1893686071147397
 20
0.1400619260425738
 10
0.1854192076196249
 20
0.1366410944717498
 10
0.180972963911837
 20
0.1327396697076353
  0
LWPOLYLINE
  5
87B
330
2
100
AcDbEntity
  8
Profilo
  6
Continuous
370
     0
100
AcDbPolyline
 90
       10
 70
   128
 43
0.0
 10
0.1981658262646188
 20
0.1448499974117736
 10
0.1940707573850461
 20
0.1404169156211011
 10
0.1903427946836506
 20
0.1364296972695478
 10
0.1859882497350814
 20
0.131927155970532
 10
0.1837287082692808
 20
0.1297233853529315
 10
0.1821399778976137
 20
0.1273515898561819
 10
0.1817315788385895
 20
0.1255043122648199
 10
0.1824719695088514
 20
0.1250768475120385
 10
0.1835258163925671
 20
0.126332203526425
 10
0.1842379173464942
 20
0.1275655985587439
  0
LWPOLYLINE
  5
87C
330
2
100
AcDbEntity
  8
Profilo
  6
Continuous
370
     0
100
AcDbPolyline
 90
       13
 70
   128
 43
0.0
 10
0.1959163580393318
 20
0.1477932511919191
 10
0.1902107667636795
 20
0.1441803749118622
 10
0.1864893047752626
 20
0.1417242920233488
 10
0.1824260951185036
 20
0.1392462451415064
 10
0.1796508533817292
 20
0.1376691203591281
 10
0.1771097227059551
 20
0.1357375553760013
 10
0.1756065062814328
 20
0.1340838347120717
 10
0.1747298751251395
 20
0.1329454312363796
 10
0.1752107897264067
 20
0.132448506975255
 10
0.1764132324414732
 20
0.1326313567265623
 10
0.1771094020454401
 20
0.1328872312932038
 10
0.1780777319609531
 20
0.1334245182339962
 10
0.1788213744982351
 20
0.1337626183331218
  0
LWPOLYLINE
  5
87D
330
2
100
AcDbEntity
  8
Profilo
  6
Continuous
370
     0
100
AcDbPolyline
 90
        8
 70
   128
 43
0.0
 10
0.1782526642973482
 20
0.1238071246392683
 10
0.1763876479149394
 20
0.1232477088444342
 10
0.1741277557836333
 20
0.1243557464514231
 10
0.1722170169879619
 20
0.126275445935644
 10
0.1708831721892662
 20
0.1283945992122873
 10
0.1704435625012949
 20
0.130400436763232
 10
0.1707324588724875
 20
0.1319393298232001
 10
0.1714018005149159
 20
0.1329060863659557
  0
LWPOLYLINE
  5
87E
330
2
100
AcDbEntity
  8
Profilo
  6
Continuous
370
     0
100
AcDbPolyline
 90
       27
 70
   128
 43
0.0
 10
0.2088270141351422
 20
0.1413481362596259
 10
0.2083963315186476
 20
0.1363976373546401
 10
0.2076426314438597
 20
0.1333842900439051
 10
0.2064582487525771
 20
0.128971887258609
 10
0.2059198899860347
 20
0.1250975805930008
 10
0.2053815312194923
 20
0.1220842332822658
 10
0.2048431779488754
 20
0.1184251699324828
 10
0.204304819182333
 20
0.1159499187414375
 10
0.2032281071451737
 20
0.1137975273084682
 10
0.2011823482290555
 20
0.1130441913500609
 10
0.1994596067712296
 20
0.1130441913500609
 10
0.1978445414634525
 20
0.1146584831862347
 10
0.1974138533510351
 20
0.1163803984188736
 10
0.1970908413886646
 20
0.1191785058908901
 10
0.1967678239303695
 20
0.1198242219299382
 10
0.1950450824725446
 20
0.1183175500131235
 10
0.1935376878188916
 20
0.1169184945385624
 10
0.1906305581738604
 20
0.1164880183382329
 10
0.1894461754825761
 20
0.1171337343772809
 10
0.1891032737699499
 20
0.1183150638820669
 10
0.1890661048335075
 20
0.1199125195691811
 10
0.1894749576384463
 20
0.1222529807316673
 10
0.1903298211929173
 20
0.1247420395121213
 10
0.1930222745365498
 20
0.1300388060552894
 10
0.1958720487149675
 20
0.1347861411119909
 10
0.197866887891898
 20
0.1384890612044603
 10
0.2007166565743911
 20
0.1435212338610479
  0
LWPOLYLINE
  5
87F
330
2
100
AcDbEntity
  8
Profilo
  6
Continuous
370
     0
100
AcDbPolyline
 90
        5
 70
   128
 43
0.0
 10
0.2048013264848788
 20
0.1414324074096885
 10
0.2031864590303795
 20
0.1373497003735989
 10
0.201191619853449
 20
0.1323175277170112
 10
0.1994817553463973
 20
0.127380300927053
 10
0.1975819077260946
 20
0.1217784461164817
  0
LWPOLYLINE
  5
880
330
2
100
AcDbEntity
  8
Profilo
  6
Continuous
370
     0
100
AcDbPolyline
 90
       10
 70
   128
 43
0.0
 10
0.2064161994353028
 20
0.1408627287328107
 10
0.2050863066506822
 20
0.1349760328452476
 10
0.2038514054226893
 20
0.1296590191116691
 10
0.2023315295248159
 20
0.1235824314908485
 10
0.2014765945233278
 20
0.1205441394189919
 10
0.201286611410075
 20
0.1176957390803921
 10
0.2018565662457589
 20
0.1158917502289188
 10
0.2027114957513215
 20
0.1158917502289188
 10
0.2029964759171258
 20
0.1175058438700287
 10
0.2029964759171258
 20
0.1189300457778819
  0
LWPOLYLINE
  5
881
330
2
100
AcDbEntity
  8
Profilo
  6
Continuous
370
     0
100
AcDbPolyline
 90
       13
 70
   128
 43
0.0
 10
0.2029964759171258
 20
0.1422869271635573
 10
0.1998617270688284
 20
0.1363052888864724
 10
0.197866887891898
 20
0.1323175277170112
 10
0.1955870685491642
 20
0.1281398713371867
 10
0.1939722010946639
 20
0.1253864203423227
 10
0.1927372998666711
 20
0.122443070659988
 10
0.1922623365876131
 20
0.1202592983420001
 10
0.1920723534743603
 20
0.1188350964341469
 10
0.1927372998666711
 20
0.1186452047008902
 10
0.1936872209288597
 20
0.1194047785881306
 10
0.1941621842079176
 20
0.1199744572650084
 10
0.1947321390435998
 20
0.1209239263626121
 10
0.1952071023226577
 20
0.1215885509061183
  0
LWPOLYLINE
  5
882
330
2
100
AcDbEntity
  8
Profilo
  6
Continuous
370
     0
100
AcDbPolyline
 90
        8
 70
   128
 43
0.0
 10
0.199692331688225
 20
0.1126824853595816
 10
0.1983568880200027
 20
0.1112655088787726
 10
0.1958457452209837
 20
0.1110951515291208
 10
0.1932311471418256
 20
0.1118022906522527
 10
0.1910164270231273
 20
0.1129706088249905
 10
0.1896327950901221
 20
0.1144879102559877
 10
0.1891135401566525
 20
0.1159650789252249
 10
0.1892098287514282
 20
0.1171369854717395
  0
LWPOLYLINE
  5
883
330
2
100
AcDbEntity
  8
Profilo
  6
Continuous
370
     0
100
AcDbPolyline
 90
       27
 70
   128
 43
0.0
 10
0.2173999895417688
 20
0.1431606219497861
 10
0.2195022569074093
 20
0.1386580228284145
 10
0.2203562071511759
 20
0.1356715374694989
 10
0.2215367030453707
 20
0.1312580932200611
 10
0.2230076240099991
 20
0.1276336658423232
 10
0.2240480652971905
 20
0.1247548511375298
 10
0.2254113693635168
 20
0.121316832687252
 10
0.2261827625908647
 20
0.1189040228917879
 10
0.226326498330608
 20
0.1165016412133693
 10
0.224931487118435
 20
0.114826353677745
 10
0.2234395492518048
 20
0.1139649829488321
 10
0.2212337157484131
 20
0.1145554680341914
 10
0.2199997712856313
 20
0.1158313463126117
 10
0.2183209809844841
 20
0.1180930724847118
 10
0.2177183816402105
 20
0.118490770249011
 10
0.2169797797319894
 20
0.1163245833649687
 10
0.2163738654056776
 20
0.1143592684558688
 10
0.2140714553811501
 20
0.1125329003081419
 10
0.212722891863172
 20
0.1124999154559474
 10
0.211835265516643
 20
0.1133515259610187
 10
0.2110043484298955
 20
0.1147163786992585
 10
0.2101881947641377
 20
0.1169477039250115
 10
0.2096839989288516
 20
0.1195307238376329
 10
0.2093673486513578
 20
0.1254640848937483
 10
0.2094616579565666
 20
0.1310002847423369
 10
0.2093377793140173
 20
0.135204527199065
 10
0.2092896650596722
 20
0.140987400897145
  0
LWPOLYLINE
  5
884
330
2
100
AcDbEntity
  8
Profilo
  6
Continuous
370
     0
100
AcDbPolyline
 90
        5
 70
   128
 43
0.0
 10
0.2138715061939082
 20
0.1412207590814154
 10
0.2145143434726115
 20
0.1368775973447021
 10
0.2153028483972194
 20
0.1315221883994034
 10
0.216290675692063
 20
0.1263914923215277
 10
0.2174462867948462
 20
0.1205902199371105
  0
LWPOLYLINE
  5
885
330
2
100
AcDbEntity
  8
Profilo
  6
Continuous
370
     0
100
AcDbPolyline
 90
       10
 70
   128
 43
0.0
 10
0.2155548665312982
 20
0.141534839350457
 10
0.2173464935392894
 20
0.1357718647751638
 10
0.2189355445714724
 20
0.1305497451956178
 10
0.2206575872437239
 20
0.1245273279987276
 10
0.2214363378497789
 20
0.1214686223796389
 10
0.2226960078167125
 20
0.1189068437696375
 10
0.2240915976091608
 20
0.1176295210139593
 10
0.2248319882794227
 20
0.1180569857667406
 10
0.2242717415220293
 20
0.1195973219469304
 10
0.2235596405681023
 20
0.1208307169792502
  0
LWPOLYLINE
  5
886
330
2
100
AcDbEntity
  8
Profilo
  6
Continuous
370
     0
100
AcDbPolyline
 90
       13
 70
   128
 43
0.0
 10
0.2118811998752647
 20
0.1410583696124246
 10
0.212157246876698
 20
0.1343107444840712
 10
0.2124235460577423
 20
0.1298598224186274
 10
0.212537992780807
 20
0.1251019561940503
 10
0.2125162020388974
 20
0.1219099639571717
 10
0.212918421045459
 20
0.1187434977460529
 10
0.2135989769389236
 20
0.1166148138030654
 10
0.2141465476904835
 20
0.1152864272141205
 10
0.2148173540250075
 20
0.1154544493453067
 10
0.2152602228528328
 20
0.1165872201588025
 10
0.2153867137799227
 20
0.117318058004501
 10
0.2154055745978311
 20
0.1184252997809765
 10
0.2154845925916068
 20
0.1192383631591601
  0
LWPOLYLINE
  5
887
330
2
100
AcDbEntity
  8
Profilo
  6
Continuous
370
     0
100
AcDbPolyline
 90
        8
 70
   128
 43
0.0
 10
0.2238219479372566
 20
0.1137680988308738
 10
0.2233739080356568
 20
0.1118732393678166
 10
0.2212843732540034
 20
0.1104701341757875
 10
0.2186664953352001
 20
0.1097752355808501
 10
0.2161643323637658
 20
0.1096796687387951
 10
0.2142074212447972
 20
0.1103018743567346
 10
0.2130191489467536
 20
0.1113215124832332
 10
0.2125165840426665
 20
0.1123845576207645
  0
LWPOLYLINE
  5
888
330
2
100
AcDbEntity
  8
Profilo
  6
Continuous
370
     0
100
AcDbPolyline
 90
       27
 70
   128
 43
0.0
 10
0.2239181611848461
 20
0.1490167683047744
 10
0.2279900776897231
 20
0.1461685367654291
 10
0.2302228629738518
 20
0.1440091396984607
 10
0.233451924532006
 20
0.1407772328073593
 10
0.2365379931432025
 20
0.1383738471063805
 10
0.2388784490814534
 20
0.1364009410828369
 10
0.2417781142611134
 20
0.1341051817993802
 10
0.243652565290036
 20
0.1324013238356827
 10
0.2449782349312954
 20
0.1303926681424568
 10
0.2446077635508005
 20
0.1282443209718765
 10
0.2437463928218885
 20
0.1267523831052471
 10
0.2415408424287521
 20
0.1261608414380276
 10
0.2398342760379143
 20
0.1266488122078855
 10
0.2372495379034437
 20
0.1277681293787547
 10
0.2365288226808494
 20
0.1278112460735293
 10
0.2369722681070669
 20
0.1255659722484934
 10
0.2374301883625137
 20
0.1235610024476207
 10
0.2363494268652086
 20
0.1208281162227636
 10
0.2351980290261197
 20
0.1201252687438326
 10
0.2340035168084213
 20
0.1204189719020905
 10
0.23260149513374
 20
0.1211855105024571
 10
0.2307790227129257
 20
0.1227098179991855
 10
0.2290508663547745
 20
0.1246946809443535
 10
0.2258099586422916
 20
0.1296747972100276
 10
0.2231235329721207
 20
0.1345164415719371
 10
0.220914129692324
 20
0.1380954830218582
 10
0.217981024676737
 20
0.1430795414241006
  0
LWPOLYLINE
  5
889
330
2
100
AcDbEntity
  8
Profilo
  6
Continuous
370
     0
100
AcDbPolyline
 90
        5
 70
   128
 43
0.0
 10
0.2218323364029543
 20
0.1455725561069764
 10
0.2245606306851674
 20
0.1421326863495909
 10
0.2279212004535366
 20
0.1378890186176112
 10
0.2313420320243606
 20
0.1339396191224955
 10
0.235243456788475
 20
0.1294933754147085
  0
LWPOLYLINE
  5
88A
330
2
100
AcDbEntity
  8
Profilo
  6
Continuous
370
     0
100
AcDbPolyline
 90
       10
 70
   128
 43
0.0
 10
0.2231331290843367
 20
0.1466862377674894
 10
0.2275662108750093
 20
0.1425911688879168
 10
0.2315534292265625
 20
0.1388632061865212
 10
0.2360559705255784
 20
0.134508661237952
 10
0.238259741143179
 20
0.1322491197721514
 10
0.2406315366399284
 20
0.1306603894004843
 10
0.2424788142312905
 20
0.1302519903414601
 10
0.2429062789840718
 20
0.130992381011722
 10
0.2416509229696854
 20
0.1320462278954378
 10
0.2404175279373665
 20
0.1327583288493649
  0
LWPOLYLINE
  5
88B
330
2
100
AcDbEntity
  8
Profilo
  6
Continuous
370
     0
100
AcDbPolyline
 90
       13
 70
   128
 43
0.0
 10
0.2201898753041912
 20
0.1444367695422024
 10
0.2238027515842472
 20
0.138731178266551
 10
0.2262588344727606
 20
0.1350097162781341
 10
0.2287368813546039
 20
0.1309465066213752
 10
0.2303140061369823
 20
0.1281712648845999
 10
0.2322455711201083
 20
0.1256301342088267
 10
0.2338992917840378
 20
0.1241269177843043
 10
0.2350376952597307
 20
0.123250286628011
 10
0.2355346195208553
 20
0.1237312012292782
 10
0.2353517697695481
 20
0.1249336439443438
 10
0.2350958952029067
 20
0.1256298135483107
 10
0.2345586082621142
 20
0.1265981434638237
 10
0.2342205081629886
 20
0.1273417860011058
  0
LWPOLYLINE
  5
88C
330
2
100
AcDbEntity
  8
Profilo
  6
Continuous
370
     0
100
AcDbPolyline
 90
        8
 70
   128
 43
0.0
 10
0.2441760018568421
 20
0.1267730758002188
 10
0.2447354176516762
 20
0.12490805941781
 10
0.2436273800446872
 20
0.1226481672865039
 10
0.2417076805604664
 20
0.1207374284908334
 10
0.2395885272838231
 20
0.1194035836921368
 10
0.2375826897328785
 20
0.1189639740041655
 10
0.2360437966729102
 20
0.1192528703753591
 10
0.2350770401301546
 20
0.1199222120177865
  0
LWPOLYLINE
  5
88D
330
2
100
AcDbEntity
  8
Profilo
  6
Continuous
370
     0
100
AcDbPolyline
 90
       27
 70
   128
 43
0.0
 10
0.2266349902364845
 20
0.1573474256380128
 10
0.2315854891414703
 20
0.1569167430215191
 10
0.2345988364522053
 20
0.1561630429467303
 10
0.2390112392375014
 20
0.1549786602554477
 10
0.2428855459031086
 20
0.1544403014889062
 10
0.2458988932138445
 20
0.1539019427223629
 10
0.2495579565636276
 20
0.153363589451746
 10
0.2520332077546729
 20
0.1528252306852046
 10
0.2541855991876422
 20
0.1517485186480444
 10
0.2549389351460486
 20
0.1497027597319261
 10
0.2549389351460486
 20
0.1479800182741003
 10
0.2533246433098756
 20
0.146364952966324
 10
0.2516027280772367
 20
0.1459342648539057
 10
0.2488046206052203
 20
0.1456112528915352
 10
0.2481589045661722
 20
0.1452882354332401
 10
0.2496655764829859
 20
0.1435654939754161
 10
0.2510646319575479
 20
0.1420580993217631
 10
0.2514951081578775
 20
0.139150969676731
 10
0.2508493921188294
 20
0.1379665869854476
 10
0.2496680626140425
 20
0.1376236852728206
 10
0.2480706069269293
 20
0.1375865163363782
 10
0.2457301457644431
 20
0.137995369141317
 10
0.2432410869839891
 20
0.1388502326957879
 10
0.237944320440821
 20
0.1415426860394205
 10
0.2331969853841195
 20
0.144392460217839
 10
0.2294940652916501
 20
0.1463872993947695
 10
0.2244618926350625
 20
0.1492370680772626
  0
LWPOLYLINE
  5
88E
330
2
100
AcDbEntity
  8
Profilo
  6
Continuous
370
     0
100
AcDbPolyline
 90
        5
 70
   128
 43
0.0
 10
0.2265507190864219
 20
0.1533217379877494
 10
0.2306334261225115
 20
0.1517068705332501
 10
0.2356655987790991
 20
0.1497120313563196
 10
0.2406028255690574
 20
0.1480021668492679
 10
0.2462046803796286
 20
0.1461023192289652
  0
LWPOLYLINE
  5
88F
330
2
100
AcDbEntity
  8
Profilo
  6
Continuous
370
     0
100
AcDbPolyline
 90
       10
 70
   128
 43
0.0
 10
0.2271203977632997
 20
0.1549366109381734
 10
0.2330070936508627
 20
0.1536067181535537
 10
0.2383241073844412
 20
0.1523718169255608
 10
0.2444006950052619
 20
0.1508519410276865
 10
0.2474389870771184
 20
0.1499970060261984
 10
0.2502873874157182
 20
0.1498070229129465
 10
0.2520913762671916
 20
0.1503769777486304
 10
0.2520913762671916
 20
0.151231907254193
 10
0.2504772826260816
 20
0.1515168874199964
 10
0.2490530807182284
 20
0.1515168874199964
  0
LWPOLYLINE
  5
890
330
2
100
AcDbEntity
  8
Profilo
  6
Continuous
370
     0
100
AcDbPolyline
 90
       13
 70
   128
 43
0.0
 10
0.2256961993325532
 20
0.1515168874199964
 10
0.2316778376096379
 20
0.1483821385716999
 10
0.2356655987790991
 20
0.1463872993947695
 10
0.2398432551589228
 20
0.1441074800520349
 10
0.2425967061537876
 20
0.1424926125975346
 10
0.2455400558361224
 20
0.1412577113695418
 10
0.2477238281541102
 20
0.1407827480904838
 10
0.2491480300619634
 20
0.1405927649772319
 10
0.2493379217952202
 20
0.1412577113695418
 10
0.248578347907979
 20
0.1422076324317303
 10
0.248008669231102
 20
0.1426825957107883
 10
0.2470592001334983
 20
0.1432525505464713
 10
0.246394575589992
 20
0.1437275138255283
  0
LWPOLYLINE
  5
891
330
2
100
AcDbEntity
  8
Profilo
  6
Continuous
370
     0
100
AcDbPolyline
 90
        8
 70
   128
 43
0.0
 10
0.2553006411365287
 20
0.1482127431910965
 10
0.2567176176173377
 20
0.1468772995228733
 10
0.2568879749669896
 20
0.1443661567238552
 10
0.2561808358438577
 20
0.1417515586446963
 10
0.2550125176711199
 20
0.1395368385259988
 10
0.2534952162401226
 20
0.1381532065929928
 10
0.2520180475708854
 20
0.137633951659524
 10
0.2508461410243709
 20
0.1377302402542988
  0
LWPOLYLINE
  5
892
330
2
100
AcDbEntity
  8
Profilo
  6
Continuous
370
     0
100
AcDbPolyline
 90
       27
 70
   128
 43
0.0
 10
0.2248225045463243
 20
0.1659204010446394
 10
0.229325103667695
 20
0.1680226684102799
 10
0.2323115890266115
 20
0.1688766186540465
 10
0.2367250332760492
 20
0.1700571145482413
 10
0.2403494606537872
 20
0.1715280355128697
 10
0.2432282753585805
 20
0.1725684768000611
 10
0.2466662938088583
 20
0.1739317808663884
 10
0.2490791036043224
 20
0.1747031740937353
 10
0.2514814852827411
 20
0.1748469098334795
 10
0.2531567728183654
 20
0.1734518986213056
 10
0.2540181435472783
 20
0.1719599607546763
 10
0.253427658461919
 20
0.1697541272512837
 10
0.2521517801834986
 20
0.1685201827885029
 10
0.2498900540113985
 20
0.1668413924873556
 10
0.2494923562470993
 20
0.166238793143082
 10
0.2516585431311417
 20
0.16550019123486
 10
0.2536238580402416
 20
0.1648942769085482
 10
0.2554502261879684
 20
0.1625918668840216
 10
0.2554832110401629
 20
0.1612433033660426
 10
0.2546316005350916
 20
0.1603556770195136
 10
0.2532667477968519
 20
0.1595247599327661
 10
0.2510354225710988
 20
0.1587086062670091
 10
0.2484524026584775
 20
0.1582044104317231
 10
0.2425190416023621
 20
0.1578877601542293
 10
0.2369828417537735
 20
0.1579820694594372
 10
0.2327785992970454
 20
0.1578581908168888
 10
0.2269957255989644
 20
0.1578100765625437
  0
LWPOLYLINE
  5
893
330
2
100
AcDbEntity
  8
Profilo
  6
Continuous
370
     0
100
AcDbPolyline
 90
        5
 70
   128
 43
0.0
 10
0.2267623674146949
 20
0.1623919176967788
 10
0.2311055291514083
 20
0.163034754975483
 10
0.236460938096707
 20
0.16382325990009
 10
0.2415916341745826
 20
0.1648110871949336
 10
0.2473929065589998
 20
0.1659666982977169
  0
LWPOLYLINE
  5
894
330
2
100
AcDbEntity
  8
Profilo
  6
Continuous
370
     0
100
AcDbPolyline
 90
       10
 70
   128
 43
0.0
 10
0.2264482871456534
 20
0.1640752780341697
 10
0.2322112617209465
 20
0.16586690504216
 10
0.2374333813004926
 20
0.167455956074343
 10
0.2434557984973828
 20
0.1691779987465945
 10
0.2465145041164706
 20
0.1699567493526505
 10
0.2490762827264729
 20
0.1712164193195831
 10
0.250353605482151
 20
0.1726120091120314
 10
0.2499261407293697
 20
0.1733523997822941
 10
0.248385804549179
 20
0.1727921530249
 10
0.2471524095168601
 20
0.172080052070973
  0
LWPOLYLINE
  5
895
330
2
100
AcDbEntity
  8
Profilo
  6
Continuous
370
     0
100
AcDbPolyline
 90
       13
 70
   128
 43
0.0
 10
0.2269247568836849
 20
0.1604016113781353
 10
0.2336723820120382
 20
0.1606776583795686
 10
0.238123304077483
 20
0.1609439575606129
 10
0.24288117030206
 20
0.1610584042836785
 10
0.2460731625389386
 20
0.1610366135417689
 10
0.2492396287500575
 20
0.1614388325483297
 10
0.251368312693045
 20
0.1621193884417952
 10
0.2526966992819898
 20
0.1626669591933541
 10
0.2525286771508036
 20
0.1633377655278781
 10
0.2513959063373078
 20
0.1637806343557034
 10
0.2506650684916084
 20
0.1639071252827934
 10
0.2495578267151338
 20
0.1639259861007026
 10
0.2487447633369503
 20
0.1640050040944784
  0
LWPOLYLINE
  5
896
330
2
100
AcDbEntity
  8
Profilo
  6
Continuous
370
     0
100
AcDbPolyline
 90
        8
 70
   128
 43
0.0
 10
0.2542150276652365
 20
0.1723423594401281
 10
0.2561098871282938
 20
0.1718943195385283
 10
0.2575129923203229
 20
0.169804784756874
 10
0.2582078909152602
 20
0.1671869068380707
 10
0.2583034577573152
 20
0.1646847438666373
 10
0.2576812521393758
 20
0.1627278327476687
 10
0.2566616140128771
 20
0.1615395604496251
 10
0.2555985688753458
 20
0.161036995545538
  0
LWPOLYLINE
  5
897
330
2
100
AcDbEntity
  8
Profilo
  6
Continuous
370
     0
100
AcDbPolyline
 90
       27
 70
   128
 43
0.0
 10
0.2189663581913352
 20
0.1724385726877168
 10
0.2218145897306804
 20
0.1765104891925946
 10
0.2239739867976488
 20
0.1787432744767224
 10
0.227205893688751
 20
0.1819723360348775
 10
0.2296092793897299
 20
0.185058404646074
 10
0.2315821854132735
 20
0.1873988605843241
 10
0.2338779446967293
 20
0.190298525763985
 10
0.2355818026604276
 20
0.1921729767929067
 10
0.2375904583536527
 20
0.193498646434166
 10
0.2397388055242339
 20
0.1931281750536721
 10
0.2412307433908633
 20
0.1922668043247591
 10
0.2418222850580819
 20
0.1900612539316227
 10
0.2413343142882248
 20
0.188354687540785
 10
0.2402149971173556
 20
0.1857699494063143
 10
0.2401718804225811
 20
0.18504923418372
 10
0.2424171542476169
 20
0.1854926796099375
 10
0.2444221240484897
 20
0.1859505998653852
 10
0.2471550102733468
 20
0.1848698383680792
 10
0.2478578577522769
 20
0.1837184405289911
 10
0.2475641545940198
 20
0.1825239283112919
 10
0.2467976159936533
 20
0.1811219066366106
 10
0.2452733084969249
 20
0.1792994342157963
 10
0.2432884455517569
 20
0.177571277857646
 10
0.2383083292860827
 20
0.1743303701451631
 10
0.2334666849241732
 20
0.1716439444749922
 10
0.2298876434742522
 20
0.1694345411951946
 10
0.2249035850720097
 20
0.1665014361796076
  0
LWPOLYLINE
  5
898
330
2
100
AcDbEntity
  8
Profilo
  6
Continuous
370
     0
100
AcDbPolyline
 90
        5
 70
   128
 43
0.0
 10
0.2224105703891332
 20
0.170352747905825
 10
0.2258504401465195
 20
0.173081042188039
 10
0.2300941078784992
 20
0.1764416119564073
 10
0.2340435073736148
 20
0.1798624435272312
 10
0.2384897510814018
 20
0.1837638682913456
  0
LWPOLYLINE
  5
899
330
2
100
AcDbEntity
  8
Profilo
  6
Continuous
370
     0
100
AcDbPolyline
 90
       10
 70
   128
 43
0.0
 10
0.221296888728621
 20
0.1716535405872074
 10
0.2253919576081928
 20
0.1760866223778808
 10
0.2291199203095892
 20
0.180073840729434
 10
0.2334744652581574
 20
0.184576382028449
 10
0.235734006723959
 20
0.1867801526460504
 10
0.2373227370956251
 20
0.189151948142799
 10
0.2377311361546503
 20
0.1909992257341611
 10
0.2369907454843875
 20
0.1914266904869424
 10
0.2359368986006726
 20
0.190171334472556
 10
0.2352247976467455
 20
0.1889379394402372
  0
LWPOLYLINE
  5
89A
330
2
100
AcDbEntity
  8
Profilo
  6
Continuous
370
     0
100
AcDbPolyline
 90
       13
 70
   128
 43
0.0
 10
0.2235463569539079
 20
0.1687102868070618
 10
0.2292519482295593
 20
0.1723231630871187
 10
0.2329734102179763
 20
0.1747792459756321
 10
0.2370366198747352
 20
0.1772572928574745
 10
0.2398118616115096
 20
0.1788344176398529
 10
0.2423529922872837
 20
0.1807659826229798
 10
0.243856208711806
 20
0.1824197032869093
 10
0.2447328398680994
 20
0.1835581067626014
 10
0.2442519252668322
 20
0.1840550310237259
 10
0.2430494825517665
 20
0.1838721812724187
 10
0.2423533129477996
 20
0.1836163067057773
 10
0.2413849830322857
 20
0.1830790197649857
 10
0.2406413404950046
 20
0.1827409196658592
  0
LWPOLYLINE
  5
89B
330
2
100
AcDbEntity
  8
Profilo
  6
Continuous
370
     0
100
AcDbPolyline
 90
        8
 70
   128
 43
0.0
 10
0.2412100506958915
 20
0.1926964133597136
 10
0.2430750670783003
 20
0.1932558291545477
 10
0.2453349592096065
 20
0.1921477915475578
 10
0.247245698005277
 20
0.1902280920633371
 10
0.2485795428039736
 20
0.1881089387866937
 10
0.2490191524919449
 20
0.1861031012357491
 10
0.2487302561207513
 20
0.1845642081757808
 10
0.2480609144783238
 20
0.1835974516330252
  0
LWPOLYLINE
  5
89C
330
2
100
AcDbEntity
  8
Profilo
  6
Continuous
370
     0
100
AcDbPolyline
 90
       11
 70
   128
 43
0.0
 10
0.2078128951805106
 20
0.203558534585324
 10
0.2085504317417594
 20
0.2051196266939857
 10
0.2090276593416513
 20
0.2059001710097646
 10
0.2102858083296856
 20
0.2065072633512178
 10
0.2118042662790741
 20
0.2070709892219845
 10
0.2128454911326453
 20
0.206984263234822
 10
0.2142337946013563
 20
0.2068975337705539
 10
0.2154051794315287
 20
0.206463900357637
 10
0.2167500980733487
 20
0.2055532635840092
 10
0.21740086498081
 20
0.2046859898039631
 10
0.2177913229269198
 20
0.2036886270431737
  0
LWPOLYLINE
  5
89D
330
2
100
AcDbEntity
  8
Profilo
  6
Continuous
370
     0
100
AcDbPolyline
 90
       11
 70
   128
 43
0.0
 10
0.1854165376017497
 20
0.1965293478020745
 10
0.1852747169456793
 20
0.1982500615064471
 10
0.1852977360126847
 20
0.1991646465126371
 10
0.1860837788273403
 20
0.2003194783967957
 10
0.187116939050706
 20
0.2015669082963439
 10
0.1880620292185319
 20
0.2020124138150793
 10
0.1893077000227316
 20
0.2026314556301217
 10
0.1905389657497273
 20
0.2028416104936917
 10
0.1921590178463804
 20
0.2027254352350199
 10
0.1931562354102078
 20
0.2022997375631948
 10
0.1939930632910424
 20
0.2016312250486172
  0
LWPOLYLINE
  5
89E
330
2
100
AcDbEntity
  8
Profilo
  6
Continuous
370
     0
100
AcDbPolyline
 90
       11
 70
   128
 43
0.0
 10
0.1695353163779271
 20
0.1792437146904542
 10
0.1685521392348023
 20
0.1806629861430456
 10
0.168114781828505
 20
0.1814665495258291
 10
0.1682180989323799
 20
0.1828596846819387
 10
0.1684891269822203
 20
0.1844565707760711
 10
0.1690848463170561
 20
0.1853149349567345
 10
0.1698541079707255
 20
0.186473876296666
 10
0.1708153379373271
 20
0.1872715086107449
 10
0.1722764318378188
 20
0.1879809239337693
 10
0.1733528964171062
 20
0.1881108677175506
 10
0.1744118668777926
 20
0.1879503328375959
  0
LWPOLYLINE
  5
89F
330
2
100
AcDbEntity
  8
Profilo
  6
Continuous
370
     0
100
AcDbPolyline
 90
       11
 70
   128
 43
0.0
 10
0.1644245919107864
 20
0.1563333066833822
 10
0.1628634998021238
 20
0.15707084324463
 10
0.1620829554863458
 20
0.1575480708445227
 10
0.1614758631448926
 20
0.1588062198325562
 10
0.1609121372741259
 20
0.1603246777819447
 10
0.1609988632612883
 20
0.1613659026355159
 10
0.1610855927255564
 20
0.1627542061042269
 10
0.1615192261384733
 20
0.1639255909344003
 10
0.1624298629121011
 20
0.1652705095762193
 10
0.1632971366921473
 20
0.1659212764836815
 10
0.1642944994529366
 20
0.1663117344297905
  0
LWPOLYLINE
  5
8A0
330
2
100
AcDbEntity
  8
Profilo
  6
Continuous
370
     0
100
AcDbPolyline
 90
       11
 70
   128
 43
0.0
 10
0.1714537786940359
 20
0.1339369491046212
 10
0.1697330649896632
 20
0.1337951284485499
 10
0.1688184799834732
 20
0.1338181475155553
 10
0.1676636480993147
 20
0.1346041903302109
 10
0.1664162181997656
 20
0.1356373505535766
 10
0.1659707126810311
 20
0.1365824407214025
 10
0.1653516708659887
 20
0.1378281115256031
 10
0.1651415160024178
 20
0.1390593772525988
 10
0.1652576912610905
 20
0.1406794293492511
 10
0.1656833889329156
 20
0.1416766469130784
 10
0.1663519014474931
 20
0.142513474793913
  0
LWPOLYLINE
  5
8A1
330
2
100
AcDbEntity
  8
Profilo
  6
Continuous
370
     0
100
AcDbPolyline
 90
       11
 70
   128
 43
0.0
 10
0.1887394118056561
 20
0.1180557278807986
 10
0.1873201403530648
 20
0.1170725507376729
 10
0.1865165769702813
 20
0.1166351933313756
 10
0.1851234418141717
 20
0.1167385104352514
 10
0.1835265557200393
 20
0.117009538485091
 10
0.1826681915393758
 20
0.1176052578199276
 10
0.1815092501994443
 20
0.1183745194735961
 10
0.1807116178853655
 20
0.1193357494401986
 10
0.180002202562341
 20
0.1207968433406894
 10
0.1798722587785589
 20
0.1218733079199768
 10
0.1800327936585136
 20
0.1229322783806641
  0
LWPOLYLINE
  5
8A2
330
2
100
AcDbEntity
  8
Profilo
  6
Continuous
370
     0
100
AcDbPolyline
 90
       11
 70
   128
 43
0.0
 10
0.2116498198127283
 20
0.1129450034136579
 10
0.2109122832514804
 20
0.1113839113049953
 10
0.2104350556515876
 20
0.1106033669892173
 10
0.2091769066635542
 20
0.1099962746477633
 10
0.2076584487141656
 20
0.1094325487769965
 10
0.2066172238605945
 20
0.1095192747641589
 10
0.2052289203918826
 20
0.1096060042284271
 10
0.2040575355617102
 20
0.1100396376413449
 10
0.2027126169198911
 20
0.1109502744149718
 10
0.2020618500124288
 20
0.111817548195018
 10
0.2016713920663199
 20
0.1128149109558072
  0
LWPOLYLINE
  5
8A3
330
2
100
AcDbEntity
  8
Profilo
  6
Continuous
370
     0
100
AcDbPolyline
 90
       11
 70
   128
 43
0.0
 10
0.2340461773914892
 20
0.1199741901969065
 10
0.2341879980475595
 20
0.1182534764925338
 10
0.234164978980555
 20
0.1173388914863438
 10
0.2333789361658986
 20
0.1161840596021853
 10
0.2323457759425328
 20
0.1149366297026371
 10
0.2314006857747079
 20
0.1144911241839017
 10
0.2301550149705073
 20
0.1138720823688593
 10
0.2289237492435116
 20
0.1136619275052893
 10
0.2273036971468593
 20
0.1137781027639611
 10
0.226306479583032
 20
0.1142038004357862
 10
0.2254696517021965
 20
0.1148723129503637
  0
LWPOLYLINE
  5
8A4
330
2
100
AcDbEntity
  8
Profilo
  6
Continuous
370
     0
100
AcDbPolyline
 90
       11
 70
   128
 43
0.0
 10
0.2499273986153118
 20
0.1372598233085267
 10
0.2509105757584375
 20
0.1358405518559354
 10
0.2513479331647338
 20
0.135036988473152
 10
0.2512446160608589
 20
0.1336438533170423
 10
0.2509735880110186
 20
0.1320469672229108
 10
0.2503778686761827
 20
0.1311886030422474
 10
0.2496086070225142
 20
0.1300296617023149
 10
0.2486473770559118
 20
0.129232029388237
 10
0.24718628315542
 20
0.1285226140652116
 10
0.2461098185761336
 20
0.1283926702814304
 10
0.2450508481154462
 20
0.1285532051613852
  0
LWPOLYLINE
  5
8A5
330
2
100
AcDbEntity
  8
Profilo
  6
Continuous
370
     0
100
AcDbPolyline
 90
       11
 70
   128
 43
0.0
 10
0.2550381230824525
 20
0.1601702313155989
 10
0.2565992151911151
 20
0.159432694754351
 10
0.2573797595068931
 20
0.1589554671544582
 10
0.2579868518483471
 20
0.1576973181664248
 10
0.258550577719113
 20
0.1561788602170362
 10
0.2584638517319514
 20
0.1551376353634651
 10
0.2583771222676824
 20
0.1537493318947541
 10
0.2579434888547655
 20
0.1525779470645807
 10
0.2570328520811386
 20
0.1512330284227617
 10
0.2561655783010925
 20
0.1505822615152994
 10
0.2551682155403022
 20
0.1501918035691905
  0
LWPOLYLINE
  5
8A6
330
2
100
AcDbEntity
  8
Profilo
  6
Continuous
370
     0
100
AcDbPolyline
 90
       11
 70
   128
 43
0.0
 10
0.248008936299203
 20
0.1825665888943607
 10
0.2497296500035765
 20
0.182708409550431
 10
0.2506442350097665
 20
0.1826853904834257
 10
0.2517990668939251
 20
0.1818993476687701
 10
0.2530464967934733
 20
0.1808661874454044
 10
0.2534920023122086
 20
0.1799210972775785
 10
0.2541110441272511
 20
0.1786754264733779
 10
0.2543211989908211
 20
0.1774441607463831
 10
0.2542050237321493
 20
0.1758241086497299
 10
0.2537793260603242
 20
0.1748268910859026
 10
0.2531108135457466
 20
0.173990063205068
  0
LWPOLYLINE
  5
8A7
330
2
100
AcDbEntity
  8
Profilo
  6
Continuous
370
     0
100
AcDbPolyline
 90
       11
 70
   128
 43
0.0
 10
0.2307233031875827
 20
0.1984478101181833
 10
0.232142574640175
 20
0.1994309872613081
 10
0.2329461380229575
 20
0.1998683446676053
 10
0.2343392731790671
 20
0.1997650275637304
 10
0.2359361592731996
 20
0.1994939995138901
 10
0.236794523453863
 20
0.1988982801790534
 10
0.2379534647937946
 20
0.1981290185253848
 10
0.2387510971078734
 20
0.1971677885587824
 10
0.2394605124308987
 20
0.1957066946582915
 10
0.2395904562146799
 20
0.1946302300790042
 10
0.2394299213347252
 20
0.1935712596183178
  0
DIMENSION
  5
8A9
102
{ACAD_XDICTIONARY
360
8B3
102
}
102
{ACAD_REACTORS
330
8BA
102
}
330
2
100
AcDbEntity
  8
Text
  6
ACAD_ISO10W100
100
AcDbDimension
  2
*D21
 10
0.1565339324435281
 20
0.1305022830993751
 30
0.0
 11
0.2815172252309368
 21
0.1873887291946126
 31
0.0
 70
    35
  1
d 240 mm
 71
     5
 42
0.12
  3
Bovelacci
100
AcDbDiametricDimension
 15
0.2629287825497108
 25
0.1860012548996068
 35
0.0
 40
0.0
1001
ACAD
1000
DSTYLE
1002
{
1070
   288
1070
     1
1002
}
  0
ENDSEC
  0
SECTION
  2
OBJECTS
  0
DICTIONARY
  5
9
330
0
100
AcDbDictionary
281
     1
  3
ACAD_2007HEADERVARS_RT
350
208
  3
ACAD_COLOR
350
184
  3
ACAD_GROUP
350
17F
  3
ACAD_LAYOUT
350
164
  3
ACAD_MATERIAL
350
B
  3
ACAD_MLINESTYLE
350
180
  3
ACAD_PLOTSETTINGS
350
181
  3
ACAD_PLOTSTYLENAME
350
8
  3
ACAD_TABLESTYLE
350
185
  3
ACAD_VISUALSTYLE
350
17A
  3
ACDBHEADERROUNDTRIPXREC
350
8CB
  3
AcDbVariableDictionary
350
18B
  3
DWGPROPS
350
8CA
  0
DICTIONARY
  5
16E
330
16D
100
AcDbDictionary
280
     1
281
     1
  3
ACAD_LAYERSTATES
360
16F
  0
DICTIONARY
  5
3
330
2
100
AcDbDictionary
280
     1
281
     1
  3
ACAD_SORTENTS
360
18A
  0
DICTIONARY
  5
8CC
330
18
100
AcDbDictionary
280
     1
281
     1
  3
ACAD_MTEXT_RT
360
8CD
  0
DICTIONARY
  5
8B3
330
8A9
100
AcDbDictionary
280
     1
281
     1
  3
ACAD_DIMASSOC
360
8BA
  0
DICTIONARY
  5
208
102
{ACAD_REACTORS
330
9
102
}
330
9
100
AcDbDictionary
281
     1
  3
DIMFXL
350
209
  0
DICTIONARY
  5
184
102
{ACAD_REACTORS
330
9
102
}
330
9
100
AcDbDictionary
281
     1
  0
DICTIONARY
  5
17F
102
{ACAD_REACTORS
330
9
102
}
330
9
100
AcDbDictionary
281
     1
  0
DICTIONARY
  5
164
102
{ACAD_REACTORS
330
9
102
}
330
9
100
AcDbDictionary
281
     1
  3
Layout1
350
168
  3
Layout2
350
16C
  3
Model
350
163
  0
DICTIONARY
  5
B
102
{ACAD_REACTORS
330
9
102
}
330
9
100
AcDbDictionary
281
     1
  3
ByBlock
350
183
  3
ByLayer
350
182
  3
Global
350
A
  0
DICTIONARY
  5
180
102
{ACAD_REACTORS
330
9
102
}
330
9
100
AcDbDictionary
281
     1
  3
Standard
350
186
  0
DICTIONARY
  5
181
102
{ACAD_REACTORS
330
9
102
}
330
9
100
AcDbDictionary
281
     1
  0
ACDBDICTIONARYWDFLT
  5
8
102
{ACAD_REACTORS
330
9
102
}
330
9
100
AcDbDictionary
281
     1
  3
Normal
350
7
100
AcDbDictionaryWithDefault
340
7
  0
DICTIONARY
  5
185
102
{ACAD_REACTORS
330
9
102
}
330
9
100
AcDbDictionary
281
     1
  3
Standard
350
187
  0
DICTIONARY
  5
17A
102
{ACAD_REACTORS
330
9
102
}
330
9
100
AcDbDictionary
281
     1
  3
2dWireframe
350
179
  3
3D Hidden
350
1BD
  3
3dWireframe
350
189
  3
Basic
350
1BC
  3
Brighten
350
1C0
  3
ColorChange
350
1C4
  3
Conceptual
350
1BE
  3
Dim
350
1BF
  3
Facepattern
350
1C3
  3
Flat
350
1B8
  3
FlatWithEdges
350
1B9
  3
Gouraud
350
1BA
  3
GouraudWithEdges
350
1BB
  3
Linepattern
350
1C2
  3
Realistic
350
188
  3
Thicken
350
1C1
  0
DICTIONARY
  5
8CB
102
{ACAD_REACTORS
330
9
102
}
330
9
100
AcDbDictionary
281
     1
  0
DICTIONARY
  5
18B
102
{ACAD_REACTORS
330
9
102
}
330
9
100
AcDbDictionary
281
     1
  3
CTABLESTYLE
350
18C
  3
DIMASSOC
350
190
  3
HIDETEXT
350
18F
  3
INDEXCTL
350
18E
  3
PROJECTNAME
350
2F9
  3
SORTENTS
350
18D
  0
XRECORD
  5
8CA
102
{ACAD_REACTORS
330
9
102
}
330
9
100
AcDbXrecord
280
     1
  1
DWGPROPS COOKIE
  2

  3

  4

  6

  7

  8
Mario
  9

300
=
301
=
302
=
303
=
304
=
305
=
306
=
307
=
308
=
309
=
 40
0.1166006597222222
 41
2454297.625402373
 42
2454305.948456667
  1

 90
        0
  0
DICTIONARY
  5
16F
102
{ACAD_REACTORS
330
16E
102
}
330
16E
100
AcDbDictionary
281
     1
  0
SORTENTSTABLE
  5
18A
102
{ACAD_REACTORS
330
3
102
}
330
3
100
AcDbSortentsTable
330
2
331
14
  5
10
331
23
  5
24
331
12
  5
16
331
10
  5
14
331
21
  5
22
331
1F
  5
21
331
1D
  5
1E
331
15
  5
11
331
24
  5
18
331
13
  5
D
331
22
  5
23
331
11
  5
15
331
1E
  5
1F
331
D
  5
13
331
1C
  5
1D
331
18
  5
1C
331
16
  5
12
  0
XRECORD
  5
8CD
102
{ACAD_REACTORS
330
8CC
102
}
330
8CC
100
AcDbXrecord
280
     1
 40
7955300.0
  1
{\fTimes New Roman|b0|i0|c238|p18;\H1.6x;\C4;Bovelacci\P\pt0.09;\H0.4375x;\T0.95;via del Commercio, 5  47100 Forli - Italy  \fTimes New Roman|b0|i0|c0|p18;\P\fTimes New Roman|b0|i0|c238|p18;tel.+39-0543721386  fax +39-0543721127\fTimes New Roman|b0|i
  1
0|c0|p18; \fTimes New Roman|b0|i0|c238|p18;www.bovelacci.it\fTimes New Roman|b0|i0|c0|p18; \fTimes New Roman|b0|i0|c238|p18;e-mail: bovelacci@bovelacci\fTimes New Roman|b0|i0|c0|p18;.it}
  0
DIMASSOC
  5
8BA
102
{ACAD_REACTORS
330
8B3
102
}
330
8B3
100
AcDbDimAssoc
330
8A9
 90
        2
 70
     0
 71
     0
  1
AcDbOsnapPointRef
 72
     3
331
847
 73
     2
 91
        0
 40
0.0
 10
0.0
 20
0.0
 30
0.0
 75
     0
  0
XRECORD
  5
209
102
{ACAD_REACTORS
330
208
102
}
330
208
100
AcDbXrecord
280
     1
 40
0.18
  0
LAYOUT
  5
168
102
{ACAD_XDICTIONARY
360
8D0
102
}
102
{ACAD_REACTORS
330
164
102
}
330
164
100
AcDbPlotSettings
  1

  2
C:\Documents and Settings\All Users\Dati applicazioni\Autodesk\ADT 2006\enu\Plotters\Default Windows System Printer.pc3
  4

  6

 40
0.0
 41
0.0
 42
0.0
 43
0.0
 44
0.0
 45
0.0
 46
0.0
 47
0.0
 48
0.0
 49
0.0
140
0.0
141
0.0
142
1.0
143
1.0
 70
   688
 72
     0
 73
     0
 74
     5
  7

 75
    16
147
1.0
148
0.0
149
0.0
100
AcDbLayout
  1
Layout1
 70
     1
 71
     1
 10
0.0
 20
0.0
 11
420.0
 21
297.0
 12
0.0
 22
0.0
 32
0.0
 14
1.000000000000000E+20
 24
1.000000000000000E+20
 34
1.000000000000000E+20
 15
-1.000000000000000E+20
 25
-1.000000000000000E+20
 35
-1.000000000000000E+20
146
0.0
 13
0.0
 23
0.0
 33
0.0
 16
1.0
 26
0.0
 36
0.0
 17
0.0
 27
1.0
 37
0.0
 76
     0
330
165
  0
LAYOUT
  5
16C
102
{ACAD_XDICTIONARY
360
8D2
102
}
102
{ACAD_REACTORS
330
164
102
}
330
164
100
AcDbPlotSettings
  1

  2
C:\Documents and Settings\All Users\Dati applicazioni\Autodesk\ADT 2006\enu\Plotters\Default Windows System Printer.pc3
  4

  6

 40
0.0
 41
0.0
 42
0.0
 43
0.0
 44
0.0
 45
0.0
 46
0.0
 47
0.0
 48
0.0
 49
0.0
140
0.0
141
0.0
142
1.0
143
1.0
 70
   688
 72
     0
 73
     0
 74
     5
  7

 75
    16
147
1.0
148
0.0
149
0.0
100
AcDbLayout
  1
Layout2
 70
     1
 71
     2
 10
0.0
 20
0.0
 11
12.0
 21
9.0
 12
0.0
 22
0.0
 32
0.0
 14
0.0
 24
0.0
 34
0.0
 15
0.0
 25
0.0
 35
0.0
146
0.0
 13
0.0
 23
0.0
 33
0.0
 16
1.0
 26
0.0
 36
0.0
 17
0.0
 27
1.0
 37
0.0
 76
     0
330
169
  0
LAYOUT
  5
163
102
{ACAD_XDICTIONARY
360
8CE
102
}
102
{ACAD_REACTORS
330
164
102
}
330
164
100
AcDbPlotSettings
  1

  2
C:\Documents and Settings\All Users\Dati applicazioni\Autodesk\ADT 2006\enu\Plotters\Default Windows System Printer.pc3
  4

  6

 40
0.0
 41
0.0
 42
0.0
 43
0.0
 44
0.0
 45
0.0
 46
0.0
 47
0.0
 48
0.0
 49
0.0
140
0.0
141
0.0
142
1.0
143
1.0
 70
  1712
 72
     0
 73
     0
 74
     0
  7

 75
     0
147
1.0
148
0.0
149
0.0
100
AcDbLayout
  1
Model
 70
     1
 71
     0
 10
0.0
 20
0.0
 11
12.0
 21
9.0
 12
0.0
 22
0.0
 32
0.0
 14
0.0
 24
0.0
 34
0.0
 15
0.0
 25
0.0
 35
0.0
146
0.0
 13
0.0
 23
0.0
 33
0.0
 16
1.0
 26
0.0
 36
0.0
 17
0.0
 27
1.0
 37
0.0
 76
     0
330
2
  0
MATERIAL
  5
183
102
{ACAD_XDICTIONARY
360
1B0
102
}
102
{ACAD_REACTORS
330
B
102
}
330
B
100
AcDbMaterial
  1
ByBlock
  0
MATERIAL
  5
182
102
{ACAD_XDICTIONARY
360
1AE
102
}
102
{ACAD_REACTORS
330
B
102
}
330
B
100
AcDbMaterial
  1
ByLayer
  0
MATERIAL
  5
A
102
{ACAD_XDICTIONARY
360
193
102
}
102
{ACAD_REACTORS
330
B
102
}
330
B
100
AcDbMaterial
  1
Global
  0
MLINESTYLE
  5
186
102
{ACAD_REACTORS
330
180
102
}
330
180
100
AcDbMlineStyle
  2
STANDARD
 70
     0
  3

 62
   256
 51
90.0
 52
90.0
 71
     2
 49
0.5
 62
   256
  6
BYLAYER
 49
-0.5
 62
   256
  6
BYLAYER
  0
ACDBPLACEHOLDER
  5
7
102
{ACAD_REACTORS
330
8
102
}
330
8
  0
TABLESTYLE
  5
187
102
{ACAD_XDICTIONARY
360
21A
102
}
102
{ACAD_REACTORS
330
185
102
}
330
185
100
AcDbTableStyle
  3
Standard
 70
     0
 71
     0
 40
1.5
 41
1.5
280
     0
281
     0
  7
Standard
140
4.5
170
     2
 62
     0
 63
     7
283
     0
274
    -2
284
     1
 64
     0
275
    -2
285
     1
 65
     0
276
    -2
286
     1
 66
     0
277
    -2
287
     1
 67
     0
278
    -2
288
     1
 68
     0
279
    -2
289
     1
 69
     0
  7
Standard
140
6.0
170
     5
 62
     0
 63
     7
283
     0
274
    -2
284
     1
 64
     0
275
    -2
285
     1
 65
     0
276
    -2
286
     1
 66
     0
277
    -2
287
     1
 67
     0
278
    -2
288
     1
 68
     0
279
    -2
289
     1
 69
     0
  7
Standard
140
4.5
170
     5
 62
     0
 63
     7
283
     0
274
    -2
284
     1
 64
     0
275
    -2
285
     1
 65
     0
276
    -2
286
     1
 66
     0
277
    -2
287
     1
 67
     0
278
    -2
288
     1
 68
     0
279
    -2
289
     1
 69
     0
  0
VISUALSTYLE
  5
179
102
{ACAD_REACTORS
330
17A
102
}
330
17A
100
AcDbVisualStyle
  2
2dWireframe
 70
     4
 71
     0
 72
     2
 73
     0
 90
        0
 40
-0.6
 41
-30.0
 62
     5
 63
     7
 74
     1
 91
        4
 64
     7
 65
   257
 75
     1
175
     1
 42
1.0
 92
        0
 66
   257
 43
1.0
 76
     1
 77
     6
 78
     2
 67
     7
 79
     5
170
     0
171
     0
290
     0
174
     0
 93
        1
 44
0.0
173
     0
291
     0
 45
0.0
1001
ACAD
1000
AcDbSavedByObjectVersion
1070
     0
1000
AcDbSavedByObjectVersion
1070
     0
1000
AcDbSavedByObjectVersion
1070
     0
1001
ACAD
1000
AcRTDxfName
1000
VISUALSTYLE
  0
VISUALSTYLE
  5
1BD
102
{ACAD_REACTORS
330
17A
102
}
330
17A
100
AcDbVisualStyle
  2
3D Hidden
 70
     6
 71
     1
 72
     2
 73
     2
 90
        0
 40
-0.6
 41
-30.0
 62
     5
 63
     7
 74
     2
 91
        2
 64
     7
 65
   257
 75
     2
175
     1
 42
40.0
 92
        0
 66
   257
 43
1.0
 76
     1
 77
     6
 78
     2
 67
     7
 79
     3
170
     0
171
     0
290
     0
174
     0
 93
        1
 44
0.0
173
     0
291
     0
 45
0.0
1001
ACAD
1000
AcDbSavedByObjectVersion
1070
     0
1000
AcDbSavedByObjectVersion
1070
     0
1001
ACAD
1000
AcRTDxfName
1000
VISUALSTYLE
  0
VISUALSTYLE
  5
189
102
{ACAD_REACTORS
330
17A
102
}
330
17A
100
AcDbVisualStyle
  2
3dWireframe
 70
     5
 71
     0
 72
     2
 73
     0
 90
        0
 40
-0.6
 41
-30.0
 62
     5
 63
     7
 74
     1
 91
        4
 64
     7
 65
   257
 75
     1
175
     1
 42
1.0
 92
        0
 66
   257
 43
1.0
 76
     1
 77
     6
 78
     2
 67
     7
 79
     5
170
     0
171
     0
290
     0
174
     0
 93
        1
 44
0.0
173
     0
291
     0
 45
0.0
1001
ACAD
1000
AcDbSavedByObjectVersion
1070
     0
1000
AcDbSavedByObjectVersion
1070
     0
1000
AcDbSavedByObjectVersion
1070
     0
1001
ACAD
1000
AcRTDxfName
1000
VISUALSTYLE
  0
VISUALSTYLE
  5
1BC
102
{ACAD_REACTORS
330
17A
102
}
330
17A
100
AcDbVisualStyle
  2
Basic
 70
     7
 71
     1
 72
     0
 73
     1
 90
        0
 40
-0.6
 41
-30.0
 62
     5
 63
     7
 74
     0
 91
        4
 64
     7
 65
   257
 75
     1
175
     1
 42
1.0
 92
        8
 66
     7
 43
1.0
 76
     1
 77
     6
 78
     2
 67
     7
 79
     5
170
     0
171
     0
290
     0
174
     0
 93
        1
 44
0.0
173
     0
291
     1
 45
0.0
1001
ACAD
1000
AcDbSavedByObjectVersion
1070
     0
1000
AcDbSavedByObjectVersion
1070
     0
1001
ACAD
1000
AcRTDxfName
1000
VISUALSTYLE
  0
VISUALSTYLE
  5
1C0
102
{ACAD_REACTORS
330
17A
102
}
330
17A
100
AcDbVisualStyle
  2
Brighten
 70
    12
 71
     2
 72
     2
 73
     0
 90
        0
 40
-0.6
 41
-30.0
 62
     5
 63
     7
 74
     1
 91
        4
 64
     7
 65
   257
 75
     1
175
     1
 42
1.0
 92
        8
 66
     7
 43
1.0
 76
     1
 77
     6
 78
     2
 67
     7
 79
     5
170
     0
171
     0
290
     0
174
     0
 93
        1
 44
50.0
173
     0
291
     1
 45
0.0
1001
ACAD
1000
AcDbSavedByObjectVersion
1070
     0
1000
AcDbSavedByObjectVersion
1070
     0
1001
ACAD
1000
AcRTDxfName
1000
VISUALSTYLE
  0
VISUALSTYLE
  5
1C4
102
{ACAD_REACTORS
330
17A
102
}
330
17A
100
AcDbVisualStyle
  2
ColorChange
 70
    16
 71
     2
 72
     2
 73
     3
 90
        0
 40
-0.6
 41
-30.0
 62
     5
 63
     8
 74
     1
 91
        4
 64
     7
 65
   257
 75
     1
175
     1
 42
1.0
 92
        8
 66
     8
 43
1.0
 76
     1
 77
     6
 78
     2
 67
     7
 79
     5
170
     0
171
     0
290
     0
174
     0
 93
        1
 44
0.0
173
     0
291
     1
 45
0.0
1001
ACAD
1000
AcDbSavedByObjectVersion
1070
     0
1000
AcDbSavedByObjectVersion
1070
     0
1001
ACAD
1000
AcRTDxfName
1000
VISUALSTYLE
  0
VISUALSTYLE
  5
1BE
102
{ACAD_REACTORS
330
17A
102
}
330
17A
100
AcDbVisualStyle
  2
Conceptual
 70
     9
 71
     3
 72
     2
 73
     0
 90
        0
 40
-0.6
 41
-30.0
 62
     5
 63
     7
 74
     2
 91
        2
 64
     7
 65
   257
 75
     1
175
     1
 42
40.0
 92
        8
 66
     7
 43
1.0
 76
     1
 77
     6
 78
     2
 67
     7
 79
     3
170
     0
171
     0
290
     0
174
     0
 93
        1
 44
0.0
173
     0
291
     0
 45
0.0
1001
ACAD
1000
AcDbSavedByObjectVersion
1070
     0
1000
AcDbSavedByObjectVersion
1070
     0
1001
ACAD
1000
AcRTDxfName
1000
VISUALSTYLE
  0
VISUALSTYLE
  5
1BF
102
{ACAD_REACTORS
330
17A
102
}
330
17A
100
AcDbVisualStyle
  2
Dim
 70
    11
 71
     2
 72
     2
 73
     0
 90
        0
 40
-0.6
 41
-30.0
 62
     5
 63
     7
 74
     1
 91
        4
 64
     7
 65
   257
 75
     1
175
     1
 42
1.0
 92
        8
 66
     7
 43
1.0
 76
     1
 77
     6
 78
     2
 67
     7
 79
     5
170
     0
171
     0
290
     0
174
     0
 93
        1
 44
-50.0
173
     0
291
     1
 45
0.0
1001
ACAD
1000
AcDbSavedByObjectVersion
1070
     0
1000
AcDbSavedByObjectVersion
1070
     0
1001
ACAD
1000
AcRTDxfName
1000
VISUALSTYLE
  0
VISUALSTYLE
  5
1C3
102
{ACAD_REACTORS
330
17A
102
}
330
17A
100
AcDbVisualStyle
  2
Facepattern
 70
    15
 71
     2
 72
     2
 73
     0
 90
        0
 40
-0.6
 41
-30.0
 62
     5
 63
     7
 74
     1
 91
        4
 64
     7
 65
   257
 75
     1
175
     1
 42
1.0
 92
        8
 66
     7
 43
1.0
 76
     1
 77
     6
 78
     2
 67
     7
 79
     5
170
     0
171
     0
290
     0
174
     0
 93
        1
 44
0.0
173
     0
291
     1
 45
0.0
1001
ACAD
1000
AcDbSavedByObjectVersion
1070
     0
1000
AcDbSavedByObjectVersion
1070
     0
1001
ACAD
1000
AcRTDxfName
1000
VISUALSTYLE
  0
VISUALSTYLE
  5
1B8
102
{ACAD_REACTORS
330
17A
102
}
330
17A
100
AcDbVisualStyle
  2
Flat
 70
     0
 71
     2
 72
     1
 73
     1
 90
        2
 40
-0.6
 41
30.0
 62
     5
 63
     7
 74
     0
 91
        4
 64
     7
 65
   257
 75
     1
175
     1
 42
1.0
 92
        8
 66
     7
 43
1.0
 76
     1
 77
     6
 78
     2
 67
     7
 79
     5
170
     0
171
     0
290
     0
174
     0
 93
       13
 44
0.0
173
     0
291
     1
 45
0.0
1001
ACAD
1000
AcDbSavedByObjectVersion
1070
     0
1000
AcDbSavedByObjectVersion
1070
     0
1001
ACAD
1000
AcRTDxfName
1000
VISUALSTYLE
  0
VISUALSTYLE
  5
1B9
102
{ACAD_REACTORS
330
17A
102
}
330
17A
100
AcDbVisualStyle
  2
FlatWithEdges
 70
     1
 71
     2
 72
     1
 73
     1
 90
        2
 40
-0.6
 41
30.0
 62
     5
 63
     7
 74
     1
 91
        4
 64
     7
 65
   257
 75
     1
175
     1
 42
1.0
 92
        0
 66
   257
 43
1.0
 76
     1
 77
     6
 78
     2
 67
     7
 79
     5
170
     0
171
     0
290
     0
174
     0
 93
       13
 44
0.0
173
     0
291
     1
 45
0.0
1001
ACAD
1000
AcDbSavedByObjectVersion
1070
     0
1000
AcDbSavedByObjectVersion
1070
     0
1001
ACAD
1000
AcRTDxfName
1000
VISUALSTYLE
  0
VISUALSTYLE
  5
1BA
102
{ACAD_REACTORS
330
17A
102
}
330
17A
100
AcDbVisualStyle
  2
Gouraud
 70
     2
 71
     2
 72
     2
 73
     1
 90
        2
 40
-0.6
 41
30.0
 62
     5
 63
     7
 74
     0
 91
        4
 64
     7
 65
   257
 75
     1
175
     1
 42
1.0
 92
        0
 66
     7
 43
1.0
 76
     1
 77
     6
 78
     2
 67
     7
 79
     5
170
     0
171
     0
290
     0
174
     0
 93
       13
 44
0.0
173
     0
291
     1
 45
0.0
1001
ACAD
1000
AcDbSavedByObjectVersion
1070
     0
1000
AcDbSavedByObjectVersion
1070
     0
1001
ACAD
1000
AcRTDxfName
1000
VISUALSTYLE
  0
VISUALSTYLE
  5
1BB
102
{ACAD_REACTORS
330
17A
102
}
330
17A
100
AcDbVisualStyle
  2
GouraudWithEdges
 70
     3
 71
     2
 72
     2
 73
     1
 90
        2
 40
-0.6
 41
30.0
 62
     5
 63
     7
 74
     1
 91
        4
 64
     7
 65
   257
 75
     1
175
     1
 42
1.0
 92
        0
 66
   257
 43
1.0
 76
     1
 77
     6
 78
     2
 67
     7
 79
     5
170
     0
171
     0
290
     0
174
     0
 93
       13
 44
0.0
173
     0
291
     1
 45
0.0
1001
ACAD
1000
AcDbSavedByObjectVersion
1070
     0
1000
AcDbSavedByObjectVersion
1070
     0
1001
ACAD
1000
AcRTDxfName
1000
VISUALSTYLE
  0
VISUALSTYLE
  5
1C2
102
{ACAD_REACTORS
330
17A
102
}
330
17A
100
AcDbVisualStyle
  2
Linepattern
 70
    14
 71
     2
 72
     2
 73
     0
 90
        0
 40
-0.6
 41
-30.0
 62
     5
 63
     7
 74
     1
 91
        4
 64
     7
 65
   257
 75
     7
175
     7
 42
1.0
 92
        8
 66
     7
 43
1.0
 76
     1
 77
     6
 78
     2
 67
     7
 79
     5
170
     0
171
     0
290
     0
174
     0
 93
        1
 44
0.0
173
     0
291
     1
 45
0.0
1001
ACAD
1000
AcDbSavedByObjectVersion
1070
     0
1000
AcDbSavedByObjectVersion
1070
     0
1001
ACAD
1000
AcRTDxfName
1000
VISUALSTYLE
  0
VISUALSTYLE
  5
188
102
{ACAD_REACTORS
330
17A
102
}
330
17A
100
AcDbVisualStyle
  2
Realistic
 70
     8
 71
     2
 72
     2
 73
     0
 90
        0
 40
-0.6
 41
-30.0
 62
     5
 63
     7
 74
     1
 91
        0
 64
     7
 65
   257
 75
     1
175
     1
 42
1.0
 92
        8
 66
     8
 43
1.0
 76
     1
 77
     6
 78
     2
 67
     7
 79
     5
170
     0
171
     0
290
     0
174
     0
 93
       13
 44
0.0
173
     0
291
     0
 45
0.0
1001
ACAD
1000
AcDbSavedByObjectVersion
1070
     0
1000
AcDbSavedByObjectVersion
1070
     0
1000
AcDbSavedByObjectVersion
1070
     0
1001
ACAD
1000
AcRTDxfName
1000
VISUALSTYLE
  0
VISUALSTYLE
  5
1C1
102
{ACAD_REACTORS
330
17A
102
}
330
17A
100
AcDbVisualStyle
  2
Thicken
 70
    13
 71
     2
 72
     2
 73
     0
 90
        0
 40
-0.6
 41
-30.0
 62
     5
 63
     7
 74
     1
 91
        4
 64
     7
 65
   257
 75
     1
175
     1
 42
1.0
 92
       12
 66
     7
 43
1.0
 76
     1
 77
     6
 78
     2
 67
     7
 79
     5
170
     0
171
     0
290
     0
174
     0
 93
        1
 44
0.0
173
     0
291
     1
 45
0.0
1001
ACAD
1000
AcDbSavedByObjectVersion
1070
     0
1000
AcDbSavedByObjectVersion
1070
     0
1001
ACAD
1000
AcRTDxfName
1000
VISUALSTYLE
  0
DICTIONARYVAR
  5
18C
102
{ACAD_REACTORS
330
18B
102
}
330
18B
100
DictionaryVariables
280
     0
  1
STANDARD
  0
DICTIONARYVAR
  5
190
102
{ACAD_REACTORS
330
18B
102
}
330
18B
100
DictionaryVariables
280
     0
  1
2
  0
DICTIONARYVAR
  5
18F
102
{ACAD_REACTORS
330
18B
102
}
330
18B
100
DictionaryVariables
280
     0
  1
1
  0
DICTIONARYVAR
  5
18E
102
{ACAD_REACTORS
330
18B
102
}
330
18B
100
DictionaryVariables
280
     0
  1
0
  0
DICTIONARYVAR
  5
2F9
102
{ACAD_REACTORS
330
18B
102
}
330
18B
100
DictionaryVariables
280
     0
  1

  0
DICTIONARYVAR
  5
18D
102
{ACAD_REACTORS
330
18B
102
}
330
18B
100
DictionaryVariables
280
     0
  1
127
  0
DICTIONARY
  5
8D0
330
168
100
AcDbDictionary
280
     1
281
     1
  3
ACAD_XREC_ROUNDTRIP
360
8D1
  0
DICTIONARY
  5
8D2
330
16C
100
AcDbDictionary
280
     1
281
     1
  3
ACAD_XREC_ROUNDTRIP
360
8D3
  0
DICTIONARY
  5
8CE
330
163
100
AcDbDictionary
280
     1
281
     1
  3
ACAD_XREC_ROUNDTRIP
360
8CF
  0
DICTIONARY
  5
1B0
330
183
100
AcDbDictionary
280
     1
281
     1
  3
ACAD_XREC_ROUNDTRIP
360
1B1
  0
DICTIONARY
  5
1AE
330
182
100
AcDbDictionary
280
     1
281
     1
  3
ACAD_XREC_ROUNDTRIP
360
1AF
  0
DICTIONARY
  5
193
330
A
100
AcDbDictionary
280
     1
281
     1
  3
ACAD_XREC_ROUNDTRIP
360
194
  0
DICTIONARY
  5
21A
330
187
100
AcDbDictionary
280
     1
281
     1
  3
ACAD_XREC_ROUNDTRIP
360
21B
  0
XRECORD
  5
8D1
102
{ACAD_REACTORS
330
8D0
102
}
330
8D0
100
AcDbXrecord
280
     1
102
SHADEPLOT
 70
     0
102
SHADEPLOTRESLEVEL
 70
     2
102
SHADEPLOTCUSTOMDPI
 70
   300
  0
XRECORD
  5
8D3
102
{ACAD_REACTORS
330
8D2
102
}
330
8D2
100
AcDbXrecord
280
     1
102
SHADEPLOT
 70
     0
102
SHADEPLOTRESLEVEL
 70
     2
102
SHADEPLOTCUSTOMDPI
 70
   300
  0
XRECORD
  5
8CF
102
{ACAD_REACTORS
330
8CE
102
}
330
8CE
100
AcDbXrecord
280
     1
102
SHADEPLOT
 70
     0
102
SHADEPLOTRESLEVEL
 70
     2
102
SHADEPLOTCUSTOMDPI
 70
   300
  0
XRECORD
  5
1B1
102
{ACAD_REACTORS
330
1B0
102
}
330
1B0
100
AcDbXrecord
280
     1
102
MATERIAL
148
0.0
149
0.0
149
0.0
 93
        0
 94
       63
282
     0
 72
     1
 77
     1
171
     1
175
     1
179
     1
273
     0
  0
XRECORD
  5
1AF
102
{ACAD_REACTORS
330
1AE
102
}
330
1AE
100
AcDbXrecord
280
     1
102
MATERIAL
148
0.0
149
0.0
149
0.0
 93
        0
 94
       63
282
     0
 72
     1
 77
     1
171
     1
175
     1
179
     1
273
     0
  0
XRECORD
  5
194
102
{ACAD_REACTORS
330
193
102
}
330
193
100
AcDbXrecord
280
     1
102
MATERIAL
148
0.0
149
0.0
149
0.0
 93
        0
 94
       63
282
     0
 72
     1
 77
     1
171
     1
175
     1
179
     1
273
     0
  0
XRECORD
  5
21B
102
{ACAD_REACTORS
330
21A
102
}
330
21A
100
AcDbXrecord
280
     1
102
ACAD_ROUNDTRIP_PRE2007_TABLESTYLE
 90
        4
 91
        0
  1

 92
        4
 93
        0
  2

 94
        4
 95
        0
  3

  0
ENDSEC
  0
EOF
