  0
SECTION
  2
HEADER
  9
$ACADVER
  1
AC1015
  9
$ACADMAINTVER
 70
    20
  9
$DWGCODEPAGE
  3
ANSI_1252
  9
$INSBASE
 10
0.0
 20
0.0
 30
0.0
  9
$EXTMIN
 10
0.0149999999999999
 20
0.015
 30
0.0
  9
$EXTMAX
 10
0.4050000000000001
 20
0.282
 30
0.0
  9
$LIMMIN
 10
0.0
 20
0.0
  9
$LIMMAX
 10
1.0
 20
0.5
  9
$ORTHOMODE
 70
     1
  9
$REGENMODE
 70
     1
  9
$FILLMODE
 70
     1
  9
$QTEXTMODE
 70
     0
  9
$MIRRTEXT
 70
     0
  9
$LTSCALE
 40
1.0
  9
$ATTMODE
 70
     1
  9
$TEXTSIZE
 40
0.005
  9
$TRACEWID
 40
1.0
  9
$TEXTSTYLE
  7
style1
  9
$CLAYER
  8
Dimensione
  9
$CELTYPE
  6
ByLayer
  9
$CECOLOR
 62
   256
  9
$CELTSCALE
 40
1.0
  9
$DISPSILH
 70
     0
  9
$DIMSCALE
 40
0.001
  9
$DIMASZ
 40
1.5
  9
$DIMEXO
 40
0.0625
  9
$DIMDLI
 40
0.38
  9
$DIMRND
 40
0.0
  9
$DIMDLE
 40
0.0
  9
$DIMEXE
 40
0.18
  9
$DIMTP
 40
0.0
  9
$DIMTM
 40
0.0
  9
$DIMTXT
 40
3.0
  9
$DIMCEN
 40
0.0
  9
$DIMTSZ
 40
0.0
  9
$DIMTOL
 70
     0
  9
$DIMLIM
 70
     0
  9
$DIMTIH
 70
     1
  9
$DIMTOH
 70
     1
  9
$DIMSE1
 70
     0
  9
$DIMSE2
 70
     0
  9
$DIMTAD
 70
     0
  9
$DIMZIN
 70
     0
  9
$DIMBLK
  1
ArchTick
  9
$DIMASO
 70
     1
  9
$DIMSHO
 70
     1
  9
$DIMPOST
  1

  9
$DIMAPOST
  1

  9
$DIMALT
 70
     0
  9
$DIMALTD
 70
     2
  9
$DIMALTF
 40
25.4
  9
$DIMLFAC
 40
1.0
  9
$DIMTOFL
 70
     0
  9
$DIMTVP
 40
0.0
  9
$DIMTIX
 70
     0
  9
$DIMSOXD
 70
     0
  9
$DIMSAH
 70
     0
  9
$DIMBLK1
  1

  9
$DIMBLK2
  1

  9
$DIMSTYLE
  2
Bovelacci
  9
$DIMCLRD
 70
     5
  9
$DIMCLRE
 70
     5
  9
$DIMCLRT
 70
     4
  9
$DIMTFAC
 40
1.0
  9
$DIMGAP
 40
2.0
  9
$DIMJUST
 70
     0
  9
$DIMSD1
 70
     0
  9
$DIMSD2
 70
     0
  9
$DIMTOLJ
 70
     1
  9
$DIMTZIN
 70
     0
  9
$DIMALTZ
 70
     0
  9
$DIMALTTZ
 70
     0
  9
$DIMUPT
 70
     0
  9
$DIMDEC
 70
     2
  9
$DIMTDEC
 70
     2
  9
$DIMALTU
 70
     2
  9
$DIMALTTD
 70
     2
  9
$DIMTXSTY
  7
ROMANS
  9
$DIMAUNIT
 70
     0
  9
$DIMADEC
 70
     0
  9
$DIMALTRND
 40
0.0
  9
$DIMAZIN
 70
     0
  9
$DIMDSEP
 70
    46
  9
$DIMATFIT
 70
     3
  9
$DIMFRAC
 70
     0
  9
$DIMLDRBLK
  1

  9
$DIMLUNIT
 70
     2
  9
$DIMLWD
 70
    -2
  9
$DIMLWE
 70
    -2
  9
$DIMTMOVE
 70
     2
  9
$LUNITS
 70
     2
  9
$LUPREC
 70
     2
  9
$SKETCHINC
 40
1.0
  9
$FILLETRAD
 40
0.0
  9
$AUNITS
 70
     0
  9
$AUPREC
 70
     0
  9
$MENU
  1
.
  9
$ELEVATION
 40
0.0
  9
$PELEVATION
 40
0.0
  9
$THICKNESS
 40
0.0
  9
$LIMCHECK
 70
     0
  9
$CHAMFERA
 40
0.0
  9
$CHAMFERB
 40
0.0
  9
$CHAMFERC
 40
0.0
  9
$CHAMFERD
 40
0.0
  9
$SKPOLY
 70
     0
  9
$TDCREATE
 40
2454297.583735706
  9
$TDUCREATE
 40
2454297.542069039
  9
$TDUPDATE
 40
2454431.912651181
  9
$TDUUPDATE
 40
2454431.870984514
  9
$TDINDWG
 40
0.4493770023
  9
$TDUSRTIMER
 40
0.4493764468
  9
$USRTIMER
 70
     1
  9
$ANGBASE
 50
0.0
  9
$ANGDIR
 70
     0
  9
$PDMODE
 70
     0
  9
$PDSIZE
 40
0.0
  9
$PLINEWID
 40
0.0
  9
$SPLFRAME
 70
     0
  9
$SPLINETYPE
 70
     6
  9
$SPLINESEGS
 70
     8
  9
$HANDSEED
  5
3CE5
  9
$SURFTAB1
 70
     6
  9
$SURFTAB2
 70
     6
  9
$SURFTYPE
 70
     6
  9
$SURFU
 70
     6
  9
$SURFV
 70
     6
  9
$UCSBASE
  2

  9
$UCSNAME
  2

  9
$UCSORG
 10
0.0
 20
0.0
 30
0.0
  9
$UCSXDIR
 10
1.0
 20
0.0
 30
0.0
  9
$UCSYDIR
 10
0.0
 20
1.0
 30
0.0
  9
$UCSORTHOREF
  2

  9
$UCSORTHOVIEW
 70
     0
  9
$UCSORGTOP
 10
0.0
 20
0.0
 30
0.0
  9
$UCSORGBOTTOM
 10
0.0
 20
0.0
 30
0.0
  9
$UCSORGLEFT
 10
0.0
 20
0.0
 30
0.0
  9
$UCSORGRIGHT
 10
0.0
 20
0.0
 30
0.0
  9
$UCSORGFRONT
 10
0.0
 20
0.0
 30
0.0
  9
$UCSORGBACK
 10
0.0
 20
0.0
 30
0.0
  9
$PUCSBASE
  2

  9
$PUCSNAME
  2

  9
$PUCSORG
 10
0.0
 20
0.0
 30
0.0
  9
$PUCSXDIR
 10
1.0
 20
0.0
 30
0.0
  9
$PUCSYDIR
 10
0.0
 20
1.0
 30
0.0
  9
$PUCSORTHOREF
  2

  9
$PUCSORTHOVIEW
 70
     0
  9
$PUCSORGTOP
 10
0.0
 20
0.0
 30
0.0
  9
$PUCSORGBOTTOM
 10
0.0
 20
0.0
 30
0.0
  9
$PUCSORGLEFT
 10
0.0
 20
0.0
 30
0.0
  9
$PUCSORGRIGHT
 10
0.0
 20
0.0
 30
0.0
  9
$PUCSORGFRONT
 10
0.0
 20
0.0
 30
0.0
  9
$PUCSORGBACK
 10
0.0
 20
0.0
 30
0.0
  9
$USERI1
 70
     0
  9
$USERI2
 70
     0
  9
$USERI3
 70
     0
  9
$USERI4
 70
     0
  9
$USERI5
 70
     0
  9
$USERR1
 40
0.0
  9
$USERR2
 40
0.0
  9
$USERR3
 40
0.0
  9
$USERR4
 40
0.0
  9
$USERR5
 40
0.0
  9
$WORLDVIEW
 70
     1
  9
$SHADEDGE
 70
     3
  9
$SHADEDIF
 70
    70
  9
$TILEMODE
 70
     1
  9
$MAXACTVP
 70
    64
  9
$PINSBASE
 10
0.0
 20
0.0
 30
0.0
  9
$PLIMCHECK
 70
     0
  9
$PEXTMIN
 10
29.06606628894805
 20
20.36233246326446
 30
0.0
  9
$PEXTMAX
 10
261.5945966005325
 20
183.2609921693802
 30
0.0
  9
$PLIMMIN
 10
-3.17498779296875
 20
-3.174999952316281
  9
$PLIMMAX
 10
293.8356628417969
 20
206.7983276844024
  9
$UNITMODE
 70
     0
  9
$VISRETAIN
 70
     1
  9
$PLINEGEN
 70
     0
  9
$PSLTSCALE
 70
     1
  9
$TREEDEPTH
 70
  3020
  9
$CMLSTYLE
  2
Standard
  9
$CMLJUST
 70
     0
  9
$CMLSCALE
 40
20.0
  9
$PROXYGRAPHICS
 70
     1
  9
$MEASUREMENT
 70
     1
  9
$CELWEIGHT
370
    -1
  9
$ENDCAPS
280
     0
  9
$JOINSTYLE
280
     0
  9
$LWDISPLAY
290
     0
  9
$INSUNITS
 70
     4
  9
$HYPERLINKBASE
  1

  9
$STYLESHEET
  1

  9
$XEDIT
290
     1
  9
$CEPSNTYPE
380
     0
  9
$PSTYLEMODE
290
     1
  9
$FINGERPRINTGUID
  2
{4F38C4E7-9F37-4C76-96D9-79C94F9B03D9}
  9
$VERSIONGUID
  2
{42FC2976-3583-4801-946F-80B4B25A640F}
  9
$EXTNAMES
290
     1
  9
$PSVPSCALE
 40
0.0
  9
$OLESTARTUP
290
     0
  0
ENDSEC
  0
SECTION
  2
CLASSES
  0
CLASS
  1
ACDBDICTIONARYWDFLT
  2
AcDbDictionaryWithDefault
  3
ObjectDBX Classes
 90
        0
280
     0
281
     0
  0
CLASS
  1
TABLESTYLE
  2
AcDbTableStyle
  3
ObjectDBX Classes
 90
     4095
280
     0
281
     0
  0
CLASS
  1
SORTENTSTABLE
  2
AcDbSortentsTable
  3
ObjectDBX Classes
 90
        0
280
     0
281
     0
  0
CLASS
  1
DICTIONARYVAR
  2
AcDbDictionaryVar
  3
ObjectDBX Classes
 90
        0
280
     0
281
     0
  0
CLASS
  1
DIMASSOC
  2
AcDbDimAssoc
  3
"AcDbDimAssoc|Product Desc:     AcDim ARX App For Dimension|Company:          Autodesk, Inc.|WEB Address:      www.autodesk.com"
 90
        0
280
     0
281
     0
  0
CLASS
  1
ACDBPLACEHOLDER
  2
AcDbPlaceHolder
  3
ObjectDBX Classes
 90
        0
280
     0
281
     0
  0
CLASS
  1
LAYOUT
  2
AcDbLayout
  3
ObjectDBX Classes
 90
        0
280
     0
281
     0
  0
CLASS
  1
MATERIAL
  2
AcDbMaterial
  3
ObjectDBX Classes
 90
     1024
280
     0
281
     0
  0
CLASS
  1
VISUALSTYLE
  2
AcDbVisualStyle
  3
ObjectDBX Classes
 90
     4095
280
     0
281
     0
  0
CLASS
  1
ACAD_EVALUATION_GRAPH
  2
AcDbEvalGraph
  3
ObjectDBX Classes
 90
    33921
280
     0
281
     0
  0
CLASS
  1
ACAECUSTOBJ
  2
AcAeEditorObj
  3
AcAeEditorObj
 90
    33792
280
     0
281
     0
  0
CLASS
  1
ACDB_DYNAMICBLOCKPURGEPREVENTER_VERSION
  2
AcDbDynamicBlockPurgePreventer
  3
ObjectDBX Classes
 90
    33921
280
     0
281
     0
  0
ENDSEC
  0
SECTION
  2
TABLES
  0
TABLE
  2
VPORT
  5
96
330
0
100
AcDbSymbolTable
 70
     1
  0
VPORT
  5
3CB4
330
96
100
AcDbSymbolTableRecord
100
AcDbViewportTableRecord
  2
*Active
 70
     0
 10
0.0
 20
0.0
 11
1.0
 21
1.0
 12
0.2159689163857887
 22
0.1473493791730487
 13
0.0
 23
0.0
 14
10.0
 24
10.0
 15
10.0
 25
10.0
 16
0.0
 26
0.0
 36
1.0
 17
0.0
 27
0.0
 37
0.0
 40
0.3483968032889209
 41
1.839339339339339
 42
50.0
 43
0.0
 44
0.0
 50
0.0
 51
0.0
 71
     0
 72
  1000
 73
     1
 74
     3
 75
     0
 76
     0
 77
     0
 78
     0
281
     0
 65
     1
110
0.0
120
0.0
130
0.0
111
1.0
121
0.0
131
0.0
112
0.0
122
1.0
132
0.0
 79
     0
146
0.0
  0
ENDTAB
  0
TABLE
  2
LTYPE
  5
91
330
0
100
AcDbSymbolTable
 70
     2
  0
LTYPE
  5
92
330
91
100
AcDbSymbolTableRecord
100
AcDbLinetypeTableRecord
  2
ByBlock
 70
     0
  3

 72
    65
 73
     0
 40
0.0
  0
LTYPE
  5
93
330
91
100
AcDbSymbolTableRecord
100
AcDbLinetypeTableRecord
  2
ByLayer
 70
     0
  3

 72
    65
 73
     0
 40
0.0
  0
LTYPE
  5
C
330
91
100
AcDbSymbolTableRecord
100
AcDbLinetypeTableRecord
  2
Continuous
 70
     0
  3
Solid line
 72
    65
 73
     0
 40
0.0
  0
ENDTAB
  0
TABLE
  2
LAYER
  5
8A
102
{ACAD_XDICTIONARY
360
8B
102
}
330
0
100
AcDbSymbolTable
 70
     7
  0
LAYER
  5
6
330
8A
100
AcDbSymbolTableRecord
100
AcDbLayerTableRecord
  2
0
 70
     0
 62
     7
  6
Continuous
370
    -3
390
7
  0
LAYER
  5
3F
330
8A
100
AcDbSymbolTableRecord
100
AcDbLayerTableRecord
  2
Defpoints
 70
     0
 62
     7
  6
Continuous
290
     0
370
    -3
390
7
  0
LAYER
  5
2E
330
8A
100
AcDbSymbolTableRecord
100
AcDbLayerTableRecord
  2
Dimensione
 70
     0
 62
   150
  6
Continuous
370
    -3
390
7
1001
AcAecLayerStandard
1000

1000

  0
LAYER
  5
54
330
8A
100
AcDbSymbolTableRecord
100
AcDbLayerTableRecord
  2
Sezione
 70
     0
 62
     2
  6
Continuous
370
    -3
390
7
1001
AcAecLayerStandard
1000

1000

  0
LAYER
  5
E
330
8A
100
AcDbSymbolTableRecord
100
AcDbLayerTableRecord
  2
Table
 70
     0
 62
     3
  6
Continuous
370
    -3
390
7
1001
AcAecLayerStandard
1000

1000

  0
LAYER
  5
19
330
8A
100
AcDbSymbolTableRecord
100
AcDbLayerTableRecord
  2
Text
 70
     0
 62
     4
  6
Continuous
370
    -3
390
7
1001
AcAecLayerStandard
1000

1000

  0
LAYER
  5
25D5
330
8A
100
AcDbSymbolTableRecord
100
AcDbLayerTableRecord
  2
Profilo
 70
     0
 62
     1
  6
Continuous
370
    -3
390
7
1001
AcAecLayerStandard
1000

1000

  0
ENDTAB
  0
TABLE
  2
STYLE
  5
8F
330
0
100
AcDbSymbolTable
 70
     4
  0
STYLE
  5
1A
330
8F
100
AcDbSymbolTableRecord
100
AcDbTextStyleTableRecord
  2
Standard
 70
     0
 40
0.0
 41
1.0
 50
0.0
 71
     0
 42
2.5
  3
txt
  4

  0
STYLE
  5
20
330
8F
100
AcDbSymbolTableRecord
100
AcDbTextStyleTableRecord
  2
ROMANS
 70
     0
 40
0.0
 41
1.0
 50
0.0
 71
     0
 42
2.5
  3
romans
  4

  0
STYLE
  5
28
330
8F
100
AcDbSymbolTableRecord
100
AcDbTextStyleTableRecord
  2
Arial
 70
     0
 40
0.0
 41
1.0
 50
0.0
 71
     0
 42
0.25
  3
ARIAL.TTF
  4

1001
ACAD
1000
Arial
1071
       34
  0
STYLE
  5
26
330
8F
100
AcDbSymbolTableRecord
100
AcDbTextStyleTableRecord
  2
style1
 70
     0
 40
0.0
 41
1.0
 50
0.0
 71
     0
 42
0.005
  3
TIMES.TTF
  4

1001
ACAD
1000
Times New Roman
1071
       18
  0
ENDTAB
  0
TABLE
  2
VIEW
  5
94
330
0
100
AcDbSymbolTable
 70
     0
  0
ENDTAB
  0
TABLE
  2
UCS
  5
95
330
0
100
AcDbSymbolTable
 70
     0
  0
ENDTAB
  0
TABLE
  2
APPID
  5
98
330
0
100
AcDbSymbolTable
 70
    14
  0
APPID
  5
1B
330
98
100
AcDbSymbolTableRecord
100
AcDbRegAppTableRecord
  2
ACAD
 70
     0
  0
APPID
  5
34
330
98
100
AcDbSymbolTableRecord
100
AcDbRegAppTableRecord
  2
ACAD_DSTYLE_DIMJOGGED_JOGANGLE_SYMBOL
 70
     0
  0
APPID
  5
F
330
98
100
AcDbSymbolTableRecord
100
AcDbRegAppTableRecord
  2
AcAecLayerStandard
 70
     0
  0
APPID
  5
85
330
98
100
AcDbSymbolTableRecord
100
AcDbRegAppTableRecord
  2
ACAD_PSEXT
 70
     0
  0
APPID
  5
BA
330
98
100
AcDbSymbolTableRecord
100
AcDbRegAppTableRecord
  2
ACAD_DSTYLE_DIMEXT_LENGTH
 70
     0
  0
APPID
  5
101
330
98
100
AcDbSymbolTableRecord
100
AcDbRegAppTableRecord
  2
ACAD_EXEMPT_FROM_CAD_STANDARDS
 70
     0
  0
APPID
  5
102
330
98
100
AcDbSymbolTableRecord
100
AcDbRegAppTableRecord
  2
ACAD_DSTYLE_DIM_LINETYPE
 70
     0
  0
APPID
  5
103
330
98
100
AcDbSymbolTableRecord
100
AcDbRegAppTableRecord
  2
ACAD_DSTYLE_DIM_EXT1_LINETYPE
 70
     0
  0
APPID
  5
104
330
98
100
AcDbSymbolTableRecord
100
AcDbRegAppTableRecord
  2
ACAD_DSTYLE_DIM_EXT2_LINETYPE
 70
     0
  0
APPID
  5
10D5
330
98
100
AcDbSymbolTableRecord
100
AcDbRegAppTableRecord
  2
ACAUTHENVIRON
 70
     0
  0
APPID
  5
10D9
330
98
100
AcDbSymbolTableRecord
100
AcDbRegAppTableRecord
  2
AcDbDynamicBlockTrueName
 70
     0
  0
APPID
  5
10DA
330
98
100
AcDbSymbolTableRecord
100
AcDbRegAppTableRecord
  2
AcDbDynamicBlockGUID
 70
     0
  0
APPID
  5
10DC
330
98
100
AcDbSymbolTableRecord
100
AcDbRegAppTableRecord
  2
AcDbBlockRepETag
 70
     0
  0
APPID
  5
249F
330
98
100
AcDbSymbolTableRecord
100
AcDbRegAppTableRecord
  2
DCO15
 70
     0
  0
ENDTAB
  0
TABLE
  2
DIMSTYLE
  5
99
330
0
100
AcDbSymbolTable
 70
     3
100
AcDbDimStyleTable
 71
     1
340
2F
  0
DIMSTYLE
105
2F
102
{ACAD_REACTORS
330
39B5
330
39D0
330
3C85
102
}
330
99
100
AcDbSymbolTableRecord
100
AcDbDimStyleTableRecord
  2
Bovelacci
 70
     0
 40
0.001
 41
1.5
140
3.0
141
0.0
147
2.0
176
     5
177
     5
178
     4
271
     2
272
     2
279
     2
340
20
342
30
1001
ACAD_DSTYLE_DIMJOGGED_JOGANGLE_SYMBOL
1070
   384
1040
0.7853981633974483
1001
ACAD_DSTYLE_DIMEXT_LENGTH
1070
   378
1040
0.18
  0
DIMSTYLE
105
194
330
99
100
AcDbSymbolTableRecord
100
AcDbDimStyleTableRecord
  2
STANDARD
 70
     0
340
1A
  0
ENDTAB
  0
TABLE
  2
BLOCK_RECORD
  5
1
330
0
100
AcDbSymbolTable
 70
    33
  0
BLOCK_RECORD
  5
2
102
{ACAD_XDICTIONARY
360
3
102
}
330
1
100
AcDbSymbolTableRecord
100
AcDbBlockTableRecord
  2
*Model_Space
340
77
  0
BLOCK_RECORD
  5
79
330
1
100
AcDbSymbolTableRecord
100
AcDbBlockTableRecord
  2
*Paper_Space
340
82
  0
BLOCK_RECORD
  5
86
330
1
100
AcDbSymbolTableRecord
100
AcDbBlockTableRecord
  2
*Paper_Space0
340
89
  0
BLOCK_RECORD
  5
30
330
1
100
AcDbSymbolTableRecord
100
AcDbBlockTableRecord
  2
_ArchTick
340
0
310
2800000020000000200000000100080000000000000400000000000000000000000000000000000000000000000080000080000000808000800000008000800080800000C0C0C000C0DCC000F0CAA6000020400000206000002080000020A0000020C0000020E00000400000004020000040400000406000004080000040A0
310
000040C0000040E00000600000006020000060400000606000006080000060A0000060C0000060E00000800000008020000080400000806000008080000080A0000080C0000080E00000A0000000A0200000A0400000A0600000A0800000A0A00000A0C00000A0E00000C0000000C0200000C0400000C0600000C0800000C0
310
A00000C0C00000C0E00000E0000000E0200000E0400000E0600000E0800000E0A00000E0C00000E0E00040000000400020004000400040006000400080004000A0004000C0004000E00040200000402020004020400040206000402080004020A0004020C0004020E000404000004040200040404000404060004040800040
310
40A0004040C0004040E00040600000406020004060400040606000406080004060A0004060C0004060E00040800000408020004080400040806000408080004080A0004080C0004080E00040A0000040A0200040A0400040A0600040A0800040A0A00040A0C00040A0E00040C0000040C0200040C0400040C0600040C08000
310
40C0A00040C0C00040C0E00040E0000040E0200040E0400040E0600040E0800040E0A00040E0C00040E0E00080000000800020008000400080006000800080008000A0008000C0008000E00080200000802020008020400080206000802080008020A0008020C0008020E00080400000804020008040400080406000804080
310
008040A0008040C0008040E00080600000806020008060400080606000806080008060A0008060C0008060E00080800000808020008080400080806000808080008080A0008080C0008080E00080A0000080A0200080A0400080A0600080A0800080A0A00080A0C00080A0E00080C0000080C0200080C0400080C0600080C0
310
800080C0A00080C0C00080C0E00080E0000080E0200080E0400080E0600080E0800080E0A00080E0C00080E0E000C0000000C0002000C0004000C0006000C0008000C000A000C000C000C000E000C0200000C0202000C0204000C0206000C0208000C020A000C020C000C020E000C0400000C0402000C0404000C0406000C0
310
408000C040A000C040C000C040E000C0600000C0602000C0604000C0606000C0608000C060A000C060C000C060E000C0800000C0802000C0804000C0806000C0808000C080A000C080C000C080E000C0A00000C0A02000C0A04000C0A06000C0A08000C0A0A000C0A0C000C0A0E000C0C00000C0C02000C0C04000C0C06000
310
C0C08000C0C0A000F0FBFF00A4A0A000808080000000FF0000FF000000FFFF00FF000000FF00FF00FFFF0000FFFFFF00000000FF000000000000000000000000000000000000000000000000000000000000FF00FF00000000000000000000000000000000000000000000000000000000FF000000FF000000000000000000
310
0000000000000000000000000000000000FF0000000000FF0000000000000000000000000000000000000000000000000000FF0000000000FF0000000000000000000000000000000000000000000000000000FF0000000000FF0000000000000000000000000000000000000000000000000000FF0000000000FF00000000
310
00000000000000000000000000000000000000000000FF0000000000FF0000000000000000000000000000000000000000000000000000FF0000000000FF0000000000000000000000000000000000000000000000000000FF0000000000FF0000000000000000000000000000000000000000000000000000FF0000000000
310
FF0000000000000000000000000000000000000000000000000000FF0000000000FF0000000000000000000000000000000000000000000000000000FF0000000000FF0000000000000000000000000000000000000000000000000000FF0000000000FF0000000000000000000000000000000000000000000000000000FF
310
0000000000FF0000000000000000000000000000000000000000000000000000FF0000000000FF0000000000000000000000000000000000000000000000000000FF0000000000FF0000000000000000000000000000000000000000000000000000FF0000000000FF00000000000000000000000000000000000000000000
310
00000000FF0000000000FF0000000000000000000000000000000000000000000000000000FF0000000000FF0000000000000000000000000000000000000000000000000000FF0000000000FF0000000000000000000000000000000000000000000000000000FF0000000000FF0000000000000000000000000000000000
310
000000000000000000FF0000000000FF0000000000000000000000000000000000000000000000000000FF0000000000FF0000000000000000000000000000000000000000000000000000FF0000000000FF0000000000000000000000000000000000000000000000000000FF0000000000FF000000000000000000000000
310
0000000000000000000000000000FF0000000000FF0000000000000000000000000000000000000000000000000000FF0000000000FF0000000000000000000000000000000000000000000000000000FF0000000000FF0000000000000000000000000000000000000000000000000000FF000000FF000000000000000000
310
00000000000000000000000000000000000000FF00FF000000000000000000000000000000000000000000000000000000000000FF000000
102
{BLKREFS
331
30E5
331
30E6
331
30EF
331
30F0
331
30F9
331
30FA
331
31F1
331
31F2
331
320B
331
320C
331
3225
331
3226
331
323F
331
3240
331
3331
331
3332
331
334B
331
334C
331
336E
331
336F
331
3386
331
3387
331
33A0
331
33A1
331
3410
331
3411
331
342A
331
342B
331
343F
331
3440
331
348E
331
348F
331
34B3
331
34B4
331
3530
331
3531
331
354A
331
354B
331
35D3
331
35D4
331
35ED
331
35EE
331
367E
331
367F
331
3688
331
3689
331
3707
331
3708
331
3720
331
3721
331
3C75
331
3C76
331
3C7F
331
3C80
331
3CAD
331
3CAE
102
}
  0
BLOCK_RECORD
  5
4E0
330
1
100
AcDbSymbolTableRecord
100
AcDbBlockTableRecord
  2
_Arrivo
340
0
310
2800000020000000200000000100080000000000000400000000000000000000000000000000000000000000000080000080000000808000800000008000800080800000C0C0C000C0DCC000F0CAA6000020400000206000002080000020A0000020C0000020E00000400000004020000040400000406000004080000040A0
310
000040C0000040E00000600000006020000060400000606000006080000060A0000060C0000060E00000800000008020000080400000806000008080000080A0000080C0000080E00000A0000000A0200000A0400000A0600000A0800000A0A00000A0C00000A0E00000C0000000C0200000C0400000C0600000C0800000C0
310
A00000C0C00000C0E00000E0000000E0200000E0400000E0600000E0800000E0A00000E0C00000E0E00040000000400020004000400040006000400080004000A0004000C0004000E00040200000402020004020400040206000402080004020A0004020C0004020E000404000004040200040404000404060004040800040
310
40A0004040C0004040E00040600000406020004060400040606000406080004060A0004060C0004060E00040800000408020004080400040806000408080004080A0004080C0004080E00040A0000040A0200040A0400040A0600040A0800040A0A00040A0C00040A0E00040C0000040C0200040C0400040C0600040C08000
310
40C0A00040C0C00040C0E00040E0000040E0200040E0400040E0600040E0800040E0A00040E0C00040E0E00080000000800020008000400080006000800080008000A0008000C0008000E00080200000802020008020400080206000802080008020A0008020C0008020E00080400000804020008040400080406000804080
310
008040A0008040C0008040E00080600000806020008060400080606000806080008060A0008060C0008060E00080800000808020008080400080806000808080008080A0008080C0008080E00080A0000080A0200080A0400080A0600080A0800080A0A00080A0C00080A0E00080C0000080C0200080C0400080C0600080C0
310
800080C0A00080C0C00080C0E00080E0000080E0200080E0400080E0600080E0800080E0A00080E0C00080E0E000C0000000C0002000C0004000C0006000C0008000C000A000C000C000C000E000C0200000C0202000C0204000C0206000C0208000C020A000C020C000C020E000C0400000C0402000C0404000C0406000C0
310
408000C040A000C040C000C040E000C0600000C0602000C0604000C0606000C0608000C060A000C060C000C060E000C0800000C0802000C0804000C0806000C0808000C080A000C080C000C080E000C0A00000C0A02000C0A04000C0A06000C0A08000C0A0A000C0A0C000C0A0E000C0C00000C0C02000C0C04000C0C06000
310
C0C08000C0C0A000F0FBFF00A4A0A000808080000000FF0000FF000000FFFF00FF000000FF00FF00FFFF0000FFFFFF00000000000000000000000000000000000000000000000000000000000000000000000000000000000000FF0000000000000000000000000000000000000000000000000000000000000000FF000000
310
00000000000000000000000000000000000000000000000000000000FF0000000000000000000000000000000000000000000000000000000000000000FF00000000000000000000000000000000000000000000000000000000000000FF0000000000000000000000000000000000000000000000000000000000000000FF
310
0000000000000000000000000000000000000000000000000000000000000000FF00000000000000000000000000000000000000000000000000000000000000FF0000000000000000000000000000000000000000000000000000000000000000FF0000000000000000000000000000000000000000000000000000000000
310
0000FF0000000000000000000000000000000000000000000000000000000000000000FF00000000000000000000000000000000000000000000000000000000000000FF0000000000000000000000000000000000000000000000000000000000000000FF0000FF0000000000000000000000000000000000000000000000
310
000000000000FFFF000000000000000000000000000000000000000000000000000000000000FFFF00000000000000000000000000000000000000000000000000000000FFFFFFFFFFFF00000000000000000000000000000000000000000000000000000000FFFF0000000000000000000000000000000000000000000000
310
000000000000FF0000FF000000000000000000000000000000000000000000000000000000FF00000000000000000000000000000000000000000000000000000000000000FF000000000000000000000000000000000000000000000000000000000000FF0000000000000000000000000000000000000000000000000000
310
0000000000FF000000000000000000000000000000000000000000000000000000000000FF00000000000000000000000000000000000000000000000000000000000000FF000000000000000000000000000000000000000000000000000000000000FF000000000000000000000000000000000000000000000000000000
310
000000FF00000000000000000000000000000000000000000000000000000000000000FF000000000000000000000000000000000000000000000000000000000000FF00000000000000000000000000000000000000000000000000000000000000FF00000000000000000000000000000000000000000000000000000000
310
0000FF0000000000000000000000000000000000000000000000000000000000000000000000000000000000000000000000000000000000
  0
BLOCK_RECORD
  5
4E6
330
1
100
AcDbSymbolTableRecord
100
AcDbBlockTableRecord
  2
_Partenza
340
0
310
2800000020000000200000000100080000000000000400000000000000000000000000000000000000000000000080000080000000808000800000008000800080800000C0C0C000C0DCC000F0CAA6000020400000206000002080000020A0000020C0000020E00000400000004020000040400000406000004080000040A0
310
000040C0000040E00000600000006020000060400000606000006080000060A0000060C0000060E00000800000008020000080400000806000008080000080A0000080C0000080E00000A0000000A0200000A0400000A0600000A0800000A0A00000A0C00000A0E00000C0000000C0200000C0400000C0600000C0800000C0
310
A00000C0C00000C0E00000E0000000E0200000E0400000E0600000E0800000E0A00000E0C00000E0E00040000000400020004000400040006000400080004000A0004000C0004000E00040200000402020004020400040206000402080004020A0004020C0004020E000404000004040200040404000404060004040800040
310
40A0004040C0004040E00040600000406020004060400040606000406080004060A0004060C0004060E00040800000408020004080400040806000408080004080A0004080C0004080E00040A0000040A0200040A0400040A0600040A0800040A0A00040A0C00040A0E00040C0000040C0200040C0400040C0600040C08000
310
40C0A00040C0C00040C0E00040E0000040E0200040E0400040E0600040E0800040E0A00040E0C00040E0E00080000000800020008000400080006000800080008000A0008000C0008000E00080200000802020008020400080206000802080008020A0008020C0008020E00080400000804020008040400080406000804080
310
008040A0008040C0008040E00080600000806020008060400080606000806080008060A0008060C0008060E00080800000808020008080400080806000808080008080A0008080C0008080E00080A0000080A0200080A0400080A0600080A0800080A0A00080A0C00080A0E00080C0000080C0200080C0400080C0600080C0
310
800080C0A00080C0C00080C0E00080E0000080E0200080E0400080E0600080E0800080E0A00080E0C00080E0E000C0000000C0002000C0004000C0006000C0008000C000A000C000C000C000E000C0200000C0202000C0204000C0206000C0208000C020A000C020C000C020E000C0400000C0402000C0404000C0406000C0
310
408000C040A000C040C000C040E000C0600000C0602000C0604000C0606000C0608000C060A000C060C000C060E000C0800000C0802000C0804000C0806000C0808000C080A000C080C000C080E000C0A00000C0A02000C0A04000C0A06000C0A08000C0A0A000C0A0C000C0A0E000C0C00000C0C02000C0C04000C0C06000
310
C0C08000C0C0A000F0FBFF00A4A0A000808080000000FF0000FF000000FFFF00FF000000FF00FF00FFFF0000FFFFFF0000000000000000000000000000000000000000000000000000000000000000000000000000000000000000000000000000000000000000000000000000000000000000000000000000000000000000
310
000000000000000000000000000000000000000000000000000000000000000000000000000000000000000000000000000000000000000000000000000000000000000000000000000000000000000000000000000000000000000000000000000000000000000000000000000000000000FFFFFFFFFFFFFFFFFFFFFFFFFF
310
FFFFFFFFFFFFFFFFFFFFFFFFFFFFFFFFFF0000000000000000000000000000000000000000000000000000000000000000000000000000000000000000000000000000000000000000000000000000000000000000000000000000000000000000000000000000000000000000000000000000000000000000000000000000
310
00000000000000000000000000000000000000000000000000000000000000000000000000000000000000000000000000000000000000000000000000000000000000000000000000000000000000000000000000000000000000000000000000000000000000000000000000000000000000000000000000000000000000
310
00000000000000000000000000000000000000000000000000000000000000000000000000000000000000000000000000000000000000000000000000000000000000000000000000000000000000000000000000000000000000000000000000000000000000000000000000000000000000000000000000000000000000
310
00000000000000000000000000000000000000000000000000000000000000000000000000000000000000000000000000000000000000000000000000000000000000000000000000000000000000000000000000000000000000000000000000000000000000000000000000000000000000000000000000000000000000
310
000000000000000000000000000000000000000000000000000000000000000000000000000000000000000000000000000000000000000000000000000000000000000000000000000000000000000000000000000000FFFFFFFFFFFFFFFFFFFFFFFFFFFFFFFFFFFFFFFFFFFFFFFFFFFFFFFFFFFF00000000000000000000
310
00000000000000000000000000000000000000000000000000000000000000000000000000000000000000000000000000000000000000000000000000000000000000000000000000000000000000000000000000000000000000000000000000000000000000000000000000000000000000000000000000000000000000
310
0000000000000000000000000000000000000000000000000000000000000000000000000000000000000000000000000000000000000000
  0
BLOCK_RECORD
  5
39B6
330
1
100
AcDbSymbolTableRecord
100
AcDbBlockTableRecord
  2
*D29
340
0
  0
BLOCK_RECORD
  5
39D1
330
1
100
AcDbSymbolTableRecord
100
AcDbBlockTableRecord
  2
*D30
340
0
  0
BLOCK_RECORD
  5
3C86
330
1
100
AcDbSymbolTableRecord
100
AcDbBlockTableRecord
  2
*D31
340
0
  0
ENDTAB
  0
ENDSEC
  0
SECTION
  2
BLOCKS
  0
BLOCK
  5
5
330
2
100
AcDbEntity
  8
0
100
AcDbBlockBegin
  2
*Model_Space
 70
     0
 10
0.0
 20
0.0
 30
0.0
  3
*Model_Space
  1

  0
ENDBLK
  5
76
330
2
100
AcDbEntity
  8
0
100
AcDbBlockEnd
  0
BLOCK
  5
7A
330
79
100
AcDbEntity
 67
     1
  8
0
100
AcDbBlockBegin
  2
*Paper_Space
 70
     0
 10
0.0
 20
0.0
 30
0.0
  3
*Paper_Space
  1

  0
ENDBLK
  5
81
330
79
100
AcDbEntity
 67
     1
  8
0
100
AcDbBlockEnd
  0
BLOCK
  5
87
330
86
100
AcDbEntity
 67
     1
  8
0
100
AcDbBlockBegin
  2
*Paper_Space0
 70
     0
 10
0.0
 20
0.0
 30
0.0
  3
*Paper_Space0
  1

  0
ENDBLK
  5
88
330
86
100
AcDbEntity
 67
     1
  8
0
100
AcDbBlockEnd
  0
BLOCK
  5
31
330
30
100
AcDbEntity
  8
0
 62
     1
100
AcDbBlockBegin
  2
_ArchTick
 70
     0
 10
0.0
 20
0.0
 30
0.0
  3
_ArchTick
  1

  0
LWPOLYLINE
  5
32
330
30
100
AcDbEntity
  8
0
  6
ByBlock
 62
     0
100
AcDbPolyline
 90
        2
 70
     0
 43
0.15
 10
-0.5
 20
-0.5
 10
0.5
 20
0.5
  0
ENDBLK
  5
33
330
30
100
AcDbEntity
  8
0
 62
     1
100
AcDbBlockEnd
  0
BLOCK
  5
4E1
330
4E0
100
AcDbEntity
  8
0
100
AcDbBlockBegin
  2
_Arrivo
 70
     0
 10
0.0
 20
0.0
 30
0.0
  3
_Arrivo
  1

  0
LINE
  5
4E2
330
4E0
100
AcDbEntity
  8
0
  6
ByBlock
 62
     0
370
    -2
100
AcDbLine
 10
0.025
 20
-0.0433012701891858
 30
0.0
 11
-0.15
 21
0.2598076211353328
 31
0.0
  0
LINE
  5
4E3
330
4E0
100
AcDbEntity
  8
0
  6
ByBlock
 62
     0
370
    -2
100
AcDbLine
 10
0.025
 20
0.0433012701892585
 30
0.0
 11
-0.15
 21
-0.2598076211353328
 31
0.0
  0
LINE
  5
4E4
330
4E0
100
AcDbEntity
  8
0
  6
ByBlock
 62
     0
370
    -2
100
AcDbLine
 10
-0.05
 20
0.0
 30
0.0
 11
0.05
 21
0.0
 31
0.0
  0
ENDBLK
  5
4E5
330
4E0
100
AcDbEntity
  8
0
100
AcDbBlockEnd
  0
BLOCK
  5
4E7
330
4E6
100
AcDbEntity
  8
0
100
AcDbBlockBegin
  2
_Partenza
 70
     0
 10
0.0
 20
0.0
 30
0.0
  3
_Partenza
  1

  0
LINE
  5
4E8
330
4E6
100
AcDbEntity
  8
0
  6
ByBlock
 62
     0
370
    -2
100
AcDbLine
 10
-0.05
 20
0.05
 30
0.0
 11
0.1
 21
0.05
 31
0.0
  0
LINE
  5
4E9
330
4E6
100
AcDbEntity
  8
0
  6
ByBlock
 62
     0
370
    -2
100
AcDbLine
 10
-0.05
 20
-0.05
 30
0.0
 11
0.1
 21
-0.05
 31
0.0
  0
ENDBLK
  5
4EA
330
4E6
100
AcDbEntity
  8
0
100
AcDbBlockEnd
  0
BLOCK
  5
39C1
330
39B6
100
AcDbEntity
  8
0
100
AcDbBlockBegin
  2
*D29
 70
     1
 10
0.0
 20
0.0
 30
0.0
  3
*D29
  1

  0
LINE
  5
3C71
330
39B6
100
AcDbEntity
  8
Dimensione
 62
     5
370
    -2
100
AcDbLine
 10
0.1129184452972601
 20
0.0722180967989171
 30
0.0
 11
0.1129184452972601
 21
0.0602706529975879
 31
0.0
  0
LINE
  5
3C72
330
39B6
100
AcDbEntity
  8
Dimensione
 62
     5
370
    -2
100
AcDbLine
 10
0.1416684452972587
 20
0.0722180967989171
 30
0.0
 11
0.1416684452972587
 21
0.0602706529975879
 31
0.0
  0
LINE
  5
3C73
330
39B6
100
AcDbEntity
  8
Dimensione
 62
     5
370
    -2
100
AcDbLine
 10
0.1129184452972601
 20
0.0604506529975879
 30
0.0
 11
0.1159363024401166
 21
0.0604506529975879
 31
0.0
  0
LINE
  5
3C74
330
39B6
100
AcDbEntity
  8
Dimensione
 62
     5
370
    -2
100
AcDbLine
 10
0.1416684452972587
 20
0.0604506529975879
 30
0.0
 11
0.1386505881544023
 21
0.0604506529975879
 31
0.0
  0
INSERT
  5
3C75
330
39B6
100
AcDbEntity
  8
Dimensione
 62
     5
370
    -2
100
AcDbBlockReference
  2
_ArchTick
 10
0.1129184452972601
 20
0.0604506529975879
 30
0.0
 41
0.0015
 42
0.0015
 43
0.0015
 50
180.0
  0
INSERT
  5
3C76
330
39B6
100
AcDbEntity
  8
Dimensione
 62
     5
370
    -2
100
AcDbBlockReference
  2
_ArchTick
 10
0.1416684452972587
 20
0.0604506529975879
 30
0.0
 41
0.0015
 42
0.0015
 43
0.0015
  0
MTEXT
  5
3C77
330
39B6
100
AcDbEntity
  8
Dimensione
 62
     4
100
AcDbMText
 10
0.1272934452972594
 20
0.0604506529975879
 30
0.0
 40
0.003
 41
0.0
 71
     5
 72
     1
  1
\A1;115 mm
  7
ROMANS
 73
     1
 44
1.0
1001
ACAD
1000
MTEXTBEGIN
1070
    73
1070
     1
1070
    44
1040
1.0
1070
    74
1070
     0
1000
MTEXTEND
  0
POINT
  5
3C78
330
39B6
100
AcDbEntity
  8
Defpoints
 62
     0
100
AcDbPoint
 10
0.1129184452972601
 20
0.0722805967989171
 30
0.0
  0
POINT
  5
3C79
330
39B6
100
AcDbEntity
  8
Defpoints
 62
     0
100
AcDbPoint
 10
0.1416684452972587
 20
0.0722805967989171
 30
0.0
  0
POINT
  5
3C7A
330
39B6
100
AcDbEntity
  8
Defpoints
 62
     0
100
AcDbPoint
 10
0.1416684452972587
 20
0.0604506529975879
 30
0.0
  0
ENDBLK
  5
39C2
330
39B6
100
AcDbEntity
  8
0
100
AcDbBlockEnd
  0
BLOCK
  5
39DC
330
39D1
100
AcDbEntity
  8
0
100
AcDbBlockBegin
  2
*D30
 70
     1
 10
0.0
 20
0.0
 30
0.0
  3
*D30
  1

  0
LINE
  5
3C7B
330
39D1
100
AcDbEntity
  8
Dimensione
 62
     5
370
    -2
100
AcDbLine
 10
0.1417309452972587
 20
0.0722180967989171
 30
0.0
 11
0.1681221667750489
 21
0.0722180967989171
 31
0.0
  0
LINE
  5
3C7C
330
39D1
100
AcDbEntity
  8
Dimensione
 62
     5
370
    -2
100
AcDbLine
 10
0.146647350140786
 20
0.2337182269103462
 30
0.0
 11
0.1681221667750489
 21
0.2337182269103462
 31
0.0
  0
LINE
  5
3C7D
330
39D1
100
AcDbEntity
  8
Dimensione
 62
     5
370
    -2
100
AcDbLine
 10
0.1679421667750489
 20
0.0722180967989171
 30
0.0
 11
0.1679421667750489
 21
0.1494681618546316
 31
0.0
  0
LINE
  5
3C7E
330
39D1
100
AcDbEntity
  8
Dimensione
 62
     5
370
    -2
100
AcDbLine
 10
0.1679421667750489
 20
0.2337182269103462
 30
0.0
 11
0.1679421667750489
 21
0.1564681618546316
 31
0.0
  0
INSERT
  5
3C7F
330
39D1
100
AcDbEntity
  8
Dimensione
 62
     5
370
    -2
100
AcDbBlockReference
  2
_ArchTick
 10
0.1679421667750489
 20
0.0722180967989171
 30
0.0
 41
0.0015
 42
0.0015
 43
0.0015
 50
270.0
  0
INSERT
  5
3C80
330
39D1
100
AcDbEntity
  8
Dimensione
 62
     5
370
    -2
100
AcDbBlockReference
  2
_ArchTick
 10
0.1679421667750489
 20
0.2337182269103462
 30
0.0
 41
0.0015
 42
0.0015
 43
0.0015
 50
90.0
  0
MTEXT
  5
3C81
330
39D1
100
AcDbEntity
  8
Dimensione
 62
     4
100
AcDbMText
 10
0.1679421667750489
 20
0.1529681618546316
 30
0.0
 40
0.003
 41
0.0
 71
     5
 72
     1
  1
\A1;3130 mm
  7
ROMANS
 73
     1
 44
1.0
1001
ACAD
1000
MTEXTBEGIN
1070
    73
1070
     1
1070
    44
1040
1.0
1070
    74
1070
     0
1000
MTEXTEND
  0
POINT
  5
3C82
330
39D1
100
AcDbEntity
  8
Defpoints
 62
     0
100
AcDbPoint
 10
0.1416684452972587
 20
0.0722180967989171
 30
0.0
  0
POINT
  5
3C83
330
39D1
100
AcDbEntity
  8
Defpoints
 62
     0
100
AcDbPoint
 10
0.146584850140786
 20
0.2337182269103462
 30
0.0
  0
POINT
  5
3C84
330
39D1
100
AcDbEntity
  8
Defpoints
 62
     0
100
AcDbPoint
 10
0.1679421667750489
 20
0.2337182269103462
 30
0.0
  0
ENDBLK
  5
39DD
330
39D1
100
AcDbEntity
  8
0
100
AcDbBlockEnd
  0
BLOCK
  5
3C91
330
3C86
100
AcDbEntity
  8
0
100
AcDbBlockBegin
  2
*D31
 70
     1
 10
0.0
 20
0.0
 30
0.0
  3
*D31
  1

  0
LINE
  5
3CA9
330
3C86
100
AcDbEntity
  8
Dimensione
 62
     5
370
    -2
100
AcDbLine
 10
0.1052412748773072
 20
0.2327767558416337
 30
0.0
 11
0.1052412748773072
 21
0.2420331104127908
 31
0.0
  0
LINE
  5
3CAA
330
3C86
100
AcDbEntity
  8
Dimensione
 62
     5
370
    -2
100
AcDbLine
 10
0.1482028375528861
 20
0.2334572801851064
 30
0.0
 11
0.1482028375528861
 21
0.2420331104127908
 31
0.0
  0
LINE
  5
3CAB
330
3C86
100
AcDbEntity
  8
Dimensione
 62
     5
370
    -2
100
AcDbLine
 10
0.1052412748773072
 20
0.2418531104127908
 30
0.0
 11
0.1153649133579538
 21
0.2418531104127908
 31
0.0
  0
LINE
  5
3CAC
330
3C86
100
AcDbEntity
  8
Dimensione
 62
     5
370
    -2
100
AcDbLine
 10
0.1482028375528861
 20
0.2418531104127908
 30
0.0
 11
0.1380791990722395
 21
0.2418531104127908
 31
0.0
  0
INSERT
  5
3CAD
330
3C86
100
AcDbEntity
  8
Dimensione
 62
     5
370
    -2
100
AcDbBlockReference
  2
_ArchTick
 10
0.1052412748773072
 20
0.2418531104127908
 30
0.0
 41
0.0015
 42
0.0015
 43
0.0015
 50
180.0
  0
INSERT
  5
3CAE
330
3C86
100
AcDbEntity
  8
Dimensione
 62
     5
370
    -2
100
AcDbBlockReference
  2
_ArchTick
 10
0.1482028375528861
 20
0.2418531104127908
 30
0.0
 41
0.0015
 42
0.0015
 43
0.0015
  0
MTEXT
  5
3CAF
330
3C86
100
AcDbEntity
  8
Dimensione
 62
     4
100
AcDbMText
 10
0.1267220562150966
 20
0.2418531104127908
 30
0.0
 40
0.003
 41
0.0
 71
     5
 72
     1
  1
\A1;175 mm
  7
ROMANS
 73
     1
 44
1.0
1001
ACAD
1000
MTEXTBEGIN
1070
    73
1070
     1
1070
    44
1040
1.0
1070
    74
1070
     0
1000
MTEXTEND
  0
POINT
  5
3CB0
330
3C86
100
AcDbEntity
  8
Defpoints
 62
     0
100
AcDbPoint
 10
0.1052412748773072
 20
0.2327142558416337
 30
0.0
  0
POINT
  5
3CB1
330
3C86
100
AcDbEntity
  8
Defpoints
 62
     0
100
AcDbPoint
 10
0.1482028375528861
 20
0.2333947801851064
 30
0.0
  0
POINT
  5
3CB2
330
3C86
100
AcDbEntity
  8
Defpoints
 62
     0
100
AcDbPoint
 10
0.1482028375528861
 20
0.2418531104127908
 30
0.0
  0
ENDBLK
  5
3C92
330
3C86
100
AcDbEntity
  8
0
100
AcDbBlockEnd
  0
ENDSEC
  0
SECTION
  2
ENTITIES
  0
LINE
  5
D
330
2
100
AcDbEntity
  8
Table
100
AcDbLine
 10
0.02
 20
0.02
 30
0.0
 11
0.4
 21
0.02
 31
0.0
  0
LINE
  5
10
330
2
100
AcDbEntity
  8
Table
100
AcDbLine
 10
0.4
 20
0.02
 30
0.0
 11
0.4
 21
0.2769999999999999
 31
0.0
  0
LINE
  5
11
330
2
100
AcDbEntity
  8
Table
100
AcDbLine
 10
0.4
 20
0.2769999999999999
 30
0.0
 11
0.02
 21
0.277
 31
0.0
  0
LINE
  5
12
330
2
100
AcDbEntity
  8
Table
100
AcDbLine
 10
0.02
 20
0.277
 30
0.0
 11
0.02
 21
0.02
 31
0.0
  0
LINE
  5
13
330
2
100
AcDbEntity
  8
Table
 62
     2
100
AcDbLine
 10
0.015
 20
0.015
 30
0.0
 11
0.4050000000000001
 21
0.015
 31
0.0
  0
LINE
  5
14
330
2
100
AcDbEntity
  8
Table
 62
     2
100
AcDbLine
 10
0.4050000000000001
 20
0.015
 30
0.0
 11
0.4050000000000001
 21
0.2819999999999998
 31
0.0
  0
LINE
  5
15
330
2
100
AcDbEntity
  8
Table
 62
     2
100
AcDbLine
 10
0.4050000000000001
 20
0.2819999999999998
 30
0.0
 11
0.0149999999999999
 21
0.282
 31
0.0
  0
LINE
  5
16
330
2
100
AcDbEntity
  8
Table
 62
     2
100
AcDbLine
 10
0.0149999999999999
 20
0.282
 30
0.0
 11
0.015
 21
0.015
 31
0.0
  0
LINE
  5
17
330
2
100
AcDbEntity
  8
Table
100
AcDbLine
 10
0.21
 20
0.2769999999999999
 30
0.0
 11
0.21
 21
0.2532994226089223
 31
0.0
  0
LINE
  5
1D
330
2
100
AcDbEntity
  8
Table
100
AcDbLine
 10
0.02
 20
0.0528099428524846
 30
0.0
 11
0.4
 21
0.0528099428524846
 31
0.0
  0
MTEXT
  5
1E
330
2
100
AcDbEntity
  8
Text
100
AcDbMText
 10
0.1133313047219695
 20
0.2610796890771976
 30
0.0
 40
0.003
 41
0.1103605678262056
 71
     2
 72
     5
  1
{\fTimes New Roman|b0|i0|c0|p18;Le lesene \fTimes New Roman|b0|i1|c0|p18;      Pilasters}
 73
     1
 44
1.0
1001
ACAD
1000
MTEXTBEGIN
1070
    73
1070
     1
1070
    44
1040
1.0
1070
    74
1070
     0
1000
MTEXTEND
1000
ACAD_MTEXT_DEFINED_HEIGHT_BEGIN
1070
    46
1040
0.0141952763113409
1000
ACAD_MTEXT_DEFINED_HEIGHT_END
  0
TEXT
  5
1F
330
2
100
AcDbEntity
  8
Text
100
AcDbText
 10
0.2180556919891047
 20
0.269976982173197
 30
0.0
 40
0.003
  1
Lesena piccola - Small pilaster : L 175 x 55 x H 3130 mm
  7
ROMANS
100
AcDbText
  0
TEXT
  5
21
330
2
100
AcDbEntity
  8
Text
100
AcDbText
 10
0.2184542410678115
 20
0.2576348370183962
 30
0.0
 40
0.003
  1
File : E - EL01P
  7
ROMANS
100
AcDbText
  0
LINE
  5
22
330
2
100
AcDbEntity
  8
Table
100
AcDbLine
 10
0.4
 20
0.2654452889427402
 30
0.0
 11
0.02
 21
0.2654452889427403
 31
0.0
  0
LINE
  5
23
330
2
100
AcDbEntity
  8
Table
100
AcDbLine
 10
0.4
 20
0.2532994226089223
 30
0.0
 11
0.02
 21
0.2532994226089225
 31
0.0
  0
LINE
  5
24
330
2
100
AcDbEntity
  8
Table
100
AcDbLine
 10
0.21
 20
0.0528099428524846
 30
0.0
 11
0.21
 21
0.02
 31
0.0
  0
TEXT
  5
25
330
2
100
AcDbEntity
  8
Text
100
AcDbText
 10
0.0947789320547719
 20
0.2687784133392506
 30
0.0
 40
0.005
  1
EUROSTYL
  7
style1
 72
     1
 11
0.1140561490699125
 21
0.2687784133392506
 31
0.0
100
AcDbText
  0
MTEXT
  5
10F
102
{ACAD_XDICTIONARY
360
3CE1
102
}
330
2
100
AcDbEntity
  8
Text
100
AcDbMText
 10
0.305
 20
0.0471738284815141
 30
0.0
 40
0.005
 41
0.1900000000000001
 71
     2
 72
     5
  3
{\fTimes New Roman|b0|i0|c238|p18;\H1.6x;\C4;Bovelacci\P\H0.4375x;\T0.95;via del Commercio, 5  47100 Forli - Italy  \fTimes New Roman|b0|i0|c0|p18;\P\fTimes New Roman|b0|i0|c238|p18;tel.+39-0543721386  fax +39-0543721127\fTimes New Roman|b0|i0|c0|p18
  1
; \fTimes New Roman|b0|i0|c238|p18;www.bovelacci.it\fTimes New Roman|b0|i0|c0|p18; \fTimes New Roman|b0|i0|c238|p18;e-mail: bovelacci@bovelacci\fTimes New Roman|b0|i0|c0|p18;.it}
 73
     1
 44
1.0
1001
ACAD
1000
MTEXTBEGIN
1070
    73
1070
     1
1070
    44
1040
1.0
1070
    74
1070
     0
1000
MTEXTEND
1000
ACAD_MTEXT_DEFINED_HEIGHT_BEGIN
1070
    46
1040
0.0271738284815141
1000
ACAD_MTEXT_DEFINED_HEIGHT_END
  0
MTEXT
  5
110
102
{ACAD_XDICTIONARY
360
3CE3
102
}
330
2
100
AcDbEntity
  8
Text
100
AcDbMText
 10
0.0219676065851835
 20
0.0500313976452307
 30
0.0
 40
0.002
 41
0.1863544980601608
 71
     1
 72
     5
  3
{\fArial|b0|i0|c0|p34;\H1.25x;Le caratteristiche tecniche indicate vengono fornite a titolo indicativo e potranno essere modificate senza preavviso. Non devono quindi essere considerate a scopo di specifica.\P\fArial|b0|i1|c0|p34;The given values are
  3
 indicative and can be changed without notice. They cannot be considered like a state.\PThis lealfet and designs embodied within are protected by copyright law and international treaties. Unauthorized repro- duction of the leaflet or any portion of i
  1
t or reproduction of any of the designs embodied therein may result in severe civil penalties and will be prosecuted to the maximum.\PAll right reserved, Bovelacci Forl\U+00EC Italy.}
 73
     1
 44
1.0
1001
ACAD
1000
MTEXTBEGIN
1070
    73
1070
     1
1070
    44
1040
1.0
1070
    74
1070
     0
1000
MTEXTEND
  0
LINE
  5
37D5
330
2
100
AcDbEntity
  8
Profilo
  6
Continuous
370
     0
100
AcDbLine
 10
0.1167708745525352
 20
0.141249741020081
 30
0.0
 11
0.1167708745525352
 21
0.1639312823207618
 31
0.0
  0
LINE
  5
37D6
330
2
100
AcDbEntity
  8
Profilo
  6
Continuous
370
     0
100
AcDbLine
 10
0.1203045904643424
 20
0.141249741020081
 30
0.0
 11
0.1203045904643424
 21
0.1623362976088827
 31
0.0
  0
ARC
  5
37D7
330
2
100
AcDbEntity
  8
Profilo
  6
Continuous
370
     0
100
AcDbCircle
 10
0.1185377325084388
 20
0.1842330241556009
 30
0.0
 40
0.0017851664664334
100
AcDbArc
 50
8.212902194229675
 51
171.7870978057703
  0
ARC
  5
37D8
330
2
100
AcDbEntity
  8
Profilo
  6
Continuous
370
     0
100
AcDbCircle
 10
0.1185377325084388
 20
0.1414764623550706
 30
0.0
 40
0.001781344885214
100
AcDbArc
 50
187.312174767338
 51
352.687825232662
  0
LINE
  5
37D9
330
2
100
AcDbEntity
  8
Profilo
  6
Continuous
370
     0
100
AcDbLine
 10
0.1226282462953484
 20
0.141249741020081
 30
0.0
 11
0.1226282462953484
 21
0.1607599431796187
 31
0.0
  0
LINE
  5
37DA
330
2
100
AcDbEntity
  8
Profilo
  6
Continuous
370
     0
100
AcDbLine
 10
0.1261619622071555
 20
0.141249741020081
 30
0.0
 11
0.1261619622071555
 21
0.1600746777868334
 31
0.0
  0
ARC
  5
37DB
330
2
100
AcDbEntity
  8
Profilo
  6
Continuous
370
     0
100
AcDbCircle
 10
0.124395104251252
 20
0.1842330241556009
 30
0.0
 40
0.0017851664664334
100
AcDbArc
 50
8.212902194229675
 51
171.7870978057703
  0
ARC
  5
37DC
330
2
100
AcDbEntity
  8
Profilo
  6
Continuous
370
     0
100
AcDbCircle
 10
0.124395104251252
 20
0.1414764623550706
 30
0.0
 40
0.001781344885214
100
AcDbArc
 50
187.312174767338
 51
352.687825232662
  0
LINE
  5
37DD
330
2
100
AcDbEntity
  8
Profilo
  6
Continuous
370
     0
100
AcDbLine
 10
0.1285399395718008
 20
0.141249741020081
 30
0.0
 11
0.1285399395718008
 21
0.1614759538620706
 31
0.0
  0
LINE
  5
37DE
330
2
100
AcDbEntity
  8
Profilo
  6
Continuous
370
     0
100
AcDbLine
 10
0.1320736554836079
 20
0.141249741020081
 30
0.0
 11
0.1320736554836079
 21
0.1605137042161857
 31
0.0
  0
ARC
  5
37DF
330
2
100
AcDbEntity
  8
Profilo
  6
Continuous
370
     0
100
AcDbCircle
 10
0.1303067975277043
 20
0.1842330241556009
 30
0.0
 40
0.0017851664664334
100
AcDbArc
 50
8.212902194229675
 51
171.7870978057703
  0
ARC
  5
37E0
330
2
100
AcDbEntity
  8
Profilo
  6
Continuous
370
     0
100
AcDbCircle
 10
0.1303067975277043
 20
0.1414764623550706
 30
0.0
 40
0.001781344885214
100
AcDbArc
 50
187.312174767338
 51
352.687825232662
  0
LINE
  5
37E1
330
2
100
AcDbEntity
  8
Profilo
  6
Continuous
370
     0
100
AcDbLine
 10
0.1345309843008513
 20
0.141249741020081
 30
0.0
 11
0.1345309843008513
 21
0.1595309740290231
 31
0.0
  0
LINE
  5
37E2
330
2
100
AcDbEntity
  8
Profilo
  6
Continuous
370
     0
100
AcDbLine
 10
0.1380647002126585
 20
0.141249741020081
 30
0.0
 11
0.1380647002126585
 21
0.1610731415831202
 31
0.0
  0
ARC
  5
37E3
330
2
100
AcDbEntity
  8
Profilo
  6
Continuous
370
     0
100
AcDbCircle
 10
0.1362978422567549
 20
0.1842330241556009
 30
0.0
 40
0.0017851664664334
100
AcDbArc
 50
8.212902194229675
 51
171.7870978057703
  0
ARC
  5
37E4
330
2
100
AcDbEntity
  8
Profilo
  6
Continuous
370
     0
100
AcDbCircle
 10
0.1362978422567549
 20
0.1414764623550706
 30
0.0
 40
0.001781344885214
100
AcDbArc
 50
187.312174767338
 51
352.687825232662
  0
LINE
  5
37E5
330
2
100
AcDbEntity
  8
Profilo
  6
Continuous
370
     0
100
AcDbLine
 10
0.1129184452972601
 20
0.1999183488611162
 30
0.0
 11
0.1129184452972601
 21
0.1687930199851762
 31
0.0
  0
LINE
  5
37E6
330
2
100
AcDbEntity
  8
Profilo
  6
Continuous
370
     0
100
AcDbLine
 10
0.1129184452972601
 20
0.0722805967989171
 30
0.0
 11
0.1416684452972587
 21
0.0722805967989171
 31
0.0
  0
LINE
  5
37E7
330
2
100
AcDbEntity
  8
Profilo
  6
Continuous
370
     0
100
AcDbLine
 10
0.1416684452972587
 20
0.0722805967989171
 30
0.0
 11
0.1416684452972587
 21
0.163727149834376
 31
0.0
  0
LINE
  5
37E8
330
2
100
AcDbEntity
  8
Profilo
  6
Continuous
370
     0
100
AcDbLine
 10
0.1416684452972587
 20
0.1999183488611162
 30
0.0
 11
0.1129184452972601
 21
0.1999183488611162
 31
0.0
  0
LWPOLYLINE
  5
37E9
330
2
100
AcDbEntity
  8
Profilo
  6
Continuous
370
     0
100
AcDbPolyline
 90
       23
 70
   128
 43
0.0
 10
0.1129184452972601
 20
0.1999183488611162
 10
0.1125170814946542
 20
0.2002458426654794
 10
0.1123264115609316
 20
0.20065709874366
 10
0.1122360940726593
 20
0.2012789999011684
 10
0.1119049289910904
 20
0.2013191232158444
 10
0.1116139037382232
 20
0.2016802256152328
 10
0.1115536911214746
 20
0.2025428629444388
 10
0.1116239386953978
 20
0.2033754073230991
 10
0.1118547513315163
 20
0.2036562668094728
 10
0.1120962282649095
 20
0.2037942725789659
 10
0.1422400527805534
 20
0.2037942725789659
 10
0.1426492933923269
 20
0.203580812382631
 10
0.1429168721344309
 20
0.2032032280770135
 10
0.1430270526307202
 20
0.2026683168225514
 10
0.1429483535078111
 20
0.2022278002508653
 10
0.1426965140155501
 20
0.2018187498122099
 10
0.1424521490145869
 20
0.201485664795241
 10
0.1421451661107467
 20
0.2012273262450019
 10
0.1422433365705471
 20
0.2009108782739926
 10
0.1421697672974593
 20
0.2005432062220844
 10
0.1419170029826153
 20
0.2002765195111262
 10
0.1418643884687851
 20
0.200042784465877
 10
0.1416668877523604
 20
0.199919404297729
  0
LINE
  5
37EA
330
2
100
AcDbEntity
  8
Profilo
  6
Continuous
370
     0
100
AcDbLine
 10
0.1122436116694409
 20
0.2012273262450019
 30
0.0
 11
0.1421451661107467
 21
0.2012273262450019
 31
0.0
  0
LINE
  5
37EB
330
2
100
AcDbEntity
  8
Profilo
  6
Continuous
370
     0
100
AcDbLine
 10
0.112717611089905
 20
0.2002797615737375
 30
0.0
 11
0.1419170029826153
 21
0.2002765195111262
 31
0.0
  0
LINE
  5
37EC
330
2
100
AcDbEntity
  8
Profilo
  6
Continuous
370
     0
100
AcDbLine
 10
0.1129184452972601
 20
0.1925647522204397
 30
0.0
 11
0.1416684452972587
 21
0.1925647522204397
 31
0.0
  0
LINE
  5
37ED
330
2
100
AcDbEntity
  8
Profilo
  6
Continuous
370
     0
100
AcDbLine
 10
0.1129184452972601
 20
0.074779106987867
 30
0.0
 11
0.1416684452972587
 21
0.074779106987867
 31
0.0
  0
LINE
  5
37EE
330
2
100
AcDbEntity
  8
Profilo
  6
Continuous
370
     0
100
AcDbLine
 10
0.1129184452972601
 20
0.1242840899174791
 30
0.0
 11
0.1416684452972587
 21
0.1242840899174791
 31
0.0
  0
LINE
  5
37EF
330
2
100
AcDbEntity
  8
Profilo
  6
Continuous
370
     0
100
AcDbLine
 10
0.1129184452972601
 20
0.132397279455601
 30
0.0
 11
0.1416684452972587
 21
0.132397279455601
 31
0.0
  0
LINE
  5
37F0
330
2
100
AcDbEntity
  8
Profilo
  6
Continuous
370
     0
100
AcDbLine
 10
0.1129184452972601
 20
0.1339698800054361
 30
0.0
 11
0.1416684452972587
 21
0.1339698800054361
 31
0.0
  0
LINE
  5
37F1
330
2
100
AcDbEntity
  8
Profilo
  6
Continuous
370
     0
100
AcDbLine
 10
0.1129184452972601
 20
0.1360428541331782
 30
0.0
 11
0.1416684452972587
 21
0.1360428541331782
 31
0.0
  0
LINE
  5
37F2
330
2
100
AcDbEntity
  8
Profilo
  6
Continuous
370
     0
100
AcDbLine
 10
0.1129184452972601
 20
0.1223183392301887
 30
0.0
 11
0.1416684452972587
 21
0.1223183392301887
 31
0.0
  0
LWPOLYLINE
  5
37F3
330
2
100
AcDbEntity
  8
Profilo
  6
Continuous
370
     0
100
AcDbPolyline
 90
        4
 70
     1
 43
0.0
 10
0.1195409193032751
 20
0.1261068772562677
 10
0.1236530303755955
 20
0.1261068772562677
 10
0.1236530303755955
 20
0.1300741203970599
 10
0.1195409193032751
 20
0.1300741203970599
  0
LWPOLYLINE
  5
37F4
330
2
100
AcDbEntity
  8
Profilo
  6
Continuous
370
     0
100
AcDbPolyline
 90
        4
 70
     1
 43
0.0
 10
0.1190048058173182
 20
0.1255707637703107
 10
0.1241891438615524
 20
0.1255707637703107
 10
0.1241891438615524
 20
0.1306102338830168
 10
0.1190048058173182
 20
0.1306102338830168
  0
LINE
  5
37F5
330
2
100
AcDbEntity
  8
Profilo
  6
Continuous
370
     0
100
AcDbLine
 10
0.1195409193032751
 20
0.1300741203970599
 30
0.0
 11
0.1236530303755955
 21
0.1261068772562677
 31
0.0
  0
LINE
  5
37F6
330
2
100
AcDbEntity
  8
Profilo
  6
Continuous
370
     0
100
AcDbLine
 10
0.1195409193032751
 20
0.1261068772562677
 30
0.0
 11
0.1236530303755955
 21
0.1300741203970599
 31
0.0
  0
LWPOLYLINE
  5
37F7
330
2
100
AcDbEntity
  8
Profilo
  6
Continuous
370
     0
100
AcDbPolyline
 90
        4
 70
     1
 43
0.0
 10
0.1255484197732803
 20
0.1261068772562677
 10
0.1296605308455971
 20
0.1261068772562677
 10
0.1296605308455971
 20
0.1300741203970599
 10
0.1255484197732803
 20
0.1300741203970599
  0
LWPOLYLINE
  5
37F8
330
2
100
AcDbEntity
  8
Profilo
  6
Continuous
370
     0
100
AcDbPolyline
 90
        4
 70
     1
 43
0.0
 10
0.1250123062873198
 20
0.1255707637703107
 10
0.1301966443315576
 20
0.1255707637703107
 10
0.1301966443315576
 20
0.1306102338830168
 10
0.1250123062873198
 20
0.1306102338830168
  0
LINE
  5
37F9
330
2
100
AcDbEntity
  8
Profilo
  6
Continuous
370
     0
100
AcDbLine
 10
0.1255484197732803
 20
0.1300741203970599
 30
0.0
 11
0.1296605308455971
 21
0.1261068772562677
 31
0.0
  0
LINE
  5
37FA
330
2
100
AcDbEntity
  8
Profilo
  6
Continuous
370
     0
100
AcDbLine
 10
0.1255484197732803
 20
0.1261068772562677
 30
0.0
 11
0.1296605308455971
 21
0.1300741203970599
 31
0.0
  0
LWPOLYLINE
  5
37FB
330
2
100
AcDbEntity
  8
Profilo
  6
Continuous
370
     0
100
AcDbPolyline
 90
        4
 70
     1
 43
0.0
 10
0.1135696695535052
 20
0.1261068772562677
 10
0.117681780625822
 20
0.1261068772562677
 10
0.117681780625822
 20
0.1300741203970599
 10
0.1135696695535052
 20
0.1300741203970599
  0
LWPOLYLINE
  5
37FC
330
2
100
AcDbEntity
  8
Profilo
  6
Continuous
370
     0
100
AcDbPolyline
 90
        4
 70
     0
 43
0.0
 10
0.1129184452972601
 20
0.1255707637703107
 10
0.1182178941117825
 20
0.1255707637703107
 10
0.1182178941117825
 20
0.1306102338830168
 10
0.1129184452972601
 20
0.1306102338830168
  0
LINE
  5
37FD
330
2
100
AcDbEntity
  8
Profilo
  6
Continuous
370
     0
100
AcDbLine
 10
0.1135696695535052
 20
0.1300741203970599
 30
0.0
 11
0.117681780625822
 21
0.1261068772562677
 31
0.0
  0
LINE
  5
37FE
330
2
100
AcDbEntity
  8
Profilo
  6
Continuous
370
     0
100
AcDbLine
 10
0.1135696695535052
 20
0.1261068772562677
 30
0.0
 11
0.117681780625822
 21
0.1300741203970599
 31
0.0
  0
LWPOLYLINE
  5
37FF
330
2
100
AcDbEntity
  8
Profilo
  6
Continuous
370
     0
100
AcDbPolyline
 90
        4
 70
     1
 43
0.0
 10
0.1316629473516455
 20
0.1261068772562677
 10
0.1357750584239623
 20
0.1261068772562677
 10
0.1357750584239623
 20
0.1300741203970599
 10
0.1316629473516455
 20
0.1300741203970599
  0
LWPOLYLINE
  5
3800
330
2
100
AcDbEntity
  8
Profilo
  6
Continuous
370
     0
100
AcDbPolyline
 90
        4
 70
     1
 43
0.0
 10
0.131126833865685
 20
0.1255707637703107
 10
0.1363111719099228
 20
0.1255707637703107
 10
0.1363111719099228
 20
0.1306102338830168
 10
0.131126833865685
 20
0.1306102338830168
  0
LINE
  5
3801
330
2
100
AcDbEntity
  8
Profilo
  6
Continuous
370
     0
100
AcDbLine
 10
0.1316629473516455
 20
0.1300741203970599
 30
0.0
 11
0.1357750584239623
 21
0.1261068772562677
 31
0.0
  0
LINE
  5
3802
330
2
100
AcDbEntity
  8
Profilo
  6
Continuous
370
     0
100
AcDbLine
 10
0.1316629473516455
 20
0.1261068772562677
 30
0.0
 11
0.1357750584239623
 21
0.1300741203970599
 31
0.0
  0
LWPOLYLINE
  5
3803
330
2
100
AcDbEntity
  8
Profilo
  6
Continuous
370
     0
100
AcDbPolyline
 90
        4
 70
     0
 43
0.0
 10
0.1416684452972587
 20
0.1300741203970599
 10
0.1375271728667569
 20
0.1300741203970599
 10
0.1375271728667569
 20
0.1261068772562677
 10
0.1416684452972587
 20
0.1261068772562677
  0
LWPOLYLINE
  5
3804
330
2
100
AcDbEntity
  8
Profilo
  6
Continuous
370
     0
100
AcDbPolyline
 90
        4
 70
     0
 43
0.0
 10
0.1416684452972587
 20
0.1306102338830168
 10
0.1369910593807964
 20
0.1306102338830168
 10
0.1369910593807964
 20
0.1255707637703107
 10
0.1416684452972587
 20
0.1255707637703107
  0
LINE
  5
3805
330
2
100
AcDbEntity
  8
Profilo
  6
Continuous
370
     0
100
AcDbLine
 10
0.1375271728667569
 20
0.1300741203970599
 30
0.0
 11
0.1416392839390737
 21
0.1261068772562677
 31
0.0
  0
LINE
  5
3806
330
2
100
AcDbEntity
  8
Profilo
  6
Continuous
370
     0
100
AcDbLine
 10
0.1375271728667569
 20
0.1261068772562677
 30
0.0
 11
0.1416392839390737
 21
0.1300741203970599
 31
0.0
  0
LINE
  5
3807
330
2
100
AcDbEntity
  8
Profilo
  6
Continuous
370
     0
100
AcDbLine
 10
0.1129184452972601
 20
0.0722805967989171
 30
0.0
 11
0.1416684452972587
 21
0.0722805967989171
 31
0.0
  0
LINE
  5
3808
330
2
100
AcDbEntity
  8
Profilo
  6
Continuous
370
     0
100
AcDbLine
 10
0.1129184452972601
 20
0.0722805967989171
 30
0.0
 11
0.1416684452972587
 21
0.0722805967989171
 31
0.0
  0
LINE
  5
3809
330
2
100
AcDbEntity
  8
Profilo
  6
Continuous
370
     0
100
AcDbLine
 10
0.1129184452972601
 20
0.0722805967989171
 30
0.0
 11
0.1416684452972587
 21
0.0722805967989171
 31
0.0
  0
LINE
  5
380A
102
{ACAD_REACTORS
330
39CE
102
}
330
2
100
AcDbEntity
  8
Profilo
  6
Continuous
370
     0
100
AcDbLine
 10
0.1129184452972601
 20
0.0722805967989171
 30
0.0
 11
0.1416684452972587
 21
0.0722805967989171
 31
0.0
  0
LINE
  5
380B
330
2
100
AcDbEntity
  8
Profilo
  6
Continuous
370
     0
100
AcDbLine
 10
0.138244728838699
 20
0.11513897138944
 30
0.0
 11
0.1416684452972587
 21
0.11513897138944
 31
0.0
  0
LINE
  5
380C
330
2
100
AcDbEntity
  8
Profilo
  6
Continuous
370
     0
100
AcDbLine
 10
0.138244728838699
 20
0.0819951902722647
 30
0.0
 11
0.1416684452972587
 21
0.0819951902722647
 31
0.0
  0
LINE
  5
380D
330
2
100
AcDbEntity
  8
Profilo
  6
Continuous
370
     0
100
AcDbLine
 10
0.1164050066809202
 20
0.0819951902722647
 30
0.0
 11
0.1164050066809202
 21
0.11513897138944
 31
0.0
  0
LINE
  5
380E
330
2
100
AcDbEntity
  8
Profilo
  6
Continuous
370
     0
100
AcDbLine
 10
0.1147238726053167
 20
0.0819951902722647
 30
0.0
 11
0.1147238726053167
 21
0.11513897138944
 31
0.0
  0
LINE
  5
380F
330
2
100
AcDbEntity
  8
Profilo
  6
Continuous
370
     0
100
AcDbLine
 10
0.138244728838699
 20
0.0819951902722647
 30
0.0
 11
0.138244728838699
 21
0.11513897138944
 31
0.0
  0
LINE
  5
3810
330
2
100
AcDbEntity
  8
Profilo
  6
Continuous
370
     0
100
AcDbLine
 10
0.1401663110634272
 20
0.0819951902722647
 30
0.0
 11
0.1401663110634272
 21
0.11513897138944
 31
0.0
  0
LWPOLYLINE
  5
3811
102
{ACAD_REACTORS
330
3C9E
102
}
330
2
100
AcDbEntity
  8
Profilo
  6
Continuous
370
     0
100
AcDbPolyline
 90
       27
 70
   128
 43
0.0
 10
0.1125993784888052
 20
0.2038650481512558
 10
0.1123708446960513
 20
0.2074742381382162
 10
0.1120051866044697
 20
0.209301676459118
 10
0.1112281671111958
 20
0.2100326517874773
 10
0.1100854895263367
 20
0.2107179404610004
 10
0.1094912976420012
 20
0.2122712625692227
 10
0.1094455914581928
 20
0.2134590970132617
 10
0.1089428119414776
 20
0.2146012448024717
 10
0.1087142752750295
 20
0.2156520229983396
 10
0.1086228629074056
 20
0.2165200564330387
 10
0.107663012931492
 20
0.2178449471252488
 10
0.1073430638974201
 20
0.2193525844368036
 10
0.1069774058058385
 20
0.2216825666700526
 10
0.1070688210471565
 20
0.2231445173267712
 10
0.1070688210471565
 20
0.2245607813286536
 10
0.1068410229213682
 20
0.2255872473192166
 10
0.1065210710135985
 20
0.2264552807539157
 10
0.1061554157957146
 20
0.2281913457651452
 10
0.1061554157957146
 20
0.2294705535188495
 10
0.1056069300951911
 20
0.2309781889722426
 10
0.1052412748773072
 20
0.2322573948677853
 10
0.1052412748773072
 20
0.2327142558416337
 10
0.1097205671017171
 20
0.2331711149573135
 10
0.1142455712573379
 20
0.2324858262837903
 10
0.11758218877059
 20
0.2323487681774505
 10
0.1214672891106644
 20
0.2320289653099419
 10
0.1242097147395845
 20
0.2319375938584383
  0
LWPOLYLINE
  5
3812
102
{ACAD_REACTORS
330
39E9
102
}
330
2
100
AcDbEntity
  8
Profilo
  6
Continuous
370
     0
100
AcDbPolyline
 90
       36
 70
   128
 43
0.0
 10
0.1292271416004445
 20
0.2321285944380289
 10
0.1346477139573379
 20
0.2324963137560285
 10
0.1386387445927673
 20
0.2329275785339018
 10
0.1429174181372543
 20
0.2335385332529025
 10
0.1451825970657543
 20
0.2336822881788603
 10
0.146584850140786
 20
0.2337182269103462
 10
0.1482028375528861
 20
0.2333947801851064
 10
0.1489219405149731
 20
0.232999454138719
 10
0.1495331791822307
 20
0.2312384637283795
 10
0.1495691349050743
 20
0.2299806118425689
 10
0.1495331791822307
 20
0.2280758665062716
 10
0.1493174477188637
 20
0.2275367873920882
 10
0.1485983447567731
 20
0.2268898920834399
 10
0.1487421647744531
 20
0.2263148742377634
 10
0.1481668818300426
 20
0.2253085934723824
 10
0.1478073303489955
 20
0.2242663739755084
 10
0.1476275517347743
 20
0.2233679094045922
 10
0.1476942416692415
 20
0.2224813129210599
 10
0.147979329859818
 20
0.2210317562118629
 10
0.1477934015295714
 20
0.2194335278772908
 10
0.1472466774065841
 20
0.2177724639011185
 10
0.1467389752433545
 20
0.2165037919318831
 10
0.1468341693989599
 20
0.2156474389101017
 10
0.1465168555469409
 20
0.2144104857840769
 10
0.1458504935839988
 20
0.2134272648221067
 10
0.1455649111171828
 20
0.2131418138148486
 10
0.1455649111171828
 20
0.212539196673438
 10
0.1453427914207692
 20
0.2113973926443915
 10
0.1447716264871337
 20
0.2106996226896864
 10
0.1439148762129845
 20
0.2099701376080869
 10
0.1434706368201573
 20
0.2096846866008288
 10
0.1431215887092376
 20
0.2088283335790404
 10
0.1426456179312074
 20
0.2081622806093772
 10
0.1424552296199968
 20
0.2070521935653797
 10
0.1422331099235832
 20
0.2052443384248388
 10
0.1421379157679778
 20
0.2038170833885271
  0
ELLIPSE
  5
3813
330
2
100
AcDbEntity
  8
Profilo
  6
Continuous
370
     0
100
AcDbEllipse
 10
0.1271397785496964
 20
0.229029339206944
 30
0.0
 11
-0.0000399386697642
 21
-0.0016367081040316
 31
0.0
210
0.0
220
0.0
230
0.9999999999999998
 40
0.8808331180767863
 41
0.0
 42
6.283185307179586
  0
LWPOLYLINE
  5
3814
330
2
100
AcDbEntity
  8
Profilo
  6
Continuous
370
     0
100
AcDbPolyline
 90
       53
 70
   129
 43
0.0
 10
0.1228663926115089
 20
0.2278716673945578
 10
0.122611690914968
 20
0.2287147958699389
 10
0.122611690914968
 20
0.2293035957109293
 10
0.1228865889686183
 20
0.2299120214700192
 10
0.1230240408691429
 20
0.2304615676166417
 10
0.1231222179243928
 20
0.2311288729881991
 10
0.1235345678785676
 20
0.2312858859075018
 10
0.1237505608485484
 20
0.2311484989062986
 10
0.1238487407774961
 20
0.2315410321336255
 10
0.124221818760094
 20
0.2318943116665917
 10
0.1249679775989874
 20
0.2325419911200495
 10
0.1256748615926027
 20
0.2329541502654759
 10
0.1261853914757252
 20
0.2331896705735001
 10
0.1264602924030731
 20
0.2331111631847715
 10
0.1264995615009523
 20
0.2328167632642799
 10
0.1267155544709366
 20
0.2328167632642799
 10
0.1270493633556553
 20
0.2328167632642799
 10
0.127068999341442
 20
0.2330522835723041
 10
0.1274813492956204
 20
0.233091537266672
 10
0.12830604920397
 20
0.2328756428767402
 10
0.1288951201565522
 20
0.2322083375051829
 10
0.1291700210839002
 20
0.2319335653609524
 10
0.1297590920364824
 20
0.2318354320541243
 10
0.1301125369069878
 20
0.231815804277856
 10
0.130151806004867
 20
0.2314428988267974
 10
0.130623063916409
 20
0.2314036451324295
 10
0.1309568728011277
 20
0.2310503655994704
 10
0.1315459437537099
 20
0.2302456732267171
 10
0.1316833927805332
 20
0.2296372474676271
 10
0.131604851711077
 20
0.2287933032586675
 10
0.1315263077679196
 20
0.228459649643808
 10
0.1315066717821294
 20
0.2276157035766868
 10
0.1313888587410927
 20
0.2267913852858339
 10
0.1310746858421643
 20
0.2261633317504756
 10
0.1307801518027238
 20
0.2259474392187126
 10
0.1303481658627588
 20
0.2258885596062452
 10
0.1298376359796363
 20
0.2258885596062452
 10
0.1292878341249368
 20
0.2257708003813104
 10
0.1286398580886887
 20
0.2254175208483513
 10
0.1280311482766221
 20
0.2251034931515914
 10
0.1271671763966919
 20
0.2248090950892614
 10
0.1267351904567269
 20
0.2245932006993367
 10
0.126558469458323
 20
0.2245735747812301
 10
0.1261461195041447
 20
0.224966108008557
 10
0.1256944975783929
 20
0.2253586412358839
 10
0.1253606915673719
 20
0.2255549059913857
 10
0.1249483416131971
 20
0.2256334133801143
 10
0.1245752607569015
 20
0.225653039298221
 10
0.1240254617758999
 20
0.22571192076885
 10
0.1235934758359348
 20
0.2258885596062452
 10
0.1232400338391272
 20
0.2261829595267439
 10
0.1227687759275816
 20
0.2268110112039334
 10
0.1227687759275816
 20
0.227497944351752
  0
LWPOLYLINE
  5
3815
330
2
100
AcDbEntity
  8
Profilo
  6
Continuous
370
     0
100
AcDbPolyline
 90
        4
 70
   128
 43
0.0
 10
0.1267155544709366
 20
0.230854098985807
 10
0.1263424764883387
 20
0.2314428988267974
 10
0.1263032045167618
 20
0.2322083375051829
 10
0.1264406564172864
 20
0.2326990040393451
  0
LWPOLYLINE
  5
3816
330
2
100
AcDbEntity
  8
Profilo
  6
Continuous
370
     0
100
AcDbPolyline
 90
        5
 70
   128
 43
0.0
 10
0.1270297273698651
 20
0.2308344730677074
 10
0.1268922783430382
 20
0.2313251396018625
 10
0.1268726423572515
 20
0.2319335653609524
 10
0.1269315474409174
 20
0.2325812448144102
 10
0.1270297273698651
 20
0.232777509569912
  0
LWPOLYLINE
  5
3817
330
2
100
AcDbEntity
  8
Profilo
  6
Continuous
370
     0
100
AcDbPolyline
 90
        3
 70
   128
 43
0.0
 10
0.1287773071155156
 20
0.2299120214700192
 10
0.1295038270949211
 20
0.230638206454044
 10
0.1300339929638303
 20
0.2313055118256013
  0
LWPOLYLINE
  5
3818
330
2
100
AcDbEntity
  8
Profilo
  6
Continuous
370
     0
100
AcDbPolyline
 90
        6
 70
   128
 43
0.0
 10
0.1282667772323931
 20
0.2275960776585872
 10
0.1281686001771467
 20
0.2271250389006933
 10
0.1284042291329177
 20
0.2268306389802017
 10
0.1289343921281292
 20
0.2264184798347681
 10
0.1294841939828286
 20
0.2262810928335721
 10
0.1296609149812324
 20
0.22600631883118
  0
LWPOLYLINE
  5
3819
330
2
100
AcDbEntity
  8
Profilo
  6
Continuous
370
     0
100
AcDbPolyline
 90
        6
 70
   128
 43
0.0
 10
0.1283453211755505
 20
0.2253586412358839
 10
0.1278544272782183
 20
0.2257315466869496
 10
0.1275009852814071
 20
0.2260848262199087
 10
0.1273046282972166
 20
0.2264381057528748
 10
0.1272653563256361
 20
0.2270465315119647
 10
0.1272653563256361
 20
0.2273801851268242
  0
LWPOLYLINE
  5
381A
330
2
100
AcDbEntity
  8
Profilo
  6
Continuous
370
     0
100
AcDbPolyline
 90
        5
 70
   128
 43
0.0
 10
0.1250268826826533
 20
0.2256922929925817
 10
0.1257337695499698
 20
0.2258885596062452
 10
0.1261068475325677
 20
0.2263007187516717
 10
0.1263424764883387
 20
0.2267325056733664
 10
0.1264602924030731
 20
0.2273409314324564
  0
LWPOLYLINE
  5
381B
330
2
100
AcDbEntity
  8
Profilo
  6
Continuous
370
     0
100
AcDbPolyline
 90
        6
 70
   128
 43
0.0
 10
0.1229651329117757
 20
0.2277530905778828
 10
0.1236916557648825
 20
0.2273016777380885
 10
0.124516355673232
 20
0.2272427981256282
 10
0.1249483416131971
 20
0.2276157035766868
 10
0.1253017836100048
 20
0.227968983109653
 10
0.125596320523143
 20
0.228106370110849
  0
LWPOLYLINE
  5
381C
330
2
100
AcDbEntity
  8
Profilo
  6
Continuous
370
     0
100
AcDbPolyline
 90
       10
 70
   128
 43
0.0
 10
0.1234363908233212
 20
0.2277138368835221
 10
0.1239469178327425
 20
0.2275371980461198
 10
0.1244770837016552
 20
0.2276942109654154
 10
0.1248894336558299
 20
0.2279493571915463
 10
0.1249090696416202
 20
0.2284989033381759
 10
0.1249090696416202
 20
0.2292250883221936
 10
0.1248305256984628
 20
0.2298727677756513
 10
0.1246145327284784
 20
0.2300690343893148
 10
0.1242021827743037
 20
0.2305204472291091
 10
0.1237701968343386
 20
0.2310503655994704
  0
LWPOLYLINE
  5
381D
330
2
100
AcDbEntity
  8
Profilo
  6
Continuous
370
     0
100
AcDbPolyline
 90
        4
 70
   128
 43
0.0
 10
0.1250465186684435
 20
0.2299709010824866
 10
0.1254785046084086
 20
0.2302260473086175
 10
0.1257337695499698
 20
0.2305400731472087
 10
0.1261853914757252
 20
0.2306774601484047
  0
LWPOLYLINE
  5
381E
330
2
100
AcDbEntity
  8
Profilo
  6
Continuous
370
     0
100
AcDbPolyline
 90
        7
 70
   128
 43
0.0
 10
0.1061792502558553
 20
0.2288723346493793
 10
0.1094259353565078
 20
0.2292026825921791
 10
0.1119921802424485
 20
0.2290277922862085
 10
0.1149472452345278
 20
0.2288140385001096
 10
0.1182133737831342
 20
0.2287168770125501
 10
0.1211295576267083
 20
0.2287168770125501
 10
0.122587652422193
 20
0.2287363096816914
  0
LWPOLYLINE
  5
381F
330
2
100
AcDbEntity
  8
Profilo
  6
Continuous
370
     0
100
AcDbPolyline
 90
        3
 70
   128
 43
0.0
 10
0.1066263978321472
 20
0.2263072780672299
 10
0.109173199270134
 20
0.2265016010423491
 10
0.1112728531318324
 20
0.2263655760746612
  0
LWPOLYLINE
  5
3820
330
2
100
AcDbEntity
  8
Profilo
  6
Continuous
370
     0
100
AcDbPolyline
 90
        2
 70
   128
 43
0.0
 10
0.1070929888563895
 20
0.2244417827089702
 10
0.1095814656979243
 20
0.2245583768656711
  0
LWPOLYLINE
  5
3821
330
2
100
AcDbEntity
  8
Profilo
  6
Continuous
370
     0
100
AcDbPolyline
 90
       10
 70
   128
 43
0.0
 10
0.1093632628533526
 20
0.2246292100410212
 10
0.1095161982444984
 20
0.2252559461387715
 10
0.1093785566798352
 20
0.2258673969873026
 10
0.1092867965946268
 20
0.2263871289078434
 10
0.1093326780740816
 20
0.2269221497939338
 10
0.1094091443328075
 20
0.2281450496328272
 10
0.1095009044180158
 20
0.2292303747960656
 10
0.1095773706767381
 20
0.2304991359571229
 10
0.1097608908471584
 20
0.2323029142879474
 10
0.1097455970206759
 20
0.2331436587401381
  0
LWPOLYLINE
  5
3822
330
2
100
AcDbEntity
  8
Profilo
  6
Continuous
370
     0
100
AcDbPolyline
 90
        7
 70
   128
 43
0.0
 10
0.1316079668008738
 20
0.2286795725312185
 10
0.1354086579779787
 20
0.2289213232599447
 10
0.1390365909877067
 20
0.2293357512224556
 10
0.142699071607729
 20
0.2297501810431211
 10
0.1447376248796628
 20
0.229819252679901
 10
0.1478818309975542
 20
0.2297156452247346
 10
0.1485991235292223
 20
0.2269334158364824
  0
LWPOLYLINE
  5
3823
330
2
100
AcDbEntity
  8
Profilo
  6
Continuous
370
     0
100
AcDbPolyline
 90
        6
 70
   128
 43
0.0
 10
0.1364736163713145
 20
0.225152890558034
 10
0.1352234107144161
 20
0.2255491140971682
 10
0.1337292624903155
 20
0.2258843787393925
 10
0.1351319322517162
 20
0.2261891657913164
 10
0.1376323435655129
 20
0.2264025163560372
 10
0.1387910707597113
 20
0.2264939528432475
  0
LWPOLYLINE
  5
3824
330
2
100
AcDbEntity
  8
Profilo
  6
Continuous
370
     0
100
AcDbPolyline
 90
        3
 70
   128
 43
0.0
 10
0.1425416848567123
 20
0.2267987398951714
 10
0.1440053402599117
 20
0.2267987398951714
 10
0.1446456894988115
 20
0.2267987398951714
  0
LWPOLYLINE
  5
3825
330
2
100
AcDbEntity
  8
Profilo
  6
Continuous
370
     0
100
AcDbPolyline
 90
        7
 70
   128
 43
0.0
 10
0.1444932253943092
 20
0.2270120904598851
 10
0.1445237182152104
 20
0.2279874105125881
 10
0.1447371679615079
 20
0.2290236857458705
 10
0.1447676607824091
 20
0.2299685263501114
 10
0.1447676607824091
 20
0.2307000145314699
 10
0.1449201248869079
 20
0.2324677798042796
 10
0.1451030818123078
 20
0.2334126185503589
  0
LWPOLYLINE
  5
3826
330
2
100
AcDbEntity
  8
Profilo
  6
Continuous
370
     0
100
AcDbPolyline
 90
        7
 70
   128
 43
0.0
 10
0.1465972271627107
 20
0.2267377828564161
 10
0.1469631410135106
 20
0.2280178881028814
 10
0.147542504610608
 20
0.228901771668367
 10
0.1478779256405067
 20
0.2293894298365497
 10
0.1479389112823091
 20
0.2298770898629012
 10
0.1483353179540066
 20
0.2302733134020354
 10
0.1488841887302064
 20
0.232924960382169
  0
LWPOLYLINE
  5
3827
330
2
100
AcDbEntity
  8
Profilo
  6
Continuous
370
     0
100
AcDbPolyline
 90
       18
 70
   128
 43
0.0
 10
0.1190382231238366
 20
0.2196588877497785
 10
0.1190382231238366
 20
0.2214193467254883
 10
0.1186995174558937
 20
0.2226381270169124
 10
0.1176495281610484
 20
0.2242293110553728
 10
0.1163963137412153
 20
0.2255835105533332
 10
0.1149398741963977
 20
0.2263621756362877
 10
0.113551179233606
 20
0.2265314505735301
 10
0.1117899034381607
 20
0.2263960295088392
 10
0.1107060447259968
 20
0.2258543508245534
 10
0.1098931470997534
 20
0.2250418300108858
 10
0.1096221831401386
 20
0.224127745721395
 10
0.1096899248484667
 20
0.2225704174136478
 10
0.1099608888080815
 20
0.2211823621849742
 10
0.1108753975599718
 20
0.2200312933549764
 10
0.1120269979804603
 20
0.2200651472275279
 10
0.1134156958169498
 20
0.2199974376242633
 10
0.1143640739861517
 20
0.2202005682922259
 10
0.1148382630707544
 20
0.2211823621849742
  0
LWPOLYLINE
  5
3828
330
2
100
AcDbEntity
  8
Profilo
  6
Continuous
370
     0
100
AcDbPolyline
 90
        5
 70
   128
 43
0.0
 10
0.1170737250771011
 20
0.219862018417734
 10
0.1168366305348015
 20
0.2212162179156873
 10
0.1162269609072438
 20
0.2222657214117074
 10
0.1156172884059848
 20
0.2230443864946618
 10
0.1149737464874106
 20
0.2237214862436385
  0
LWPOLYLINE
  5
3829
330
2
100
AcDbEntity
  8
Profilo
  6
Continuous
370
     0
100
AcDbPolyline
 90
       16
 70
   128
 43
0.0
 10
0.110401208475369
 20
0.221893317664664
 10
0.1112141032279147
 20
0.2212500717882389
 10
0.1124673176477479
 20
0.2210130872477318
 10
0.113551179233606
 20
0.221487056328753
 10
0.1139914960271958
 20
0.2222995771424205
 10
0.1137882737759056
 20
0.2231459518286467
 10
0.1134834375252779
 20
0.2222657214117074
 10
0.1128060233156908
 20
0.2215886216627307
 10
0.1120947396887885
 20
0.2216563312659954
 10
0.1113495866445709
 20
0.2221303022051781
 10
0.1109770086856151
 20
0.2228751115574195
 10
0.1110466757723244
 20
0.223743131984973
 10
0.1117221646035303
 20
0.2243985859926223
 10
0.11297537902336
 20
0.2245001513266001
 10
0.1138560154842373
 20
0.2239923265148658
 10
0.1143640739861517
 20
0.2234845017031315
  0
LWPOLYLINE
  5
382A
330
2
100
AcDbEntity
  8
Profilo
  6
Continuous
370
     0
100
AcDbPolyline
 90
        5
 70
   128
 43
0.0
 10
0.1176495281610484
 20
0.2244662955958869
 10
0.1183946812052624
 20
0.2249741204076212
 10
0.1194785427911241
 20
0.2254480894886353
 10
0.1207317572109573
 20
0.2258204950938403
 10
0.1222898078814182
 20
0.2258882046971049
  0
LWPOLYLINE
  5
382B
330
2
100
AcDbEntity
  8
Profilo
  6
Continuous
370
     0
100
AcDbPolyline
 90
        2
 70
   128
 43
0.0
 10
0.1161592191989157
 20
0.2258882046971049
 10
0.1194446733738089
 20
0.2258882046971049
  0
LWPOLYLINE
  5
382C
330
2
100
AcDbEntity
  8
Profilo
  6
Continuous
370
     0
100
AcDbPolyline
 90
        2
 70
   128
 43
0.0
 10
0.1187333897469066
 20
0.2230105307639487
 10
0.120630146085314
 20
0.2251433953448636
  0
LWPOLYLINE
  5
382D
330
2
100
AcDbEntity
  8
Profilo
  6
Continuous
370
     0
100
AcDbPolyline
 90
        6
 70
   128
 43
0.0
 10
0.1191059648321647
 20
0.2216901869967085
 10
0.1197156373334237
 20
0.2232136614319113
 10
0.1204946626686542
 20
0.2241954553246597
 10
0.1215446519635029
 20
0.2250418300108858
 10
0.1224252884243767
 20
0.2254819452193484
 10
0.1235091500102349
 20
0.2257527854905756
  0
LWPOLYLINE
  5
382E
330
2
100
AcDbEntity
  8
Profilo
  6
Continuous
370
     0
100
AcDbPolyline
 90
        4
 70
   128
 43
0.0
 10
0.1204607903776412
 20
0.2194219032092644
 10
0.1209688517532569
 20
0.2211823621849742
 10
0.1218494882141307
 20
0.2222995771424205
 10
0.1224930301327048
 20
0.2226042712861993
  0
LWPOLYLINE
  5
382F
330
2
100
AcDbEntity
  8
Profilo
  6
Continuous
370
     0
100
AcDbPolyline
 90
       23
 70
   128
 43
0.0
 10
0.1233059248852505
 20
0.2202005682922259
 10
0.1227301246750044
 20
0.2209453776444672
 10
0.122560771841033
 20
0.2217917523306863
 10
0.122560771841033
 20
0.2226042712861993
 10
0.1227435161127018
 20
0.2234404409409674
 10
0.123170444342292
 20
0.223890761180888
 10
0.1238817279691943
 20
0.224127745721395
 10
0.1245253446039447
 20
0.2239564323792873
 10
0.1247623644300679
 20
0.223518355575683
 10
0.1246607533044246
 20
0.2226042712861993
 10
0.1243897864711086
 20
0.2219271715372155
 10
0.1238817279691943
 20
0.2215547677901792
 10
0.1232720554679353
 20
0.2215547677901792
 10
0.1228994775089759
 20
0.221893317664664
 10
0.123170444342292
 20
0.2211146525817096
 10
0.1237123751352228
 20
0.2209115219137541
 10
0.1244236587621251
 20
0.2211146525817096
 10
0.1250672006806957
 20
0.2216224773934439
 10
0.1255752591826136
 20
0.2222318675391559
 10
0.1257107425992698
 20
0.2230443864946618
 10
0.1256091314736265
 20
0.2241954553246597
 10
0.1251349423890273
 20
0.2248387012010848
 10
0.1245930115960965
 20
0.2251433953448636
  0
LWPOLYLINE
  5
3830
330
2
100
AcDbEntity
  8
Profilo
  6
Continuous
370
     0
100
AcDbPolyline
 90
        3
 70
   128
 43
0.0
 10
0.1268623458934597
 20
0.2216224773934439
 10
0.1268284736024468
 20
0.2233490806384406
 10
0.1266929901857869
 20
0.2243308763893577
  0
LWPOLYLINE
  5
3831
330
2
100
AcDbEntity
  8
Profilo
  6
Continuous
370
     0
100
AcDbPolyline
 90
        7
 70
   128
 43
0.0
 10
0.134866428320346
 20
0.2193491412606772
 10
0.1348328922521231
 20
0.2225335087210478
 10
0.1344304709282573
 20
0.2236731758625847
 10
0.1333573454821453
 20
0.2247458060558838
 10
0.1325189667661908
 20
0.2253826784330624
 10
0.1314793773883016
 20
0.2257178761814114
 10
0.1306409957986458
 20
0.2258519537942245
  0
LWPOLYLINE
  5
3832
330
2
100
AcDbEntity
  8
Profilo
  6
Continuous
370
     0
100
AcDbPolyline
 90
        4
 70
   128
 43
0.0
 10
0.1333908815503682
 20
0.2195837789412618
 10
0.1331896708884335
 20
0.221092163234351
 10
0.1327537134963448
 20
0.2219636751502758
 10
0.1320830093741021
 20
0.2227011075952188
  0
LWPOLYLINE
  5
3833
330
2
100
AcDbEntity
  8
Profilo
  6
Continuous
370
     0
100
AcDbPolyline
 90
       13
 70
   128
 43
0.0
 10
0.1309763478597707
 20
0.2219636751502758
 10
0.1303056466112258
 20
0.2215614385955202
 10
0.1294337318270484
 20
0.2215614385955202
 10
0.1288300969675502
 20
0.2221312721662851
 10
0.1285953531110939
 20
0.2229357452758034
 10
0.1288300969675502
 20
0.2239748542077375
 10
0.1295343371580158
 20
0.2244441295688997
 10
0.1304397851367147
 20
0.2243770889043315
 10
0.1314458413200787
 20
0.2239078135431693
 10
0.1318147265757252
 20
0.2229692646790067
 10
0.1319153319066926
 20
0.2219636751502758
 10
0.1317141212447579
 20
0.2208240061505702
 10
0.1313787720573343
 20
0.2202541725797982
  0
LWPOLYLINE
  5
3834
330
2
100
AcDbEntity
  8
Profilo
  6
Continuous
370
     0
100
AcDbPolyline
 90
        9
 70
   128
 43
0.0
 10
0.1309428146652456
 20
0.2217625568728945
 10
0.1306409957986458
 20
0.2213268009149356
 10
0.1299702945501044
 20
0.2211256826375543
 10
0.1292325211651137
 20
0.2212932815117323
 10
0.1284947477801266
 20
0.2218631150825043
 10
0.1282264649817497
 20
0.2226005475274473
 10
0.128260001049969
 20
0.2236396564593814
 10
0.1285618170428711
 20
0.2241759706269502
 10
0.1290983797659271
 20
0.2244441295688997
  0
LWPOLYLINE
  5
3835
330
2
100
AcDbEntity
  8
Profilo
  6
Continuous
370
     0
100
AcDbPolyline
 90
        5
 70
   129
 43
0.0
 10
0.1281929289135268
 20
0.2205223296635861
 10
0.1268515235427392
 20
0.2215614385955202
 10
0.1254095128409807
 20
0.2205223296635861
 10
0.1266167768125816
 20
0.2193491412606772
 10
0.1270191981364475
 20
0.2193491412606772
  0
LWPOLYLINE
  5
3836
330
2
100
AcDbEntity
  8
Profilo
  6
Continuous
370
     0
100
AcDbPolyline
 90
       49
 70
   128
 43
0.0
 10
0.1205133790707392
 20
0.2128798481303331
 10
0.1215194323804055
 20
0.2139859977268355
 10
0.1223578110963636
 20
0.2143882324234294
 10
0.1227602324202294
 20
0.2144887924912009
 10
0.1227937684884522
 20
0.2147234301717784
 10
0.1233974004742492
 20
0.2150251066587696
 10
0.1238668939345607
 20
0.2152262249361438
 10
0.1240010353337509
 20
0.2155949402295416
 10
0.1239339631973052
 20
0.2161312543971103
 10
0.1236321472044067
 20
0.2163994114808911
 10
0.1233303312115047
 20
0.2165670103550692
 10
0.1227937684884522
 20
0.2165670103550692
 10
0.1229949791503834
 20
0.2168016480356467
 10
0.1235986140098816
 20
0.2170362857162313
 10
0.1242022459956821
 20
0.2174050028677836
 10
0.1246046673195513
 20
0.2179748364385556
 10
0.1249064833124498
 20
0.2189804259672865
 10
0.1246046673195513
 20
0.2198519360250426
 10
0.1241351767329376
 20
0.2201200931088234
 10
0.1231961898123181
 20
0.2201200931088234
 10
0.1223913471645829
 20
0.2194832207316519
 10
0.1217206430423402
 20
0.218175954715937
 10
0.1215529684486284
 20
0.2175055610773935
 10
0.1212511524557299
 20
0.2172374039936056
 10
0.1210834749883168
 20
0.2171703651872061
 10
0.120982869657353
 20
0.2182429935223364
 10
0.1207481229271955
 20
0.2190474647736931
 10
0.1202450962723623
 20
0.2194497013284486
 10
0.1194737868191523
 20
0.2195502595380585
 10
0.1189707601643192
 20
0.2191815442446607
 10
0.1188701548333518
 20
0.2185446700093276
 10
0.1188701548333518
 20
0.2177737181611743
 10
0.1185012667040076
 20
0.2176731599515715
 10
0.1184006613730438
 20
0.2172709233968089
 10
0.1188030855706074
 20
0.2162988532712813
 10
0.1188701548333518
 20
0.2152597443393471
 10
0.1189372240960963
 20
0.2145558312976075
 10
0.1186354081031978
 20
0.2142876742138196
 10
0.1184006613730438
 20
0.2152262249361438
 10
0.1183335921102958
 20
0.2163658920776879
 10
0.1180653121856202
 20
0.21683516743885
 10
0.1181659175165876
 20
0.2180083558417589
 10
0.118232986779332
 20
0.2190474647736931
 10
0.117696424056276
 20
0.219617298344458
 10
0.1169586506712853
 20
0.2197178584122295
 10
0.1163550186854848
 20
0.2197178584122295
 10
0.1161538080235537
 20
0.219215063647864
 10
0.1156843145632421
 20
0.2195837789412618
 10
0.1146111891171336
 20
0.2199524960928141
  0
LWPOLYLINE
  5
3837
330
2
100
AcDbEntity
  8
Profilo
  6
Continuous
370
     0
100
AcDbPolyline
 90
       35
 70
   128
 43
0.0
 10
0.111089996785899
 20
0.2198854554282459
 10
0.1105534340628466
 20
0.2193156218574739
 10
0.110318687332689
 20
0.2182429935223364
 10
0.1105534340628466
 20
0.2170027663130281
 10
0.1109223221921908
 20
0.2164329327422561
 10
0.1122301914947555
 20
0.2165670103550692
 10
0.11306857021071
 20
0.2164664521454593
 10
0.1141081624622969
 20
0.2156619808941098
 10
0.1147788637108454
 20
0.2146563913653789
 10
0.1147788637108454
 20
0.2137848794494541
 10
0.1154831039013074
 20
0.2139524783236322
 10
0.1162879465490426
 20
0.2138183988526574
 10
0.11638855188001
 20
0.2130809664077145
 10
0.11638855188001
 20
0.2126116910465523
 10
0.1169586506712853
 20
0.2126452123079172
 10
0.1172269305959644
 20
0.2122094563499584
 10
0.1171259286945264
 20
0.2113941352845767
 10
0.1171929979572709
 20
0.2108242998556431
 10
0.1174948168238706
 20
0.2107907804524398
 10
0.1175283500183922
 20
0.2103215050912777
 10
0.1173271393564575
 20
0.2099192703946766
 10
0.1172936032882382
 20
0.2098187103269122
 10
0.1177630967485462
 20
0.2096511133108958
 10
0.1179643074104809
 20
0.2092153573529369
 10
0.1178637020795136
 20
0.2087796013949781
 10
0.1174277446874249
 20
0.207908091337222
 10
0.1177630967485462
 20
0.2076064129920692
 10
0.1177630967485462
 20
0.2071371394890686
 10
0.1176624914175824
 20
0.2068354611439229
 10
0.1180984488096676
 20
0.2067684223375163
 10
0.1181990541406349
 20
0.2065002652537284
 10
0.1181319848778904
 20
0.2057293134055822
 10
0.1176960274858018
 20
0.2049918809606321
 10
0.1178972381477364
 20
0.2045561250026733
 10
0.1179643074104809
 20
0.2040198108351046
  0
LWPOLYLINE
  5
3838
330
2
100
AcDbEntity
  8
Profilo
  6
Continuous
370
     0
100
AcDbPolyline
 90
        8
 70
   128
 43
0.0
 10
0.1150467499387481
 20
0.2042879679188925
 10
0.1153485659316465
 20
0.2052265186412168
 10
0.1157845233237352
 20
0.2059639510861597
 10
0.1161534085793817
 20
0.2059639510861597
 10
0.1161869446476046
 20
0.2057628328087855
 10
0.1164887606405031
 20
0.2061985887667443
 10
0.1169247180325917
 20
0.2064667458505252
 10
0.1174612807556478
 20
0.2066343447247032
  0
LWPOLYLINE
  5
3839
330
2
100
AcDbEntity
  8
Profilo
  6
Continuous
370
     0
100
AcDbPolyline
 90
        9
 70
   128
 43
0.0
 10
0.1146107925466594
 20
0.2057293134055822
 10
0.114644325741181
 20
0.2069695406148906
 10
0.1148790724713385
 20
0.2078745719340187
 10
0.1151138192014925
 20
0.2084444055047836
 10
0.1155162405253584
 20
0.2086790431853682
 10
0.1158180565182604
 20
0.2083773666983841
 10
0.1159186618492277
 20
0.2089136808659528
 10
0.1163881553095357
 20
0.2092488767561402
 10
0.1170923926263035
 20
0.2095840726463276
  0
LWPOLYLINE
  5
383A
330
2
100
AcDbEntity
  8
Profilo
  6
Continuous
370
     0
100
AcDbPolyline
 90
        9
 70
   128
 43
0.0
 10
0.1141748351545707
 20
0.2091147991433271
 10
0.1141748351545707
 20
0.2102544662848711
 10
0.1142419044173152
 20
0.2111930170071954
 10
0.1145101872156921
 20
0.2115617323005861
 10
0.1150467499387481
 20
0.2115952517037893
 10
0.1151473552697154
 20
0.2115952517037893
 10
0.1151473552697154
 20
0.2120645270649515
 10
0.1158180565182604
 20
0.2125338024261136
 10
0.1162540139103491
 20
0.2125673218293169
  0
LWPOLYLINE
  5
383B
330
2
100
AcDbEntity
  8
Profilo
  6
Continuous
370
     0
100
AcDbPolyline
 90
        5
 70
   128
 43
0.0
 10
0.1112908108773595
 20
0.2138075490386324
 10
0.1113578801401075
 20
0.2148466579705595
 10
0.1118273736004155
 20
0.2155170516091029
 10
0.1126657523163735
 20
0.2160533657766717
 10
0.1131017097084587
 20
0.2161539258444431
  0
LWPOLYLINE
  5
383C
330
2
100
AcDbEntity
  8
Profilo
  6
Continuous
370
     0
100
AcDbPolyline
 90
        3
 70
   128
 43
0.0
 10
0.1099494026328741
 20
0.2139416285096001
 10
0.1098823333701296
 20
0.2151818557189156
 10
0.1101841493630281
 20
0.2158857669024936
  0
LWPOLYLINE
  5
383D
330
2
100
AcDbEntity
  8
Profilo
  6
Continuous
370
     0
100
AcDbPolyline
 90
        4
 70
   128
 43
0.0
 10
0.1097817280391623
 20
0.2168578370280212
 10
0.1093793067152965
 20
0.2174611918601581
 10
0.1091445599851389
 20
0.2181986243051082
 10
0.1091445599851389
 20
0.2186008590017021
  0
LWPOLYLINE
  5
383E
330
2
100
AcDbEntity
  8
Profilo
  6
Continuous
370
     0
100
AcDbPolyline
 90
        6
 70
   128
 43
0.0
 10
0.1085744611938636
 20
0.217159515373174
 10
0.1081720398699978
 20
0.2179639866245235
 10
0.1082391091327423
 20
0.2191706944306357
 10
0.1089098132549849
 20
0.2193047720434418
 10
0.1091780960533618
 20
0.2197405280014006
 10
0.1102847546939955
 20
0.2198410862110105
  0
LWPOLYLINE
  5
383F
330
2
100
AcDbEntity
  8
Profilo
  6
Continuous
370
     0
100
AcDbPolyline
 90
        5
 70
   128
 43
0.0
 10
0.1087756718557947
 20
0.2197405280014006
 10
0.1079372931398402
 20
0.2208131563365381
 10
0.1075684078841973
 20
0.2218522652684722
 10
0.1074007304167842
 20
0.2230924924777877
 10
0.1076690132151611
 20
0.2241651208129181
  0
LWPOLYLINE
  5
3840
330
2
100
AcDbEntity
  8
Profilo
  6
Continuous
370
     0
100
AcDbPolyline
 90
        6
 70
   128
 43
0.0
 10
0.1136464538527867
 20
0.2043506214605042
 10
0.1130782172185106
 20
0.2090364051025428
 10
0.1127467475248408
 20
0.2117342813211191
 10
0.1121311552034846
 20
0.2123495859998083
 10
0.1114682129424472
 20
0.2121129303541576
 10
0.1113735073156824
 20
0.2108349898676476
  0
LWPOLYLINE
  5
3841
330
2
100
AcDbEntity
  8
Profilo
  6
Continuous
370
     0
100
AcDbPolyline
 90
        2
 70
   128
 43
0.0
 10
0.1179855641625479
 20
0.2125027376562993
 10
0.116575379678067
 20
0.2136193802995248
  0
LWPOLYLINE
  5
3842
330
2
100
AcDbEntity
  8
Profilo
  6
Continuous
370
     0
100
AcDbPolyline
 90
       19
 70
   128
 43
0.0
 10
0.1189326434197709
 20
0.2039921167730565
 10
0.1186744760421404
 20
0.2074941966675023
 10
0.1184531897184612
 20
0.2091530754439343
 10
0.1184163086645135
 20
0.2104801792083375
 10
0.1186744760421404
 20
0.2107013637884574
 10
0.1182274778982012
 20
0.2112371297979276
 10
0.1179737360171514
 20
0.2119547393594896
 10
0.118158141286883
 20
0.2128763399185001
 10
0.1188957623658232
 20
0.2132818431238928
 10
0.1198594199930155
 20
0.2132851748102364
 10
0.120385266692213
 20
0.2128864390346603
 10
0.1206660529552713
 20
0.2123233784681968
 10
0.120702934009219
 20
0.2113649156706625
 10
0.1203341234697525
 20
0.2105907714983939
 10
0.1206291719013272
 20
0.2100378119062523
 10
0.1208504582250064
 20
0.2086001158517856
 10
0.1208135771710587
 20
0.2070149652687387
 10
0.120702934009219
 20
0.2054298128275231
 10
0.1206660529552713
 20
0.2039921167730565
  0
LWPOLYLINE
  5
3843
330
2
100
AcDbEntity
  8
Profilo
  6
Continuous
370
     0
100
AcDbPolyline
 90
        2
 70
   128
 43
0.0
 10
0.1187351944299265
 20
0.2106934015597996
 10
0.1202402052365336
 20
0.210639027992725
  0
LINE
  5
3844
330
2
100
AcDbEntity
  8
Profilo
  6
Continuous
370
     0
100
AcDbLine
 10
0.11959458275983
 20
0.2042499517611187
 30
0.0
 11
0.1193970992855987
 21
0.2094898247584265
 31
0.0
  0
LINE
  5
3845
330
2
100
AcDbEntity
  8
Profilo
  6
Continuous
370
     0
100
AcDbLine
 10
0.1193970992855987
 20
0.2094898247584265
 30
0.0
 11
0.1195586758898691
 21
0.2095974941580163
 31
0.0
  0
LINE
  5
3846
330
2
100
AcDbEntity
  8
Profilo
  6
Continuous
370
     0
100
AcDbLine
 10
0.1195586758898691
 20
0.2095974941580163
 30
0.0
 11
0.1197382073659724
 21
0.2095077690389697
 31
0.0
  0
LINE
  5
3847
330
2
100
AcDbEntity
  8
Profilo
  6
Continuous
370
     0
100
AcDbLine
 10
0.1197382073659724
 20
0.2095077690389697
 30
0.0
 11
0.1197382073659724
 21
0.204267896041662
 31
0.0
  0
LWPOLYLINE
  5
3848
330
2
100
AcDbEntity
  8
Profilo
  6
Continuous
370
     0
100
AcDbPolyline
 90
       53
 70
   128
 43
0.0
 10
0.1210659396765542
 20
0.2040324482019908
 10
0.1210372141805848
 20
0.2048650854888034
 10
0.1213819143848048
 20
0.2052383365581942
 10
0.1216404381011166
 20
0.205496740144147
 10
0.1215542644869131
 20
0.2058125684008996
 10
0.1215542644869131
 20
0.2063006669537213
 10
0.1216404381011166
 20
0.2065877828750739
 10
0.1216117126051507
 20
0.2072768622012173
 10
0.1215829871091812
 20
0.20808078715263
 10
0.1218415136991943
 20
0.2087124436661352
 10
0.1218989618174319
 20
0.2087985788141733
 10
0.1219851383053331
 20
0.2096025037655931
 10
0.1223298356358519
 20
0.2098896196869386
 10
0.122186211029713
 20
0.2113539134872635
 10
0.1225021857379601
 20
0.2116984540794089
 10
0.1229617850523531
 20
0.2117558768920471
 10
0.1229617850523531
 20
0.2132488811696032
 10
0.1233352078788378
 20
0.2139092481603466
 10
0.1240246054135766
 20
0.2143686343777755
 10
0.1252310532546366
 20
0.2145409046738518
 10
0.1257481006872636
 20
0.2139379604957465
 10
0.1260928008914801
 20
0.2133924391302795
 10
0.126782198426219
 20
0.2133063039822414
 10
0.1272705232365778
 20
0.2138231148704701
 10
0.1278162961651708
 20
0.2144547695258137
 10
0.1283333435977978
 20
0.2143973467131754
 10
0.1283620690937672
 20
0.2138231148704701
 10
0.1282471699835943
 20
0.2135934217617557
 10
0.1289078420223637
 20
0.2140528079791846
 10
0.1295397914388614
 20
0.2142537887524991
 10
0.1301142898634238
 20
0.2139379604957465
 10
0.130487712689912
 20
0.2133924391302795
 10
0.1307462364062237
 20
0.2124449562181905
 10
0.1307749619021932
 20
0.2119281471881234
 10
0.1311483876023791
 20
0.2119281471881234
 10
0.1314069113186909
 20
0.2113826258226634
 10
0.131694160530972
 20
0.2108083921217965
 10
0.1314069113186909
 20
0.2104351410524057
 10
0.1315218104288638
 20
0.2100331795057766
 10
0.131895233255352
 20
0.2097747740616622
 10
0.131809059641145
 20
0.2093441001796403
 10
0.1314356368146603
 20
0.2090282719228877
 10
0.1314930849328979
 20
0.2088560016268115
 10
0.131895233255352
 20
0.2085114628928206
 10
0.1318377851371144
 20
0.2078223835666844
 10
0.1316079840430708
 20
0.2070758795697412
 10
0.1315792614207991
 20
0.2067600531711502
 10
0.1319239587513179
 20
0.2061571089930521
 10
0.1316367095390367
 20
0.2055828752921851
 10
0.131378185822725
 20
0.2051809118873944
 10
0.1317516086492096
 20
0.2050373539267181
 10
0.1317228860269415
 20
0.2044631220840127
 10
0.1315218104288638
 20
0.2040324482019908
  0
LWPOLYLINE
  5
3849
330
2
100
AcDbEntity
  8
Profilo
  6
Continuous
370
     0
100
AcDbPolyline
 90
        5
 70
   128
 43
0.0
 10
0.1259779017813107
 20
0.2040611586792291
 10
0.1262651509935919
 20
0.2118994348527234
 10
0.1256332015770907
 20
0.2122439735867143
 10
0.1253172268688436
 20
0.2131914583569721
 10
0.1251161541444636
 20
0.2139666728311464
  0
LWPOLYLINE
  5
384A
330
2
100
AcDbEntity
  8
Profilo
  6
Continuous
370
     0
100
AcDbPolyline
 90
        6
 70
   128
 43
0.0
 10
0.1272705232365778
 20
0.2040037358665909
 10
0.1271556241264049
 20
0.2118994348527234
 10
0.1274428733386861
 20
0.2122439735867143
 10
0.1278450216611402
 20
0.2123301087347524
 10
0.1278450216611402
 20
0.2129617652482576
 10
0.1280460943855166
 20
0.2135072866137175
  0
LWPOLYLINE
  5
384B
330
2
100
AcDbEntity
  8
Profilo
  6
Continuous
370
     0
100
AcDbPolyline
 90
        6
 70
   128
 43
0.0
 10
0.1283620690937672
 20
0.2083679030739827
 10
0.1283333435977978
 20
0.2098896196869386
 10
0.128620592810079
 20
0.2107222569737583
 10
0.1289078420223637
 20
0.2110667975659108
 10
0.1296834160450002
 20
0.2114400486353016
 10
0.1301717379816614
 20
0.2117845873692854
  0
LWPOLYLINE
  5
384C
330
2
100
AcDbEntity
  8
Profilo
  6
Continuous
370
     0
100
AcDbPolyline
 90
        8
 70
   128
 43
0.0
 10
0.1283620690937672
 20
0.2046066800446891
 10
0.128505693699906
 20
0.2066164952104739
 10
0.1287929429121908
 20
0.2073629973492554
 10
0.1293387158407837
 20
0.2078510940439227
 10
0.129597239557099
 20
0.2078798063793226
 10
0.1300855643674579
 20
0.2083104802613445
 10
0.1306026118000849
 20
0.208626308518097
 10
0.1312058357206167
 20
0.2086837313307353
  0
LWPOLYLINE
  5
384D
330
2
100
AcDbEntity
  8
Profilo
  6
Continuous
370
     0
100
AcDbPolyline
 90
        4
 70
   128
 43
0.0
 10
0.1295397914388614
 20
0.2042908517879365
 10
0.1298270406511426
 20
0.2049512187786799
 10
0.1305738891778132
 20
0.2052957593708324
 10
0.1310047629962368
 20
0.2052957593708324
  0
LWPOLYLINE
  5
384E
330
2
100
AcDbEntity
  8
Profilo
  6
Continuous
370
     0
100
AcDbPolyline
 90
        5
 70
   128
 43
0.0
 10
0.1244554792319966
 20
0.204089871014629
 10
0.1240533309095425
 20
0.2050373539267181
 10
0.123507557980946
 20
0.2054106049961089
 10
0.1229617850523531
 20
0.2055541648149468
 10
0.1219851383053331
 20
0.205496740144147
  0
LWPOLYLINE
  5
384F
330
2
100
AcDbEntity
  8
Profilo
  6
Continuous
370
     0
100
AcDbPolyline
 90
       13
 70
   128
 43
0.0
 10
0.1251161541444636
 20
0.2056690104402232
 10
0.1248576304281519
 20
0.2062719546183214
 10
0.1248576304281519
 20
0.2070471690925029
 10
0.124800179436213
 20
0.20756397812257
 10
0.1242544065076202
 20
0.2081382118234369
 10
0.1237948071932308
 20
0.2081382118234369
 10
0.1235650089728849
 20
0.2077362484186462
 10
0.123507557980946
 20
0.2082817697841062
 10
0.1234501069890107
 20
0.208655020853497
 10
0.1231628577767295
 20
0.2087411560015351
 10
0.1228181604462107
 20
0.208655020853497
 10
0.1225883593521672
 20
0.2091431175481642
 10
0.1224160121237566
 20
0.2094015229922785
  0
LWPOLYLINE
  5
3850
330
2
100
AcDbEntity
  8
Profilo
  6
Continuous
370
     0
100
AcDbPolyline
 90
       11
 70
   128
 43
0.0
 10
0.1252310532546366
 20
0.2087124436661352
 10
0.1251736022627012
 20
0.209516368617555
 10
0.1251448796404331
 20
0.2105212762004438
 10
0.1250012550342907
 20
0.2110093747532726
 10
0.124398031113759
 20
0.211152932713949
 10
0.1240246054135766
 20
0.2109232396052345
 10
0.1239384317993696
 20
0.2107796816445582
 10
0.1240820564055119
 20
0.2113826258226634
 10
0.1239384317993696
 20
0.2115836065959709
 10
0.1235937315951531
 20
0.2117271645566472
 10
0.123191583272699
 20
0.2117271645566472
  0
LWPOLYLINE
  5
3851
330
2
100
AcDbEntity
  8
Profilo
  6
Continuous
370
     0
100
AcDbPolyline
 90
        4
 70
   128
 43
0.0
 10
0.1265310514954328
 20
0.2191499424657248
 10
0.126429647276125
 20
0.2163626774556189
 10
0.1272155148888556
 20
0.2163626774556189
 10
0.1272155148888556
 20
0.219276635738586
  0
LWPOLYLINE
  5
3852
330
2
100
AcDbEntity
  8
Profilo
  6
Continuous
370
     0
100
AcDbPolyline
 90
       23
 70
   128
 43
0.0
 10
0.1323498840599333
 20
0.2042304856450396
 10
0.132249485635298
 20
0.206965055009297
 10
0.1325004802600338
 20
0.2090724293095345
 10
0.1328016726602312
 20
0.2101512044480298
 10
0.1332032634850675
 20
0.2108787514655628
 10
0.1329945122367553
 20
0.2111659175573219
 10
0.1327600471291097
 20
0.2116099590643028
 10
0.1327723896666439
 20
0.2124487022748962
 10
0.1330932324211274
 20
0.2130530921038467
 10
0.1334881189060182
 20
0.2134107922066999
 10
0.1340310871043142
 20
0.2134724646382207
 10
0.13467277836068
 20
0.213361454261479
 10
0.1350800045094038
 20
0.2130530921038467
 10
0.1352897874156822
 20
0.2125843816242519
 10
0.1353391489447189
 20
0.2119799917952942
 10
0.1352157465589796
 20
0.2113879383108124
 10
0.134981281451334
 20
0.2110055692353523
 10
0.1345493759749408
 20
0.2107835484818619
 10
0.1346356271790219
 20
0.209547896069969
 10
0.1345842253236418
 20
0.2087344090115106
 10
0.134350464272269
 20
0.2070896336926165
 10
0.1343066001295652
 20
0.2059058816327859
 10
0.1343066001295652
 20
0.2041083318644947
  0
LWPOLYLINE
  5
3853
330
2
100
AcDbEntity
  8
Profilo
  6
Continuous
370
     0
100
AcDbPolyline
 90
        8
 70
   128
 43
0.0
 10
0.1332538894416961
 20
0.204239860077605
 10
0.1331003706896352
 20
0.2071115544420774
 10
0.1332538894416961
 20
0.2090406324234717
 10
0.1333854789961029
 20
0.2093036888496922
 10
0.1335828618908676
 20
0.2091502380289594
 10
0.1333635469247509
 20
0.207199239298097
 10
0.1334074110674548
 20
0.2055770611000067
 10
0.1335170685505131
 20
0.2043713882907152
  0
LWPOLYLINE
  5
3854
330
2
100
AcDbEntity
  8
Profilo
  6
Continuous
370
     0
100
AcDbPolyline
 90
        2
 70
   128
 43
0.0
 10
0.1333196856557484
 20
0.2109039444401528
 10
0.1344162576126235
 20
0.2107943388346722
  0
LWPOLYLINE
  5
3855
330
2
100
AcDbEntity
  8
Profilo
  6
Continuous
370
     0
100
AcDbPolyline
 90
       65
 70
   128
 43
0.0
 10
0.1327213297814529
 20
0.2130810202944442
 10
0.1310678981649458
 20
0.2143401951923405
 10
0.1300049772242557
 20
0.2150484804917365
 10
0.1298475071359659
 20
0.2153239252909866
 10
0.1300049772242557
 20
0.2157174173304508
 10
0.1305954907737741
 20
0.2160715590510644
 10
0.1307135911847146
 20
0.2165044014093649
 10
0.1304773874891287
 20
0.2167404958897787
 10
0.1299262436169597
 20
0.2169372419095037
 10
0.1290995263718555
 20
0.2170552910078722
 10
0.1286271189806838
 20
0.2175668302875362
 10
0.1283515456077486
 20
0.2187473064059144
 10
0.1287452193916279
 20
0.219770386823404
 10
0.1293750997447907
 20
0.2200064813038107
 10
0.1302411837935429
 20
0.2198097352840858
 10
0.1305561210964248
 20
0.2199277825242927
 10
0.130949794880304
 20
0.220281926103068
 10
0.1313399483828119
 20
0.2201940089766676
 10
0.1317464043801833
 20
0.2198264327372268
 10
0.1319593109973587
 20
0.2190719312065266
 10
0.1320560856874549
 20
0.2183948165922498
 10
0.1319399566340769
 20
0.2176983547843232
 10
0.1321141516509945
 20
0.2176403169197183
 10
0.1324238329582661
 20
0.2183367787276378
 10
0.1326560939387198
 20
0.2189945480064406
 10
0.1329657781196927
 20
0.2191493162647813
 10
0.1333335225168026
 20
0.21924604665851
 10
0.1338174017146896
 20
0.2194395093041361
 10
0.1341851489855008
 20
0.2193040863812765
 10
0.1343593440024149
 20
0.2189752008127979
 10
0.1344948302927724
 20
0.2183561240631189
 10
0.1343786983656967
 20
0.217737047313447
 10
0.1345722506195903
 20
0.2178918174299493
 10
0.1349206435271197
 20
0.2182207011402664
 10
0.1352109675974153
 20
0.2181046254110566
 10
0.1352883879242332
 20
0.217485546803216
 10
0.1349399978904016
 20
0.2169438551117917
 10
0.1344410317723641
 20
0.2158158702413271
 10
0.1343897879704299
 20
0.2154914739947653
 10
0.1344751943069822
 20
0.2150646372194256
 10
0.1346972507820174
 20
0.2148939036241924
 10
0.1348339037941981
 20
0.2152695201351431
 10
0.1351926132814141
 20
0.2163110019412837
 10
0.1354317510237584
 20
0.2173866312097399
 10
0.1355513198949287
 20
0.2180695711651719
 10
0.1355171573603071
 20
0.2189915396404682
 10
0.1359100293821447
 20
0.2196061846712762
 10
0.136849507705306
 20
0.2203744923534128
 10
0.1374302736675572
 20
0.220545225948646
 10
0.1377548206201515
 20
0.2205281531465726
 10
0.1377719018874606
 20
0.2201183891733134
 10
0.1382160177112288
 20
0.2203574176931706
 10
0.1393055174946758
 20
0.2206977922837776
 10
0.1401224842788116
 20
0.2207192819394148
 10
0.1405739682670122
 20
0.2202894981174861
 10
0.1405954664098017
 20
0.2197092885642586
 10
0.1407459620304357
 20
0.2196018421442343
 10
0.1412619404470048
 20
0.2202680084618489
 10
0.1421434074069117
 20
0.2203539652262361
 10
0.1430463696359103
 20
0.2201605620418245
 10
0.1435838490689738
 20
0.219752267875533
 10
0.1440568311999604
 20
0.2190001447935383
 10
0.1442073268205943
 20
0.218419935240318
 10
0.1439493347386103
 20
0.217495898629549
 10
0.1435623509261807
 20
0.2167222877500787
  0
LWPOLYLINE
  5
3856
330
2
100
AcDbEntity
  8
Profilo
  6
Continuous
370
     0
100
AcDbPolyline
 90
        6
 70
   128
 43
0.0
 10
0.1353281714142467
 20
0.2129616741982669
 10
0.1359516491658672
 20
0.2137782643890116
 10
0.1366396213458634
 20
0.2142295378665775
 10
0.1370481061747801
 20
0.2146808113441363
 10
0.1379295702609893
 20
0.2151750641329766
 10
0.1384885478368387
 20
0.2152395312417266
  0
LWPOLYLINE
  5
3857
330
2
100
AcDbEntity
  8
Profilo
  6
Continuous
370
     0
100
AcDbPolyline
 90
        6
 70
   128
 43
0.0
 10
0.1370481061747801
 20
0.2155188911905181
 10
0.1375855856078401
 20
0.2163354813812628
 10
0.1385960442981924
 20
0.2170231373545075
 10
0.1394560102416085
 20
0.2172595179920318
 10
0.1401439852953024
 20
0.2171735612276446
 10
0.1407244610139449
 20
0.2168297341701031
  0
LWPOLYLINE
  5
3858
330
2
100
AcDbEntity
  8
Profilo
  6
Continuous
370
     0
100
AcDbPolyline
 90
       18
 70
   128
 43
0.0
 10
0.13490253634924
 20
0.2226095893488331
 10
0.1352746027897629
 20
0.2234886175342847
 10
0.135968003387311
 20
0.2244014531381975
 10
0.1366444922657974
 20
0.2250438182453447
 10
0.1376253978348449
 20
0.2257030889198841
 10
0.1384540950586119
 20
0.2261764113601625
 10
0.1392320571251835
 20
0.2264975948428169
 10
0.1402467890060626
 20
0.2267342560629597
 10
0.1411769594179182
 20
0.2267342560629597
 10
0.1422424264559892
 20
0.2266328300912033
 10
0.1430373002416259
 20
0.2261764113601625
 10
0.1436799628082808
 20
0.2254157147138738
 10
0.1441704170296552
 20
0.2247226366208519
 10
0.1441873287487203
 20
0.2237083731870211
 10
0.1441365935915284
 20
0.2225250670863215
 10
0.1437137891201123
 20
0.2213248572763913
 10
0.1432909846486963
 20
0.2204289253817091
 10
0.143054211960691
 20
0.220276786424078
  0
LWPOLYLINE
  5
3859
330
2
100
AcDbEntity
  8
Profilo
  6
Continuous
370
     0
100
AcDbPolyline
 90
        6
 70
   128
 43
0.0
 10
0.1367459654538861
 20
0.2204458309491084
 10
0.1367797888920128
 20
0.2213755702622659
 10
0.1371856816443637
 20
0.2222038854618358
 10
0.1376930475848033
 20
0.2229645821081245
 10
0.1385048330895051
 20
0.2235731379386276
 10
0.1392658805633138
 20
0.2240802696555502
  0
LWPOLYLINE
  5
385A
330
2
100
AcDbEntity
  8
Profilo
  6
Continuous
370
     0
100
AcDbPolyline
 90
       29
 70
   128
 43
0.0
 10
0.1412784326060068
 20
0.2236069472152717
 10
0.1407034169156089
 20
0.2238943214212821
 10
0.1403989973513431
 20
0.22355623422939
 10
0.1401622275370391
 20
0.2228293468597382
 10
0.1403144358823232
 20
0.2221362669085547
 10
0.1407879783846324
 20
0.2216967537449133
 10
0.1414306409512873
 20
0.2216798500356827
 10
0.1420056566416852
 20
0.2220686502134423
 10
0.142394637674971
 20
0.2226264930580708
 10
0.1426821455201681
 20
0.2234717119668783
 10
0.1425468460202515
 20
0.2241986011946988
 10
0.142225514736924
 20
0.2244859754007162
 10
0.1418534454227034
 20
0.2247226366208519
 10
0.1410247481989364
 20
0.2248240625926012
 10
0.1402637007251277
 20
0.2244690698333098
 10
0.139739423065623
 20
0.22355623422939
 10
0.1394857386585562
 20
0.2227955375831012
 10
0.1395195649703842
 20
0.221933414965056
 10
0.1399761928799306
 20
0.2211220053328855
 10
0.1407203286346741
 20
0.2208008218502311
 10
0.1415321141393759
 20
0.2209022478219875
 10
0.1421916912987937
 20
0.221341760985629
 10
0.1428512655845138
 20
0.222051744646043
 10
0.1433078963677614
 20
0.2230829117891115
 10
0.1433924578367813
 20
0.2240971733647878
 10
0.1432064231796728
 20
0.2246212106491026
 10
0.1427836187082567
 20
0.22490858485512
 10
0.1421409532679005
 20
0.2250100108268693
 10
0.1418534454227034
 20
0.22499310525947
  0
LWPOLYLINE
  5
385B
330
2
100
AcDbEntity
  8
Profilo
  6
Continuous
370
     0
100
AcDbPolyline
 90
        7
 70
   128
 43
0.0
 10
0.1439316155101045
 20
0.2253318335176058
 10
0.1442181836557053
 20
0.2262388828018
 10
0.1447196815026279
 20
0.2267878845066544
 10
0.1452211764758564
 20
0.2268356244316561
 10
0.1461525251043296
 20
0.2267640145441501
 10
0.1465346150072326
 20
0.2263821007186362
 10
0.1475376049536825
 20
0.2239235224535658
  0
LWPOLYLINE
  5
385C
330
2
100
AcDbEntity
  8
Profilo
  6
Continuous
370
     0
100
AcDbPolyline
 90
       11
 70
   128
 43
0.0
 10
0.1445047546750038
 20
0.2245680040084164
 10
0.1454122199904573
 20
0.2244963959790791
 10
0.1459853591553566
 20
0.2241860901829025
 10
0.1462241664223063
 20
0.2235416086280519
 10
0.1463913323712829
 20
0.222610691239522
 10
0.1461764055436552
 20
0.2217036419553349
 10
0.1456032663787559
 20
0.2206772465749633
 10
0.145173412723504
 20
0.2201521129744517
 10
0.1447196815026279
 20
0.2199372851701096
 10
0.1441943032163797
 20
0.2199372851701096
 10
0.143549525607205
 20
0.2201759829369489
  0
LWPOLYLINE
  5
385D
330
2
100
AcDbEntity
  8
Profilo
  6
Continuous
370
     0
100
AcDbPolyline
 90
        6
 70
   128
 43
0.0
 10
0.1466779005168837
 20
0.2169297052001848
 10
0.1462480468616318
 20
0.2180754503930569
 10
0.1457704323277325
 20
0.2188154099397419
 10
0.1452928177938295
 20
0.219245065548419
 10
0.1450062496482287
 20
0.2194598914945995
 10
0.1448152032599301
 20
0.2197463291864334
  0
LWPOLYLINE
  5
385E
330
2
100
AcDbEntity
  8
Profilo
  6
Continuous
370
     0
100
AcDbPolyline
 90
        7
 70
   128
 43
0.0
 10
0.1471793954901086
 20
0.218170930243053
 10
0.1465346150072326
 20
0.2193644135027579
 10
0.1464152128106049
 20
0.2204624187706283
 10
0.1465584954465582
 20
0.2214649460466571
 10
0.1468211831528334
 20
0.222395863435187
 10
0.1468211831528334
 20
0.2231835629068737
 10
0.1466540200775581
 20
0.223804174499227
  0
LWPOLYLINE
  5
385F
330
2
100
AcDbEntity
  8
Profilo
  6
Continuous
370
     0
100
AcDbPolyline
 90
        3
 70
   128
 43
0.0
 10
0.1441290530051509
 20
0.2162940759340923
 10
0.1445845084454715
 20
0.2171510068445794
 10
0.1449060064033452
 20
0.2184364022812328
  0
LWPOLYLINE
  5
3860
330
2
100
AcDbEntity
  8
Profilo
  6
Continuous
370
     0
100
AcDbPolyline
 90
        3
 70
   128
 43
0.0
 10
0.1446916744314306
 20
0.2157317140369326
 10
0.1453882533401574
 20
0.2167761001519164
 10
0.1457365427945225
 20
0.2178472623964094
  0
LWPOLYLINE
  5
3861
330
2
100
AcDbEntity
  8
Profilo
  6
Continuous
370
     0
100
AcDbPolyline
 90
       48
 70
   128
 43
0.0
 10
0.1455490023190959
 20
0.2132680388306181
 10
0.1449327978998367
 20
0.2149819006515994
 10
0.1443433849770654
 20
0.2160262849084287
 10
0.1437807635507857
 20
0.2164547494345879
 10
0.143084184642059
 20
0.2166689826267554
 10
0.1426287292017347
 20
0.2166422046390846
 10
0.1420125247824755
 20
0.2166422046390846
 10
0.1415302778456633
 20
0.2168832158189158
 10
0.1408604933071258
 20
0.2164011916010917
 10
0.140163914398399
 20
0.2158656095497644
 10
0.1400031654194604
 20
0.2151157961644312
 10
0.1399227909299929
 20
0.2146873297801104
 10
0.1395745014756278
 20
0.2149551208057741
 10
0.1391458375317951
 20
0.2153568073442695
 10
0.1387975480774299
 20
0.215249691677263
 10
0.1387171735879624
 20
0.2147141096259357
 10
0.1387439650844504
 20
0.2140446320617766
 10
0.1385832161055154
 20
0.2136965033567844
 10
0.1381009691687032
 20
0.214071411907609
 10
0.1372436412810378
 20
0.2140981898952798
 10
0.1370561008056113
 20
0.2138303988696162
 10
0.1369757263161437
 20
0.2130270257926252
 10
0.1368417688336931
 20
0.2125450034329628
 10
0.1362523559109254
 20
0.2125182235871303
 10
0.1360792327837634
 20
0.2123262270321486
 10
0.1360330524396067
 20
0.2119846520682156
 10
0.1361346491967543
 20
0.2113476626267694
 10
0.1363286066422189
 20
0.2107937572296361
 10
0.1362270098850713
 20
0.2106737440529311
 10
0.1359868720954465
 20
0.2108214531498529
 10
0.1357744453860183
 20
0.210747598601392
 10
0.1356443357866359
 20
0.2102093017738493
 10
0.1355945978030197
 20
0.2092481743705061
 10
0.1357769656201091
 20
0.2087510395707834
 10
0.1359261738235551
 20
0.2083699024574255
 10
0.1354122328596317
 20
0.2083533313593673
 10
0.1351635486889533
 20
0.207988767202222
 10
0.1353624948760155
 20
0.2072596351716083
 10
0.1356443357866359
 20
0.2071270663871925
 10
0.1355448626931048
 20
0.2068287847640899
 10
0.1352630217824844
 20
0.2066133604894187
 10
0.135212510773818
 20
0.2062601329850207
 10
0.1352456703874614
 20
0.2057795692833491
 10
0.1354446137008223
 20
0.2054315743660933
 10
0.1356435598878845
 20
0.2052161500914149
 10
0.1353119838673491
 20
0.2049344395663706
 10
0.1352456703874614
 20
0.204520162115065
 10
0.1354446137008223
 20
0.2042053093939113
  0
LWPOLYLINE
  5
3862
330
2
100
AcDbEntity
  8
Profilo
  6
Continuous
370
     0
100
AcDbPolyline
 90
        2
 70
   128
 43
0.0
 10
0.1354446137008223
 20
0.2042053093939113
 10
0.139108534044083
 20
0.2040727406094955
  0
LWPOLYLINE
  5
3863
330
2
100
AcDbEntity
  8
Profilo
  6
Continuous
370
     0
100
AcDbPolyline
 90
       11
 70
   128
 43
0.0
 10
0.1391416936577263
 20
0.2041224539036559
 10
0.1390587989341681
 20
0.2049178684683124
 10
0.1387438012836055
 20
0.2055807142485602
 10
0.1382961737995663
 20
0.2060281357541296
 10
0.1379480165353604
 20
0.2062435618869696
 10
0.1376661784984376
 20
0.2060944201463339
 10
0.1375832837748794
 20
0.2063595595733343
 10
0.1374340726977357
 20
0.2065915549460637
 10
0.136870393750196
 20
0.2067241255886412
 10
0.1364890797460445
 20
0.2067406966866923
 10
0.13587566568859
 20
0.2068898365691592
  0
LWPOLYLINE
  5
3864
330
2
100
AcDbEntity
  8
Profilo
  6
Continuous
370
     0
100
AcDbPolyline
 90
        9
 70
   128
 43
0.0
 10
0.1393737965847306
 20
0.2070886897457864
 10
0.139208007137614
 20
0.2082818125218591
 10
0.1388432743771366
 20
0.2092097977291001
 10
0.1384951171129272
 20
0.2097732169210342
 10
0.1380972276125041
 20
0.2095246504502537
 10
0.1376495972547671
 20
0.2098395013132386
 10
0.1372351265106735
 20
0.2104857759954353
 10
0.1367874990266378
 20
0.2107177732263263
 10
0.1365719744696028
 20
0.2107343443243774
  0
LWPOLYLINE
  5
3865
330
2
100
AcDbEntity
  8
Profilo
  6
Continuous
370
     0
100
AcDbPolyline
 90
       10
 70
   128
 43
0.0
 10
0.1401542070429178
 20
0.210211752690908
 10
0.1400381555794139
 20
0.2114711617173537
 10
0.1399718392258284
 20
0.212382573968382
 10
0.1398060497787119
 20
0.2127305688856378
 10
0.1395905252216769
 20
0.2129791353564183
 10
0.1393086871847577
 20
0.2129128509642069
 10
0.1391926357212538
 20
0.2127802821797911
 10
0.1390600030140829
 20
0.21276371108174
 10
0.1389605299205519
 20
0.2131779903912072
 10
0.138794743347133
 20
0.2135425545483525
  0
LWPOLYLINE
  5
3866
330
2
100
AcDbEntity
  8
Profilo
  6
Continuous
370
     0
100
AcDbPolyline
 90
        6
 70
   128
 43
0.0
 10
0.1420773496862422
 20
0.2137579806811924
 10
0.1426741882474252
 20
0.2143379709711777
 10
0.1429891858979912
 20
0.2149676745553162
 10
0.1431383941014372
 20
0.2155973781394547
 10
0.1429062911744294
 20
0.2161773684294399
 10
0.1426078718938397
 20
0.2165087922486446
  0
LWPOLYLINE
  5
3867
330
2
100
AcDbEntity
  8
Profilo
  6
Continuous
370
     0
100
AcDbPolyline
 90
        5
 70
   128
 43
0.0
 10
0.1420607713162694
 20
0.2130122775525205
 10
0.1413810380315281
 20
0.2132442747834116
 10
0.1406349912668992
 20
0.2136419811366661
 10
0.1403365719863059
 20
0.2141225448383377
 10
0.1401707854128906
 20
0.2145036819516957
  0
LWPOLYLINE
  5
3868
330
2
100
AcDbEntity
  8
Profilo
  6
Continuous
370
     0
100
AcDbPolyline
 90
        7
 70
   128
 43
0.0
 10
0.140651569636872
 20
0.2156968047277683
 10
0.1412152514581093
 20
0.2153653827667252
 10
0.141729195295734
 20
0.214238544382864
 10
0.1422431391333587
 20
0.2145865374419582
 10
0.1425249771702814
 20
0.2153653827667252
 10
0.1422928742432772
 20
0.2160945129391845
 10
0.1418949818691528
 20
0.2164590789544913
  0
LWPOLYLINE
  5
3869
330
2
100
AcDbEntity
  8
Profilo
  6
Continuous
370
     0
100
AcDbPolyline
 90
        4
 70
   128
 43
0.0
 10
0.1411393972972901
 20
0.2043963657183934
 10
0.141410662995308
 20
0.2077543376359028
 10
0.1414941295849834
 20
0.2096940368772788
 10
0.1419531972650452
 20
0.2121968728698018
  0
LWPOLYLINE
  5
386A
330
2
100
AcDbEntity
  8
Profilo
  6
Continuous
370
     0
100
AcDbPolyline
 90
        3
 70
   128
 43
0.0
 10
0.1425165945900764
 20
0.2082757623429767
 10
0.1423287954817303
 20
0.2103406032910708
 10
0.1426626618404319
 20
0.2117588759672042
  0
LWPOLYLINE
  5
386B
330
2
100
AcDbEntity
  8
Profilo
  6
Continuous
370
     0
100
AcDbPolyline
 90
        3
 70
   128
 43
0.0
 10
0.1432495344132176
 20
0.2133755428536954
 10
0.143897754713886
 20
0.2146124829725817
 10
0.143897754713886
 20
0.2155549116811866
  0
LWPOLYLINE
  5
386C
330
2
100
AcDbEntity
  8
Profilo
  6
Continuous
370
     0
100
AcDbPolyline
 90
        3
 70
   128
 43
0.0
 10
0.1435147136165922
 20
0.2126098198763611
 10
0.1442218648642237
 20
0.213640602379682
 10
0.1445754390511871
 20
0.2146124829725817
  0
LWPOLYLINE
  5
386D
330
2
100
AcDbEntity
  8
Profilo
  6
Continuous
370
     0
100
AcDbPolyline
 90
        3
 70
   128
 43
0.0
 10
0.1436325726368137
 20
0.2100475895602099
 10
0.1433673905597379
 20
0.2114612335521979
 10
0.1429548882995126
 20
0.2121091545668516
  0
LINE
  5
39A9
330
2
100
AcDbEntity
  8
Profilo
  6
Continuous
370
     0
100
AcDbLine
 10
0.1416684452972587
 20
0.1685528324935499
 30
0.0
 11
0.1416684452972587
 21
0.1999183488611162
 31
0.0
  0
LINE
  5
39AA
330
2
100
AcDbEntity
  8
Profilo
  6
Continuous
370
     0
100
AcDbLine
 10
0.1129184452972601
 20
0.1639673373260023
 30
0.0
 11
0.1129184452972601
 21
0.0722805967989171
 31
0.0
  0
LINE
  5
39AB
330
2
100
AcDbEntity
  8
Profilo
  6
Continuous
370
     0
100
AcDbLine
 10
0.1380647002126585
 20
0.1658988242422941
 30
0.0
 11
0.1380647002126585
 21
0.1844880384229253
 31
0.0
  0
LINE
  5
39AC
330
2
100
AcDbEntity
  8
Profilo
  6
Continuous
370
     0
100
AcDbLine
 10
0.1345309843008513
 20
0.1643566566881971
 30
0.0
 11
0.1345309843008513
 21
0.1844880384229253
 31
0.0
  0
LINE
  5
39AD
330
2
100
AcDbEntity
  8
Profilo
  6
Continuous
370
     0
100
AcDbLine
 10
0.1320736554836079
 20
0.1653393868753596
 30
0.0
 11
0.1320736554836079
 21
0.1844880384229253
 31
0.0
  0
LINE
  5
39AE
330
2
100
AcDbEntity
  8
Profilo
  6
Continuous
370
     0
100
AcDbLine
 10
0.1285399395718008
 20
0.1663016365212445
 30
0.0
 11
0.1285399395718008
 21
0.1844880384229253
 31
0.0
  0
LINE
  5
39AF
330
2
100
AcDbEntity
  8
Profilo
  6
Continuous
370
     0
100
AcDbLine
 10
0.1261619622071555
 20
0.1649003604460073
 30
0.0
 11
0.1261619622071555
 21
0.1844880384229253
 31
0.0
  0
LINE
  5
39B0
330
2
100
AcDbEntity
  8
Profilo
  6
Continuous
370
     0
100
AcDbLine
 10
0.1226282462953484
 20
0.1655856258387927
 30
0.0
 11
0.1226282462953484
 21
0.1844880384229253
 31
0.0
  0
LINE
  5
39B1
330
2
100
AcDbEntity
  8
Profilo
  6
Continuous
370
     0
100
AcDbLine
 10
0.1203045904643424
 20
0.1671619802680566
 30
0.0
 11
0.1203045904643424
 21
0.1844880384229253
 31
0.0
  0
LINE
  5
39B2
330
2
100
AcDbEntity
  8
Profilo
  6
Continuous
370
     0
100
AcDbLine
 10
0.1167708745525352
 20
0.1687569649799357
 30
0.0
 11
0.1167708745525352
 21
0.1844880384229253
 31
0.0
  0
SPLINE
  5
39B3
330
2
100
AcDbEntity
  8
Sezione
 62
     6
100
AcDbSpline
210
0.0
220
0.0
230
1.0
 70
     8
 71
     3
 72
    12
 73
     8
 74
     0
 42
0.0000000001
 43
0.0000000001
 40
0.0109422139198479
 40
0.0109422139198479
 40
0.0109422139198479
 40
0.0109422139198479
 40
0.0126140630617357
 40
0.0242596833291253
 40
0.0281168419856685
 40
0.0318692951257993
 40
0.0413771108661514
 40
0.0413771108661514
 40
0.0413771108661514
 40
0.0413771108661514
 10
0.1129184452972601
 20
0.1639673373260022
 30
0.0
 10
0.113772216508389
 20
0.1641058529838088
 30
0.0
 10
0.1203849784686627
 20
0.1645921120185929
 30
0.0
 10
0.1237173859495867
 20
0.1568986414787161
 30
0.0
 10
0.129834434896821
 20
0.1630817227025061
 30
0.0
 10
0.1345563404413903
 20
0.1571526839007622
 30
0.0
 10
0.138655131537473
 20
0.1617275371481027
 30
0.0
 10
0.1416684452972588
 20
0.163727149834376
 30
0.0
  0
SPLINE
  5
39B4
330
2
100
AcDbEntity
  8
Sezione
 62
     6
100
AcDbSpline
210
0.0
220
0.0
230
1.0
 70
     8
 71
     3
 72
    12
 73
     8
 74
     0
 42
0.0000000001
 43
0.0000000001
 40
0.0109422139198479
 40
0.0109422139198479
 40
0.0109422139198479
 40
0.0109422139198479
 40
0.0126140630617357
 40
0.0242596833291253
 40
0.0281168419856685
 40
0.0318692951257993
 40
0.0413771108661514
 40
0.0413771108661514
 40
0.0413771108661514
 40
0.0413771108661514
 10
0.1129184452972601
 20
0.1687930199851762
 30
0.0
 10
0.113772216508389
 20
0.1689315356429827
 30
0.0
 10
0.1203849784686627
 20
0.1694177946777668
 30
0.0
 10
0.1237173859495867
 20
0.1617243241378901
 30
0.0
 10
0.129834434896821
 20
0.1679074053616801
 30
0.0
 10
0.1345563404413903
 20
0.1619783665599361
 30
0.0
 10
0.138655131537473
 20
0.1665532198072766
 30
0.0
 10
0.1416684452972589
 20
0.1685528324935499
 30
0.0
  0
DIMENSION
  5
39B5
102
{ACAD_XDICTIONARY
360
39C3
102
}
102
{ACAD_REACTORS
330
39CE
102
}
330
2
100
AcDbEntity
  8
Dimensione
100
AcDbDimension
  2
*D29
 10
0.1416684452972587
 20
0.0604506529975879
 30
0.0
 11
0.1272934452972594
 21
0.0604506529975879
 31
0.0
 70
    32
  1
115 mm
 71
     5
 42
0.0287499999999986
  3
Bovelacci
100
AcDbAlignedDimension
 13
0.1129184452972601
 23
0.0722805967989171
 33
0.0
 14
0.1416684452972587
 24
0.0722805967989171
 34
0.0
100
AcDbRotatedDimension
  0
DIMENSION
  5
39D0
102
{ACAD_XDICTIONARY
360
39DE
102
}
102
{ACAD_REACTORS
330
39E9
102
}
330
2
100
AcDbEntity
  8
Dimensione
100
AcDbDimension
  2
*D30
 10
0.1679421667750489
 20
0.2337182269103462
 30
0.0
 11
0.1679421667750489
 21
0.1529681618546316
 31
0.0
 70
    32
  1
3130 mm
 71
     5
 42
0.1615001301114291
  3
Bovelacci
100
AcDbAlignedDimension
 13
0.1416684452972587
 23
0.0722180967989171
 33
0.0
 14
0.146584850140786
 24
0.2337182269103462
 34
0.0
 50
90.0
100
AcDbRotatedDimension
  0
LINE
  5
3BC1
330
2
100
AcDbEntity
  8
Profilo
  6
Continuous
370
     0
100
AcDbLine
 10
0.2915803235243104
 20
0.0915181147563103
 30
0.0
 11
0.2915803235243104
 21
0.2238910863224446
 31
0.0
  0
LINE
  5
3BC2
330
2
100
AcDbEntity
  8
Profilo
  6
Continuous
370
     0
100
AcDbLine
 10
0.2922870667066719
 20
0.0915181147563103
 30
0.0
 11
0.2922870667066719
 21
0.2238910863224446
 31
0.0
  0
ARC
  5
3BC3
330
2
100
AcDbEntity
  8
Profilo
  6
Continuous
370
     0
100
AcDbCircle
 10
0.2919336951154912
 20
0.2238400834689798
 30
0.0
 40
0.0003570332932867
100
AcDbArc
 50
8.212902194229691
 51
171.7870978057703
  0
ARC
  5
3BC4
330
2
100
AcDbEntity
  8
Profilo
  6
Continuous
370
     0
100
AcDbCircle
 10
0.2919336951154912
 20
0.0915634590233082
 30
0.0
 40
0.0003562689770428
100
AcDbArc
 50
187.312174767338
 51
352.687825232662
  0
LINE
  5
3BC5
330
2
100
AcDbEntity
  8
Profilo
  6
Continuous
370
     0
100
AcDbLine
 10
0.2927517978728731
 20
0.0915181147563103
 30
0.0
 11
0.2927517978728731
 21
0.2238910863224446
 31
0.0
  0
LINE
  5
3BC6
330
2
100
AcDbEntity
  8
Profilo
  6
Continuous
370
     0
100
AcDbLine
 10
0.2934585410552346
 20
0.0915181147563103
 30
0.0
 11
0.2934585410552346
 21
0.2238910863224446
 31
0.0
  0
ARC
  5
3BC7
330
2
100
AcDbEntity
  8
Profilo
  6
Continuous
370
     0
100
AcDbCircle
 10
0.2931051694640538
 20
0.2238400834689798
 30
0.0
 40
0.0003570332932867
100
AcDbArc
 50
8.212902194229691
 51
171.7870978057703
  0
ARC
  5
3BC8
330
2
100
AcDbEntity
  8
Profilo
  6
Continuous
370
     0
100
AcDbCircle
 10
0.2931051694640538
 20
0.0915634590233082
 30
0.0
 40
0.0003562689770428
100
AcDbArc
 50
187.312174767338
 51
352.687825232662
  0
LINE
  5
3BC9
330
2
100
AcDbEntity
  8
Profilo
  6
Continuous
370
     0
100
AcDbLine
 10
0.2939341365281636
 20
0.0915181147563103
 30
0.0
 11
0.2939341365281636
 21
0.2238910863224446
 31
0.0
  0
LINE
  5
3BCA
330
2
100
AcDbEntity
  8
Profilo
  6
Continuous
370
     0
100
AcDbLine
 10
0.2946408797105251
 20
0.0915181147563103
 30
0.0
 11
0.2946408797105251
 21
0.2238910863224446
 31
0.0
  0
ARC
  5
3BCB
330
2
100
AcDbEntity
  8
Profilo
  6
Continuous
370
     0
100
AcDbCircle
 10
0.2942875081193443
 20
0.2238400834689798
 30
0.0
 40
0.0003570332932867
100
AcDbArc
 50
8.212902194229691
 51
171.7870978057703
  0
ARC
  5
3BCC
330
2
100
AcDbEntity
  8
Profilo
  6
Continuous
370
     0
100
AcDbCircle
 10
0.2942875081193443
 20
0.0915634590233082
 30
0.0
 40
0.0003562689770428
100
AcDbArc
 50
187.312174767338
 51
352.687825232662
  0
LINE
  5
3BCD
330
2
100
AcDbEntity
  8
Profilo
  6
Continuous
370
     0
100
AcDbLine
 10
0.2951323454739738
 20
0.0915181147563103
 30
0.0
 11
0.2951323454739738
 21
0.2238910863224446
 31
0.0
  0
LINE
  5
3BCE
330
2
100
AcDbEntity
  8
Profilo
  6
Continuous
370
     0
100
AcDbLine
 10
0.2958390886563351
 20
0.0915181147563103
 30
0.0
 11
0.2958390886563351
 21
0.2238910863224446
 31
0.0
  0
ARC
  5
3BCF
330
2
100
AcDbEntity
  8
Profilo
  6
Continuous
370
     0
100
AcDbCircle
 10
0.2954857170651544
 20
0.2238400834689798
 30
0.0
 40
0.0003570332932867
100
AcDbArc
 50
8.212902194229691
 51
171.7870978057703
  0
ARC
  5
3BD0
330
2
100
AcDbEntity
  8
Profilo
  6
Continuous
370
     0
100
AcDbCircle
 10
0.2954857170651544
 20
0.0915634590233082
 30
0.0
 40
0.0003562689770428
100
AcDbArc
 50
187.312174767338
 51
352.687825232662
  0
LINE
  5
3BD1
330
2
100
AcDbEntity
  8
Profilo
  6
Continuous
370
     0
100
AcDbLine
 10
0.2908098376732555
 20
0.2269771484100828
 30
0.0
 11
0.2908098376732555
 21
0.0777242859120775
 31
0.0
  0
LINE
  5
3BD2
330
2
100
AcDbEntity
  8
Profilo
  6
Continuous
370
     0
100
AcDbLine
 10
0.2908098376732555
 20
0.0777242859120775
 30
0.0
 11
0.2965598376732552
 21
0.0777242859120775
 31
0.0
  0
LINE
  5
3BD3
330
2
100
AcDbEntity
  8
Profilo
  6
Continuous
370
     0
100
AcDbLine
 10
0.2965598376732552
 20
0.0777242859120775
 30
0.0
 11
0.2965598376732552
 21
0.2269771484100828
 31
0.0
  0
LINE
  5
3BD4
330
2
100
AcDbEntity
  8
Profilo
  6
Continuous
370
     0
100
AcDbLine
 10
0.2965598376732552
 20
0.2269771484100828
 30
0.0
 11
0.2908098376732555
 21
0.2269771484100828
 31
0.0
  0
LWPOLYLINE
  5
3BD5
330
2
100
AcDbEntity
  8
Profilo
  6
Continuous
370
     0
100
AcDbPolyline
 90
       23
 70
   128
 43
0.0
 10
0.2908098376732555
 20
0.2269771484100828
 10
0.2907295649127344
 20
0.2270426471709555
 10
0.2906914309259898
 20
0.2271248983865916
 10
0.2906733674283353
 20
0.2272492786180932
 10
0.2906071344120216
 20
0.2272573032810285
 10
0.2905489293614481
 20
0.2273295237609061
 10
0.2905368868380984
 20
0.2275020512267473
 10
0.2905509363528831
 20
0.2276685601024794
 10
0.2905970988801067
 20
0.2277247319997541
 10
0.2906453942667853
 20
0.2277523331536527
 10
0.2966741591699142
 20
0.2277523331536527
 10
0.2967560072922688
 20
0.2277096411143858
 10
0.2968095230406897
 20
0.2276341242532623
 10
0.2968315591399475
 20
0.2275271420023698
 10
0.2968158193153656
 20
0.2274390386880326
 10
0.2967654514169136
 20
0.2273572286003016
 10
0.2967165784167209
 20
0.2272906115969078
 10
0.2966551818359528
 20
0.22723894388686
 10
0.2966748159279129
 20
0.2271756542926581
 10
0.2966601020732953
 20
0.2271021198822765
 10
0.2966095492103264
 20
0.2270487825400848
 10
0.2965990263075604
 20
0.227002035531035
 10
0.2965595261642755
 20
0.2269773594974054
  0
LINE
  5
3BD6
330
2
100
AcDbEntity
  8
Profilo
  6
Continuous
370
     0
100
AcDbLine
 10
0.2906748709476916
 20
0.22723894388686
 30
0.0
 11
0.2966551818359528
 21
0.22723894388686
 31
0.0
  0
LINE
  5
3BD7
330
2
100
AcDbEntity
  8
Profilo
  6
Continuous
370
     0
100
AcDbLine
 10
0.2907696708317844
 20
0.2270494309526071
 30
0.0
 11
0.2966095492103264
 21
0.2270487825400848
 31
0.0
  0
LINE
  5
3BD8
330
2
100
AcDbEntity
  8
Profilo
  6
Continuous
370
     0
100
AcDbLine
 10
0.2908098376732555
 20
0.2255064290819475
 30
0.0
 11
0.2965598376732552
 21
0.2255064290819475
 31
0.0
  0
LINE
  5
3BD9
330
2
100
AcDbEntity
  8
Profilo
  6
Continuous
370
     0
100
AcDbLine
 10
0.2908098376732555
 20
0.0782239879498675
 30
0.0
 11
0.2965598376732552
 21
0.0782239879498675
 31
0.0
  0
LINE
  5
3BDA
330
2
100
AcDbEntity
  8
Profilo
  6
Continuous
370
     0
100
AcDbLine
 10
0.2908098376732555
 20
0.0881249845357899
 30
0.0
 11
0.2965598376732552
 21
0.0881249845357899
 31
0.0
  0
LINE
  5
3BDB
330
2
100
AcDbEntity
  8
Profilo
  6
Continuous
370
     0
100
AcDbLine
 10
0.2908098376732555
 20
0.0897476224434143
 30
0.0
 11
0.2965598376732552
 21
0.0897476224434143
 31
0.0
  0
LINE
  5
3BDC
330
2
100
AcDbEntity
  8
Profilo
  6
Continuous
370
     0
100
AcDbLine
 10
0.2908098376732555
 20
0.0900621425533813
 30
0.0
 11
0.2965598376732552
 21
0.0900621425533813
 31
0.0
  0
LINE
  5
3BDD
330
2
100
AcDbEntity
  8
Profilo
  6
Continuous
370
     0
100
AcDbLine
 10
0.2908098376732555
 20
0.0904767373789297
 30
0.0
 11
0.2965598376732552
 21
0.0904767373789297
 31
0.0
  0
LINE
  5
3BDE
330
2
100
AcDbEntity
  8
Profilo
  6
Continuous
370
     0
100
AcDbLine
 10
0.2908098376732555
 20
0.0877318343983318
 30
0.0
 11
0.2965598376732552
 21
0.0877318343983318
 31
0.0
  0
LWPOLYLINE
  5
3BDF
330
2
100
AcDbEntity
  8
Profilo
  6
Continuous
370
     0
100
AcDbPolyline
 90
        4
 70
     1
 43
0.0
 10
0.2921343324744585
 20
0.0884895420035476
 10
0.2929567546889225
 20
0.0884895420035476
 10
0.2929567546889225
 20
0.089282990631706
 10
0.2921343324744585
 20
0.089282990631706
  0
LWPOLYLINE
  5
3BE0
330
2
100
AcDbEntity
  8
Profilo
  6
Continuous
370
     0
100
AcDbPolyline
 90
        4
 70
     1
 43
0.0
 10
0.2920271097772671
 20
0.0883823193063562
 10
0.2930639773861139
 20
0.0883823193063562
 10
0.2930639773861139
 20
0.0893902133288974
 10
0.2920271097772671
 20
0.0893902133288974
  0
LINE
  5
3BE1
330
2
100
AcDbEntity
  8
Profilo
  6
Continuous
370
     0
100
AcDbLine
 10
0.2921343324744585
 20
0.089282990631706
 30
0.0
 11
0.2929567546889225
 21
0.0884895420035476
 31
0.0
  0
LINE
  5
3BE2
330
2
100
AcDbEntity
  8
Profilo
  6
Continuous
370
     0
100
AcDbLine
 10
0.2921343324744585
 20
0.0884895420035476
 30
0.0
 11
0.2929567546889225
 21
0.089282990631706
 31
0.0
  0
LWPOLYLINE
  5
3BE3
330
2
100
AcDbEntity
  8
Profilo
  6
Continuous
370
     0
100
AcDbPolyline
 90
        4
 70
     1
 43
0.0
 10
0.2933358325684596
 20
0.0884895420035476
 10
0.2941582547829229
 20
0.0884895420035476
 10
0.2941582547829229
 20
0.089282990631706
 10
0.2933358325684596
 20
0.089282990631706
  0
LWPOLYLINE
  5
3BE4
330
2
100
AcDbEntity
  8
Profilo
  6
Continuous
370
     0
100
AcDbPolyline
 90
        4
 70
     1
 43
0.0
 10
0.2932286098712675
 20
0.0883823193063562
 10
0.294265477480115
 20
0.0883823193063562
 10
0.294265477480115
 20
0.0893902133288974
 10
0.2932286098712675
 20
0.0893902133288974
  0
LINE
  5
3BE5
330
2
100
AcDbEntity
  8
Profilo
  6
Continuous
370
     0
100
AcDbLine
 10
0.2933358325684596
 20
0.089282990631706
 30
0.0
 11
0.2941582547829229
 21
0.0884895420035476
 31
0.0
  0
LINE
  5
3BE6
330
2
100
AcDbEntity
  8
Profilo
  6
Continuous
370
     0
100
AcDbLine
 10
0.2933358325684596
 20
0.0884895420035476
 30
0.0
 11
0.2941582547829229
 21
0.089282990631706
 31
0.0
  0
LWPOLYLINE
  5
3BE7
330
2
100
AcDbEntity
  8
Profilo
  6
Continuous
370
     0
100
AcDbPolyline
 90
        4
 70
     1
 43
0.0
 10
0.2909400825245045
 20
0.0884895420035476
 10
0.2917625047389678
 20
0.0884895420035476
 10
0.2917625047389678
 20
0.089282990631706
 10
0.2909400825245045
 20
0.089282990631706
  0
LWPOLYLINE
  5
3BE8
330
2
100
AcDbEntity
  8
Profilo
  6
Continuous
370
     0
100
AcDbPolyline
 90
        4
 70
     0
 43
0.0
 10
0.2908098376732555
 20
0.0883823193063562
 10
0.2918697274361599
 20
0.0883823193063562
 10
0.2918697274361599
 20
0.0893902133288974
 10
0.2908098376732555
 20
0.0893902133288974
  0
LINE
  5
3BE9
330
2
100
AcDbEntity
  8
Profilo
  6
Continuous
370
     0
100
AcDbLine
 10
0.2909400825245045
 20
0.089282990631706
 30
0.0
 11
0.2917625047389678
 21
0.0884895420035476
 31
0.0
  0
LINE
  5
3BEA
330
2
100
AcDbEntity
  8
Profilo
  6
Continuous
370
     0
100
AcDbLine
 10
0.2909400825245045
 20
0.0884895420035476
 30
0.0
 11
0.2917625047389678
 21
0.089282990631706
 31
0.0
  0
LWPOLYLINE
  5
3BEB
330
2
100
AcDbEntity
  8
Profilo
  6
Continuous
370
     0
100
AcDbPolyline
 90
        4
 70
     1
 43
0.0
 10
0.2945587380841326
 20
0.0884895420035476
 10
0.2953811602985958
 20
0.0884895420035476
 10
0.2953811602985958
 20
0.089282990631706
 10
0.2945587380841326
 20
0.089282990631706
  0
LWPOLYLINE
  5
3BEC
330
2
100
AcDbEntity
  8
Profilo
  6
Continuous
370
     0
100
AcDbPolyline
 90
        4
 70
     1
 43
0.0
 10
0.2944515153869405
 20
0.0883823193063562
 10
0.2954883829957879
 20
0.0883823193063562
 10
0.2954883829957879
 20
0.0893902133288974
 10
0.2944515153869405
 20
0.0893902133288974
  0
LINE
  5
3BED
330
2
100
AcDbEntity
  8
Profilo
  6
Continuous
370
     0
100
AcDbLine
 10
0.2945587380841326
 20
0.089282990631706
 30
0.0
 11
0.2953811602985958
 21
0.0884895420035476
 31
0.0
  0
LINE
  5
3BEE
330
2
100
AcDbEntity
  8
Profilo
  6
Continuous
370
     0
100
AcDbLine
 10
0.2945587380841326
 20
0.0884895420035476
 30
0.0
 11
0.2953811602985958
 21
0.089282990631706
 31
0.0
  0
LWPOLYLINE
  5
3BEF
330
2
100
AcDbEntity
  8
Profilo
  6
Continuous
370
     0
100
AcDbPolyline
 90
        4
 70
     0
 43
0.0
 10
0.2965598376732552
 20
0.089282990631706
 10
0.2957315831871548
 20
0.089282990631706
 10
0.2957315831871548
 20
0.0884895420035476
 10
0.2965598376732552
 20
0.0884895420035476
  0
LWPOLYLINE
  5
3BF0
330
2
100
AcDbEntity
  8
Profilo
  6
Continuous
370
     0
100
AcDbPolyline
 90
        4
 70
     0
 43
0.0
 10
0.2965598376732552
 20
0.0893902133288974
 10
0.2956243604899627
 20
0.0893902133288974
 10
0.2956243604899627
 20
0.0883823193063562
 10
0.2965598376732552
 20
0.0883823193063562
  0
LINE
  5
3BF1
330
2
100
AcDbEntity
  8
Profilo
  6
Continuous
370
     0
100
AcDbLine
 10
0.2957315831871548
 20
0.089282990631706
 30
0.0
 11
0.2965540054016182
 21
0.0884895420035476
 31
0.0
  0
LINE
  5
3BF2
330
2
100
AcDbEntity
  8
Profilo
  6
Continuous
370
     0
100
AcDbLine
 10
0.2957315831871548
 20
0.0884895420035476
 30
0.0
 11
0.2965540054016182
 21
0.089282990631706
 31
0.0
  0
LINE
  5
3BF3
330
2
100
AcDbEntity
  8
Profilo
  6
Continuous
370
     0
100
AcDbLine
 10
0.2908098376732555
 20
0.0777242859120775
 30
0.0
 11
0.2965598376732552
 21
0.0777242859120775
 31
0.0
  0
LINE
  5
3BF4
330
2
100
AcDbEntity
  8
Profilo
  6
Continuous
370
     0
100
AcDbLine
 10
0.2908098376732555
 20
0.0777242859120775
 30
0.0
 11
0.2965598376732552
 21
0.0777242859120775
 31
0.0
  0
LINE
  5
3BF5
330
2
100
AcDbEntity
  8
Profilo
  6
Continuous
370
     0
100
AcDbLine
 10
0.2908098376732555
 20
0.0777242859120775
 30
0.0
 11
0.2965598376732552
 21
0.0777242859120775
 31
0.0
  0
LINE
  5
3BF6
330
2
100
AcDbEntity
  8
Profilo
  6
Continuous
370
     0
100
AcDbLine
 10
0.2908098376732555
 20
0.0777242859120775
 30
0.0
 11
0.2965598376732552
 21
0.0777242859120775
 31
0.0
  0
LINE
  5
3BF7
330
2
100
AcDbEntity
  8
Profilo
  6
Continuous
370
     0
100
AcDbLine
 10
0.2958750943815434
 20
0.0862959608301821
 30
0.0
 11
0.2965598376732552
 21
0.0862959608301821
 31
0.0
  0
LINE
  5
3BF8
330
2
100
AcDbEntity
  8
Profilo
  6
Continuous
370
     0
100
AcDbLine
 10
0.2958750943815434
 20
0.079667204606747
 30
0.0
 11
0.2965598376732552
 21
0.079667204606747
 31
0.0
  0
LINE
  5
3BF9
330
2
100
AcDbEntity
  8
Profilo
  6
Continuous
370
     0
100
AcDbLine
 10
0.2915071499499875
 20
0.079667204606747
 30
0.0
 11
0.2915071499499875
 21
0.0862959608301821
 31
0.0
  0
LINE
  5
3BFA
330
2
100
AcDbEntity
  8
Profilo
  6
Continuous
370
     0
100
AcDbLine
 10
0.2911709231348667
 20
0.079667204606747
 30
0.0
 11
0.2911709231348667
 21
0.0862959608301821
 31
0.0
  0
LINE
  5
3BFB
330
2
100
AcDbEntity
  8
Profilo
  6
Continuous
370
     0
100
AcDbLine
 10
0.2958750943815434
 20
0.079667204606747
 30
0.0
 11
0.2958750943815434
 21
0.0862959608301821
 31
0.0
  0
LINE
  5
3BFC
330
2
100
AcDbEntity
  8
Profilo
  6
Continuous
370
     0
100
AcDbLine
 10
0.2962594108264889
 20
0.079667204606747
 30
0.0
 11
0.2962594108264889
 21
0.0862959608301821
 31
0.0
  0
LWPOLYLINE
  5
3BFD
330
2
100
AcDbEntity
  8
Profilo
  6
Continuous
370
     0
100
AcDbPolyline
 90
       27
 70
   128
 43
0.0
 10
0.2907460243115645
 20
0.2277664882681107
 10
0.2907003175530136
 20
0.2284883262655028
 10
0.2906271859346974
 20
0.2288538139296832
 10
0.2904717820360425
 20
0.229000008995355
 10
0.2902432465190707
 20
0.2291370667300597
 10
0.2901244081422036
 20
0.2294477311517041
 10
0.2901152669054421
 20
0.2296852980405119
 10
0.290014711002099
 20
0.2299137275983539
 10
0.2899690036688094
 20
0.2301238832375275
 10
0.2899507211952845
 20
0.2302974899244673
 10
0.2897587512001019
 20
0.2305624680629093
 10
0.2896947613932874
 20
0.2308639955252203
 10
0.2896216297749712
 20
0.2313299919718701
 10
0.2896399128232348
 20
0.2316223821032138
 10
0.2896399128232348
 20
0.2319056349035903
 10
0.2895943531980771
 20
0.2321109281017029
 10
0.2895303628165231
 20
0.2322845347886427
 10
0.2894572317729465
 20
0.2326317477908886
 10
0.2894572317729465
 20
0.2328875893416295
 10
0.2893475346328416
 20
0.2331891164323081
 10
0.2892744035892649
 20
0.2334449576114166
 10
0.2892744035892649
 20
0.2335363298061863
 10
0.2901702620341469
 20
0.2336277016293223
 10
0.2910752628652711
 20
0.2334906438946176
 10
0.2917425863679215
 20
0.2334632322733497
 10
0.2925196064359363
 20
0.2333992716998479
 10
0.2930680915617203
 20
0.2333809974095472
  0
LWPOLYLINE
  5
3BFE
330
2
100
AcDbEntity
  8
Profilo
  6
Continuous
370
     0
100
AcDbPolyline
 90
       36
 70
   128
 43
0.0
 10
0.2940715769338924
 20
0.2334191975254654
 10
0.2951556914052711
 20
0.2334927413890653
 10
0.295953897532357
 20
0.2335789943446399
 10
0.2968096322412543
 20
0.2337011852884401
 10
0.2972626680269543
 20
0.2337299362736316
 10
0.2975431186419606
 20
0.2337371240199288
 10
0.2978667161243807
 20
0.2336724346748809
 10
0.298010536716798
 20
0.2335933694656034
 10
0.2981327844502497
 20
0.2332411713835355
 10
0.2981399755948184
 20
0.2329896010063734
 10
0.2981327844502497
 20
0.2326086519391139
 10
0.2980896381575762
 20
0.2325008361162772
 10
0.2979458175651581
 20
0.2323714570545476
 10
0.2979745815686941
 20
0.2322564534854123
 10
0.2978595249798119
 20
0.2320551973323361
 10
0.2977876146836025
 20
0.2318467534329613
 10
0.2977516589607583
 20
0.231667060518778
 10
0.2977649969476517
 20
0.2314897412220715
 10
0.2978220145857671
 20
0.2311998298802321
 10
0.2977848289197178
 20
0.2308801842133177
 10
0.2976754840951203
 20
0.2305479714180833
 10
0.2975739436624745
 20
0.2302942370242362
 10
0.2975929824935954
 20
0.2301229664198799
 10
0.2975295197231917
 20
0.229875575794675
 10
0.2973962473306033
 20
0.2296789316022809
 10
0.2973391308372399
 20
0.2296218414008293
 10
0.2973391308372399
 20
0.2295013179725472
 10
0.2972947068979572
 20
0.2292729571667379
 10
0.2971804739112302
 20
0.2291334031757969
 10
0.2970091238564003
 20
0.228987506159477
 10
0.2969202759778349
 20
0.2289304159580253
 10
0.296850466355651
 20
0.2287591453536677
 10
0.296755272200045
 20
0.228625934759735
 10
0.2967171945378029
 20
0.2284039173509355
 10
0.2966727705985201
 20
0.2280423463228273
 10
0.2966537317673989
 20
0.227756895315565
  0
ELLIPSE
  5
3BFF
330
2
100
AcDbEntity
  8
Profilo
  6
Continuous
370
     0
100
AcDbEllipse
 10
0.2936541043237428
 20
0.2327993464792484
 30
0.0
 11
-0.0000079877339528
 21
-0.0003273416208063
 31
0.0
210
0.0
220
0.0
230
0.9999999999999998
 40
0.8808331180767863
 41
0.0
 42
6.283185307179586
  0
LWPOLYLINE
  5
3C00
330
2
100
AcDbEntity
  8
Profilo
  6
Continuous
370
     0
100
AcDbPolyline
 90
       53
 70
   129
 43
0.0
 10
0.2927994271361052
 20
0.2325678121167711
 10
0.2927484867967971
 20
0.2327364378118474
 10
0.2927484867967971
 20
0.2328541977800454
 10
0.2928034664075272
 20
0.2329758829318634
 10
0.2928309567876319
 20
0.2330857921611879
 10
0.2928505921986819
 20
0.2332192532354994
 10
0.292933062189517
 20
0.2332506558193599
 10
0.2929762607835131
 20
0.2332231784191193
 10
0.2929958967693027
 20
0.2333016850645847
 10
0.2930705123658221
 20
0.2333723409711779
 10
0.2932197441336009
 20
0.2335018768618695
 10
0.2933611209323239
 20
0.2335843086909548
 10
0.2934632269089485
 20
0.2336314127525596
 10
0.293518207094418
 20
0.2336157112748139
 10
0.293526060913994
 20
0.2335568312907156
 10
0.2935692595079908
 20
0.2335568312907156
 10
0.2936360212849345
 20
0.2335568312907156
 10
0.293639948482092
 20
0.2336039353523204
 10
0.2937224184729275
 20
0.233611786091194
 10
0.2938873584545976
 20
0.2335686072132076
 10
0.2940051726451138
 20
0.2334351461388961
 10
0.2940601528305835
 20
0.2333801917100501
 10
0.2941779670211
 20
0.2333605650486844
 10
0.2942486559952011
 20
0.2333566394934308
 10
0.2942565098147769
 20
0.233282058403219
 10
0.2943507613970853
 20
0.2332742076643455
 10
0.2944175231740289
 20
0.2332035517577537
 10
0.2945353373645454
 20
0.233042613283203
 10
0.2945628271699101
 20
0.232920928131385
 10
0.2945471189560189
 20
0.2327521392895931
 10
0.2945314101673875
 20
0.2326854085666212
 10
0.2945274829702293
 20
0.2325166193531969
 10
0.2945039203620221
 20
0.2323517556950263
 10
0.2944410857822364
 20
0.2322261449879547
 10
0.2943821789743481
 20
0.2321829664816021
 10
0.2942957817863552
 20
0.2321711905591086
 10
0.2941936758097308
 20
0.2321711905591086
 10
0.2940837154387907
 20
0.2321476387141216
 10
0.2939541202315412
 20
0.2320769828075298
 10
0.2938323782691279
 20
0.2320141772681779
 10
0.2936595838931419
 20
0.2319552976557119
 10
0.2935731867051488
 20
0.2319121187777269
 10
0.293537842505468
 20
0.2319081935941056
 10
0.2934553725146325
 20
0.231986700239571
 10
0.293365048129482
 20
0.2320652068850364
 10
0.2932982869272778
 20
0.2321044598361367
 10
0.2932158169364429
 20
0.2321201613138824
 10
0.2931412007651837
 20
0.2321240864975038
 10
0.2930312409689835
 20
0.2321358627916296
 10
0.2929448437809905
 20
0.2321711905591086
 10
0.292874155381629
 20
0.2322300705432084
 10
0.2927799037993197
 20
0.2323556808786463
 10
0.2927799037993197
 20
0.23249306750821
  0
LWPOLYLINE
  5
3C01
330
2
100
AcDbEntity
  8
Profilo
  6
Continuous
370
     0
100
AcDbPolyline
 90
        4
 70
   128
 43
0.0
 10
0.2935692595079908
 20
0.233164298435021
 10
0.2934946439114712
 20
0.233282058403219
 10
0.2934867895171558
 20
0.2334351461388961
 10
0.2935142798972607
 20
0.2335332794457286
  0
LWPOLYLINE
  5
3C02
330
2
100
AcDbEntity
  8
Profilo
  6
Continuous
370
     0
100
AcDbPolyline
 90
        5
 70
   128
 43
0.0
 10
0.2936320940877766
 20
0.2331603732514011
 10
0.2936046042824112
 20
0.2332585065582321
 10
0.2936006770852537
 20
0.2333801917100501
 10
0.293612458101987
 20
0.2335097276007416
 10
0.2936320940877766
 20
0.233548980551842
  0
LWPOLYLINE
  5
3C03
330
2
100
AcDbEntity
  8
Profilo
  6
Continuous
370
     0
100
AcDbPolyline
 90
        3
 70
   128
 43
0.0
 10
0.2939816100369066
 20
0.2329758829318634
 10
0.2941269140327878
 20
0.2331211199286684
 10
0.2942329472065694
 20
0.2332545810029798
  0
LWPOLYLINE
  5
3C04
330
2
100
AcDbEntity
  8
Profilo
  6
Continuous
370
     0
100
AcDbPolyline
 90
        6
 70
   128
 43
0.0
 10
0.2938795040602822
 20
0.232512694169577
 10
0.2938598686492328
 20
0.2324184864179982
 10
0.2939069944403869
 20
0.2323596064338999
 10
0.2940130270394292
 20
0.2322771746048132
 10
0.2941229874103692
 20
0.232249697204574
 10
0.29415833161005
 20
0.2321947424040956
  0
LWPOLYLINE
  5
3C05
330
2
100
AcDbEntity
  8
Profilo
  6
Continuous
370
     0
100
AcDbPolyline
 90
        6
 70
   128
 43
0.0
 10
0.2938952128489136
 20
0.2320652068850364
 10
0.2937970340694471
 20
0.2321397879752495
 10
0.2937263456700849
 20
0.2322104438818413
 10
0.2936870742732467
 20
0.2322810997884345
 10
0.2936792198789306
 20
0.2324027849402525
 10
0.2936792198789306
 20
0.2324695156632244
  0
LWPOLYLINE
  5
3C06
330
2
100
AcDbEntity
  8
Profilo
  6
Continuous
370
     0
100
AcDbPolyline
 90
        5
 70
   128
 43
0.0
 10
0.2932315251503341
 20
0.2321319372363759
 10
0.2933729025237974
 20
0.2321711905591086
 10
0.2934475181203171
 20
0.2322536223881939
 10
0.2934946439114712
 20
0.2323399797725329
 10
0.293518207094418
 20
0.2324616649243508
  0
LWPOLYLINE
  5
3C07
330
2
100
AcDbEntity
  8
Profilo
  6
Continuous
370
     0
100
AcDbPolyline
 90
        6
 70
   128
 43
0.0
 10
0.2928191751961586
 20
0.2325440967534361
 10
0.2929644797667799
 20
0.2324538141854773
 10
0.29312941974845
 20
0.2324420382629852
 10
0.2932158169364429
 20
0.2325166193531969
 10
0.2932865053358045
 20
0.2325872752597902
 10
0.2933454127184321
 20
0.2326147526600294
  0
LWPOLYLINE
  5
3C08
330
2
100
AcDbEntity
  8
Profilo
  6
Continuous
370
     0
100
AcDbPolyline
 90
       10
 70
   128
 43
0.0
 10
0.2929134267784677
 20
0.232536246014564
 10
0.293015532180352
 20
0.2325009182470835
 10
0.2931215653541346
 20
0.2325323208309427
 10
0.2932040353449694
 20
0.2325833500761688
 10
0.2932079625421275
 20
0.2326932593054948
 10
0.2932079625421275
 20
0.2328384963022983
 10
0.2931922537534961
 20
0.2329680321929898
 10
0.2931490551594991
 20
0.2330072855157225
 10
0.2930665851686642
 20
0.2330975680836814
 10
0.2929801879806713
 20
0.2332035517577537
  0
LWPOLYLINE
  5
3C09
330
2
100
AcDbEntity
  8
Profilo
  6
Continuous
370
     0
100
AcDbPolyline
 90
        4
 70
   128
 43
0.0
 10
0.2932354523474923
 20
0.2329876588543569
 10
0.2933218495354852
 20
0.2330386880995831
 10
0.2933729025237974
 20
0.2331014932673013
 10
0.2934632269089485
 20
0.2331289706675405
  0
LWPOLYLINE
  5
3C0A
330
2
100
AcDbEntity
  8
Profilo
  6
Continuous
370
     0
100
AcDbPolyline
 90
        7
 70
   128
 43
0.0
 10
0.2894619986649745
 20
0.2327679455677354
 10
0.290111335685105
 20
0.2328340151562954
 10
0.2906245846622932
 20
0.2327990370951013
 10
0.2912155976607089
 20
0.2327562863378815
 10
0.2918688233704303
 20
0.2327368540403696
 10
0.2924520601391451
 20
0.2327368540403696
 10
0.2927436790982421
 20
0.2327407405741979
  0
LWPOLYLINE
  5
3C0B
330
2
100
AcDbEntity
  8
Profilo
  6
Continuous
370
     0
100
AcDbPolyline
 90
        3
 70
   128
 43
0.0
 10
0.2895514281802329
 20
0.2322549342513056
 10
0.2900607884678303
 20
0.2322937988463294
 10
0.2904807192401699
 20
0.2322665938527918
  0
LWPOLYLINE
  5
3C0C
330
2
100
AcDbEntity
  8
Profilo
  6
Continuous
370
     0
100
AcDbPolyline
 90
        2
 70
   128
 43
0.0
 10
0.2896447463850813
 20
0.2318818351796536
 10
0.2901424417533882
 20
0.2319051540109938
  0
LWPOLYLINE
  5
3C0D
330
2
100
AcDbEntity
  8
Profilo
  6
Continuous
370
     0
100
AcDbPolyline
 90
       10
 70
   128
 43
0.0
 10
0.2900988011844741
 20
0.2319193206460638
 10
0.2901293882627032
 20
0.2320446678656139
 10
0.2901018599497704
 20
0.2321669580353201
 10
0.2900835079327288
 20
0.2322709044194283
 10
0.2900926842286198
 20
0.2323779085966463
 10
0.290107977480365
 20
0.232622488564425
 10
0.2901263294974066
 20
0.2328395535970727
 10
0.2901416227491511
 20
0.2330933058292842
 10
0.2901783267832352
 20
0.233454061495449
 10
0.2901752680179386
 20
0.2336222103858872
  0
LWPOLYLINE
  5
3C0E
330
2
100
AcDbEntity
  8
Profilo
  6
Continuous
370
     0
100
AcDbPolyline
 90
        7
 70
   128
 43
0.0
 10
0.2945477419739781
 20
0.2327293931441033
 10
0.2953078802093991
 20
0.2327777432898485
 10
0.2960334668113449
 20
0.2328606288823507
 10
0.2967659629353492
 20
0.2329435148464838
 10
0.2971736735897361
 20
0.2329573291738398
 10
0.2978025148133143
 20
0.2329366076828065
 10
0.2979459733196479
 20
0.2323801618051561
  0
LWPOLYLINE
  5
3C0F
330
2
100
AcDbEntity
  8
Profilo
  6
Continuous
370
     0
100
AcDbPolyline
 90
        6
 70
   128
 43
0.0
 10
0.2955208718880664
 20
0.2320240567494664
 10
0.2952708307566867
 20
0.2321033014572932
 10
0.2949720011118666
 20
0.2321703543857381
 10
0.2952525350641466
 20
0.2322313117961229
 10
0.295752617326906
 20
0.232273981909067
 10
0.2959843627657457
 20
0.2322922692065091
  0
LWPOLYLINE
  5
3C10
330
2
100
AcDbEntity
  8
Profilo
  6
Continuous
370
     0
100
AcDbPolyline
 90
        3
 70
   128
 43
0.0
 10
0.2967344855851459
 20
0.2323532266168939
 10
0.2970272166657859
 20
0.2323532266168939
 10
0.2971552865135658
 20
0.2323532266168939
  0
LWPOLYLINE
  5
3C11
330
2
100
AcDbEntity
  8
Profilo
  6
Continuous
370
     0
100
AcDbPolyline
 90
        7
 70
   128
 43
0.0
 10
0.2971247936926653
 20
0.2323958967298366
 10
0.2971308922568456
 20
0.2325909607403772
 10
0.297173582206105
 20
0.2327982157870337
 10
0.2971796807702853
 20
0.2329871839078819
 10
0.2971796807702853
 20
0.2331334815441536
 10
0.297210173591185
 20
0.2334870345987155
 10
0.2972467649762651
 20
0.2336760023479313
  0
LWPOLYLINE
  5
3C12
330
2
100
AcDbEntity
  8
Profilo
  6
Continuous
370
     0
100
AcDbPolyline
 90
        7
 70
   128
 43
0.0
 10
0.2975455940463456
 20
0.2323410352091428
 10
0.2976187768165055
 20
0.2325970562584358
 10
0.297734649535925
 20
0.232773832971533
 10
0.2978017337419048
 20
0.2328713646051695
 10
0.2978139308702652
 20
0.2329688966104398
 10
0.2978932122046047
 20
0.2330481413182666
 10
0.2980029863598448
 20
0.2335784707142934
  0
LWPOLYLINE
  5
3C13
330
2
100
AcDbEntity
  8
Profilo
  6
Continuous
370
     0
100
AcDbPolyline
 90
       18
 70
   128
 43
0.0
 10
0.2920337932385708
 20
0.2309252561878153
 10
0.2920337932385708
 20
0.2312773479829572
 10
0.2919660521049823
 20
0.2315211040412421
 10
0.2917560542460131
 20
0.2318393408489341
 10
0.2915054113620465
 20
0.2321101807485262
 10
0.291214123453083
 20
0.2322659137651171
 10
0.2909363844605246
 20
0.2322997687525656
 10
0.2905841293014355
 20
0.2322726845396274
 10
0.2903673575590029
 20
0.2321643488027703
 10
0.2902047780337542
 20
0.2320018446400367
 10
0.2901505852418311
 20
0.2318190277821386
 10
0.2901641335834968
 20
0.2315075621205891
 10
0.2902183263754197
 20
0.2312299510748544
 10
0.2904012281257977
 20
0.2309997373088549
 10
0.2906315482098955
 20
0.2310065080833652
 10
0.2909092877771935
 20
0.2309929661627122
 10
0.2910989634110337
 20
0.2310335922963048
 10
0.2911938012279542
 20
0.2312299510748544
  0
LWPOLYLINE
  5
3C14
330
2
100
AcDbEntity
  8
Profilo
  6
Continuous
370
     0
100
AcDbPolyline
 90
        5
 70
   128
 43
0.0
 10
0.2916408936292236
 20
0.2309658823214064
 10
0.2915934747207638
 20
0.231236722220997
 10
0.2914715407952522
 20
0.2314466229202011
 10
0.2913496062950005
 20
0.2316023559367919
 10
0.2912208979112856
 20
0.2317377758865873
  0
LWPOLYLINE
  5
3C15
330
2
100
AcDbEntity
  8
Profilo
  6
Continuous
370
     0
100
AcDbPolyline
 90
       16
 70
   128
 43
0.0
 10
0.2903063903088772
 20
0.2313721421707924
 10
0.2904689692593865
 20
0.2312434929955073
 10
0.2907196121433531
 20
0.2311960960874059
 10
0.2909363844605246
 20
0.2312908899036102
 10
0.2910244478192425
 20
0.2314533940663437
 10
0.2909838033689847
 20
0.2316226690035889
 10
0.2909228361188589
 20
0.2314466229202011
 10
0.2907873532769416
 20
0.2313112029704057
 10
0.2906450965515612
 20
0.2313247448910586
 10
0.2904960659427176
 20
0.2314195390788952
 10
0.2904215503509264
 20
0.2315685009493435
 10
0.2904354837682683
 20
0.2317421050348542
 10
0.2905705815345094
 20
0.231873195836384
 10
0.2908212244184753
 20
0.2318935089031796
 10
0.290997351710651
 20
0.2317919439408327
 10
0.2910989634110337
 20
0.2316903789784859
  0
LWPOLYLINE
  5
3C16
330
2
100
AcDbEntity
  8
Profilo
  6
Continuous
370
     0
100
AcDbPolyline
 90
        5
 70
   128
 43
0.0
 10
0.2917560542460131
 20
0.231886737757037
 10
0.2919050848548559
 20
0.2319883027193838
 10
0.2921218571720283
 20
0.2320830965355866
 10
0.2923725000559949
 20
0.2321575776566276
 10
0.292684110190087
 20
0.2321711195772806
  0
LWPOLYLINE
  5
3C17
330
2
100
AcDbEntity
  8
Profilo
  6
Continuous
370
     0
100
AcDbPolyline
 90
        2
 70
   128
 43
0.0
 10
0.2914579924535865
 20
0.2321711195772806
 10
0.2921150832885653
 20
0.2321711195772806
  0
LWPOLYLINE
  5
3C18
330
2
100
AcDbEntity
  8
Profilo
  6
Continuous
370
     0
100
AcDbPolyline
 90
        2
 70
   128
 43
0.0
 10
0.2919728265631847
 20
0.2315955847906493
 10
0.2923521778308662
 20
0.2320221577068323
  0
LWPOLYLINE
  5
3C19
330
2
100
AcDbEntity
  8
Profilo
  6
Continuous
370
     0
100
AcDbPolyline
 90
        6
 70
   128
 43
0.0
 10
0.2920473415802365
 20
0.2313315160372013
 10
0.2921692760804882
 20
0.2316362109242418
 10
0.2923250811475342
 20
0.2318325697027915
 10
0.292535079006504
 20
0.2320018446400367
 10
0.2927112062986788
 20
0.2320898676817293
 10
0.2929279786158505
 20
0.2321440357359747
  0
LWPOLYLINE
  5
3C1A
330
2
100
AcDbEntity
  8
Profilo
  6
Continuous
370
     0
100
AcDbPolyline
 90
        4
 70
   128
 43
0.0
 10
0.2923183066893318
 20
0.2308778592797124
 10
0.2924199189644547
 20
0.2312299510748544
 10
0.2925960462566295
 20
0.2314533940663437
 10
0.2927247546403444
 20
0.2315143328950994
  0
LWPOLYLINE
  5
3C1B
330
2
100
AcDbEntity
  8
Profilo
  6
Continuous
370
     0
100
AcDbPolyline
 90
       23
 70
   128
 43
0.0
 10
0.2928873335908535
 20
0.2310335922963048
 10
0.2927721735488042
 20
0.231182554166753
 10
0.2927383029820101
 20
0.2313518291039968
 10
0.2927383029820101
 20
0.2315143328950994
 10
0.2927748518363438
 20
0.231681566826053
 10
0.2928602374822617
 20
0.2317716308740372
 10
0.2930024942076423
 20
0.2318190277821386
 10
0.2931312175345924
 20
0.231784765113717
 10
0.2931786214998171
 20
0.2316971497529962
 10
0.2931582992746884
 20
0.2315143328950994
 10
0.2931041059080253
 20
0.2313789129453027
 10
0.2930024942076423
 20
0.2313044321958954
 10
0.2928805597073905
 20
0.2313044321958954
 10
0.2928060441155986
 20
0.2313721421707924
 10
0.2928602374822617
 20
0.2312164091542015
 10
0.292968623640848
 20
0.2311757830206104
 10
0.2931108803662286
 20
0.2312164091542015
 10
0.2932395887499426
 20
0.2313179741165483
 10
0.2933412004503262
 20
0.2314398521456908
 10
0.2933682971336575
 20
0.2316023559367919
 10
0.2933479749085288
 20
0.2318325697027915
 10
0.2932531370916089
 20
0.2319612188780765
 10
0.2931447509330227
 20
0.2320221577068323
  0
LWPOLYLINE
  5
3C1C
330
2
100
AcDbEntity
  8
Profilo
  6
Continuous
370
     0
100
AcDbPolyline
 90
        3
 70
   128
 43
0.0
 10
0.2935986177924954
 20
0.2313179741165483
 10
0.2935918433342928
 20
0.2316632947655477
 10
0.2935647466509608
 20
0.2318596539157311
  0
LWPOLYLINE
  5
3C1D
330
2
100
AcDbEntity
  8
Profilo
  6
Continuous
370
     0
100
AcDbPolyline
 90
        7
 70
   128
 43
0.0
 10
0.2951994342778728
 20
0.230863306889995
 10
0.2951927270642281
 20
0.2315001803820691
 10
0.295112242799455
 20
0.2317281138103765
 10
0.2948976177102325
 20
0.2319426398490363
 10
0.2947299419670417
 20
0.232070014324472
 10
0.2945220240914639
 20
0.2321370538741418
 10
0.2943543477735326
 20
0.2321638693967045
  0
LWPOLYLINE
  5
3C1E
330
2
100
AcDbEntity
  8
Profilo
  6
Continuous
370
     0
100
AcDbPolyline
 90
        4
 70
   128
 43
0.0
 10
0.2949043249238772
 20
0.2309102344261119
 10
0.2948640827914901
 20
0.2312119112847298
 10
0.2947768913130724
 20
0.2313862136679147
 10
0.294642750488624
 20
0.2315337001569033
  0
LWPOLYLINE
  5
3C1F
330
2
100
AcDbEntity
  8
Profilo
  6
Continuous
370
     0
100
AcDbPolyline
 90
       13
 70
   128
 43
0.0
 10
0.2944214181857576
 20
0.2313862136679147
 10
0.2942872779360486
 20
0.2313057663569636
 10
0.2941128949792131
 20
0.2313057663569636
 10
0.2939921680073134
 20
0.2314197330711166
 10
0.2939452192360223
 20
0.2315806276930203
 10
0.2939921680073134
 20
0.2317884494794071
 10
0.2941330160454065
 20
0.2318823045516395
 10
0.2943141056411464
 20
0.2318688964187259
 10
0.2945153168778192
 20
0.2317750413464934
 10
0.2945890939289486
 20
0.2315873315736609
 10
0.294609214995142
 20
0.2313862136679147
 10
0.294568972862755
 20
0.2311582798679736
 10
0.2945019030252702
 20
0.2310443131538192
  0
LWPOLYLINE
  5
3C20
330
2
100
AcDbEntity
  8
Profilo
  6
Continuous
370
     0
100
AcDbPolyline
 90
        9
 70
   128
 43
0.0
 10
0.2944147115468525
 20
0.2313459900124385
 10
0.2943543477735326
 20
0.2312588388208467
 10
0.2942202075238243
 20
0.2312186151653704
 10
0.2940726528468263
 20
0.231252134940206
 10
0.2939250981698287
 20
0.2313661016543604
 10
0.2938714416101533
 20
0.231513588143349
 10
0.2938781488237974
 20
0.2317214099297359
 10
0.2939385120223776
 20
0.2318286727632496
 10
0.2940458245669888
 20
0.2318823045516395
  0
LWPOLYLINE
  5
3C21
330
2
100
AcDbEntity
  8
Profilo
  6
Continuous
370
     0
100
AcDbPolyline
 90
        5
 70
   129
 43
0.0
 10
0.2938647343965088
 20
0.2310979445705768
 10
0.2935964533223514
 20
0.2313057663569636
 10
0.2933080511819996
 20
0.2310979445705768
 10
0.2935495039763198
 20
0.230863306889995
 10
0.2936299882410929
 20
0.230863306889995
  0
LWPOLYLINE
  5
3C22
330
2
100
AcDbEntity
  8
Profilo
  6
Continuous
370
     0
100
AcDbPolyline
 90
       49
 70
   128
 43
0.0
 10
0.2923288244279514
 20
0.2295694482639262
 10
0.2925300350898845
 20
0.2297906781832267
 10
0.2926977108330762
 20
0.2298711251225455
 10
0.2927781950978494
 20
0.2298912371360998
 10
0.2927849023114939
 20
0.2299381646722153
 10
0.2929056287086533
 20
0.2299984999696135
 10
0.2929995274007156
 20
0.2300387236250883
 10
0.2930263556805537
 20
0.2301124666837679
 10
0.2930129412532645
 20
0.2302197295172816
 10
0.2929525780546849
 20
0.2302733609340378
 10
0.2928922148561044
 20
0.2303068807088734
 10
0.2927849023114939
 20
0.2303068807088734
 10
0.2928251444438801
 20
0.2303538082449889
 10
0.2929458714157798
 20
0.2304007357811058
 10
0.2930665978129399
 20
0.2304744792114163
 10
0.2931470820777138
 20
0.2305884459255707
 10
0.2932074452762934
 20
0.2307895638313169
 10
0.2931470820777138
 20
0.2309638658428681
 10
0.2930531839603909
 20
0.2310174972596243
 10
0.2928653865762671
 20
0.2310174972596243
 10
0.29270441804672
 20
0.23089012278419
 10
0.2925702772222716
 20
0.230628669581047
 10
0.2925367423035292
 20
0.2304945908533383
 10
0.2924763791049494
 20
0.2304409594365807
 10
0.2924428436114668
 20
0.2304275516753008
 10
0.292422722545274
 20
0.2306420773423269
 10
0.2923757731992425
 20
0.2308029715925982
 10
0.292275167868276
 20
0.2308834189035493
 10
0.2921209059776339
 20
0.2309035305454713
 10
0.2920203006466673
 20
0.2308297874867917
 10
0.2920001795804738
 20
0.2307024126397251
 10
0.2920001795804738
 20
0.2305482222700944
 10
0.2919264019546051
 20
0.2305281106281739
 10
0.2919062808884123
 20
0.2304476633172213
 10
0.2919867657279249
 20
0.2302532492921158
 10
0.2920001795804738
 20
0.230045427505729
 10
0.2920135934330228
 20
0.2299046448973811
 10
0.291953230234443
 20
0.2298510134806235
 10
0.2919062808884123
 20
0.2300387236250883
 10
0.2918928670358627
 20
0.2302666570533971
 10
0.2918392110509276
 20
0.2303605121256296
 10
0.291859332117121
 20
0.2305951498062114
 10
0.2918727459696699
 20
0.2308029715925982
 10
0.2917654334250586
 20
0.2309169383067512
 10
0.2916178787480605
 20
0.2309370503203055
 10
0.2914971523509004
 20
0.2309370503203055
 10
0.2914569102185143
 20
0.2308364913674324
 10
0.2913630115264518
 20
0.2309102344261119
 10
0.2911483864372302
 20
0.2309839778564224
  0
LWPOLYLINE
  5
3C23
330
2
100
AcDbEntity
  8
Profilo
  6
Continuous
370
     0
100
AcDbPolyline
 90
       35
 70
   128
 43
0.0
 10
0.2904441479709832
 20
0.2309705697235088
 10
0.2903368354263727
 20
0.2308566030093543
 10
0.2902898860803413
 20
0.2306420773423269
 10
0.2903368354263727
 20
0.2303940319004652
 10
0.2904106130522417
 20
0.2302800651863108
 10
0.2906721869127546
 20
0.2303068807088734
 10
0.2908398626559454
 20
0.2302867690669514
 10
0.2910477811062628
 20
0.2301258748166815
 10
0.2911819213559725
 20
0.2299247569109354
 10
0.2911819213559725
 20
0.2297504545277504
 10
0.291322769394065
 20
0.229783974302586
 10
0.2914837379236119
 20
0.2297571584083911
 10
0.2915038589898053
 20
0.2296096719194025
 10
0.2915038589898053
 20
0.22951581684717
 10
0.2916178787480605
 20
0.229522521099443
 10
0.2916715347329963
 20
0.2294353699078512
 10
0.2916513343527087
 20
0.2292723056947749
 10
0.2916647482052577
 20
0.2291583386089882
 10
0.2917251119785775
 20
0.2291516347283475
 10
0.291731818617482
 20
0.2290577796561151
 10
0.2916915764850949
 20
0.2289773327167949
 10
0.2916848692714511
 20
0.228957220703242
 10
0.2917787679635127
 20
0.2289237013000387
 10
0.2918190100958997
 20
0.228836550108447
 10
0.2917988890297061
 20
0.2287493989168552
 10
0.2917116975512883
 20
0.228575096905304
 10
0.2917787679635127
 20
0.2285147612362734
 10
0.2917787679635127
 20
0.2284209065356733
 10
0.2917586468973199
 20
0.2283605708666442
 10
0.291845838375737
 20
0.2283471631053628
 10
0.2918659594419304
 20
0.2282935316886053
 10
0.2918525455893814
 20
0.228139341318976
 10
0.2917653541109637
 20
0.227991854829986
 10
0.2918055962433508
 20
0.2279047036383942
 10
0.2918190100958997
 20
0.2277974408048805
  0
LWPOLYLINE
  5
3C24
330
2
100
AcDbEntity
  8
Profilo
  6
Continuous
370
     0
100
AcDbPolyline
 90
        8
 70
   128
 43
0.0
 10
0.2912354986015531
 20
0.2278510722216381
 10
0.2912958618001327
 20
0.2280387823661029
 10
0.2913830532785504
 20
0.2281862688550915
 10
0.2914568303296798
 20
0.2281862688550915
 10
0.2914635375433243
 20
0.2281460451996167
 10
0.2915239007419041
 20
0.2282331963912084
 10
0.2916110922203219
 20
0.2282868278079646
 10
0.291718404764933
 20
0.2283203475828002
  0
LWPOLYLINE
  5
3C25
330
2
100
AcDbEntity
  8
Profilo
  6
Continuous
370
     0
100
AcDbPolyline
 90
        9
 70
   128
 43
0.0
 10
0.2911483071231353
 20
0.228139341318976
 10
0.2911550137620396
 20
0.2283873867608377
 10
0.2912019631080711
 20
0.2285683930246633
 10
0.291248912454102
 20
0.2286823597388163
 10
0.291329396718875
 20
0.2287292872749332
 10
0.2913897599174555
 20
0.2286689519775364
 10
0.291409880983649
 20
0.2287762148110501
 10
0.2915037796757105
 20
0.2288432539890876
 10
0.2916446271390642
 20
0.2289102931671251
  0
LWPOLYLINE
  5
3C26
330
2
100
AcDbEntity
  8
Profilo
  6
Continuous
370
     0
100
AcDbPolyline
 90
        9
 70
   128
 43
0.0
 10
0.2910611156447176
 20
0.228816438466525
 10
0.2910611156447176
 20
0.2290443718948338
 10
0.2910745294972665
 20
0.2292320820392987
 10
0.2911281860569419
 20
0.2293058250979768
 10
0.2912354986015531
 20
0.2293125289786174
 10
0.2912556196677465
 20
0.2293125289786174
 10
0.2912556196677465
 20
0.2294063840508499
 10
0.2913897599174555
 20
0.2295002391230823
 10
0.2914769513958733
 20
0.229506943003723
  0
LWPOLYLINE
  5
3C27
330
2
100
AcDbEntity
  8
Profilo
  6
Continuous
370
     0
100
AcDbPolyline
 90
        5
 70
   128
 43
0.0
 10
0.2904843107892754
 20
0.2297549884455861
 10
0.290497724641825
 20
0.2299628102319715
 10
0.2905916233338865
 20
0.2300968889596802
 10
0.2907592990770782
 20
0.2302041517931939
 10
0.2908464905554953
 20
0.2302242638067482
  0
LWPOLYLINE
  5
3C28
330
2
100
AcDbEntity
  8
Profilo
  6
Continuous
370
     0
100
AcDbPolyline
 90
        3
 70
   128
 43
0.0
 10
0.2902160291403784
 20
0.2297818043397796
 10
0.2902026152878294
 20
0.2300298497816427
 10
0.290262978486409
 20
0.2301706320183583
  0
LWPOLYLINE
  5
3C29
330
2
100
AcDbEntity
  8
Profilo
  6
Continuous
370
     0
100
AcDbPolyline
 90
        4
 70
   128
 43
0.0
 10
0.290182494221636
 20
0.2303650460434638
 10
0.2901020099568627
 20
0.2304857170098912
 10
0.2900550606108312
 20
0.2306332034988812
 10
0.2900550606108312
 20
0.2307136504382
  0
LWPOLYLINE
  5
3C2A
330
2
100
AcDbEntity
  8
Profilo
  6
Continuous
370
     0
100
AcDbPolyline
 90
        6
 70
   128
 43
0.0
 10
0.2899410408525762
 20
0.2304253817124944
 10
0.289860556587803
 20
0.2305862759627643
 10
0.2898739704403519
 20
0.2308276175239867
 10
0.2900081112648005
 20
0.2308544330465479
 10
0.2900617678244759
 20
0.2309415842381397
 10
0.2902830995526024
 20
0.2309616958800617
  0
LWPOLYLINE
  5
3C2B
330
2
100
AcDbEntity
  8
Profilo
  6
Continuous
370
     0
100
AcDbPolyline
 90
        5
 70
   128
 43
0.0
 10
0.2899812829849624
 20
0.2309415842381397
 10
0.2898136072417714
 20
0.2311561099051672
 10
0.2897398301906429
 20
0.231363931691554
 10
0.2897062946971603
 20
0.2316119771334171
 10
0.2897599512568356
 20
0.2318265028004432
  0
LWPOLYLINE
  5
3C2C
330
2
100
AcDbEntity
  8
Profilo
  6
Continuous
370
     0
100
AcDbPolyline
 90
        6
 70
   128
 43
0.0
 10
0.2909554393843608
 20
0.2278636029299604
 10
0.2908417920575055
 20
0.2288007596583681
 10
0.2907754981187716
 20
0.2293403349020834
 10
0.2906523796545004
 20
0.2294633958378212
 10
0.290519791202293
 20
0.2294160647086911
 10
0.2905008500769399
 20
0.2291604766113891
  0
LWPOLYLINE
  5
3C2D
330
2
100
AcDbEntity
  8
Profilo
  6
Continuous
370
     0
100
AcDbPolyline
 90
        2
 70
   128
 43
0.0
 10
0.291823261446313
 20
0.2294940261691194
 10
0.2915412245494169
 20
0.2297173546977645
  0
LWPOLYLINE
  5
3C2E
330
2
100
AcDbEntity
  8
Profilo
  6
Continuous
370
     0
100
AcDbPolyline
 90
       19
 70
   128
 43
0.0
 10
0.2920126772977576
 20
0.2277919019924709
 10
0.2919610438222315
 20
0.22849231797136
 10
0.2919167865574956
 20
0.2288240937266464
 10
0.2919094103467061
 20
0.2290895144795271
 10
0.2919610438222315
 20
0.229133751395551
 10
0.2918716441934437
 20
0.2292409045974451
 10
0.2918208958172337
 20
0.2293844265097575
 10
0.2918577768711801
 20
0.2295687466215596
 10
0.2920053010869681
 20
0.2296498472626381
 10
0.2921980326124065
 20
0.2296505135999069
 10
0.292303201952246
 20
0.2295707664447916
 10
0.2923593592048577
 20
0.2294581543314989
 10
0.2923667354156472
 20
0.2292664617719921
 10
0.2922929733077539
 20
0.2291116329375384
 10
0.2923519829940688
 20
0.22900104101911
 10
0.2923962402588047
 20
0.2287135018082167
 10
0.2923888640480152
 20
0.2283964716916073
 10
0.2923667354156472
 20
0.2280794412033642
 10
0.2923593592048577
 20
0.2277919019924709
  0
LWPOLYLINE
  5
3C2F
330
2
100
AcDbEntity
  8
Profilo
  6
Continuous
370
     0
100
AcDbPolyline
 90
        2
 70
   128
 43
0.0
 10
0.2919731874997888
 20
0.2291321589498195
 10
0.2922741896611101
 20
0.2291212842364046
  0
LINE
  5
3C30
330
2
100
AcDbEntity
  8
Profilo
  6
Continuous
370
     0
100
AcDbLine
 10
0.2921450651657695
 20
0.2278434689900833
 30
0.0
 11
0.2921055684709233
 21
0.2288914435895449
 31
0.0
  0
LINE
  5
3C31
330
2
100
AcDbEntity
  8
Profilo
  6
Continuous
370
     0
100
AcDbLine
 10
0.2921055684709233
 20
0.2288914435895449
 30
0.0
 11
0.2921378837917772
 21
0.2289129774694628
 31
0.0
  0
LINE
  5
3C32
330
2
100
AcDbEntity
  8
Profilo
  6
Continuous
370
     0
100
AcDbLine
 10
0.2921378837917772
 20
0.2289129774694628
 30
0.0
 11
0.2921737900869978
 21
0.2288950324456535
 31
0.0
  0
LINE
  5
3C33
330
2
100
AcDbEntity
  8
Profilo
  6
Continuous
370
     0
100
AcDbLine
 10
0.2921737900869978
 20
0.2288950324456535
 30
0.0
 11
0.2921737900869978
 21
0.227847057846192
 31
0.0
  0
LWPOLYLINE
  5
3C34
330
2
100
AcDbEntity
  8
Profilo
  6
Continuous
370
     0
100
AcDbPolyline
 90
       53
 70
   128
 43
0.0
 10
0.2924393365491143
 20
0.2277999682782577
 10
0.2924335914499203
 20
0.2279664957356203
 10
0.2925025314907643
 20
0.2280411459494984
 10
0.2925542362340268
 20
0.228092826666689
 10
0.2925370015111861
 20
0.2281559923180395
 10
0.2925370015111861
 20
0.2282536120286038
 10
0.2925542362340268
 20
0.2283110352128744
 10
0.2925484911348335
 20
0.228448851078103
 10
0.2925427460356398
 20
0.2286096360683856
 10
0.2925944513536423
 20
0.2287359673710866
 10
0.2926059409772899
 20
0.2287531944006942
 10
0.2926231762748701
 20
0.2289139793909782
 10
0.2926921157409739
 20
0.2289714025752473
 10
0.292663390819746
 20
0.2292642613353123
 10
0.2927265857613954
 20
0.2293331694537414
 10
0.292818505624274
 20
0.229344654016269
 10
0.292818505624274
 20
0.2296432548717802
 10
0.292893190189571
 20
0.2297753282699289
 10
0.2930310696965188
 20
0.2298672055134147
 10
0.2932723592647308
 20
0.2299016595726299
 10
0.2933757687512562
 20
0.2297810707370089
 10
0.2934447087920995
 20
0.2296719664639155
 10
0.2935825882990473
 20
0.2296547394343078
 10
0.2936802532611191
 20
0.2297581016119536
 10
0.2937894078468377
 20
0.2298844325430223
 10
0.293892817333363
 20
0.2298729479804947
 10
0.293898562432557
 20
0.2297581016119536
 10
0.2938755826105224
 20
0.2297121629902107
 10
0.2940077170182762
 20
0.2298040402336965
 10
0.2941341069015757
 20
0.2298442363883594
 10
0.2942490065864882
 20
0.2297810707370089
 10
0.2943236911517859
 20
0.2296719664639155
 10
0.2943753958950481
 20
0.2294824698814977
 10
0.2943811409942421
 20
0.2293791080754842
 10
0.2944558261342793
 20
0.2293791080754842
 10
0.2945075308775416
 20
0.2292700038023923
 10
0.2945649807199979
 20
0.2291551570622189
 10
0.2945075308775416
 20
0.2290805068483407
 10
0.2945305106995761
 20
0.2290001145390149
 10
0.2946051952648738
 20
0.228948433450192
 10
0.2945879605420325
 20
0.2288622986737876
 10
0.2945132759767355
 20
0.2287991330224371
 10
0.2945247656003831
 20
0.2287646789632219
 10
0.2946051952648738
 20
0.2286957712164237
 10
0.2945937056412264
 20
0.2285579553511964
 10
0.2945477454224177
 20
0.2284086545518078
 10
0.2945420008979633
 20
0.2283454892720896
 10
0.2946109403640671
 20
0.22822490043647
 10
0.2945534905216107
 20
0.2281100536962966
 10
0.2945017857783485
 20
0.2280296610153385
 10
0.2945764703436453
 20
0.2280009494232032
 10
0.2945707258191919
 20
0.2278861030546621
 10
0.2945305106995761
 20
0.2277999682782577
  0
LWPOLYLINE
  5
3C35
330
2
100
AcDbEntity
  8
Profilo
  6
Continuous
370
     0
100
AcDbPolyline
 90
        5
 70
   128
 43
0.0
 10
0.2934217289700656
 20
0.2278057103737054
 10
0.2934791788125219
 20
0.2293733656084043
 10
0.2933527889292216
 20
0.2294422733552024
 10
0.2932895939875722
 20
0.229631770309254
 10
0.2932493794426962
 20
0.2297868132040889
  0
LWPOLYLINE
  5
3C36
330
2
100
AcDbEntity
  8
Profilo
  6
Continuous
370
     0
100
AcDbPolyline
 90
        6
 70
   128
 43
0.0
 10
0.2936802532611191
 20
0.2277942258111778
 10
0.2936572734390845
 20
0.2293733656084043
 10
0.2937147232815407
 20
0.2294422733552024
 10
0.2937951529460314
 20
0.2294595003848101
 10
0.2937951529460314
 20
0.2295858316875111
 10
0.2938353674909069
 20
0.2296949359606031
  0
LWPOLYLINE
  5
3C37
330
2
100
AcDbEntity
  8
Profilo
  6
Continuous
370
     0
100
AcDbPolyline
 90
        6
 70
   128
 43
0.0
 10
0.293898562432557
 20
0.2286670592526561
 10
0.293892817333363
 20
0.2289714025752473
 10
0.2939502671758192
 20
0.2291379300326112
 10
0.2940077170182762
 20
0.2292068381510417
 10
0.2941628318228035
 20
0.2292814883649199
 10
0.2942604962101358
 20
0.2293503961117167
  0
LWPOLYLINE
  5
3C38
330
2
100
AcDbEntity
  8
Profilo
  6
Continuous
370
     0
100
AcDbPolyline
 90
        8
 70
   128
 43
0.0
 10
0.293898562432557
 20
0.2279148146467974
 10
0.2939272873537846
 20
0.2283167776799543
 10
0.2939847371962416
 20
0.2284660781077107
 10
0.2940938917819602
 20
0.2285636974466441
 10
0.2941455965252233
 20
0.2285694399137241
 10
0.294243261487295
 20
0.2286555746901285
 10
0.2943466709738205
 20
0.228718740341479
 10
0.2944673157579267
 20
0.2287302249040066
  0
LWPOLYLINE
  5
3C39
330
2
100
AcDbEntity
  8
Profilo
  6
Continuous
370
     0
100
AcDbPolyline
 90
        4
 70
   128
 43
0.0
 10
0.2941341069015757
 20
0.2278516489954469
 10
0.2941915567440321
 20
0.2279837223935956
 10
0.2943409264493661
 20
0.2280526305120261
 10
0.2944271012130508
 20
0.2280526305120261
  0
LWPOLYLINE
  5
3C3A
330
2
100
AcDbEntity
  8
Profilo
  6
Continuous
370
     0
100
AcDbPolyline
 90
        5
 70
   128
 43
0.0
 10
0.2931172444602028
 20
0.2278114528407854
 10
0.2930368147957119
 20
0.2280009494232032
 10
0.2929276602099926
 20
0.2280755996370813
 10
0.292818505624274
 20
0.2281043116008489
 10
0.2926231762748701
 20
0.228092826666689
  0
LWPOLYLINE
  5
3C3B
330
2
100
AcDbEntity
  8
Profilo
  6
Continuous
370
     0
100
AcDbPolyline
 90
       13
 70
   128
 43
0.0
 10
0.2932493794426962
 20
0.2281272807259042
 10
0.2931976746994338
 20
0.2282478695615238
 10
0.2931976746994338
 20
0.2284029124563601
 10
0.2931861845010462
 20
0.2285062742623736
 10
0.2930770299153276
 20
0.228621121002547
 10
0.2929851100524496
 20
0.228621121002547
 10
0.2929391504083805
 20
0.2285407283215888
 10
0.2929276602099926
 20
0.2286498325946808
 10
0.2929161700116056
 20
0.228724482808559
 10
0.2928587201691493
 20
0.2287417098381666
 10
0.2927897807030455
 20
0.228724482808559
 10
0.292743820484237
 20
0.2288221021474924
 10
0.2927093510385548
 20
0.2288737832363153
  0
LWPOLYLINE
  5
3C3C
330
2
100
AcDbEntity
  8
Profilo
  6
Continuous
370
     0
100
AcDbPolyline
 90
       11
 70
   128
 43
0.0
 10
0.2932723592647308
 20
0.2287359673710866
 10
0.2932608690663436
 20
0.2288967523613706
 10
0.2932551245418902
 20
0.2290977338779483
 10
0.2932263996206616
 20
0.2291953535885141
 10
0.2931057548365552
 20
0.2292240651806494
 10
0.2930310696965188
 20
0.2291781265589065
 10
0.2930138349736773
 20
0.2291494149667712
 10
0.2930425598949058
 20
0.2292700038023923
 10
0.2930138349736773
 20
0.2293101999570537
 10
0.2929448949328341
 20
0.229338911549189
 10
0.2928644652683432
 20
0.229338911549189
  0
LWPOLYLINE
  5
3C3D
330
2
100
AcDbEntity
  8
Profilo
  6
Continuous
370
     0
100
AcDbPolyline
 90
        4
 70
   128
 43
0.0
 10
0.29353235891289
 20
0.2308234671310045
 10
0.2935120780690286
 20
0.2302660141289833
 10
0.2936692515915746
 20
0.2302660141289833
 10
0.2936692515915746
 20
0.2308488057855768
  0
LWPOLYLINE
  5
3C3E
330
2
100
AcDbEntity
  8
Profilo
  6
Continuous
370
     0
100
AcDbPolyline
 90
       23
 70
   128
 43
0.0
 10
0.29469612542579
 20
0.2278395757668675
 10
0.294676045740863
 20
0.228386489639719
 10
0.2947262446658103
 20
0.2288079644997665
 10
0.2947864831458498
 20
0.2290237195274655
 10
0.2948668013108169
 20
0.2291692289309721
 10
0.2948250510611545
 20
0.229226662149324
 10
0.2947781580396254
 20
0.2293154704507201
 10
0.2947806265471322
 20
0.2294832190928388
 10
0.2948447950980289
 20
0.2296040970586289
 10
0.2949237723950071
 20
0.2296756370791996
 10
0.2950323660346663
 20
0.2296879715655037
 10
0.2951607042859394
 20
0.2296657694901554
 10
0.2952421495156843
 20
0.2296040970586289
 10
0.29528410609694
 20
0.2295103549627099
 10
0.2952939784027473
 20
0.2293894769969184
 10
0.2952692979255993
 20
0.229271066300022
 10
0.2952224049040704
 20
0.22919459248493
 10
0.2951360238087917
 20
0.2291501883342319
 10
0.2951532740496079
 20
0.2289030578518534
 10
0.2951429936785319
 20
0.2287403604401617
 10
0.2950962414682572
 20
0.2284114053763829
 10
0.2950874686397165
 20
0.2281746549644168
 10
0.2950874686397165
 20
0.2278151450107585
  0
LWPOLYLINE
  5
3C3F
330
2
100
AcDbEntity
  8
Profilo
  6
Continuous
370
     0
100
AcDbPolyline
 90
        8
 70
   128
 43
0.0
 10
0.2948769265021427
 20
0.2278414506533806
 10
0.2948462227517305
 20
0.2284157895262751
 10
0.2948769265021427
 20
0.2288016051225539
 10
0.294903244413024
 20
0.228854216407798
 10
0.294942720991977
 20
0.2288235262436514
 10
0.2948988579987537
 20
0.228433326497479
 10
0.2949076308272944
 20
0.2281088908578609
 10
0.2949295623239061
 20
0.2278677562960026
  0
LWPOLYLINE
  5
3C40
330
2
100
AcDbEntity
  8
Profilo
  6
Continuous
370
     0
100
AcDbPolyline
 90
        2
 70
   128
 43
0.0
 10
0.2948900857449532
 20
0.2291742675258901
 10
0.2951094001363281
 20
0.229152346404794
  0
LWPOLYLINE
  5
3C41
330
2
100
AcDbEntity
  8
Profilo
  6
Continuous
370
     0
100
AcDbPolyline
 90
       65
 70
   128
 43
0.0
 10
0.294770414570094
 20
0.2296096826967484
 10
0.2944397282467925
 20
0.2298615176763277
 10
0.2942271440586546
 20
0.2300031747362069
 10
0.2941956500409966
 20
0.2300582636960569
 10
0.2942271440586546
 20
0.2301369621039497
 10
0.2943452467685583
 20
0.2302077904480725
 10
0.2943688668507465
 20
0.2302943589197326
 10
0.2943216261116292
 20
0.2303415778158153
 10
0.2942113973371954
 20
0.2303809270197603
 10
0.2940460538881746
 20
0.230404536839434
 10
0.2939515724099402
 20
0.2305068446953668
 10
0.2938964577353531
 20
0.2307429399190425
 10
0.293975192492129
 20
0.2309475560025404
 10
0.2941011685627617
 20
0.2309947748986217
 10
0.294274385372512
 20
0.2309554256946767
 10
0.2943373728330885
 20
0.2309790351427181
 10
0.2944161075898644
 20
0.2310498638584732
 10
0.2944941382903659
 20
0.2310322804331931
 10
0.2945754294898402
 20
0.2309587651853049
 10
0.2946180108132752
 20
0.2308078648791649
 10
0.2946373657512944
 20
0.2306724419563095
 10
0.2946141399406188
 20
0.2305331495947242
 10
0.2946489789440023
 20
0.2305215420218032
 10
0.2947109152054568
 20
0.2306608343833871
 10
0.2947573674015473
 20
0.2307923882391477
 10
0.294819304237742
 20
0.2308233418908158
 10
0.294892853117164
 20
0.2308426879695616
 10
0.2949896289567413
 20
0.2308813804986868
 10
0.2950631784109037
 20
0.2308542959141149
 10
0.2950980174142865
 20
0.2307885188004191
 10
0.2951251146723579
 20
0.2306647034504833
 10
0.2951018882869427
 20
0.230540888100549
 10
0.2951405987377216
 20
0.2305718421238494
 10
0.2952102773192273
 20
0.2306376188659128
 10
0.2952683421332864
 20
0.2306144037200709
 10
0.2952838261986501
 20
0.2304905879985028
 10
0.2952141481918837
 20
0.2303822496602179
 10
0.2951143549682762
 20
0.230156652686125
 10
0.2951041062078894
 20
0.2300917734368126
 10
0.2951211874752
 20
0.2300064060817447
 10
0.2951655987702069
 20
0.229972259362698
 10
0.2951929293726432
 20
0.2300473826648882
 10
0.2952646712700864
 20
0.2302556790261163
 10
0.2953124988185551
 20
0.2304708048798076
 10
0.2953364125927893
 20
0.230607392870894
 10
0.2953295800858649
 20
0.2307917865659532
 10
0.2954081544902325
 20
0.2309147155721148
 10
0.2955960501548647
 20
0.2310683771085421
 10
0.2957122033473149
 20
0.2311025238275888
 10
0.2957771127378337
 20
0.2310991092671741
 10
0.2957805289912956
 20
0.2310171564725223
 10
0.2958693521560491
 20
0.2310649621764937
 10
0.2960872521127387
 20
0.2311330370946151
 10
0.2962506454695657
 20
0.2311373350257425
 10
0.2963409422672059
 20
0.2310513782613568
 10
0.2963452418957637
 20
0.2309353363507113
 10
0.2963753410198906
 20
0.2309138470667064
 10
0.2964785367032043
 20
0.2310470803302294
 10
0.2966548300951859
 20
0.2310642716831068
 10
0.2968354225409855
 20
0.2310255910462245
 10
0.2969429184275982
 20
0.2309439322129662
 10
0.2970375148537956
 20
0.2307935075965672
 10
0.2970676139779222
 20
0.2306774656859232
 10
0.2970160155615256
 20
0.2304926583637694
 10
0.2969386187990397
 20
0.2303379361878753
  0
LWPOLYLINE
  5
3C42
330
2
100
AcDbEntity
  8
Profilo
  6
Continuous
370
     0
100
AcDbPolyline
 90
        6
 70
   128
 43
0.0
 10
0.2952917828966528
 20
0.229585813477513
 10
0.2954164784469768
 20
0.2297491315156619
 10
0.2955540728829762
 20
0.2298393862111751
 10
0.2956357698487595
 20
0.2299296409066868
 10
0.2958120626660012
 20
0.2300284914644549
 10
0.2959238581811712
 20
0.2300413848862049
  0
LWPOLYLINE
  5
3C43
330
2
100
AcDbEntity
  8
Profilo
  6
Continuous
370
     0
100
AcDbPolyline
 90
        6
 70
   128
 43
0.0
 10
0.2956357698487595
 20
0.2300972568759632
 10
0.2957432657353716
 20
0.2302605749141121
 10
0.2959453574734419
 20
0.2303981061087611
 10
0.2961173506621251
 20
0.2304453822362659
 10
0.296254945672864
 20
0.2304281908833885
 10
0.2963710408165925
 20
0.2303594254718802
  0
LWPOLYLINE
  5
3C44
330
2
100
AcDbEntity
  8
Profilo
  6
Continuous
370
     0
100
AcDbPolyline
 90
       18
 70
   128
 43
0.0
 10
0.2952066558836515
 20
0.2315153965076262
 10
0.295281069171756
 20
0.2316912021447165
 10
0.2954197492912656
 20
0.2318737692654991
 10
0.295555047066963
 20
0.2320022422869285
 10
0.2957512281807724
 20
0.2321340964218364
 10
0.2959169676255258
 20
0.2322287609098921
 10
0.2960725600388401
 20
0.232292997606423
 10
0.296275506415016
 20
0.2323403298504515
 10
0.2964615404973871
 20
0.2323403298504515
 10
0.2966746339050013
 20
0.2323200446561002
 10
0.2968336086621286
 20
0.2322287609098921
 10
0.2969621411754597
 20
0.2320766215806343
 10
0.2970602320197344
 20
0.23193800596203
 10
0.2970636143635474
 20
0.2317351532752638
 10
0.2970534673321092
 20
0.2314984920551239
 10
0.296968906437826
 20
0.2312584500931378
 10
0.2968843455435428
 20
0.2310792637142014
 10
0.2968369910059416
 20
0.2310488359226752
  0
LWPOLYLINE
  5
3C45
330
2
100
AcDbEntity
  8
Profilo
  6
Continuous
370
     0
100
AcDbPolyline
 90
        6
 70
   128
 43
0.0
 10
0.2955753417045808
 20
0.2310826448276813
 10
0.2955821063922059
 20
0.2312685926903128
 10
0.2956632849426761
 20
0.2314342557302267
 10
0.2957647581307641
 20
0.2315863950594845
 10
0.2959271152317045
 20
0.2317081062255851
 10
0.2960793247264661
 20
0.2318095325689696
  0
LWPOLYLINE
  5
3C46
330
2
100
AcDbEntity
  8
Profilo
  6
Continuous
370
     0
100
AcDbPolyline
 90
       29
 70
   128
 43
0.0
 10
0.2964818351350049
 20
0.2317148680809139
 10
0.2963668319969253
 20
0.231772342922116
 10
0.2963059480840722
 20
0.2317047254837376
 10
0.2962585941212113
 20
0.2315593480098072
 10
0.2962890357902681
 20
0.2314207320195705
 10
0.29638374429073
 20
0.2313328293868422
 10
0.2965122768040609
 20
0.2313294486449961
 10
0.2966272799421405
 20
0.231407208680548
 10
0.2967050761487977
 20
0.2315187772494737
 10
0.2967625777178371
 20
0.2316878210312352
 10
0.2967355178178537
 20
0.2318331988767993
 10
0.2966712515611882
 20
0.2318906737180028
 10
0.2965968376983441
 20
0.23193800596203
 10
0.2964310982535907
 20
0.2319582911563798
 10
0.296278888758829
 20
0.2318872926045215
 10
0.296174033226928
 20
0.2317047254837376
 10
0.2961232963455147
 20
0.2315525861544798
 10
0.2961300616078803
 20
0.2313801616308708
 10
0.2962213871897896
 20
0.2312178797044367
 10
0.2963702143407383
 20
0.2311536430079058
 10
0.2965325714416787
 20
0.2311739282022571
 10
0.2966644868735622
 20
0.2312618308349854
 10
0.2967964017307063
 20
0.2314038275670682
 10
0.2968877278873558
 20
0.2316100609956819
 10
0.2969046401811597
 20
0.2318129133108171
 10
0.2968674332497381
 20
0.2319177207676801
 10
0.2967828723554548
 20
0.2319751956088836
 10
0.2966543392673835
 20
0.2319954808032334
 10
0.2965968376983441
 20
0.2319920996897536
  0
LWPOLYLINE
  5
3C47
330
2
100
AcDbEntity
  8
Profilo
  6
Continuous
370
     0
100
AcDbPolyline
 90
        7
 70
   128
 43
0.0
 10
0.2970124717158244
 20
0.2320598453413807
 10
0.2970697853449444
 20
0.2322412551982196
 10
0.2971700849143291
 20
0.2323510555391905
 10
0.2972703839089748
 20
0.2323606035241908
 10
0.2974566536346694
 20
0.2323462815466896
 10
0.29753307161525
 20
0.2322698987815868
 10
0.2977336696045401
 20
0.2317781831285727
  0
LWPOLYLINE
  5
3C48
330
2
100
AcDbEntity
  8
Profilo
  6
Continuous
370
     0
100
AcDbPolyline
 90
       11
 70
   128
 43
0.0
 10
0.2971270995488042
 20
0.2319070794395428
 10
0.297308592611895
 20
0.2318927578336754
 10
0.2974232204448748
 20
0.2318306966744401
 10
0.2974709818982648
 20
0.23170180036347
 10
0.2975044150880601
 20
0.231515616885764
 10
0.2974614297225344
 20
0.2313342070289265
 10
0.2973468018895546
 20
0.2311289279528522
 10
0.2972608311585043
 20
0.2310239012327499
 10
0.2971700849143291
 20
0.2309809356718815
 10
0.2970650092570794
 20
0.2309809356718815
 10
0.2969360537352446
 20
0.2310286752252494
  0
LWPOLYLINE
  5
3C49
330
2
100
AcDbEntity
  8
Profilo
  6
Continuous
370
     0
100
AcDbPolyline
 90
        6
 70
   128
 43
0.0
 10
0.2975617287171801
 20
0.2303794196778965
 10
0.2974757579861298
 20
0.2306085687164709
 10
0.29738023507935
 20
0.230756560625808
 10
0.2972847121725695
 20
0.2308424917475434
 10
0.2972273985434492
 20
0.2308854569367795
 10
0.2971891892657894
 20
0.2309427444751463
  0
LWPOLYLINE
  5
3C4A
330
2
100
AcDbEntity
  8
Profilo
  6
Continuous
370
     0
100
AcDbPolyline
 90
        7
 70
   128
 43
0.0
 10
0.2976620277118252
 20
0.2306276646864702
 10
0.29753307161525
 20
0.2308663613384112
 10
0.2975091911759244
 20
0.2310859623919852
 10
0.2975378477031152
 20
0.231286467847191
 10
0.2975903852443702
 20
0.231472651324897
 10
0.2975903852443702
 20
0.2316301912192343
 10
0.2975569526293151
 20
0.231754313537705
  0
LWPOLYLINE
  5
3C4B
330
2
100
AcDbEntity
  8
Profilo
  6
Continuous
370
     0
100
AcDbPolyline
 90
        3
 70
   128
 43
0.0
 10
0.2970519592148337
 20
0.230252293824678
 10
0.2971430503028978
 20
0.2304236800067755
 10
0.2972073498944725
 20
0.2306807590941061
  0
LWPOLYLINE
  5
3C4C
330
2
100
AcDbEntity
  8
Profilo
  6
Continuous
370
     0
100
AcDbPolyline
 90
        3
 70
   128
 43
0.0
 10
0.2971644835000895
 20
0.2301398214452461
 10
0.297303799281835
 20
0.2303486986682429
 10
0.297373457172708
 20
0.2305629311171415
  0
LWPOLYLINE
  5
3C4D
330
2
100
AcDbEntity
  8
Profilo
  6
Continuous
370
     0
100
AcDbPolyline
 90
       48
 70
   128
 43
0.0
 10
0.2973359490776226
 20
0.2296470864039832
 10
0.2972127081937708
 20
0.2299898587681795
 10
0.2970948256092165
 20
0.2301987356195453
 10
0.2969823013239605
 20
0.2302844285247771
 10
0.2968429855422152
 20
0.2303272751632106
 10
0.2967518944541505
 20
0.2303219195656765
 10
0.2966286535702987
 20
0.2303219195656765
 10
0.2965322041829361
 20
0.2303701218016427
 10
0.2963982472752287
 20
0.2302737169580779
 10
0.2962589314934834
 20
0.2301666005478125
 10
0.2962267816976956
 20
0.2300166378707458
 10
0.2962107067998021
 20
0.2299309445938817
 10
0.2961410489089291
 20
0.2299845027990144
 10
0.2960553161201625
 20
0.2300648401067135
 10
0.2959856582292895
 20
0.2300434169733122
 10
0.295969583331396
 20
0.2299363005630467
 10
0.2959749416306936
 20
0.2298024050502149
 10
0.2959427918349065
 20
0.2297327793092164
 10
0.2958463424475441
 20
0.2298077610193814
 10
0.295674876870011
 20
0.2298131166169155
 10
0.2956373687749256
 20
0.2297595584117828
 10
0.2956212938770322
 20
0.2295988837963846
 10
0.2955945023805422
 20
0.2295024793244521
 10
0.2954766197959886
 20
0.2294971233552856
 10
0.2954419951705562
 20
0.2294587240442893
 10
0.2954327591017247
 20
0.2293904090515027
 10
0.2954530784531544
 20
0.2292630111632135
 10
0.2954918699422473
 20
0.2291522300837868
 10
0.2954715505908176
 20
0.2291282274484458
 10
0.2954235230328928
 20
0.2291577692678302
 10
0.2953810376910071
 20
0.229142998358138
 10
0.2953550157711307
 20
0.2290353389926294
 10
0.2953450681744074
 20
0.2288431135119608
 10
0.2953815417378254
 20
0.2287436865520163
 10
0.2954113833785146
 20
0.2286674591293447
 10
0.2953085951857297
 20
0.228664144909733
 10
0.295258858351594
 20
0.228591232078304
 10
0.2952986475890065
 20
0.2284454056721812
 10
0.2953550157711307
 20
0.2284188919152981
 10
0.2953351211524244
 20
0.2283592355906776
 10
0.2952787529703003
 20
0.2283161507357433
 10
0.2952686507685671
 20
0.2282455052348637
 10
0.2952752826912957
 20
0.2281493924945294
 10
0.2953150713539678
 20
0.2280797935110782
 10
0.2953548605913803
 20
0.2280367086561426
 10
0.2952885453872733
 20
0.2279803665511337
 10
0.2952752826912957
 20
0.2278975110608726
 10
0.2953150713539678
 20
0.2278345405166418
  0
LWPOLYLINE
  5
3C4E
330
2
100
AcDbEntity
  8
Profilo
  6
Continuous
370
     0
100
AcDbPolyline
 90
        2
 70
   128
 43
0.0
 10
0.2953150713539678
 20
0.2278345405166418
 10
0.29604785542262
 20
0.2278080267597587
  0
LWPOLYLINE
  5
3C4F
330
2
100
AcDbEntity
  8
Profilo
  6
Continuous
370
     0
100
AcDbPolyline
 90
       11
 70
   128
 43
0.0
 10
0.2960544873453488
 20
0.2278179694185908
 10
0.296037908400637
 20
0.2279770523315221
 10
0.2959749088705246
 20
0.2281096214875716
 10
0.2958853833737167
 20
0.2281991057886855
 10
0.2958157519208755
 20
0.2282421910152535
 10
0.2957593843134909
 20
0.2282123626671264
 10
0.2957428053687794
 20
0.2282653905525264
 10
0.2957129631533506
 20
0.2283117896270723
 10
0.2956002273638427
 20
0.2283383037555878
 10
0.2955239645630123
 20
0.228341617975198
 10
0.2954012817515215
 20
0.2283714459516914
  0
LWPOLYLINE
  5
3C50
330
2
100
AcDbEntity
  8
Profilo
  6
Continuous
370
     0
100
AcDbPolyline
 90
        9
 70
   128
 43
0.0
 10
0.2961009079307495
 20
0.2284112165870169
 10
0.2960677500413262
 20
0.2286498411422314
 10
0.2959948034892308
 20
0.2288354381836796
 10
0.2959251720363889
 20
0.2289481220220664
 10
0.2958455941363043
 20
0.2288984087279103
 10
0.2957560680647569
 20
0.2289613789005073
 10
0.2956731739159382
 20
0.2290906338369466
 10
0.295583648419131
 20
0.2291370332831248
 10
0.2955405435077241
 20
0.2291403475027351
  0
LWPOLYLINE
  5
3C51
330
2
100
AcDbEntity
  8
Profilo
  6
Continuous
370
     0
100
AcDbPolyline
 90
       10
 70
   128
 43
0.0
 10
0.296256990022387
 20
0.2290358291760412
 10
0.2962337797296863
 20
0.2292877109813303
 10
0.2962205164589691
 20
0.229469993431536
 10
0.2961873585695458
 20
0.2295395924149871
 10
0.2961442536581389
 20
0.2295893057091432
 10
0.296087886050755
 20
0.2295760488307009
 10
0.2960646757580543
 20
0.2295495350738178
 10
0.29603814921662
 20
0.2295462208542076
 10
0.2960182545979137
 20
0.229629076716101
 10
0.2959850972832301
 20
0.2297019895475301
  0
LWPOLYLINE
  5
3C52
330
2
100
AcDbEntity
  8
Profilo
  6
Continuous
370
     0
100
AcDbPolyline
 90
        6
 70
   128
 43
0.0
 10
0.2966416185510519
 20
0.2297450747740981
 10
0.2967609862632885
 20
0.2298610728320951
 10
0.2968239857934016
 20
0.2299870135489228
 10
0.2968538274340908
 20
0.2301129542657505
 10
0.2968074068486894
 20
0.2302289523237476
 10
0.2967477229925714
 20
0.2302952370875885
  0
LWPOLYLINE
  5
3C53
330
2
100
AcDbEntity
  8
Profilo
  6
Continuous
370
     0
100
AcDbPolyline
 90
        5
 70
   128
 43
0.0
 10
0.2966383028770574
 20
0.2295959341483637
 10
0.296502356220109
 20
0.2296423335945419
 10
0.2963531468671834
 20
0.2297218748651928
 10
0.2962934630110647
 20
0.2298179876055271
 10
0.2962603056963815
 20
0.2298942150281987
  0
LWPOLYLINE
  5
3C54
330
2
100
AcDbEntity
  8
Profilo
  6
Continuous
370
     0
100
AcDbPolyline
 90
        7
 70
   128
 43
0.0
 10
0.2963564625411779
 20
0.2301328395834132
 10
0.2964691989054253
 20
0.2300665551912046
 10
0.2965719876729502
 20
0.2298411875144324
 10
0.2966747764404751
 20
0.2299107861262512
 10
0.2967311440478597
 20
0.2300665551912046
 10
0.296684723462459
 20
0.2302123812256965
 10
0.2966051449876341
 20
0.2302852944287578
  0
LWPOLYLINE
  5
3C55
330
2
100
AcDbEntity
  8
Profilo
  6
Continuous
370
     0
100
AcDbPolyline
 90
        4
 70
   128
 43
0.0
 10
0.2964540280732615
 20
0.2278727517815382
 10
0.296508281212865
 20
0.2285443461650401
 10
0.2965249745308001
 20
0.2289322860133153
 10
0.2966167880668125
 20
0.2294328532118199
  0
LWPOLYLINE
  5
3C56
330
2
100
AcDbEntity
  8
Profilo
  6
Continuous
370
     0
100
AcDbPolyline
 90
        3
 70
   128
 43
0.0
 10
0.2967294675318188
 20
0.2286486311064549
 10
0.2966919077101495
 20
0.2290615992960737
 10
0.2967586809818898
 20
0.2293452538313004
  0
LWPOLYLINE
  5
3C57
330
2
100
AcDbEntity
  8
Profilo
  6
Continuous
370
     0
100
AcDbPolyline
 90
        3
 70
   128
 43
0.0
 10
0.2968760554964469
 20
0.2296685872085987
 10
0.2970056995565806
 20
0.2299159752323759
 10
0.2970056995565806
 20
0.2301044609740969
  0
LWPOLYLINE
  5
3C58
330
2
100
AcDbEntity
  8
Profilo
  6
Continuous
370
     0
100
AcDbPolyline
 90
        3
 70
   128
 43
0.0
 10
0.2969290913371219
 20
0.2295154426131318
 10
0.2970705215866482
 20
0.229721599113796
 10
0.2971412364240409
 20
0.2299159752323759
  0
LWPOLYLINE
  5
3C59
330
2
100
AcDbEntity
  8
Profilo
  6
Continuous
370
     0
100
AcDbPolyline
 90
        3
 70
   128
 43
0.0
 10
0.2969526631411663
 20
0.2290029965499015
 10
0.2968996267257511
 20
0.2292857253482992
 10
0.296817126273706
 20
0.2294153095512299
  0
TEXT
  5
3C6E
330
2
100
AcDbEntity
  8
Text
100
AcDbText
 10
0.184348982201479
 20
0.0708732342005391
 30
0.0
 40
0.005
  1
scala 1:4
  7
Arial
100
AcDbText
  0
TEXT
  5
3C6F
330
2
100
AcDbEntity
  8
Text
100
AcDbText
 10
0.3293900362899167
 20
0.0708732342005391
 30
0.0
 40
0.005
  1
scala 1:20
  7
Arial
100
AcDbText
  0
DIMENSION
  5
3C85
102
{ACAD_XDICTIONARY
360
3C93
102
}
102
{ACAD_REACTORS
330
3C9E
102
}
330
2
100
AcDbEntity
  8
Dimensione
100
AcDbDimension
  2
*D31
 10
0.1482028375528861
 20
0.2418531104127908
 30
0.0
 11
0.1267220562150966
 21
0.2418531104127908
 31
0.0
 70
    32
  1
175 mm
 71
     5
 42
0.042961562675579
  3
Bovelacci
100
AcDbAlignedDimension
 13
0.1052412748773072
 23
0.2327142558416337
 33
0.0
 14
0.1482028375528861
 24
0.2333947801851064
 34
0.0
100
AcDbRotatedDimension
  0
LINE
  5
3CC9
330
2
100
AcDbEntity
  8
Profilo
  6
Continuous
370
     0
100
AcDbLine
 10
0.1129812902223605
 20
0.11513897138944
 30
0.0
 11
0.1164050066809202
 21
0.11513897138944
 31
0.0
  0
LINE
  5
3CCA
330
2
100
AcDbEntity
  8
Profilo
  6
Continuous
370
     0
100
AcDbLine
 10
0.1129812902223605
 20
0.0819951902722647
 30
0.0
 11
0.1164050066809202
 21
0.0819951902722647
 31
0.0
  0
LINE
  5
3CCB
330
2
100
AcDbEntity
  8
Profilo
  6
Continuous
370
     0
100
AcDbLine
 10
0.2908224066582756
 20
0.0862959608301821
 30
0.0
 11
0.2915071499499875
 21
0.0862959608301821
 31
0.0
  0
LINE
  5
3CCC
330
2
100
AcDbEntity
  8
Profilo
  6
Continuous
370
     0
100
AcDbLine
 10
0.2908224066582756
 20
0.079667204606747
 30
0.0
 11
0.2915071499499875
 21
0.079667204606747
 31
0.0
  0
VIEWPORT
  5
7B
102
{ACAD_XDICTIONARY
360
3CD4
102
}
330
79
100
AcDbEntity
 67
     1
  8
0
100
AcDbViewport
 10
145.330337524414
 20
101.8116638660431
 30
0.0
 40
351.1337450215151
 41
222.1517806396485
 68
     1
 69
     1
 12
145.330337524414
 22
101.8116638660431
 13
0.0
 23
0.0
 14
10.0
 24
10.0
 15
10.0
 25
10.0
 16
0.0
 26
0.0
 36
1.0
 17
0.0
 27
0.0
 37
0.0
 42
50.0
 43
0.0
 44
0.0
 45
222.1517806396485
 50
0.0
 51
0.0
 72
  1000
 90
    32800
  1

281
     0
 71
     1
 74
     0
110
0.0
120
0.0
130
0.0
111
1.0
121
0.0
131
0.0
112
0.0
122
1.0
132
0.0
 79
     0
146
0.0
  0
VIEWPORT
  5
80
102
{ACAD_XDICTIONARY
360
3CD6
102
}
330
79
100
AcDbEntity
 67
     1
  8
Sezione
100
AcDbViewport
 10
145.3303314447403
 20
101.8116623163223
 30
0.0
 40
232.5285303115845
 41
162.8986597061157
 68
     2
 69
     2
 12
0.2100067158578973
 22
0.1484909068076998
 13
0.0
 23
0.0
 14
10.0
 24
10.0
 15
10.0
 25
10.0
 16
0.0
 26
0.0
 36
1.0
 17
0.0
 27
0.0
 37
0.0
 42
50.0
 43
0.0
 44
0.0
 45
0.2752830087467564
 50
0.0
 51
0.0
 72
  1000
 90
    32864
  1

281
     0
 71
     1
 74
     0
110
0.0
120
0.0
130
0.0
111
1.0
121
0.0
131
0.0
112
0.0
122
1.0
132
0.0
 79
     0
146
0.0
  0
ENDSEC
  0
SECTION
  2
OBJECTS
  0
DICTIONARY
  5
9
330
0
100
AcDbDictionary
281
     1
  3
ACAD_2007HEADERVARS_RT
350
3CCE
  3
ACAD_COLOR
350
A1
  3
ACAD_GROUP
350
9C
  3
ACAD_LAYOUT
350
78
  3
ACAD_MATERIAL
350
B
  3
ACAD_MLINESTYLE
350
9D
  3
ACAD_PLOTSETTINGS
350
9E
  3
ACAD_PLOTSTYLENAME
350
8
  3
ACAD_TABLESTYLE
350
A2
  3
ACAD_VISUALSTYLE
350
7F
  3
AcDbVariableDictionary
350
A9
  3
AEC_CLASSIFICATION_SYSTEM_DEFS
350
1217
  3
AEC_PROPERTY_SET_DEFS
350
10D
  3
ASE_INDEX_DICTIONARY
350
249E
  3
DWGPROPS
350
3CCD
  0
DICTIONARY
  5
8B
330
8A
100
AcDbDictionary
280
     1
281
     1
  3
ACAD_LAYERFILTERS
360
25D9
  3
ACAD_LAYERSTATES
360
8D
  3
ACLYDICTIONARY
360
25D8
  0
DICTIONARY
  5
3
330
2
100
AcDbDictionary
280
     1
281
     1
  3
ACAD_SORTENTS
360
A8
  0
DICTIONARY
  5
3CE1
330
10F
100
AcDbDictionary
280
     1
281
     1
  3
ACAD_MTEXT_RT
360
3CE2
  0
DICTIONARY
  5
3CE3
330
110
100
AcDbDictionary
280
     1
281
     1
  3
ACAD_MTEXT_RT
360
3CE4
  0
DICTIONARY
  5
39C3
330
39B5
100
AcDbDictionary
280
     1
281
     1
  3
ACAD_DIMASSOC
360
39CE
  0
DICTIONARY
  5
39DE
330
39D0
100
AcDbDictionary
280
     1
281
     1
  3
ACAD_DIMASSOC
360
39E9
  0
DICTIONARY
  5
3C93
330
3C85
100
AcDbDictionary
280
     1
281
     1
  3
ACAD_DIMASSOC
360
3C9E
  0
DICTIONARY
  5
3CD4
330
7B
100
AcDbDictionary
280
     1
281
     1
  3
ACAD_XREC_ROUNDTRIP
360
3CD5
  0
DICTIONARY
  5
3CD6
330
80
100
AcDbDictionary
280
     1
281
     1
  3
ACAD_XREC_ROUNDTRIP
360
3CD7
  0
DICTIONARY
  5
3CCE
102
{ACAD_REACTORS
330
9
102
}
330
9
100
AcDbDictionary
281
     1
  3
DIMFXL
350
3CCF
  0
DICTIONARY
  5
A1
102
{ACAD_REACTORS
330
9
102
}
330
9
100
AcDbDictionary
281
     1
  0
DICTIONARY
  5
9C
102
{ACAD_REACTORS
330
9
102
}
330
9
100
AcDbDictionary
281
     1
  0
DICTIONARY
  5
78
102
{ACAD_REACTORS
330
9
102
}
330
9
100
AcDbDictionary
281
     1
  3
Layout1
350
82
  3
Layout2
350
89
  3
Model
350
77
  0
DICTIONARY
  5
B
102
{ACAD_REACTORS
330
9
102
}
330
9
100
AcDbDictionary
281
     1
  3
ByBlock
350
A0
  3
ByLayer
350
9F
  3
Global
350
A
  0
DICTIONARY
  5
9D
102
{ACAD_REACTORS
330
9
102
}
330
9
100
AcDbDictionary
281
     1
  3
Standard
350
A3
  0
DICTIONARY
  5
9E
102
{ACAD_REACTORS
330
9
102
}
330
9
100
AcDbDictionary
281
     1
  0
ACDBDICTIONARYWDFLT
  5
8
102
{ACAD_REACTORS
330
9
102
}
330
9
100
AcDbDictionary
281
     1
  3
Normal
350
7
100
AcDbDictionaryWithDefault
340
7
  0
DICTIONARY
  5
A2
102
{ACAD_REACTORS
330
9
102
}
330
9
100
AcDbDictionary
281
     1
  3
Standard
350
A4
  0
DICTIONARY
  5
7F
102
{ACAD_REACTORS
330
9
102
}
330
9
100
AcDbDictionary
281
     1
  3
2dWireframe
350
7E
  3
3D Hidden
350
D8
  3
3dWireframe
350
A6
  3
Basic
350
D7
  3
Brighten
350
DB
  3
ColorChange
350
DF
  3
Conceptual
350
D9
  3
Dim
350
DA
  3
Facepattern
350
DE
  3
Flat
350
D3
  3
FlatWithEdges
350
D4
  3
Gouraud
350
D5
  3
GouraudWithEdges
350
D6
  3
Linepattern
350
DD
  3
Realistic
350
A5
  3
Thicken
350
DC
  0
DICTIONARY
  5
A9
102
{ACAD_REACTORS
330
9
102
}
330
9
100
AcDbDictionary
281
     1
  3
CTABLESTYLE
350
AA
  3
DIMASSOC
350
AE
  3
HIDETEXT
350
AD
  3
INDEXCTL
350
AC
  3
PROJECTNAME
350
16A
  3
SORTENTS
350
AB
  0
DICTIONARY
  5
1217
102
{ACAD_REACTORS
330
9
102
}
330
9
100
AcDbDictionary
281
     1
  0
DICTIONARY
  5
10D
102
{ACAD_REACTORS
330
9
102
}
330
9
100
AcDbDictionary
281
     1
  0
DICTIONARY
  5
249E
102
{ACAD_REACTORS
330
9
102
}
330
9
100
AcDbDictionary
281
     1
  3
ASEBlockHierarchyIndexRecord
350
24A0
1001
DCO15
1040
1602050354.187
  0
XRECORD
  5
3CCD
102
{ACAD_REACTORS
330
9
102
}
330
9
100
AcDbXrecord
280
     1
  1
DWGPROPS COOKIE
  2

  3

  4

  6

  7

  8
Simone
  9

300
=
301
=
302
=
303
=
304
=
305
=
306
=
307
=
308
=
309
=
 40
0.4493755555555556
 41
2454297.583735706
 42
2454431.912651181
  1

 90
        0
  0
DICTIONARY
  5
25D9
102
{ACAD_REACTORS
330
8B
102
}
330
8B
100
AcDbDictionary
281
     1
  0
DICTIONARY
  5
8D
102
{ACAD_REACTORS
330
8B
102
}
330
8B
100
AcDbDictionary
281
     1
  0
DICTIONARY
  5
25D8
102
{ACAD_REACTORS
330
8B
102
}
330
8B
100
AcDbDictionary
281
     1
1001
ACAD
1000
<All
  0
SORTENTSTABLE
  5
A8
102
{ACAD_REACTORS
330
3
102
}
330
3
100
AcDbSortentsTable
330
2
331
39B0
  5
37DC
331
22
  5
23
331
3839
  5
3843
331
37FA
  5
3804
331
3841
  5
384B
331
3802
  5
380C
331
3849
  5
3853
331
380A
  5
3814
331
3812
  5
381C
331
3851
  5
385B
331
3859
  5
3863
331
3861
  5
386B
331
3869
  5
3912
331
381A
  5
3824
331
37DB
  5
37DF
331
3822
  5
382C
331
37E3
  5
37EB
331
13
  5
D
331
382A
  5
3834
331
37EB
  5
37F5
331
3832
  5
383C
331
37F3
  5
37FD
331
39A9
  5
37F1
331
39B1
  5
37D8
331
23
  5
24
331
383A
  5
3844
331
37FB
  5
3805
331
3842
  5
384C
331
3803
  5
380D
331
380B
  5
3815
331
384A
  5
3854
331
3813
  5
381D
331
3852
  5
385C
331
385A
  5
3864
331
3862
  5
386C
331
386A
  5
3913
331
381B
  5
3825
331
37DC
  5
37E0
331
3823
  5
382D
331
37E4
  5
37EC
331
14
  5
10
331
382B
  5
3835
331
37EC
  5
37F6
331
3833
  5
383D
331
37F4
  5
37FE
331
39AA
  5
37EE
331
39B2
  5
37D6
331
24
  5
18
331
37FC
  5
3806
331
383B
  5
3845
331
3804
  5
380E
331
3843
  5
384D
331
380C
  5
3816
331
37D5
  5
37D5
331
384B
  5
3855
331
3814
  5
381E
331
3853
  5
385D
331
385B
  5
3865
331
3863
  5
386D
331
386B
  5
3914
331
381C
  5
3826
331
37DD
  5
37E1
331
D
  5
13
331
3824
  5
382E
331
37E5
  5
37ED
331
15
  5
11
331
37ED
  5
37F7
331
1D
  5
1E
331
382C
  5
3836
331
37F5
  5
37FF
331
3834
  5
383E
331
39AB
  5
37EA
331
25
  5
25
331
37FD
  5
3807
331
383C
  5
3846
331
3805
  5
380F
331
3844
  5
384E
331
380D
  5
3817
331
37D6
  5
37D7
331
384C
  5
3856
331
3815
  5
381F
331
3854
  5
385E
331
385C
  5
3866
331
3864
  5
390D
331
386C
  5
3915
331
10F
  5
10F
331
37DE
  5
37E3
331
381D
  5
3827
331
37E6
  5
37EF
331
16
  5
12
331
3825
  5
382F
331
37EE
  5
37F8
331
1E
  5
1F
331
382D
  5
3837
331
37F6
  5
3800
331
3835
  5
383F
331
39AC
  5
37E8
331
37FE
  5
3808
331
383D
  5
3847
331
3806
  5
3810
331
3845
  5
384F
331
384D
  5
3857
331
37D7
  5
37D9
331
380E
  5
3818
331
3816
  5
3820
331
3855
  5
385F
331
385D
  5
3867
331
3865
  5
390E
331
386D
  5
3916
331
110
  5
110
331
37DF
  5
37E5
331
381E
  5
3828
331
37E7
  5
37F0
331
17
  5
17
331
3826
  5
3830
331
37EF
  5
37F9
331
1F
  5
21
331
382E
  5
3838
331
37F7
  5
3801
331
3836
  5
3840
331
39AD
  5
37E4
331
383E
  5
3848
331
37FF
  5
3809
331
3846
  5
3850
331
3807
  5
3811
331
384E
  5
3858
331
380F
  5
3819
331
3817
  5
3821
331
3856
  5
3860
331
385E
  5
3868
331
3866
  5
390F
331
37D8
  5
37DA
331
37E0
  5
37E6
331
10
  5
14
331
381F
  5
3829
331
37E8
  5
37F2
331
3827
  5
3831
331
382F
  5
3839
331
37F0
  5
37FA
331
3837
  5
3841
331
39AE
  5
37E2
331
37F8
  5
3802
331
383F
  5
3849
331
3800
  5
380A
331
3847
  5
3851
331
3808
  5
3812
331
384F
  5
3859
331
3810
  5
381A
331
3857
  5
3861
331
385F
  5
3869
331
3867
  5
3910
331
37D9
  5
37DB
331
3818
  5
3822
331
37E1
  5
37E7
331
11
  5
15
331
3820
  5
382A
331
3828
  5
3832
331
37E9
  5
37F3
331
3830
  5
383A
331
37F1
  5
37FB
331
39AF
  5
37DE
331
21
  5
22
331
3838
  5
3842
331
37F9
  5
3803
331
3840
  5
384A
331
3801
  5
380B
331
3848
  5
3852
331
3809
  5
3813
331
3811
  5
381B
331
3850
  5
385A
331
3858
  5
3862
331
3860
  5
386A
331
3868
  5
3911
331
3819
  5
3823
331
37DA
  5
37DD
331
3821
  5
382B
331
12
  5
16
331
37E2
  5
37E9
331
3829
  5
3833
331
37EA
  5
37F4
331
3831
  5
383B
331
37F2
  5
37FC
  0
XRECORD
  5
3CE2
102
{ACAD_REACTORS
330
3CE1
102
}
330
3CE1
100
AcDbXrecord
280
     1
 40
7955300.0
  1
\pt0.09;{\fTimes New Roman|b0|i0|c238|p18;\H1.6x;\C4;Bovelacci\P\H0.4375x;\T0.95;via del Commercio, 5  47100 Forli - Italy  \fTimes New Roman|b0|i0|c0|p18;\P\fTimes New Roman|b0|i0|c238|p18;tel.+39-0543721386  fax +39-0543721127\fTimes New Roman|b0|i
  1
0|c0|p18; \fTimes New Roman|b0|i0|c238|p18;www.bovelacci.it\fTimes New Roman|b0|i0|c0|p18; \fTimes New Roman|b0|i0|c238|p18;e-mail: bovelacci@bovelacci\fTimes New Roman|b0|i0|c0|p18;.it}
  0
XRECORD
  5
3CE4
102
{ACAD_REACTORS
330
3CE3
102
}
330
3CE3
100
AcDbXrecord
280
     1
 40
21861278.0
  1
{\fArial|b0|i0|c0|p34;\H1.25x;Le caratteristiche tecniche indicate vengono fornite a titolo indicativo e potranno essere modificate senza preavviso. Non devono quindi essere considerate a scopo di specifica.\P\fArial|b0|i1|c0|p34;The given values are
  1
 indicative and can be changed without notice. They cannot be considered like a state.\PThis lealfet and designs embodied within are protected by copyright law and international treaties. Unauthorized repro- duction of the leaflet or any portion of i
  1
t or reproduction of any of the designs embodied therein may result in severe civil penalties and will be prosecuted to the maximum.\PAll right reserved, Bovelacci Forlì Italy.}
  0
DIMASSOC
  5
39CE
102
{ACAD_REACTORS
330
39C3
102
}
330
39C3
100
AcDbDimAssoc
330
39B5
 90
        3
 70
     0
 71
     0
  1
AcDbOsnapPointRef
 72
    13
331
380A
 73
     2
 91
        0
 40
0.0
 10
0.0
 20
0.0
 30
2.000000000000000E+50
 75
     0
  1
AcDbOsnapPointRef
 72
     1
331
380A
 73
     2
 91
        0
 40
1.0
 10
0.0
 20
0.0
 30
2.000000000000000E+50
 75
     0
  0
DIMASSOC
  5
39E9
102
{ACAD_REACTORS
330
39DE
102
}
330
39DE
100
AcDbDimAssoc
330
39D0
 90
        2
 70
     0
 71
     0
  1
AcDbOsnapPointRef
 72
     1
331
3812
 73
     2
 91
        5
 40
1.0
 10
0.0
 20
0.0
 30
2.000000000000000E+50
 75
     0
  0
DIMASSOC
  5
3C9E
102
{ACAD_REACTORS
330
3C93
102
}
330
3C93
100
AcDbDimAssoc
330
3C85
 90
        1
 70
     0
 71
     0
  1
AcDbOsnapPointRef
 72
    13
331
3811
 73
     2
 91
       22
 40
0.339259192747954
 10
0.0
 20
0.0
 30
2.000000000000000E+50
 75
     0
  0
XRECORD
  5
3CD5
102
{ACAD_REACTORS
330
3CD4
102
}
330
3CD4
100
AcDbXrecord
280
     1
102
SHADEPLOT
 70
     0
  0
XRECORD
  5
3CD7
102
{ACAD_REACTORS
330
3CD6
102
}
330
3CD6
100
AcDbXrecord
280
     1
102
SHADEPLOT
 70
     0
  0
XRECORD
  5
3CCF
102
{ACAD_REACTORS
330
3CCE
102
}
330
3CCE
100
AcDbXrecord
280
     1
 40
0.18
  0
LAYOUT
  5
82
102
{ACAD_XDICTIONARY
360
83
102
}
102
{ACAD_REACTORS
330
78
102
}
330
78
100
AcDbPlotSettings
  1

  2
C:\Documents and Settings\All Users\Dati applicazioni\Autodesk\ADT 2006\enu\Plotters\Default Windows System Printer.pc3
  4
A4
  6

 40
3.174999952316281
 41
3.174999952316281
 42
3.175003051757812
 43
3.17498779296875
 44
209.9733276367186
 45
297.0106506347656
 46
0.0
 47
0.0
 48
0.0
 49
0.0
140
0.0
141
0.0
142
1.0
143
1.0
 70
   688
 72
     1
 73
     1
 74
     5
  7

 75
    16
147
1.0
148
0.0
149
0.0
100
AcDbLayout
  1
Layout1
 70
     1
 71
     1
 10
-3.17498779296875
 20
-3.174999952316281
 11
293.8356628417969
 21
206.7983276844024
 12
0.0
 22
0.0
 32
0.0
 14
29.06606628894805
 24
20.36233246326446
 34
0.0
 15
261.5945966005325
 25
183.2609921693802
 35
0.0
146
0.0
 13
0.0
 23
0.0
 33
0.0
 16
1.0
 26
0.0
 36
0.0
 17
0.0
 27
1.0
 37
0.0
 76
     0
330
79
331
7B
1001
ACAD_PSEXT
1000
C:\Documents and Settings\All Users\Dati applicazioni\Autodesk\ADT 2006\enu\Plotters\Default Windows System Printer.pc3
1000
Microsoft Office Document Image Writer Driver
1000
Microsoft Document Imaging Writer Port:
1000

1070
     0
  0
LAYOUT
  5
89
102
{ACAD_XDICTIONARY
360
3CD9
102
}
102
{ACAD_REACTORS
330
78
102
}
330
78
100
AcDbPlotSettings
  1

  2
C:\Documents and Settings\All Users\Dati applicazioni\Autodesk\ADT 2006\enu\Plotters\Default Windows System Printer.pc3
  4

  6

 40
0.0
 41
0.0
 42
0.0
 43
0.0
 44
0.0
 45
0.0
 46
0.0
 47
0.0
 48
0.0
 49
0.0
140
0.0
141
0.0
142
1.0
143
1.0
 70
   688
 72
     0
 73
     0
 74
     5
  7

 75
    16
147
1.0
148
0.0
149
0.0
100
AcDbLayout
  1
Layout2
 70
     1
 71
     2
 10
0.0
 20
0.0
 11
12.0
 21
9.0
 12
0.0
 22
0.0
 32
0.0
 14
0.0
 24
0.0
 34
0.0
 15
0.0
 25
0.0
 35
0.0
146
0.0
 13
0.0
 23
0.0
 33
0.0
 16
1.0
 26
0.0
 36
0.0
 17
0.0
 27
1.0
 37
0.0
 76
     0
330
86
  0
LAYOUT
  5
77
102
{ACAD_XDICTIONARY
360
3CD2
102
}
102
{ACAD_REACTORS
330
78
102
}
330
78
100
AcDbPlotSettings
  1

  2
C:\Documents and Settings\All Users\Dati applicazioni\Autodesk\ADT 2006\enu\Plotters\Default Windows System Printer.pc3
  4

  6

 40
0.0
 41
0.0
 42
0.0
 43
0.0
 44
0.0
 45
0.0
 46
0.0
 47
0.0
 48
0.0
 49
0.0
140
0.0
141
0.0
142
1.0
143
1.0
 70
  1712
 72
     0
 73
     0
 74
     0
  7

 75
     0
147
1.0
148
0.0
149
0.0
100
AcDbLayout
  1
Model
 70
     1
 71
     0
 10
0.0
 20
0.0
 11
12.0
 21
9.0
 12
0.0
 22
0.0
 32
0.0
 14
0.0
 24
0.0
 34
0.0
 15
0.0
 25
0.0
 35
0.0
146
0.0
 13
0.0
 23
0.0
 33
0.0
 16
1.0
 26
0.0
 36
0.0
 17
0.0
 27
1.0
 37
0.0
 76
     0
330
2
331
3CB4
  0
MATERIAL
  5
A0
102
{ACAD_XDICTIONARY
360
3CDD
102
}
102
{ACAD_REACTORS
330
B
102
}
330
B
100
AcDbMaterial
  1
ByBlock
  0
MATERIAL
  5
9F
102
{ACAD_XDICTIONARY
360
3CDB
102
}
102
{ACAD_REACTORS
330
B
102
}
330
B
100
AcDbMaterial
  1
ByLayer
  0
MATERIAL
  5
A
102
{ACAD_XDICTIONARY
360
3CD0
102
}
102
{ACAD_REACTORS
330
B
102
}
330
B
100
AcDbMaterial
  1
Global
  0
MLINESTYLE
  5
A3
102
{ACAD_REACTORS
330
9D
102
}
330
9D
100
AcDbMlineStyle
  2
STANDARD
 70
     0
  3

 62
   256
 51
90.0
 52
90.0
 71
     2
 49
0.5
 62
   256
  6
BYLAYER
 49
-0.5
 62
   256
  6
BYLAYER
  0
ACDBPLACEHOLDER
  5
7
102
{ACAD_REACTORS
330
8
102
}
330
8
  0
TABLESTYLE
  5
A4
102
{ACAD_XDICTIONARY
360
3CDF
102
}
102
{ACAD_REACTORS
330
A2
102
}
330
A2
100
AcDbTableStyle
  3
Standard
 70
     0
 71
     0
 40
1.5
 41
1.5
280
     0
281
     0
  7
Standard
140
4.5
170
     2
 62
     0
 63
     7
283
     0
274
    -2
284
     1
 64
     0
275
    -2
285
     1
 65
     0
276
    -2
286
     1
 66
     0
277
    -2
287
     1
 67
     0
278
    -2
288
     1
 68
     0
279
    -2
289
     1
 69
     0
  7
Standard
140
6.0
170
     5
 62
     0
 63
     7
283
     0
274
    -2
284
     1
 64
     0
275
    -2
285
     1
 65
     0
276
    -2
286
     1
 66
     0
277
    -2
287
     1
 67
     0
278
    -2
288
     1
 68
     0
279
    -2
289
     1
 69
     0
  7
Standard
140
4.5
170
     5
 62
     0
 63
     7
283
     0
274
    -2
284
     1
 64
     0
275
    -2
285
     1
 65
     0
276
    -2
286
     1
 66
     0
277
    -2
287
     1
 67
     0
278
    -2
288
     1
 68
     0
279
    -2
289
     1
 69
     0
  0
VISUALSTYLE
  5
7E
102
{ACAD_REACTORS
330
7F
102
}
330
7F
100
AcDbVisualStyle
  2
2dWireframe
 70
     4
 71
     0
 72
     2
 73
     0
 90
        0
 40
-0.6
 41
-30.0
 62
     5
 63
     7
 74
     1
 91
        4
 64
     7
 65
   257
 75
     1
175
     1
 42
1.0
 92
        0
 66
   257
 43
1.0
 76
     1
 77
     6
 78
     2
 67
     7
 79
     5
170
     0
171
     0
290
     0
174
     0
 93
        1
 44
0.0
173
     0
291
     0
 45
0.0
1001
ACAD
1000
AcDbSavedByObjectVersion
1070
     0
1000
AcDbSavedByObjectVersion
1070
     0
1000
AcDbSavedByObjectVersion
1070
     0
1000
AcDbSavedByObjectVersion
1070
     0
  0
VISUALSTYLE
  5
D8
102
{ACAD_REACTORS
330
7F
102
}
330
7F
100
AcDbVisualStyle
  2
3D Hidden
 70
     6
 71
     1
 72
     2
 73
     2
 90
        0
 40
-0.6
 41
-30.0
 62
     5
 63
     7
 74
     2
 91
        2
 64
     7
 65
   257
 75
     2
175
     1
 42
40.0
 92
        0
 66
   257
 43
1.0
 76
     1
 77
     6
 78
     2
 67
     7
 79
     3
170
     0
171
     0
290
     0
174
     0
 93
        1
 44
0.0
173
     0
291
     0
 45
0.0
1001
ACAD
1000
AcDbSavedByObjectVersion
1070
     0
1000
AcDbSavedByObjectVersion
1070
     0
1000
AcDbSavedByObjectVersion
1070
     0
  0
VISUALSTYLE
  5
A6
102
{ACAD_REACTORS
330
7F
102
}
330
7F
100
AcDbVisualStyle
  2
3dWireframe
 70
     5
 71
     0
 72
     2
 73
     0
 90
        0
 40
-0.6
 41
-30.0
 62
     5
 63
     7
 74
     1
 91
        4
 64
     7
 65
   257
 75
     1
175
     1
 42
1.0
 92
        0
 66
   257
 43
1.0
 76
     1
 77
     6
 78
     2
 67
     7
 79
     5
170
     0
171
     0
290
     0
174
     0
 93
        1
 44
0.0
173
     0
291
     0
 45
0.0
1001
ACAD
1000
AcDbSavedByObjectVersion
1070
     0
1000
AcDbSavedByObjectVersion
1070
     0
1000
AcDbSavedByObjectVersion
1070
     0
1000
AcDbSavedByObjectVersion
1070
     0
  0
VISUALSTYLE
  5
D7
102
{ACAD_REACTORS
330
7F
102
}
330
7F
100
AcDbVisualStyle
  2
Basic
 70
     7
 71
     1
 72
     0
 73
     1
 90
        0
 40
-0.6
 41
-30.0
 62
     5
 63
     7
 74
     0
 91
        4
 64
     7
 65
   257
 75
     1
175
     1
 42
1.0
 92
        8
 66
     7
 43
1.0
 76
     1
 77
     6
 78
     2
 67
     7
 79
     5
170
     0
171
     0
290
     0
174
     0
 93
        1
 44
0.0
173
     0
291
     1
 45
0.0
1001
ACAD
1000
AcDbSavedByObjectVersion
1070
     0
1000
AcDbSavedByObjectVersion
1070
     0
1000
AcDbSavedByObjectVersion
1070
     0
  0
VISUALSTYLE
  5
DB
102
{ACAD_REACTORS
330
7F
102
}
330
7F
100
AcDbVisualStyle
  2
Brighten
 70
    12
 71
     2
 72
     2
 73
     0
 90
        0
 40
-0.6
 41
-30.0
 62
     5
 63
     7
 74
     1
 91
        4
 64
     7
 65
   257
 75
     1
175
     1
 42
1.0
 92
        8
 66
     7
 43
1.0
 76
     1
 77
     6
 78
     2
 67
     7
 79
     5
170
     0
171
     0
290
     0
174
     0
 93
        1
 44
50.0
173
     0
291
     1
 45
0.0
1001
ACAD
1000
AcDbSavedByObjectVersion
1070
     0
1000
AcDbSavedByObjectVersion
1070
     0
1000
AcDbSavedByObjectVersion
1070
     0
  0
VISUALSTYLE
  5
DF
102
{ACAD_REACTORS
330
7F
102
}
330
7F
100
AcDbVisualStyle
  2
ColorChange
 70
    16
 71
     2
 72
     2
 73
     3
 90
        0
 40
-0.6
 41
-30.0
 62
     5
 63
     8
 74
     1
 91
        4
 64
     7
 65
   257
 75
     1
175
     1
 42
1.0
 92
        8
 66
     8
 43
1.0
 76
     1
 77
     6
 78
     2
 67
     7
 79
     5
170
     0
171
     0
290
     0
174
     0
 93
        1
 44
0.0
173
     0
291
     1
 45
0.0
1001
ACAD
1000
AcDbSavedByObjectVersion
1070
     0
1000
AcDbSavedByObjectVersion
1070
     0
1000
AcDbSavedByObjectVersion
1070
     0
  0
VISUALSTYLE
  5
D9
102
{ACAD_REACTORS
330
7F
102
}
330
7F
100
AcDbVisualStyle
  2
Conceptual
 70
     9
 71
     3
 72
     2
 73
     0
 90
        0
 40
-0.6
 41
-30.0
 62
     5
 63
     7
 74
     2
 91
        2
 64
     7
 65
   257
 75
     1
175
     1
 42
40.0
 92
        8
 66
     7
 43
1.0
 76
     1
 77
     6
 78
     2
 67
     7
 79
     3
170
     0
171
     0
290
     0
174
     0
 93
        1
 44
0.0
173
     0
291
     0
 45
0.0
1001
ACAD
1000
AcDbSavedByObjectVersion
1070
     0
1000
AcDbSavedByObjectVersion
1070
     0
1000
AcDbSavedByObjectVersion
1070
     0
  0
VISUALSTYLE
  5
DA
102
{ACAD_REACTORS
330
7F
102
}
330
7F
100
AcDbVisualStyle
  2
Dim
 70
    11
 71
     2
 72
     2
 73
     0
 90
        0
 40
-0.6
 41
-30.0
 62
     5
 63
     7
 74
     1
 91
        4
 64
     7
 65
   257
 75
     1
175
     1
 42
1.0
 92
        8
 66
     7
 43
1.0
 76
     1
 77
     6
 78
     2
 67
     7
 79
     5
170
     0
171
     0
290
     0
174
     0
 93
        1
 44
-50.0
173
     0
291
     1
 45
0.0
1001
ACAD
1000
AcDbSavedByObjectVersion
1070
     0
1000
AcDbSavedByObjectVersion
1070
     0
1000
AcDbSavedByObjectVersion
1070
     0
  0
VISUALSTYLE
  5
DE
102
{ACAD_REACTORS
330
7F
102
}
330
7F
100
AcDbVisualStyle
  2
Facepattern
 70
    15
 71
     2
 72
     2
 73
     0
 90
        0
 40
-0.6
 41
-30.0
 62
     5
 63
     7
 74
     1
 91
        4
 64
     7
 65
   257
 75
     1
175
     1
 42
1.0
 92
        8
 66
     7
 43
1.0
 76
     1
 77
     6
 78
     2
 67
     7
 79
     5
170
     0
171
     0
290
     0
174
     0
 93
        1
 44
0.0
173
     0
291
     1
 45
0.0
1001
ACAD
1000
AcDbSavedByObjectVersion
1070
     0
1000
AcDbSavedByObjectVersion
1070
     0
1000
AcDbSavedByObjectVersion
1070
     0
  0
VISUALSTYLE
  5
D3
102
{ACAD_REACTORS
330
7F
102
}
330
7F
100
AcDbVisualStyle
  2
Flat
 70
     0
 71
     2
 72
     1
 73
     1
 90
        2
 40
-0.6
 41
30.0
 62
     5
 63
     7
 74
     0
 91
        4
 64
     7
 65
   257
 75
     1
175
     1
 42
1.0
 92
        8
 66
     7
 43
1.0
 76
     1
 77
     6
 78
     2
 67
     7
 79
     5
170
     0
171
     0
290
     0
174
     0
 93
       13
 44
0.0
173
     0
291
     1
 45
0.0
1001
ACAD
1000
AcDbSavedByObjectVersion
1070
     0
1000
AcDbSavedByObjectVersion
1070
     0
1000
AcDbSavedByObjectVersion
1070
     0
  0
VISUALSTYLE
  5
D4
102
{ACAD_REACTORS
330
7F
102
}
330
7F
100
AcDbVisualStyle
  2
FlatWithEdges
 70
     1
 71
     2
 72
     1
 73
     1
 90
        2
 40
-0.6
 41
30.0
 62
     5
 63
     7
 74
     1
 91
        4
 64
     7
 65
   257
 75
     1
175
     1
 42
1.0
 92
        0
 66
   257
 43
1.0
 76
     1
 77
     6
 78
     2
 67
     7
 79
     5
170
     0
171
     0
290
     0
174
     0
 93
       13
 44
0.0
173
     0
291
     1
 45
0.0
1001
ACAD
1000
AcDbSavedByObjectVersion
1070
     0
1000
AcDbSavedByObjectVersion
1070
     0
1000
AcDbSavedByObjectVersion
1070
     0
  0
VISUALSTYLE
  5
D5
102
{ACAD_REACTORS
330
7F
102
}
330
7F
100
AcDbVisualStyle
  2
Gouraud
 70
     2
 71
     2
 72
     2
 73
     1
 90
        2
 40
-0.6
 41
30.0
 62
     5
 63
     7
 74
     0
 91
        4
 64
     7
 65
   257
 75
     1
175
     1
 42
1.0
 92
        0
 66
     7
 43
1.0
 76
     1
 77
     6
 78
     2
 67
     7
 79
     5
170
     0
171
     0
290
     0
174
     0
 93
       13
 44
0.0
173
     0
291
     1
 45
0.0
1001
ACAD
1000
AcDbSavedByObjectVersion
1070
     0
1000
AcDbSavedByObjectVersion
1070
     0
1000
AcDbSavedByObjectVersion
1070
     0
  0
VISUALSTYLE
  5
D6
102
{ACAD_REACTORS
330
7F
102
}
330
7F
100
AcDbVisualStyle
  2
GouraudWithEdges
 70
     3
 71
     2
 72
     2
 73
     1
 90
        2
 40
-0.6
 41
30.0
 62
     5
 63
     7
 74
     1
 91
        4
 64
     7
 65
   257
 75
     1
175
     1
 42
1.0
 92
        0
 66
   257
 43
1.0
 76
     1
 77
     6
 78
     2
 67
     7
 79
     5
170
     0
171
     0
290
     0
174
     0
 93
       13
 44
0.0
173
     0
291
     1
 45
0.0
1001
ACAD
1000
AcDbSavedByObjectVersion
1070
     0
1000
AcDbSavedByObjectVersion
1070
     0
1000
AcDbSavedByObjectVersion
1070
     0
  0
VISUALSTYLE
  5
DD
102
{ACAD_REACTORS
330
7F
102
}
330
7F
100
AcDbVisualStyle
  2
Linepattern
 70
    14
 71
     2
 72
     2
 73
     0
 90
        0
 40
-0.6
 41
-30.0
 62
     5
 63
     7
 74
     1
 91
        4
 64
     7
 65
   257
 75
     7
175
     7
 42
1.0
 92
        8
 66
     7
 43
1.0
 76
     1
 77
     6
 78
     2
 67
     7
 79
     5
170
     0
171
     0
290
     0
174
     0
 93
        1
 44
0.0
173
     0
291
     1
 45
0.0
1001
ACAD
1000
AcDbSavedByObjectVersion
1070
     0
1000
AcDbSavedByObjectVersion
1070
     0
1000
AcDbSavedByObjectVersion
1070
     0
  0
VISUALSTYLE
  5
A5
102
{ACAD_REACTORS
330
7F
102
}
330
7F
100
AcDbVisualStyle
  2
Realistic
 70
     8
 71
     2
 72
     2
 73
     0
 90
        0
 40
-0.6
 41
-30.0
 62
     5
 63
     7
 74
     1
 91
        0
 64
     7
 65
   257
 75
     1
175
     1
 42
1.0
 92
        8
 66
     8
 43
1.0
 76
     1
 77
     6
 78
     2
 67
     7
 79
     5
170
     0
171
     0
290
     0
174
     0
 93
       13
 44
0.0
173
     0
291
     0
 45
0.0
1001
ACAD
1000
AcDbSavedByObjectVersion
1070
     0
1000
AcDbSavedByObjectVersion
1070
     0
1000
AcDbSavedByObjectVersion
1070
     0
1000
AcDbSavedByObjectVersion
1070
     0
  0
VISUALSTYLE
  5
DC
102
{ACAD_REACTORS
330
7F
102
}
330
7F
100
AcDbVisualStyle
  2
Thicken
 70
    13
 71
     2
 72
     2
 73
     0
 90
        0
 40
-0.6
 41
-30.0
 62
     5
 63
     7
 74
     1
 91
        4
 64
     7
 65
   257
 75
     1
175
     1
 42
1.0
 92
       12
 66
     7
 43
1.0
 76
     1
 77
     6
 78
     2
 67
     7
 79
     5
170
     0
171
     0
290
     0
174
     0
 93
        1
 44
0.0
173
     0
291
     1
 45
0.0
1001
ACAD
1000
AcDbSavedByObjectVersion
1070
     0
1000
AcDbSavedByObjectVersion
1070
     0
1000
AcDbSavedByObjectVersion
1070
     0
  0
DICTIONARYVAR
  5
AA
102
{ACAD_REACTORS
330
A9
102
}
330
A9
100
DictionaryVariables
280
     0
  1
STANDARD
  0
DICTIONARYVAR
  5
AE
102
{ACAD_REACTORS
330
A9
102
}
330
A9
100
DictionaryVariables
280
     0
  1
2
  0
DICTIONARYVAR
  5
AD
102
{ACAD_REACTORS
330
A9
102
}
330
A9
100
DictionaryVariables
280
     0
  1
1
  0
DICTIONARYVAR
  5
AC
102
{ACAD_REACTORS
330
A9
102
}
330
A9
100
DictionaryVariables
280
     0
  1
0
  0
DICTIONARYVAR
  5
16A
102
{ACAD_REACTORS
330
A9
102
}
330
A9
100
DictionaryVariables
280
     0
  1

  0
DICTIONARYVAR
  5
AB
102
{ACAD_REACTORS
330
A9
102
}
330
A9
100
DictionaryVariables
280
     0
  1
127
  0
XRECORD
  5
24A0
102
{ACAD_REACTORS
330
249E
102
}
330
249E
100
AcDbXrecord
280
     1
330
0
330
0
330
0
330
0
330
0
330
0
330
0
330
0
330
0
330
0
330
0
330
0
330
0
330
0
330
0
330
0
330
0
330
0
330
0
330
0
330
0
330
0
330
0
330
0
330
0
330
0
  0
DICTIONARY
  5
83
330
82
100
AcDbDictionary
280
     1
281
     1
  3
ACAD_XREC_ROUNDTRIP
360
3CD8
  3
ADSK_XREC_LAYOUTTHUMBNAIL
360
84
  0
DICTIONARY
  5
3CD9
330
89
100
AcDbDictionary
280
     1
281
     1
  3
ACAD_XREC_ROUNDTRIP
360
3CDA
  0
DICTIONARY
  5
3CD2
330
77
100
AcDbDictionary
280
     1
281
     1
  3
ACAD_XREC_ROUNDTRIP
360
3CD3
  0
DICTIONARY
  5
3CDD
330
A0
100
AcDbDictionary
280
     1
281
     1
  3
ACAD_XREC_ROUNDTRIP
360
3CDE
  0
DICTIONARY
  5
3CDB
330
9F
100
AcDbDictionary
280
     1
281
     1
  3
ACAD_XREC_ROUNDTRIP
360
3CDC
  0
DICTIONARY
  5
3CD0
330
A
100
AcDbDictionary
280
     1
281
     1
  3
ACAD_XREC_ROUNDTRIP
360
3CD1
  0
DICTIONARY
  5
3CDF
330
A4
100
AcDbDictionary
280
     1
281
     1
  3
ACAD_XREC_ROUNDTRIP
360
3CE0
  0
XRECORD
  5
3CD8
102
{ACAD_REACTORS
330
83
102
}
330
83
100
AcDbXrecord
280
     1
102
SHADEPLOT
 70
     0
102
SHADEPLOTRESLEVEL
 70
     2
102
SHADEPLOTCUSTOMDPI
 70
   300
  0
XRECORD
  5
84
102
{ACAD_REACTORS
330
83
102
}
330
83
100
AcDbXrecord
280
     1
310
28000000B40000007F00000001000800000000004C59000000000000000000000001000000000000FFFFFF0000000000FFFFFF000000000000000000000000000000000000000000000000000000000000000000330000006600000099000000CC000000FF00000000330000333300006633000099330000CC330000FF3300
310
0000660000336600006666000099660000CC660000FF66000000990000339900006699000099990000CC990000FF99000000CC000033CC000066CC000099CC0000CCCC0000FFCC000000FF000033FF000066FF000099FF0000CCFF0000FFFF000000003300330033006600330099003300CC003300FF003300003333003333
310
33006633330099333300CC333300FF33330000663300336633006666330099663300CC663300FF66330000993300339933006699330099993300CC993300FF99330000CC330033CC330066CC330099CC3300CCCC3300FFCC330000FF330033FF330066FF330099FF3300CCFF3300FFFF330000006600330066006600660099
310
006600CC006600FF00660000336600333366006633660099336600CC336600FF33660000666600336666006666660099666600CC666600FF66660000996600339966006699660099996600CC996600FF99660000CC660033CC660066CC660099CC6600CCCC6600FFCC660000FF660033FF660066FF660099FF6600CCFF6600
310
FFFF660000009900330099006600990099009900CC009900FF00990000339900333399006633990099339900CC339900FF33990000669900336699006666990099669900CC669900FF66990000999900339999006699990099999900CC999900FF99990000CC990033CC990066CC990099CC9900CCCC9900FFCC990000FF99
310
0033FF990066FF990099FF9900CCFF9900FFFF99000000CC003300CC006600CC009900CC00CC00CC00FF00CC000033CC003333CC006633CC009933CC00CC33CC00FF33CC000066CC003366CC006666CC009966CC00CC66CC00FF66CC000099CC003399CC006699CC009999CC00CC99CC00FF99CC0000CCCC0033CCCC0066CC
310
CC0099CCCC00CCCCCC00FFCCCC0000FFCC0033FFCC0066FFCC0099FFCC00CCFFCC00FFFFCC000000FF003300FF006600FF009900FF00CC00FF00FF00FF000033FF003333FF006633FF009933FF00CC33FF00FF33FF000066FF003366FF006666FF009966FF00CC66FF00FF66FF000099FF003399FF006699FF009999FF00CC
310
99FF00FF99FF0000CCFF0033CCFF0066CCFF0099CCFF00CCCCFF00FFCCFF0000FFFF0033FFFF0066FFFF0099FFFF00CCFFFF00FFFFFF00000000000D0D0D001A1A1A00282828003535350043434300505050005D5D5D006B6B6B00787878008686860093939300A1A1A100AEAEAE00BBBBBB00C9C9C900D6D6D600E4E4E400
310
F1F1F100FFFFFF0000000000000000000000000000000000000000000000000000000000000000000000000000000000E2E2E2E2E2E2E2E2E2E2E2E2E2E2E2E2E2E2E2E2E2E2E2E2E2E2E2E2E2E2E2E2E2E2E2E2E2E2E2E2E2E2E2E2E2E2E2E2E2E2E2E2E2E2E2E2E2E2E2E2E2E2E2E2E2E2E2E2E2E2E2E2E2E2E2E2E2E2E2
310
E2E2E2E2E2E2E2E2E2E2E2E2E2E2E2E2E2E2E2E2E2E2E2E2E2E2E2E2E2E2E2E2E2E2E2E2E2E2E2E2E2E2E2E2E2E2E2E2E2E2E2E2E2E2E2E2E2E2E2E2E2E2E2E2E2E2E2E2E2E2E2E2E2E2E2E2E2E2E2E2E2E2E2E2E2E2E2E2E2E2E2E2E2E2E2E2E2E2E2E2E2E2F5F5F5F5F5F5F5F5F5F5F5F5F5F5F5F5F5F5F5F5F5F5F5F5F5
310
F5F5F5F5F5F5F5F5F5F5F5F5F5F5F5F5F5F5F5F5F5F5F5F5F5F5F5F5F5F5F5F5F5F5F5F5F5F5F5F5F5F5F5F5F5F5F5F5F5F5F5F5F5F5F5F5F5F5F5F5F5F5F5F5F5F5F5F5F5F5F5F5F5F5F5F5F5F5F5F5F5F5F5F5F5F5F5F5F5F5F5F5F5F5F5F5F5F5F5F5F5F5F5F5F5F5F5F5F5F5F5F5F5F5F5F5F5F5F5F5F5F5F5F5F5F5F5
310
F5F5F5F5F5F5F5F5F5F5F5F5F5F5F5F5F5F5F5F5F5F5F5F5F5F5E2E2F5E2E2E2E2E2E2E2E2E2F5F5F5F5F5F5F5F5F5E2E2E2E2E2E2E2E2E2E2E2E2E2E2E2E2F5F5F5F5F5F5F5F5F5E2E2E2E2E2E2E2E2E2E2E2E2E2E2E2E2F5F5F5F5F5F5F5F5F5E2E2E2E2E2E2E2E2E2E2E2E2E2E2E2E2F5F5F5F5F5F5F5F5F5E2E2E2E2E2
310
E2E2E2E2E2E2E2E2E2E2E2F5F5F5F5F5F5F5F5F5E2E2E2E2E2E2E2E2E2E2E2E2E2E2E2E2F5F5F5F5F5F5F5F5F5E2E2E2E2E2E2E2E2E2E2E2E2E2E2E2E2F5F5F5F5F5F5F5F5F5E2E2E2E2E2E2E2E2F5E2E2F5E2F5F5F5F5F5F5F5F5F5F5F5F5F5F5F5F5F5F5F5F5F5F5F5F5F5F5F5F5F5F5F5F5F5F5F5F5F5F5F5F5F5F5F5F5
310
F5F5F5F5F5F5F5F5F5F5F5F5F5F5F5F5F5F5F5F5F5F5F5F5F5F5F5F5F5F5F5F5F5F5F5F5F5F5F5F5F5F5F5F5F5F5F5F5F5F5F5F5F5F5F5F5F5F5F5F5F5F5F5F5F5F5F5F5F5F5F5F5F5F5F5F5F5F5F5F5F5F5F5F5F5F5F5F5F5F5F5F5F5F5F5F5F5F5F5F5F5F5F5F5F5F5F5F5F5F5F5F5F5F5F5F5F5F5F5F5F5F5F5F5F5F5F5
310
F5F5F5E2F5E2E2F5E2F5F5F5F5F5F5F5F5F5F5F5F5F5F5F5F5F5F5F5F5F5F5F5F5F5F5F5F5F5F5F5F5F5F5F5F5F5F5F5F5F5F5F5F5F5F5F5F5F5F5F5F5F5F5F5F5F5F5F5F5F5F5F5F5F5F5F5F5F5F5F5F5F5F5F5F5F5F5F5F5F5F5F5F5F5F5F5F5F5F5F5F5F5F5F5F5F5F5F5F5F5F5F5F5F5F5F5F5F5F5F5F5F5F5F5F5F5F5
310
F5F5F5F5F5F5F5F5F5F5F5F5F5F5F5F5F5F5F5F5F5F5F5F5F5F5F5F5F5F5F5F5F5F5F5F5F5F5F5F5F5F5F5F5F5F5F5F5F5F5F5F5F5F5F5F5E2F5E2E2F5E2F5F5F5F5F5F5F5F5F5F5F5F5F5F5F5F5F5F5F5F5F5F5F5F5F5F5F5F5F5F5F5F5F5F5F5F5F5F5F5F5F5F5F5F5F5F5F5F5F5F5F5F5F5F5F5F5F5F5F5F5F5F5F5F5F5
310
F5F5F5F5F5F5F5F5F5F5F5F5F5F5F5F5F5F5F5F5F5F5F5F5F5F5F5F5F5F5F5F5F5F5F5F5F5F5F5F5F5F5F5F5F5F5F5F5F5F5F5F5F5F5F5F5F5F5F5F5F5F5F5F5F5F5F5F5F5F5F5F5F5F5F5F5F5F5F5F5F5F5F5F5F5F5F5F5F5F5F5F5F5F5F5F5F5F5F5F5F5F5F5F5F5F5F5F5F5E2F5E2E2F5E2F5F5F5F5F5F5F5F5F5F5F5F5
310
F5F5F5F5F5F5F5F5F5F5F5F5F5F5F5F5F5F5F5F5F5F5F5F5F5F5F5F5F5F5F5F5F5F5F5F5F5F5F5F5F5F5F5F5F5F5F5F5F5F5F5F5F5F5F5F5F5F5F5F5F5F5F5F5F5F5F5F5F5F5F5F5F5F5F5F5F5F5F5F5F5F5F5F5F5F5F5F5F5F5F5F5F5F5F5F5F5F5F5F5F5F5F5F5F5F5F5F5F5F5F5F5F5F5F5F5F5F5F5F5F5F5F5F5F5F5F5
310
F5F5F5F5F5F5F5F5F5F5F5F5F5F5F5F5F5F5F5F5F5F5F5F5F5F5F5F5F5F5F5F5F5F5F5E2F5E2E2F5E2F5F5F5F5F5F5F5F5F5F5F5F5F5F5F5F5F5F5F5F5F5F5F5F5F5F5F5F5F5F5F5F5F5F5F5F5F5F5F5F5F5F5F5F5F5F5F5F5F5F5F5F5F5F5F5F5F5F5F5F5F5F5F5F5F5F5F5F5F5F5F5F5F5F5F5F5F5F5F5F5F5F5F5F5F5F5
310
F5F5F5F5F5F5F5F5F5F5F5F5F5F5F5F5F5F5F5F5F5F5F5F5F5F5F5F5F5F5F5F5F5F5F5F5F5F5F5F5F5F5F5F5F5F5F5F5F5F5F5F5F5F5F5F5F5F5F5F5F5F5F5F5F5F5F5F5F5F5F5F5F5F5F5F5F5F5F5F5F5F5F5F5F5F5F5F5E2F5E2E2F5E2F5F5F5F5F5F5F5F5F5F5F5F5F5F5F5F5F5F5F5F5F5F5F5F5F5F5F5F5F5F5F5F5F5
310
F5F5F5F5F5F5F5F5F5F5F5F5F5F5F5F5F5F5F5F5F5F5F5F5F5F5F5F5F5F5F5F5F5F5F5F5F5F5F5F5F5F5F5F5F5F5F5F5F5F5F5F5F5F5F5F5F5F5F5F5F5F5F5F5F5F5F5F5F5F5F5F5F5F5F5F5F5F5F5F5F5F5F5F5F5F5F5F5F5F5F5F5F5F5F5F5F5F5F5F5F5F5F5F5F5F5F5F5F5F5F5F5F5F5F5F5F5F5F5F5F5F5F5F5F5F5F5
310
F5F5F5F5F5F5F5F5F5F5F5F5F5F5E2F5E2E2F5E2F5F5F5F5F5F5F5F5F5F5F5F5F5F5F5F5F5F5F5F5F5F5F5F5F5F5F5F5F5F5F5F5F5F5F5F5F5F5F5F5F5F5F5F5F5F5F5F5F5F5F5F5F5F5F5F5F5F5F5F5F5F5F5F5F5F5F5F5F5F5F5F5F5F5F5F5F5F5F5F5F5F5F5F5F5F5F5F5F5F5F5F5F5F5F5F5F5F5F5F5F5F5F5F5F5F5F5
310
F5F5F5F5F5F5F5F5F5F5F5F5F5F5F5F5F5F5F5F5F5F5F5F5F5F5F5F5F5F5F5F5F5F5F5F5F5F5F5F5F5F5F5F5F5F5F5F5F5F5F5F5F5F5F5F5F5F5F5F5F5F5F5F5F5F5F5E2F5E2E2F5F5F5F5F5F5F5F5F5F5F5F5F5F5F5F5F5F5F5F5F5F5F5F5F5F5F5F5F5F5F5F5F5F5F5F5F5F5F5F5F5F5F5F5F5F5F5F5F5F5F5F5F5F5F5F5
310
F5F5F5F5F5F5F5F5F5F5F5F5F5F5F5F5F5F5F5F5F5F5F5F5F5F5F5F5F5F5F5F5F5F5F5F5F5F5F5F5F5F5F5F5F5F5F5F5F5F5F5F5F5F5F5F5F5F5F5F5F5F5F5F5F5F5F5F5F5F5F5F5F5F5F5F5F5F5F5F5F5F5F5F5F5F5F5F5F5F5F5F5F5F5F5F5F5F5F5F5F5F5F5F5F5F5F5F5F5F5F5F5F5F5F5F5F5F5F5F5F5F5E2E2F5F5F5
310
F5F5F5F5F5F5F5F5F5F5F5F5F5F5F5F5F5F5F5F5F5F5F5F5F5F5F5F5F5F5F5F5F5F5F5F5F5F5F5F5F5F5F5F5F5F5F5F5F5F5F5F5F5F5F5F5F5F5F5F5F5F5F5F5F5F5F5F5F5F5F5F5F5F5F5F5F5F5F5F5F5F5F5F5F5F5F5F5F5F5F5F5F5F5F5F5F5F5F5F5F5F5F5F5F5F5F5F5F5F5F5F5F5F5F5F5F5F5F5F5F5F5F5F5F5F5F5
310
F5F5F5F5F5F5F5F5F5F5F5F5F5F5F5F5F5F5F5F5F5F5F5F5F5F5F5F5F5F5F5F5F5F5F5F5F5F5F5F5F5F5F5F5F5F5F5F5E2E2F5F5F5F5F5F5F5F5F5F5F5F5F5F5F5F5F5F5F5F5F5F5F5F5F5F5F5F5F5F5F5F5F5F5F5F5F5F5F5F5F5F5F5F5F5F5F5F5F5F5F5F5F5F5F5F5F5F5F5F5F5F5F5F5F5F5F5F5F5F5F5F5F5F5F5F5F5
310
F5F5F5F5F5F5F5F5F5F5F5F5F5F5F5F5F5F5F5F5F5F5F5F5F5F5F5F5F5F5F5F5F5F5F5F5F5F5F5F5F5F5F5F5F5F5F5F5F5F5F5F5F5F5F5F5F5F5F5F5F5F5F5F5F5F5F5F5F5F5F5F5F5F5F5F5F5F5F5F5F5F5F5F5F5F5F5F5F5F5F5F5F5F5F5F5F5F5F5F5F5E2E2F5F5F5F5F5F5F5F5F5F5F5F5F5F5F5F5F5F5F5F5F5F5F5F5
310
F5F5F5F5F5F5F5F5F5F5F5F5F5F5F5F5F5F5F5F5F5F5F5F5F5F5F5F5F5F5F5F5F5F5F5F5F5F5F5F5F5F5F5F5F5F5F5F5F5F5F5F5F5F5F5F5F5F5F5F5F5F5F5F5F5F5F5F5F5F5F5F5F5F5F5F5F5F5F5F5F5F5F5F5F5F5F5F5F5F5F5F5F5F5F5F5F5F5F5F5F5F5F5F5F5F5F5F5F5F5F5F5F5F5F5F5F5F5F5F5F5F5F5F5F5F5F5
310
F5F5F5F5F5F5F5F5F5F5F5F5F5F5F5F5F5F5F5F5F5F5F5F5F5F5F5E2E2F5F5F5F5F5F5F5F5F5F5F5F5F5F5F5F5F5F5F5DCDCDCDCDCDCDCDCDCDCDCDCDCDCDCDCDCDCDCDCDCDCDCDCDCDCDCDCDCDCDCDCDCDCDCDCDCDCDCDCDCDCDCDCDCDCDCDCDCDCDCDCDCDCDCDCDCDCDCDCDCDCDCDCDCDCDCDCDCDCDCDCDCDCDCDCDCDCDC
310
DCDCDCDCDCDCDCDCDCDCDCDCDCDCDCDCDCDCDCDCDCDCDCDCDCDCDCDCDCDCDCDCDCDCDCDCDCDCDCDCDCDCDCDCDCDCDCDCDCDCDCDCDCDCDCDCDCDCDCDCDCF5F5F5F5F5F5F5F5F5F5F5F5F5F5F5F5F5F5F5E2E2F5F5F5F5F5F5F5F5F5F5F5F5F5F5F5F5F5F5F5DCDCDCDCDCDCDCDCDCDCDCDCDCDCDCDCDCDCDCDCDCDCDCDCDCDC
310
DCDCDCDCDCDCDCDCDCDCDCDCDCDCDCDCDCDCDCDCDCDCDCDCDCDCDCDCDCDCDCDCDCDCDCDCDCDCDCDCDCDCDCDCDCDCDCDCDCDCDCDCDCDCDCDCDCDCDCDCDCDCDCDCDCDCDCDCDCDCDCDCDCDCDCDCDCDCDCDCDCDCDCDCDCDCDCDCDCDCDCDCDCDCDCDCDCDCDCDCDCDCDCDCDCDCDCDCDCDCDCDCDCDCF5F5F5F5F5F5F5F5F5F5F5F5F5
310
F5F5F5F5F5F5E2E2F5F5F5F5F5F5F5F5F5F5F5F5F5F5F5F5F5F5F5DCF5F5F5F5F5F5F5F5F5F5F5F5F5F5F5F5F5F5F5F5F5F5F5F5F5F5F5F5F5F5F5F5F5F5F5F5F5F5F5F5F5F5F5F5F5F5F5F5F5F5F5F5F5F5F5F5F5F5F5F5F5F5F5F5F5F5F5F5F5F5F5F5F5F5F5F5F5F5F5F5F5F5F5F5F5F5F5F5F5F5F5F5F5F5F5F5F5F5F5
310
F5F5F5F5F5F5F5F5F5F5F5F5F5F5F5F5F5F5F5F5F5F5F5F5F5F5F5F5F5F5F5F5F5F5F5F5F5F5F5DCF5F5F5F5F5F5F5F5F5F5F5F5F5F5F5F5F5F5F5E2E2F5F5F5F5F5F5F5F5F5F5F5F5F5F5F5F5F5F5F5DCF5282828282828282828282828282828282828282828282828282828282828282828282828282828282828282828
310
28282828282828282828282828282828282828282828282828282828282828282828282828282828282828282828282828282828282828282828282828282828282828282828282828282828282828282828282828282828282828F5DCF5F5F5F5F5F5F5F5F5F5F5F5F5F5F5F5F5F5F5E2E2F5F5F5F5F5F5F5F5F5F5F5F5F5
310
F5F5F5F5F5F5DCF5282D2D2D2D2D2D2D2D2D2D2D2D2D2D2D2D2D2D2D2D2DF5F5F5F5F5F5F5F5F5F5F5F5F5F5F5F5F5F5F5F5F5F5F5F5F5F5F5F5F5F5F5F5F5F5F5F5F5F5F5F5F5F5F5F5F528F5F5F5F5F5F5F5F5F5F5F5F5F5F5F5F5F5F5F5F5F5F5F5F5F5F5F5F5F5F5F5F5F5F5F5F5F5F5F5F5F5F5F5F5F5F5F5F5F5F5F5
310
F5F5F5F5F5F5F5F5F5F5F5F5F5F5F5F528F5DCF5F5F5F5F5F5F5F5F5F5F5F5F5F5F5F5F5F5F5E2E2F5E2F5F5F5F5F5F5F5F5F5F5F5F5F5F5F5F5F5DCF5282D2D2D2D2D2D2D2D2D2D2D2D2D2D2D2D2D2D2D2D2D2D2D2D2D2D2D2D2DF5F5F5F5F5F5F5F5F5F5F5F5F5F5F5F5F5F5F5F5F5F5F5F5F5F5F5F5F5F5F5F5F5F5F5F5
310
F528F5F5F5F5F5F5F5F5F5F5F5F5F5F5F5F5F5F5F5F5F5F5F5F5F5F5F5F5F5F5F5F5F5F5F5F5F5F5F5F5F5F5F5F5F5F5F5F5F5F5F5F5F5F5F5F5F5F5F5F5F5F5F5F5F5F5F528F5DCF5F5F5F5F5F5F5F5F5F5F5F5F5F5F5F5F5E2F5E2E2F5E2F5F5F5F5F5F5F5F5F5F5F5F5F5F5F5F5F5DCF5282D2D2D2D2D2D2D2D2D2D2D2D
310
2D2D2D2D2D2D2D2D2D2D2D2D2D2D2D2D2DF5F5F5F5F5F5F5F5F5F5F5F5F5F5F5F5F5F5F5F5F5F5F5F5F5F5F5F5F5F5F5F5F5F5F5F5F528F5F5F5F5F5F5F5F52D2D2D2D2D2D2D2D2D2D2D2D2D2D2D2D2D2D2D2D2D2D2D2D2D2D2D2D2D2D2D2D2D2D2D2D2D2D2D2D2D2D2D2D2D2D2D2D2D2D2DF5F5F5F5F5F5F5F528F5DCF5F5
310
F5F5F5F5F5F5F5F5F5F5F5F5F5F5F5E2F5E2E2F5E2F5F5F5F5F5F5F5F5F5F5F5F5F5F5F5F5F5DCF5282D2D2D2D2D2D2D2D2D2D2D2D2D2D2D2D2D2D2D2D2D2D2D2D2D2D2D2D2D2D2D2D2D2D2D2D2D2D2D2D2D2D2D2D2D2D2D2D2D2D2D2D2D2D2D2D2D2D2D2D2D2D2D2D2D2D28F5F5F5F5F5F5F5F52D2D2D2D2D2D2D2D2D2D2D
310
2D2D2D2D2D2D2D2D2D2D2D2D2D2D2D2D2D2D2D2D2D2D2D2D2D2D2D2D2D2D2D2D2D2D2D2D2D2D2D2DF5F5F5F5F5F5F5F528F5DCF5F5F5F5F5F5F5F5F5F5F5F5F5F5F5F5F5E2F5E2E2F5E2F5F5F5F5F5F5F5F5F5F5F5F5F5F5F5F5F5DCF5282D2D2D2D2D2D2D2D2D2D2D2D2D2D2D2D2D2D2D2D2D2D2D2D2D2D2D2D2D2D2D2D2D
310
2D2D2D2D2D2D2D2D2D2D2D2D2D2D2D2D2D2D2D2D2D2D2D2D2D2D2D2D2DF5F5F5F528F5F5F5F5F5F5F5F5F5F5F5F52D2D2D2D2D2D2D2D2D2D2D2D2D2D2D2D2D2D2D2D2D2D2D2D2D2D2D2D2D2D2D2D2D2D2D2D2D2D2D2D2D2DF5F5F5F5F5F5F5F5F5F5F5F5F528F5DCF5F5F5F5F5F5F5F5F5F5F5F5F5F5F5F5F5E2F5E2E2F5E2
310
F5F5F5F5F5F5F5F5F5F5F5F5F5F5F5F5F5DCF5282D2D2D2D2D2D2D2D2D2D2D2D2D2D2D2D2D2D2D2D2D2D2D2D2D2D2D2D2D2D2D2D2D2D2D2D2D2D2D2D2D2D2D2D2D2D2D2D2D2D2D2D2D2D2D2D2D2D2D2D2D2DF5F5F5F528F5F5F5F5F5F5F5F5F5F5F5F52D2D2D2D2D2D2D2D2D2D2D2D2D2D2D2D2D2D2D2D2D2D2D2D2D2D2D2D
310
2D2D2D2D2D2D2D2D2D2D2D2D2D2DF5F5F5F5F5F5F5F5F5F5F5F5F528F5DCF5F5F5F5F5F5F5F5F5F5F5F5F5F5F5F5F5E2F5E2E2F5E2F5F5F5F5F5F5F5F5F5F5F5F5F5F5F5F5F5DCF5282D2D2D2D2D2D2D2D2D2D2D2D2D2D2D2D2D2D2D2D2D2D2D2D2D2D2D2D2D2D2D2D2D2D2D2D2D2D2D2D2D2D2D2D2D2D2D2D2D2D2D2D2D2D
310
2D2D2D2D2DF5F5F5F5F5F5F528F5F5F5F5F5F5F5F5F5F5F5F5F5F5F5F5F5F5F5F5F5F5F5F5F5F5F5F52D2D2D2D2D2D2D2D2D2DF5F5F5F5F5F5F5F5F5F5F5F5F5F5F5F5F5F5F5F5F5F5F5F5F5F5F5F5F528F5DCF5F5F5F5F5F5F5F5F5F5F5F5F5F5F5F5F5E2F5E2E2F5E2F5F5F5F5F5F5F5F5F5F5F5F5F5F5F5F5F5DCF5282D
310
2D2D2D2D2D2D2D2D2D2D2D2D2D2D2D2D2D2D2D2D2D2D2D2D2D2D2D2D2D2D2DF5F5F5F5F5F5F5F5F5F5F5F5F5F5F5F5F5F5F5F5F5F5F5F5F5F5F5F5F5F5F5F5F5F528F5F5F5F5F5F5F5F5F5F5F5F5F5F5F5F5F5F5F5F5F5F5F5F5F5F5F5F52D2D2D2D2D2D2D2D2D2DF5F5F5F5F5F5F5F5F5F5F5F5F5F5F5F5F5F5F5F5F5F5F5
310
F5F5F5F5F5F528F5DCF5F5F5F5F5F5F5F5F5F5F5F5F5F5F5F5F5E2F5E2E2F5E2F5F5F5F5F5F5F5F5F5F5F5F5F5F5F5F5F5DCF5282D2D2D2D2D2D2D2D2D2D2D2D2D2D2D2D2D2D2D2D2D2D2D2D2D2D2D2D2D2D2D2DF5F5F5F5F5F5F5F5F5F5F5F5F5F5F5F5F5F5F5F5F5F5F5F5F5F5F5F5F5F5F5F5F5F528F5F5F5F5F5F5F5F5
310
F5F5F5F5F5F5F5F5F5F5F5F5F5F5F5F5F5F5F5F52D2D2D2D2D2D2D2D2D2DF5F5F5F5F5F5F5F5F5F5F5F5F5F5F5F5F5F5F5F5F5F5F5F5F5F5F5F5F528F5DCF5F5F5F5F5F5F5F5F5F5F5F5F5F5F5F5F5E2F5E2E2F5E2F5F5F5F5F5F5F5F5F5F5F5F5F5F5F5F5F5DCF5282D2D2D2D2D2D2D2D2D2D2D2D2D2D2D2D2D2D2D2D2D2D
310
2D2D2D2D2D2D2D2D2D2D2D2D2D2D2D2D2D2D2D2D2D2D2D2D2D2D2D2D2D2D2D2D2D2D2D2D2D2D2D2D2D2DF5F528F5F5F5F5F5F5F5F5F5F5F5F5F5F5F5F5F5F5F5F5F5F5F5F5F5F5F5F5F5F5F5F5F5F5F5F5F5F5F5F5F5F5F5F5F5F5F5F5F5F5F5F5F5F5F5F5F5F5F5F5F5F5F5F5F5F5F528F5DCF5F5F5F5F5F5F5F5F5F5F5F5
310
F5F5F5F5F5E2F5E2E2F5E2F5F5F5F5F5F5F5F5F5F5F5F5F5F5F5F5F5DCF528F5F5F5F5F5F5F5F5F5F5F5F5F5F5F5F5F5F5F5F5F5F5F5F5F5F5F5F5F5F5F5F5F5F5F5F5F5F5F5F5F5F5F5F5F5F5F5F5F5F5F5F5F5F5F5F5F5F5F5F5F5F5F5F5F5F528F5F5F5F5F5F5F5F5F5F5F5F5F5F5F5F5F5F5F5F5F5F5F5F5F5F5F5F5F5
310
F5F5F5F5F5F5F5F5F5F5F5F5F5F5F5F5F5F5F5F5F5F5F5F5F5F5F5F5F5F5F5F5F5F5F5F5F5F528F5DCF5F5F5F5F5F5F5F5F5F5F5F5F5F5F5F5F5E2F5E2E2F5E2F5F5F5F5F5F5F5F5F5F5F5F5F5F5F5F5F5DCF52828282828282828282828282828282828282828282828282828282828282828282828282828282828282828
310
2828282828282828282828282828282828282828282828282828282828282828282828282828282828282828282828282828282828282828282828282828282828282828282828282828282828282828282828282828282828282828F5DCF5F5F5F5F5F5F5F5F5F5F5F5F5F5F5F5F5E2F5E2E2F5E2F5F5F5F5F5F5F5F5F5F5
310
F5F5F5F5F5F5F5DCF528F5F5F5F5F5F5F5F5F5F5F5F5F5F5F5F5F5F5F5F5F5F5F5F5F5F5F5F5F5F5F5F5F5F5F5F5F5F5F5F5F5F5F5F5F5F5F5F5F5F5F5F5F5F5F5F5F5F5F5F5F5F5F5F5F5F5F5F5F5F5F5F5F5F5F5F5F5F5F5F5F5F5F5F5F5F5F5F5F5F5F5F5F5F5F5F5F5F5F5F5F5F5F5F5F5F5F5F5F5F5F5F5F5F5F5F5F5
310
F5F5F5F5F5F5F5F5F5F5F5F5F5F5F5F5F528F5DCF5F5F5F5F5F5F5F5F5F5F5F5F5F5F5F5F5E2F5E2E2F5E2F5F5F5F5F5F5F5F5F5F5F5F5F5F5F5F5F5DCF528F5F5F5F5F5F5F5F5F5F5F5F5F5F5F5F5F5F5F5F5F5F5F5F5F5F5F5F5F5F5F5F5F5F5F5F5F5F5F5F5F5F5F5F5F5F5F5F5F5F5F5F5F5F5F5F5F5F5F5F5F5F5F5F5
310
F5F5F5F5F5F5F5F5F5F5F5F5F5F5F5F5F5F5F5F5F5F5F5F5F5F5F5F5F5F5F5F5F5F5F5F5F5F5F5F5F5F5F5F5F5F5F5F5F5F5F5F5F5F5F5F5F5F5F5F5F5F5F5F5F5F5F5F5F5F528F5DCF5F5F5F5F5F5F5F5F5F5F5F5F5F5F5F5F5E2F5E2E2F5E2F5F5F5F5F5F5F5F5F5F5F5F5F5F5F5F5F5DCF528F5F5F5F5F5F5F5F5F5F5F5
310
F5F5F5F5F5F5F5F5F5F5F5F5F5F5F5F5F5F5F5F5F5F5F5F5F5F5F5F5F5F5F5F5F5F5F5F5F5F5F5F5F5F5F5F5F5F5F5F5F5F5F5F5F5F5F5F5F5F5F5F5F5F5F5F5F5F5F5F5F5F5F5F5F5F5F5F5F5F5F5F5F5F5F5F5F5F5F5F5F5F5F5F5F5F5F5F5F5F5F5F5F5F5F5F5F5F5F5F5F5F5F5F5F5F5F5F5F5F5F5F5F5F5F528F5DCF5
310
F5F5F5F5F5F5F5F5F5F5F5F5F5F5F5F5E2F5E2E2F5E2F5F5F5F5F5F5F5F5F5F5F5F5F5F5F5F5F5DCF528F5F5F5F5F5F5F5F5F5F5F5F5F5F5F5F5F5F5F5F5F5F5F5F5F5F5F5F5F5F5F5F5F5F5F5F5F5F5F5F5F5F5F5F5F5F5F5F5F5F5F5F5F5F5F5F5F5F5F5F5F5F5F5F5F5F5F5F5F5F5F5F5F5F5F5F5F5F5F5F5F5F5F5F5F5
310
F5F5F5F5F5F5F5F5F5F5F5F5F5F5F5F5F5F5F5F5F5F5F5F5F5F5F5F5F5F5F5F5F5F5F5F5F5F5F5F5F5F5F5F5F5F5F5F5F528F5DCF5F5F5F5F5F5F5F5F5F5F5F5F5F5F5F5F5E2F5E2E2F5E2F5F5F5F5F5F5F5F5F5F5F5F5F5F5F5F5F5DCF528F5F5F5F5F5F5F5F5F5F5F5F5F5F5F5F5F5F5F5F5F5F5F5F5F5F5F5F5F5F5F5F5
310
F5F5F5F5F5F5F5F5F5F5F5F5F5F5F5F5F5F5F5F5F5F5F5F5F5F5F5F5F5F5F5F5F5F5F5F5F5F5F5F5F5F5F5F5F5F5F5F5F5F5F5F5F5F5F5F5F5F5F5F5F5F5F5F5F5F5F5F5F5F5F5F5F5F5F5F5F5F5F5F5F5F5F5F5F5F5F5F5F5F5F5F5F5F5F5F5F5F5F5F5F5F528F5DCF5F5F5F5F5F5F5F5F5F5F5F5F5F5F5F5F5E2F5E2E2F5
310
F5F5F5F5F5F5F5F5F5F5F5F5F5F5F5F5F5F5DCF528F5F5F5F5F5F5F5F5F5F5F5F5F5F5F5F5F5F5F5F5F5F5F5F5F5F5F5F5F5F5F5F5F5F5F5F5F5F5F5F5F5F5F5F5F5F5F5F5F5F5F5F5F5F5F5F5F5F5F5F5F5F5F5F5F5F5F5F5F5F5F5F5F5F5F5F5F5F5F5F5F5F5F5F5F5F5F5F5F5F5F5F5F5F5F5F5F5F5F5F5F5F5F5F5F5F5
310
F5F5F5F5F5F5F5F5F5F5F5F5F5F5F5F5F5F5F5F5F5F5F5F5F5F5F5F528F5DCF5F5F5F5F5F5F5F5F5F5F5F5F5F5F5F5F5F5F5E2E2F5F5F5F5F5F5F5F5F5F5F5F5F5F5F5F5F5F5F5DCF528F5F5F5F5F5F5F5F5F5F5F5F5F5F5F5F5F5F5F5F5F5F5F5F5F5F5F5F5F5F5F5F5F5F5F5F5F5F5F5F5F5F5F5F5F5F5F5F5F5F5F5F5F5
310
F5F5F5F5F5F5F5F5F5F5F5F5F5F5F5F5F5F5F5F5F5F5F5F5F5F5F5F5F5F5F5F5F5F5F5F5F5F5F5F5F5F5F5F5F5F5F5F5F5F5F5F5F5F5F5F5F5F5F5F5F5F5F5F5F5F5F5F5F5F5F5F5F5F5F5F5F5F5F5F5F528F5DCF5F5F5F5F5F5F5F5F5F5F5F5F5F5F5F5F5F5F5E2E2F5F5F5F5F5F5F5F5F5F5F5F5F5F5F5F5F5F5F5DCF528
310
F5F5F5F5F5F5F5F5F5F5F5F5F5F5F5F5F5F5F5F5F5F5F5F5F5F5F5F5F5F5F5F5F5F5F5F5F5F5F5F5F5F5F5F5F5F5F5F5F5F5F5F5F5F5F5F5F5F5F5F5F5F5F5F5F5F5F5F5F5F5F5F5F5F5F5F5F5F5F5F5F5F5F5F5F5F5F5F5F5F5F5F5F5F5F5F5F5F5F5F5F5F5F5F5F5F5F5F5F5F5F5F5F5F5F5F5F5F5F5F5F5F5F5F5F5F5F5
310
F5F5F5F5F5F5F528F5DCF5F5F5F5F5F5F5F5F5F5F5F5F5F5F5F5F5F5F5E2E2F5F5F5F5F5F5F5F5F5F5F5F5F5F5F5F5F5F5F5DCF528F5F5F5F5F5F5F5F5F5F5F5F5F5F5F5F5F5F5F5F5F5F5F5F5F5F5F5F5F5F5F5F5F5F5F5F5F5F5F5F5F5F5F5F5F5F5F5F5F5F5F5F5F5F5F5F5F5F5F5F5F5F5F5F5F5F5F5F5F5F5F5F5F5F5
310
F5F5F5F5F5F5F5F5F5F5F5F5F5F5F5F5F5F5F5F5F5F5F5F5F5F5F5F5F5F5F5F5F5F5F5F5F5F5F5F5F5F5F5F5F5F5F5F5F5F5F5F5F5F5F5F5F5F5F5F528F5DCF5F5F5F5F5F5F5F5F5F5F5F5F5F5F5F5F5F5F5E2E2F5F5F5F5F5F5F5F5F5F5F5F5F5F5F5F5F5F5F5DCF528F5F5F5F5F5F5F5F5F5F5F5F5F5F5F5F5F5F5F5F5F5
310
F5F5F5F5F5F5F5F5F5F5F5F5F5F5F5F5F5F5F5F5F5F5F5F5F5F5F5F5F5F5F5F5F5F5F5F5F5F5F5F5F5F5F5F5F5F5F5F5F5F5F5F5F5F5F5F5F5F5F5F5F5F5F5F5F5F5F5F5F5F5F5F5F5F5F5F5F5F5F5F5F5F5F5F5F5F5F5F5F5F5F5F5F5F5F5F5F5F5F5F5F5F5F5F5F5F5F5F5F5F5F5F5F528F5DCF5F5F5F5F5F5F5F5F5F5F5
310
F5F5F5F5F5F5F5F5E2E2F5F5F5F5F5F5F5F5F5F5F5F5F5F5F5F5F5F5F5DCF528F5F5F5F5F5F5F5F5F5F5F5F5F5F5F5F5F5F5F5F5F5F5F5F5F5F5F5F5F5F5F5F5F5F5F5F5F5F5F5F5F5F5F5F5F5F5F5F5F5F5F5F5F5F5F5F5F5F5F5F5F5F5F5F5F5F5F5F5F5F5F5F5F5F5F5F5F5F5F5F5F5F5F5F5F5F5F5F5F5F5F5F5F5F5F5
310
F5F5F5F5F5F5F5F5F5F5F5F5F5F5F5F5F5F5F5F5F5F5F5F5F5F5F5F5F5F5F5F5F5F5F5F5F5F5F528F5DCF5F5F5F5F5F5F5F5F5F5F5F5F5F5F5F5F5F5F5E2E2F5F5F5F5F5F5F5F5F5F5F5F5F5F5F5F5F5F5F5DCF528F5F5F5F5F5F5F5F5F5F5F5F5F5F5F5F5F5F5F5F5F5F5F5F5F5F5F5F5F5F5F5F5F5F5F5F5F5F5F5F5F5F5
310
F5F5F5F5F5F5F5F5F5F5F5F5F5F5F5F5F5F5F5F5F5F5F5F5F5F5F5F5F5F5F5F5F5F5F5F5F5F5F5F5F5F5F5F5F5F5F5F5F5F5F5F5F5F5F5F5F5F5F5F5F5F5F5F5F5F5F5F5F5F5F5F5F5F5F5F5F5F5F5F5F5F5F5F5F5F5F5F5F5F5F5F528F5DCF5F5F5F5F5F5F5F5F5F5F5F5F5F5F5F5F5F5F5E2E2F5F5F5F5F5F5F5F5F5F5F5
310
F5F5F5F5F5F5F5F5DCF528F5F5F5F5F5F5F5F5F5F5F5F5F5F5F52D2D2D2D2D2D2D2D2D2DF5F5F5F5F5F5F5F5F5F5F5F5F5F5F5F5F5F5F5F5F5F5F5F5F5F5F5F5F5F5F5F5F5F5F5F5F5F5F5F5F5F5F5F5F5F5F5F5F5F5F5F5F5F5F5F5F5F5F5F5F5F5F5F5F5F5F5F5F5F5F5F5F5F5F5F5F5F5F5F5F5F5F5F5F5F5F5F5F5F5F5
310
F5F5F5F5F5F5F5F5F5F5F5F5F5F5F5F5F5F528F5DCF5F5F5F5F5F5F5F5F5F5F5F5F5F5F5F5F5F5F5E2E2F5E2F5F5F5F5F5F5F5F5F5F5F5F5F5F5F5F5F5DCF528F5F5F5F5F5F5F5F5F5F5F5F5F5F5F52D2D2D2D2D2D2D2D2D2DF5F5F5F5F5F5F5F5F5F5F5F5F5F5F5F5F5F5F5F5F5F5F5F5F5F5F5F5F5F5F5F5F5F5F5F5F5F5
310
F5F5F5F5F5F5F5F5F5F5F5F5F5F5F5F5F5F5F5F5F5F5F5F5F5F5F5F5F5F5F5F5F5F5F5F5F5F5F5F5F5F5F5F5F5F5F5F5F5F5F5F5F5F5F5F5F5F5F5F5F5F5F5F5F5F5F5F5F5F5F528F5DCF5F5F5F5F5F5F5F5F5F5F5F5F5F5F5F5F5E2F5E2E2F5E2F5F5F5F5F5F5F5F5F5F5F5F5F5F5F5F5F5DCF528F5F5F5F5F5F5F5F5F5F5
310
F5F5F5F5F5F5F5F5F5F5F5F5F5F5F5F5F5F5F5F5F5F5F5F5F5F5F5F5F5F5F5F5F5F5F5F5F5F5F5F5F5F5F5F5F5F5F5F5F5F5F5F5F5F5F5F5F5F5F5F5F5F5F5F5F5F5F5F5F5F5F5F5F5F5F5F5F5F5F5F5F5F5F5F5F5F5F5F5F5F5F5F5F5F5F5F5F5F5F5F5F5F5F5F5F5F5F5F5F5F5F5F5F5F5F5F5F5F5F5F5F5F5F5F528F5DC
310
F5F5F5F5F5F5F5F5F5F5F5F5F5F5F5F5F5E2F5E2E2F5E2F5F5F5F5F5F5F5F5F5F5F5F5F5F5F5F5F5DCF528F5F5F5F5F5F5F5F5F5F5F5F5F5F5F5F5F5F5F5F5F5F5F5F5F5F5F5F5F5F5F5F5F5F5F5F5F5F5F5F5F5F5F5F5F5F5F5F5F5F5F5F5F5F5F5F5F5F5F5F5F5F5F5F5F5F5F5F5F5F5F5F5F5F5F5F5F5F5F5F5F5F5F5F5
310
F5F5F5F5F5F5F5F5F5F5F5F5F5F5F5F5F5F5F5F5F5F5F5F5F5F5F5F5F5F5F5F5F5F5F5F5F5F5F5F5F5F5F5F5F5F5F5F5F5F528F5DCF5F5F5F5F5F5F5F5F5F5F5F5F5F5F5F5F5E2F5E2E2F5E2F5F5F5F5F5F5F5F5F5F5F5F5F5F5F5F5F5DCF528F5F5F5F5F5F5F5F5F5F5F5F5F5F5F5F5F5F5F5F5F5F5F5F5F5F5F5F5F5F5F5
310
F5F5F5F5F5F5F5F5F5F5F5F5F5F5F5F5F5F5F5F5F5F5F5F5F5F5F5F5F5F5F5F5F5F5F5F5F5F5F5F5F5F5F5F5F5F5F5F5F5F5F5F5F5F5F5F5F5F5F5F5F5F5F5F5F5F5F5F5F5F5F5F5F5F5F5F5F5F5F5F5F5F5F5F5F5F5F5F5F5F5F5F5F5F5F5F5F5F5F5F5F5F5F528F5DCF5F5F5F5F5F5F5F5F5F5F5F5F5F5F5F5F5E2F5E2E2
310
F5E2F5F5F5F5F5F5F5F5F5F5F5F5F5F5F5F5F5DCF528F5F5F5F5F5F5F5F5F5F5F5F5F5F5F5F5F5F5F5F5F5F5F5F5F5F5F5F5F5F5F5F5F5F5F5F5F5F5F5F5F5F5F5F5F5F5F5F5F5F5F5F5F5F5F5F5F5F5F5F5F5F5F5F5F5F5F5F5F5F5F5F5F5F5F5F5F5F5F5F5F5F5F5F5F5F5F5F5F5F5F5F5F5F5F5F5F5F5F5F5F5F5F5F5F5
310
F5F5F5F5F5F5F5F5F5F5F5F5F5F5F5F5F5F5F5F5F5F5F5F5F5F5F5F5F528F5DCF5F5F5F5F5F5F5F5F5F5F5F5F5F5F5F5F5E2F5E2E2F5E2F5F5F5F5F5F5F5F5F5F5F5F5F5F5F5F5F5DCF528F5F5F5F5F5F5F5F5F5F5F5F5F5F5F5F5F5F5F5F5F5F5F5F5F5F5F5F5F5F5F5F5F5F5F5F5F5F5F5F5F5F5F5F5F5F5F5F5F5F5F5F5
310
F5F5F5F5F5F5F5F5F5F5F5F5F5F5F5F5F5F5F5F5F5F5F5F5F5F5F5F5F5F5F5F5F5F5F5F5F5F5F5F5F5F5F5F5F5F5F5F5F5F5F5F5F5F5F5F5F5F5F5F5F5F5F5F5F5F5F5F5F5F5F5F5F5F5F5F5F5F5F5F5F5F528F5DCF5F5F5F5F5F5F5F5F5F5F5F5F5F5F5F5F5E2F5E2E2F5E2F5F5F5F5F5F5F5F5F5F5F5F5F5F5F5F5F5DCF5
310
28F5F5F5F5F5F5F5F5F5F5F5F5F5F5F5F5F5F5F5F5F5F5F5F5F5F5F5F5F5F5F5F5F5F5F5F5F5F5F5F5F5F5F5F5F5F5F5F5F5F5F5F5F5F5F5F5F5F5F5F5F5F5F5F5F5F5F5F5F5F5F5F5F5F5F5F5F5F5F5F5F5F5F5F5F5F5F5F5F5F5F5F5F5F5F5F5F5F5F5F5F5F5F5F5F5F5F5F5F5F5F5F5F5F5F5F5F5F5F5F5F5F5F5F5F5F5
310
F5F5F5F5F5F5F5F528F5DCF5F5F5F5F5F5F5F5F5F5F5F5F5F5F5F5F5E2F5E2E2F5E2F5F5F5F5F5F5F5F5F5F5F5F5F5F5F5F5F5DCF528F5F5F5F5F5F5F5F5F5F5F5F5F5F5F5F5F5F5F5F5F5F5F5F5F5F5F5F5F5F5F5F5F5F5F5F5F5F5F5F5F5F5F5F5F5F5F5F5F5F5F5F5F5F5F5F5F5F5F5F5F5F5F5F5F5F5F5F5F5F5F5F5F5
310
F5F5F5F5F5F5F5F5F5F5F5F5F5F5F5F5F5F5F5F5F5F5F5F5F5F5F5F5F5F5F5F5F5F5F5F5F5F5F5F5F5F5F5F5F5F5F5F5F5F5F5F5F5F5F5F5F5F5F5F5F528F5DCF5F5F5F5F5F5F5F5F5F5F5F5F5F5F5F5F5E2F5E2E2F5E2F5F5F5F5F5F5F5F5F5F5F5F5F5F5F5F5F5DCF528F5F5F5F5F5F5F5F5F5F5F5F5F5F5F5F5F5F5F5F5
310
F5F5F5F5F5F5F5F5F5F5F5F5F5F5F5F5F5F5F5F5F5F5F5F5F5F5F5F5F5F5F5F5F5F5F5F5F5F5F5F5F5F5F5F5F5F5F5F5F5F5F5F5F5F5F5F5F5F5F5F5F5F5F5F5F5F5F5F5F5F5F5F5F5F5F5F5F5F5F5F5F5F5F5F5F5F5F5F5F5F5F5F5F5F5F5F5F5F5F5F5F5F5F5F5F5F5F5F5F5F5F5F5F5F528F5DCF5F5F5F5F5F5F5F5F5F5
310
F5F5F5F5F5F5F5E2F5E2E2F5E2F5F5F5F5F5F5F5F5F5F5F5F5F5F5F5F5F5DCF528F5F5F5F5F5F5F5F5F5DCF5F5F5F5F5F5F5F5F5F5F5F5F5F5F5F5F5F5F5F5F5F5F5F5F5F5F5F5F5F5F5F5F5F5F5F5F5F5F5F5F5F5F5F5F5F5F5F5F5F5F5F5F5F5F5F5F5F5F5F5F5F5F5F5F5F5F5F5F5F5F5F5F5F5F5F5F5F5F5F5F5F5F5F5
310
F5F5F5F5F5F5F5F5F5F5F5F5F5F5F5F5F5F5F5F5F5F5F5F5F5F5F5F5F5F5F5F5F5F5F5F5F5F5F5F528F5DCF5F5F5F5F5F5F5F5F5F5F5F5F5F5F5F5F5E2F5E2E2F5E2F5F5F5F5F5F5F5F5F5F5F5F5F5F5F5F5F5DCF528F5F5F5F5F5F5F5F50FDCF5F5F5F5F52D2D2D2D2D2D2D2DF5F5F5F5F50FF5F5F5F5F5F5F5F5F5F5F5F5
310
F5F5F5F5F5F5F5F5F5F5F5F5F5F5F5F5F5F5F5F5F5F5F5F5F5F5F5F5F5F5F5F5F5F5F5F5F5F5F5F5F5F5F5F5F5F5F5F5F5F5F5F5F5F5F5F5F5F5F5F5F5F5F5F5F5F5F5F5F5F5F5F5F5F5F5F5F5F5F5F5F5F5F5F5F5F5F5F5F5F5F5F5F528F5DCF5F5F5F5F5F5F5F5F5F5F5F5F5F5F5F5F5E2F5E2E2F5E2F5F5F5F5F5F5F5F5
310
F5F5F5F5F5F5F5F5F5DCF528F5F5F5F5DCF5F5DC0FDC0F0F0F0F0F2D2D2D2D2D2D2D2D0F0F0F0F0F0F0FF5F5F5F5F5F5F5F5F5F5F5F5F5F5F5F5F5F5F5F5F5F5F5F5F5F5F5F5F5F5F5F5F5F5F5F5F5F5F5F5F5F5F5F5F5F5F5F5F5F5F5F5F5F5F5F5F5F5F5F5F5F5F5F5F5F5F5F5F5F5F5F5F5F5F5F5F5F5F5F5F5F5F5F5F5
310
F5F5F5F5F5F5F5F5F5F5F5F5F5F5F5F5F5F5F528F5DCF5F5F5F5F5F5F5F5F5F5F5F5F5F5F5F5F5E2F5E2E2F5E2F5F5F5F5F5F5F5F5F5F5F5F5F5F5F5F5F5DCF528F5F5F5DCF5F5DCF5F5DCF5F5F5F5F5F5F5F5F5F5F5F5F5F5F5F5F5F50FF5F5F5F5F5F5F5F5F5F5F5F5F5F5F5F5F5F5F5F5F5F5F5F5F5F5F5F5F5F5F5F5F5
310
F5F5F5F5F5F5F5F5F5F5F5F5F5F5F5F5F5F5F5F5F5F5F5F5F5F5F5F5F5F5F5F5F5F5F5F5F5F5F5F5F5F5F5F5F5F5F5F5F5F5F5F5F5F5F5F5F5F5F5F5F5F5F5F5F5F5F5F5F5F5F5F528F5DCF5F5F5F5F5F5F5F5F5F5F5F5F5F5F5F5F5E2F5E2E2F5E2F5F5F5F5F5F5F5F5F5F5F5F5F5F5F5F5F5DCF528F5F5F5F5F5DCF5F5DC
310
DCF5F5F5F5F5F5F5F5F5F5F5F5F5F5F5F5F5F50FF5F5F5F5F5F5F5F5F5F5F5F5F5F5F5F5F5F5F5F5F5F5F5F5F5F5F5F5F5F5F5F5F5F5F5F5F5F5F5F5F5F5F5F5F5F5F5F5F5F5F5F5F5F5F5F5F5F5F5F5F5F5F5F5F5F5F5F5F5F5F5F5F5F5F5F5F5F5F5F5F5F5F5F5F5F5F5F5F5F5F5F5F5F5F5F5F5F5F5F5F5F5F5F5F528F5
310
DCF5F5F5F5F5F5F5F5F5F5F5F5F5F5F5F5F5E2F5E2E2F5E2F5F5F5F5F5F5F5F5F5F5F5F5F5F5F5F5F5DCF528F5F5F5F5DCF5F5DCF5DCF5F5F5F5F5F5F5F5F5F5F5F5F5F5F5F5F5F50FF5F5F5F5F5F5F5F5F5F5F5F5F5F5F5F5F5F5F5F5F5F5F5F5F5F5F5F5F5F5F5F5F5F5F5F5F5F5F5F5F5F5F5F5F5F5F5F5F5F5F5F5F5F5
310
F5F5F5F5F5F5F5F5F5F5F5F5F5F5F5F5F5F5F5F5F5F5F5F5F5F5F5F5F5F5F5F5F5F5F5F5F5F5F5F5F5F5F5F5F5F5F5F5F5F5F528F5DCF5F5F5F5F5F5F5F5F5F5F5F5F5F5F5F5F5E2F5E2E2F5E2F5F5F5F5F5F5F5F5F5F5F5F5F5F5F5F5F5DCF528F5F5F5DCF5F5DCF5F5DCF5F5F5F5F5F5F5F5F5F5F5F5F5F5F5F5F5F50FF5
310
F5F5F5F5F5F5F5F5F5F5F5F5F5F5F5F5F5F5F5F5F5F5F5F5F5F5F5F5F5F5F5F5F5F5F5F5F5F5F5F5F5F5F5F5F5F5F5F5F5F5F5F5F5F5F5F5F5F5F5F5F5F5F5F5F5F5F5F5F5F5F5F5F5F5F5F5F5F5F5F5F5F5F5F5F5F5F5F5F5F5F5F5F5F5F5F5F5F5F5F5F5F5F5F528F5DCF5F5F5F5F5F5F5F5F5F5F5F5F5F5F5F5F5E2F5E2
310
E2F5F5F5F5F5F5F5F5F5F5F5F5F5F5F5F5F5F5F5DCF528F5F5F5F5F5DCF5F5F5DC1B0F0F0F0F0F0F0F0F0F0F0F0F0F0F0F0F0F0F0F0F0F0F0F0F0FF5F5F5F5F5F5F5F5F5F5F5F5F5F5F5F5F5F5F5F5F5F5F5F5F5F5F5F5F5F5F5F5F5F5F5F5F5F5F5F5F5F5F5F5F5F5F5F5F5F5F5F5F5F5F5F5F5F5F5F5F5F5F5F5F5F5F5F5
310
F5F5F5F5F5F5F5F5F5F5F5F5F5F5F5F5F5F5F5F5F5F5F5F5F5F5F5F5F5F528F5DCF5F5F5F5F5F5F5F5F5F5F5F5F5F5F5F5F5F5F5E2E2F5F5F5F5F5F5F5F5F5F5F5F5F5F5F5F5F5F5F5DCF528F5F5F5F5DCF5F5F5DCDCBEF5F5F5F5F5F5F5F5F5F5F5F5F5F5F5F5F50FF5F5F5F5F50FF5F5F5F5F5F5F5F5F5F5F5F5F5F5F5F5
310
F5F5F5F5F5F5F5F5F5F5F5F5F5F5F5F5F5F5F5F5F5F5F5F5F5F5F5F5F5F5F5F5F5F5F5F5F5F5F5F5F5F5F5F5F5F5F5F5F5F5F5F5F5F5F5F5F5F5F5F5F5F5F5F5F5F5F5F5F5F5F5F5F5F5F5F5F5F5F5F5F5F5F528F5DCF5F5F5F5F5F5F5F5F5F5F5F5F5F5F5F5F5F5F5E2E2F5F5F5F5F5F5F5F5F5F5F5F5F5F5F5F5F5F5F5DC
310
F528F5F5F5DCF5F5F5DCF5DCF5BEBEF5F5F5F5F5F5F5F5F5F5F5F5F5F5F50FF5F5F5F5F50FF5F5F5F5F5F5F5F5F5F5F5F5F5F5F5F5F5F5F5F5F5F5F5F5F5F5F5F5F5F5F5F5F5F5F5F5F5F5F5F5F5F5F5F5F5F5F5F5F5F5F5F5F5F5F5F5F5F5F5F5F5F5F5F5F5F5F5F5F5F5F5F5F5F5F5F5F5F5F5F5F5F5F5F5F5F5F5F5F5F5
310
F5F5F5F5F5F5F5F5F528F5DCF5F5F5F5F5F5F5F5F5F5F5F5F5F5F5F5F5F5F5E2E2F5F5F5F5F5F5F5F5F5F5F5F5F5F5F5F5F5F5F5DCF528F5F5F5F5F5DCDCF5F5DCF5F5BEBEF5F5F5F5F5F5F5F5F5F5F5F5F5F50FF5F5F5F5F50FF5F5F5F5F5F5F5F5F5F5F5F5F5F5F5F5F5F5F5F5F5F5F5F5F5F5F5F5F5F5F5F5F5F5F5F5F5
310
F5F5F5F5F5F5F5F5F5F5F5F5F5F5F5F5F5F5F5F5F5F5F5F5F5F5F5F5F5F5F5F5F5F5F5F5F5F5F5F5F5F5F5F5F5F5F5F5F5F5F5F5F5F5F5F5F5F5F5F5F5F528F5DCF5F5F5F5F5F5F5F5F5F5F5F5F5F5F5F5F5F5F5E2E2F5F5F5F5F5F5F5F5F5F5F5F5F5F5F5F5F5F5F5DCF528F5F5F5F5DCF5F5F5DCDCF5F5F5BEF5F5F5F5F5
310
F5F5F5F5F5F5F5F5F50FF5F5F5F5F50FF5F5F5F5F5F5F5F5F5F5F5F5F5F5F5F5F5F5F5F5F5F5F5F5F5F5F5F5F5F5F5F5F5F5F5F5F5F5F5F5F5F5F5F5F5F5F5F5F5F5F5F5F5F5F5F5F5F5F5F5F5F5F5F5F5F5F5F5F5F5F5F5F5F5F5F5F5F5F5F5F5F5F5F5F5F5F5F5F5F5F5F5F5F5F5F5F5F5F528F5DCF5F5F5F5F5F5F5F5F5
310
F5F5F5F5F5F5F5F5F5F5E2E2F5F5F5F5F5F5F5F5F5F5F5F5F5F5F5F5F5F5F5DCF528F5F5F5DCF5F5F5DCF5DCF5F5F5BEBEBEF5F5F5F5F5F5F5F5F5F5F5F50FF5F5F5F5F50FF5F5F5F5F5F5F5F5F5F5F5F5F5F5F5F5F5F5F5F5F5F5F5F5F5F5F5F5F5F5F5F5F5F5F5F5F5F5F5F5F5F5F5F5F5F5F5F5F5F5F5F5F5F5F5F5F5F5
310
F5F5F5F5F5F5F5F5F5F5F5F5F5F5F5F5F5F5F5F5F5F5F5F5F5F5F5F5F5F5F5F5F5F5F5F5F5F5F5F5F528F5DCF5F5F5F5F5F5F5F5F5F5F5F5F5F5F5F5F5F5F5E2E2F5F5F5F5F5F5F5F5F5F5F5F5F5F5F5F5F5F5F5DCF528F5F5F5F5F5DCDCF5F5DCF5F5F5F5BEBEF5F5F5F5F5F5F5F5F5F5F5F50FF5F5F5F5F50FF5F5F5F5F5
310
F5F5F5F5F5F5F5F5F5F5F5F5F5F5F5F5F5F5F5F5F5F5F5F5F5F5F5F5F5F5F5F5F5F5F5F5F5F5F5F5F5F5F5F5F5F5F5F5F5F5F5F5F5F5F5F5F5F5F5F5F5F5F5F5F5F5F5F5F5F5F5F5F5F5F5F5F5F5F5F5F5F5F5F5F5F5F5F5F5F5F5F5F5F528F5DCF5F5F5F5F5F5F5F5F5F5F5F5F5F5F5F5F5F5F5E2E2F5F5F5F5F5F5F5F5F5
310
F5F5F5F5F5F5F5F5F5F5DCF528F5F5F5F5DCF5F5F5DCDCF5F5F5F5BEF5F5F5F5F5F5F5F5F5F5F5F5F50FF5F5F5F5F50FF5F5F5F5F5F5F5F5F5F5F5F5F5F5F5F5F5F5F5F5F5F5F5F5F5F5F5F5F5F5F5F5F5F5F5F5F5F5F5F5F5F5F5F5F5F5F5F5F5F5F5F5F5F5F5F5F5F5F5F5F5F5F5F5F5F5F5F5F5F5F5F5F5F5F5F5F5F5F5
310
F5F5F5F5F5F5F5F5F5F5F5F5F5F5F5F5F5F5F5F528F5DCF5F5F5F5F5F5F5F5F5F5F5F5F5F5F5F5F5F5F5E2E2F5F5F5F5F5F5F5F5F5F5F5F5F5F5F5F5F5F5F5DCF528F5F5F5DCF5F5F5DCF5DCF5F5F5F5BEF5F5F5F5F5F5F5F5F5F5F5F5F50FF5F5F5F5F50FF5F5F5F5F5F5F5F5F5F5F5F5F5F5F5F5F5F5F5F5F5F5F5F5F5F5
310
F5F5F5F5F5F5F5F5F5F5F5F5F5F5F5F5F5F5F5F5F5F5F5F5F5F5F5F5F5F5F5F5F5F5F5F5F5F5F5F5F5F5F5F5F5F5F5F5F5F5F5F5F5F5F5F5F5F5F5F5F5F5F5F5F5F5F5F5F5F5F5F5F528F5DCF5F5F5F5F5F5F5F5F5F5F5F5F5F5F5F5F5F5F5E2E2F5E2F5F5F5F5F5F5F5F5F5F5F5F5F5F5F5F5F5DCF528F5F5F5F5F5F5DCF5
310
F5DCBEBEF5F5BEF5F5F5F5F5F5F5F5F5F5F5F5F50FF5F52D2D2D2D2D2D2D2DF5F5F5F5F5F5F5F5F5F5F5F5F5F5F5F5F5F5F5F5F5F5F5F5F5F5F5F5F5F5F5F5F5F5F5F5F5F5F5F5F5F5F5F5F5F5F5F5F5F5F5F5F5F5F5F5F5F5F5F5F5F5F5F5F5F5F5F5F5F5F5F5F5F5F5F5F5F5F5F5F5F5F5F5F5F5F5F5F5F5F5F5F5F5F528
310
F5DCF5F5F5F5F5F5F5F5F5F5F5F5F5F5F5F5F5E2F5E2E2F5E2F5F5F5F5F5F5F5F5F5F5F5F5F5F5F5F5F5DCF528F5F5F5F5F5DCF5F5DCDCF5BEF5F5BEF5F5F5F5F5F5F5F5F5F5F5F5F50FF5F52D2D2D2D2D2D2D2DF5F5F5F5F5F5F5F5F5F5F5F5F5F5F5F5F5F5F5F5F5F5F5F5F5F5F5F5F5F5F5F5F5F5F5F5F5F5F5F5F5F5F5
310
F5F5F5F5F5F5F5F5F5F5F5F5F5F5F5F5F5F5F5F5F5F5F5F5F5F5F5F5F5F5F5F5F5F5F5F5F5F5F5F5F5F5F5F5F5F5F5F5F5F5F5F528F5DCF5F5F5F5F5F5F5F5F5F5F5F5F5F5F5F5F5E2F5E2E2F5E2F5F5F5F5F5F5F5F5F5F5F5F5F5F5F5F5F5DCF528F5F5F5F5DCF5F5DCF5DCF5BEF5F5BEBEF5F5F5F5F5F5F5F5F5F5F5F50F
310
F5F5F5F5F50FF5F5F5F5F5F5F5F5F5F5F5F5F5F5F5F5F5F5F5F5F5F5F5F5F5F5F5F5F5F5F5F5F5F5F5F5F5F5F5F5F5F5F5F5F5F5F5F5F5F5F5F5F5F5F5F5F5F5F5F5F5F5F5F5F5F5F5F5F5F5F5F5F5F5F5F5F5F5F5F5F5F5F5F5F5F5F5F5F5F5F5F5F5F5F5F5F5F5F528F5DCF5F5F5F5F5F5F5F5F5F5F5F5F5F5F5F5F5E2F5
310
E2E2F5E2F5F5F5F5F5F5F5F5F5F5F5F5F5F5F5F5F5DCF528F5F5F5DCF5F5DCF5F5DCF5F5BEF5F5BEF5F5F5F5F5F5F5F5F5F5F5F50FF5F5F5F5F50FF5F5F5F5F5F5F5F5F5F5F5F5F5F5F5F5F5F5F5F5F5F5F5F5F5F5F5F5F5F5F5F5F5F5F5F5F5F5F5F5F5F5F5F5F5F5F5F5F5F5F5F5F5F5F5F5F5F5F5F5F5F5F5F5F5F5F5F5
310
F5F5F5F5F5F5F5F5F5F5F5F5F5F5F5F5F5F5F5F5F5F5F5F5F5F5F5F5F5F5F528F5DCF5F5F5F5F5F5F5F5F5F5F5F5F5F5F5F5F5E2F5E2E2F5E2F5F5F5F5F5F5F5F5F5F5F5F5F5F5F5F5F5DCF528F5F5F5F5F5DCF5F5DCDCF5F5BEF5F5F5BEBEF5F5F5F5BEBEF5F5F5F50FF5F5F5F5F50FF5F5F5F5F5F5F5F5F5F5F5F5F5F5F5
310
F5F5F5F5F5F5F5F5F5F5F5F5F5F5F5F5F5F5F5F5F5F5F5F5F5F5F5F5F5F5F5F5F5F5F5F5F5F5F5F5F5F5F5F5F5F5F5F5F5F5F5F5F5F5F5F5F5F5F5F5F5F5F5F5F5F5F5F5F5F5F5F5F5F5F5F5F5F5F5F5F5F5F5F528F5DCF5F5F5F5F5F5F5F5F5F5F5F5F5F5F5F5F5E2F5E2E2F5E2F5F5F5F5F5F5F5F5F5F5F5F5F5F5F5F5F5
310
DCF528F5F5F5F5DCF5F5DCF5DCF5F5F5BEF5F5F5BEBEBEBEBEF5BEF5F5F5F50FF5F5F5F5F50FF5F5F5F5F5F5F5F5F5F5F5F5F5F5F5F5F5F5F5F5F5F5F5F5F5F5F5F5F5F5F5F5F5F5F5F5F5F5F5F5F5F5F5F5F5F5F5F5F5F5F5F5F5F5F5F5F5F5F5F5F5F5F5F5F5F5F5F5F5F5F5F5F5F5F5F5F5F5F5F5F5F5F5F5F5F5F5F5F5
310
F5F5F5F5F5F5F5F5F5F528F5DCF5F5F5F5F5F5F5F5F5F5F5F5F5F5F5F5F5E2F5E2E2F5E2F5F5F5F5F5F5F5F5F5F5F5F5F5F5F5F5F5DCF528F5F5F5DCF5F5DCF5F5DCF5F5F5F5BEF5F5F5F5F5F5F5F5BEBEF5F5F50FF5F5F5F5F50FF5F5F5F5F5F5F5F5F5F5F5F5F5F5F5F5F5F5F5F5F5F5F5F5F5F5F5F5F5F5F5F5F5F5F5F5
310
F5F5F5F5F5F5F5F5F5F5F5F5F5F5F5F5F5F5F5F5F5F5F5F5F5F5F5F5F5F5F5F5F5F5F5F5F5F5F5F5F5F5F5F5F5F5F5F5F5F5F5F5F5F5F5F5F5F5F5F5F5F5F528F5DCF5F5F5F5F5F5F5F5F5F5F5F5F5F5F5F5F5E2F5E2E2F5E2F5F5F5F5F5F5F5F5F5F5F5F5F5F5F5F5F5DCF528F5F5F5F5F5DCF5F5F5DCF5F5F5F5F5BEBEBE
310
F5F5F5F5F5F5F5BEBEF50FF5F5F5F5F50FF5F5F5F5F5F5F5F5F5F5F5F5F5F5F5F5F5F5F5F5F5F5F5F5F5F5F5F5F5F5F5F5F5F5F5F5F5F5F5F5F5F5F5F5F5F5F5F5F5F5F5F5F5F5F5F5F5F5F5F5F5F5F5F5F5F5F5F5F5F5F5F5F5F5F5F5F5F5F5F5F5F5F5F5F5F5F5F5F5F5F5F5F5F5F5F5F5F5F528F5DCF5F5F5F5F5F5F5F5
310
F5F5F5F5F5F5F5F5F5E2F5E2E2F5E2F5F5F5F5F5F5F5F5F5F5F5F5F5F5F5F5F5DCF528F5F5F5F5DCF5F5F5DCDCF5F5F5F5F5F5F5F5BEBEF5F5F5F5F5F5BEF50FF5F5F5F5F50FF5F5F5F5F5F5F5F5F5F5F5F5F5F5F5F5F5F5F5F5F5F5F5F5F5F5F5F5F5F5F5F5F5F5F5F5F5F5F5F5F5F5F5F5F5F5F5F5F5F5F5F5F5F5F5F5F5
310
F5F5F5F5F5F5F5F5F5F5F5F5F5F5F5F5F5F5F5F5F5F5F5F5F5F5F5F5F5F5F5F5F5F5F5F5F5F5F5F5F5F528F5DCF5F5F5F5F5F5F5F5F5F5F5F5F5F5F5F5F5E2F5E2E2F5E2F5F5F5F5F5F5F5F5F5F5F5F5F5F5F5F5F5DCF528F5F5F5DCF5F5F5DCF5DCF5F5F5F5F5F5F5F5F5BEBEF5F5F5F5F5F5BE1BF5F5F5F5F50FF5F5F5F5
310
F5F5F5F5F5F5F5F5F5F5F5F5F5F5F5F5F5F5F5F5F5F5F5F5F5F5F5F5F5F5F5F5F5F5F5F5F5F5F5F5F5F5F5F5F5F5F5F5F5F5F5F5F5F5F5F5F5F5F5F5F5F5F5F5F5F5F5F5F5F5F5F5F5F5F5F5F5F5F5F5F5F5F5F5F5F5F5F5F5F5F5F5F5F5F528F5DCF5F5F5F5F5F5F5F5F5F5F5F5F5F5F5F5F5E2F5E2E2F5E2F5F5F5F5F5F5
310
F5F5F5F5F5F5F5F5F5F5F5DCF528F5F5F5F5F5DCDCF5F5DCF5F5F5F5F5F5F5F5F5F5BEF5F5F5F5F5F5F5BEF5F5F5F5F50F0FF5F5F5F5F5F5F5F5F5F5F5F5F5F5F5F5F5F5F5F5F5F5F5F5F5F5F5F5F5F5F5F5F5F5F5F5F5F5F5F5F5F5F5F5F5F5F5F5F5F5F5F5F5F5F5F5F5F5F5F5F5F5F5F5F5F5F5F5F5F5F5F5F5F5F5F5F5
310
F5F5F5F5F5F5F5F5F5F5F5F5F5F5F5F5F5F5F5F5F528F5DCF5F5F5F5F5F5F5F5F5F5F5F5F5F5F5F5F5E2F5E2E2F5E2F5F5F5F5F5F5F5F5F5F5F5F5F5F5F5F5F5DCF528F5F5F5F5DCF5F5F5DCDCDCDCDCDCDCDCDCDCDCDCDCDCDCDCDCDCDCDCDCDCDCDCDCDCDCDCDCF5F5F5F5F5F5F5F5F5F5F5F5F5F5F5F5F5F5F5F5F5F5F5
310
F5F5F5F5F5F5F5F5F5F5F5F5F5F5F5F5F5F5F5F5F5F5F5F5F5F5F5F5F5F5F5F5F5F5F5F5F5F5F5F5F5F5F5F5F5F5F5F5F5F5F5F5F5F5F5F5F5F5F5F5F5F5F5F5F5F5F5F5F5F5F5F5F5F528F5DCF5F5F5F5F5F5F5F5F5F5F5F5F5F5F5F5F5E2F5E2E2F5E2F5F5F5F5F5F5F5F5F5F5F5F5F5F5F5F5F5DCF528F5F5F5DCF5F5F5
310
DCF5F5DCF5F5DCF5F5F5DCF5F5DCF5F5DCF5F5DCF5F5DCF5F5DCF5F5F5F5F5F5F5F5F5F5F5F5F5F5F5F5F5F5F5F5F5F5F5F5F5F5F5F5F5F5F5F5F5F5F5F5F5F5F5F5F5F5F5F5F5F5F5F5F5F5F5F5F5F5F5F5F5F5F5F5F5F5F5F5F5F5F5F5F5F5F5F5F5F5F5F5F5F5F5F5F5F5F5F5F5F5F5F5F5F5F5F5F5F5F5F5F5F5F5F5F5
310
28F5DCF5F5F5F5F5F5F5F5F5F5F5F5F5F5F5F5F5E2F5E2E2F5E2F5F5F5F5F5F5F5F5F5F5F5F5F5F5F5F5F5DCF528F5F5F5F5F5DCDCF5F5DCF5F5DCF5F5F5DCF5F5DCF5F5DCF5F5DCF5F5DCF5F5DCF5F5F5F5F5F5F5F5F5F5F5F5F5F5F5F5F5F5F5F5F5F5F5F5F5F5F5F5F5F5F5F5F5F5F5F5F5F5F5F5F5F5F5F5F5F5F5F5F5
310
F5F5F5F5F5F5F5F5F5F5F5F5F5F5F5F5F5F5F5F5F5F5F5F5F5F5F5F5F5F5F5F5F5F5F5F5F5F5F5F5F5F5F5F5F5F5F5F5F5F5F5F5F528F5DCF5F5F5F5F5F5F5F5F5F5F5F5F5F5F5F5F5E2F5E2E2F5E2F5F5F5F5F5F5F5F5F5F5F5F5F5F5F5F5F5DCF528F5F5F5F5DCF5F5F5DCF5F5DCF5F5DCDCF5DCDCF5DCDCF5F5DCF5F5DC
310
F5F5DCF5F5F5F5F5F5F5F5F5F5F5F5F5F5F5F5F5F5F5F5F5F5F5F5F5F5F5F5F5F5F5F5F5F5F5F5F5F5F5F5F5F5F5F5F5F5F5F5F5F5F5F5F5F5F5F5F5F5F5F5F5F5F5F5F5F5F5F5F5F5F5F5F5F5F5F5F5F5F5F5F5F5F5F5F5F5F5F5F5F5F5F5F5F5F5F5F5F5F5F5F5F5F528F5DCF5F5F5F5F5F5F5F5F5F5F5F5F5F5F5F5F5E2
310
F5E2E2F5E2F5F5F5F5F5F5F5F5F5F5F5F5F5F5F5F5F5DCF528F5F5F5DCF5F5F5DCF5F5DCF5F5DCF5F5DCF5F5DCF5F5F5DCF5F5DCF5F5DCF5F5F5DCF5F5F5F5F5F5F5F5F5F5F5F5F5F5F5F5F5F5F5F5F5F5F5F5F5F5F5F5F5F5F5F5F5F5F5F5F5F5F5F5F5F5F5F5F5F5F5F5F5F5F5F5F5F5F5F5F5F5F5F5F5F5F5F5F5F5F5F5
310
F5F5F5F5F5F5F5F5F5F5F5F5F5F5F5F5F5F5F5F5F5F5F5F5F5F5F5F5F5F5F5F528F5DCF5F5F5F5F5F5F5F5F5F5F5F5F5F5F5F5F5E2F5E2E2F5F5F5F5F5F5F5F5F5F5F5F5F5F5F5F5F5F5F5DCF528F5F5F5F5F5F5DCF5F5DCF5F5DCF5F5DCF5F5DCF5F5F5DCF5F5DCF5F5DCF5F5DCDCF5F5F5F5F5F5F5F5F5F5F5F5F5F5F5F5
310
F5F5F5F5F5F5F5F5F5F5F5F5F5F5F5F5F5F5F5F5F5F5F5F5F5F5F5F5F5F5F5F5F5F5F5F5F5F5F5F5F5F5F5F5F5F5F5F5F5F5F5F5F5F5F5F5F5F5F5F5F5F5F5F5F5F5F5F5F5F5F5F5F5F5F5F5F5F5F5F5F5F5F5F5F528F5DCF5F5F5F5F5F5F5F5F5F5F5F5F5F5F5F5F5F5F5E2E2F5F5F5F5F5F5F5F5F5F5F5F5F5F5F5F5F5F5
310
F5DCF528F5F5F5F5F5F5F5F5F5F5F5F5F5F5F5F5F5F5F5F5F5F5F5F5F5F5F5F5F5F5F5F5F5F5F5F5F5F5F5F5F5F5F5F5F5F5F5F5F5F5F5F5F5F5F5F5F5F5F5F5F5F5F5F5F5F5F5F5F5F5F5F5F5F5F5F5F5F5F5F5F5F5F5F5F5F5F5F5F5F5F5F5F5F5F5F5F5F5F5F5F5F5F5F5F5F5F5F5F5F5F5F5F5F5F5F5F5F5F5F5F5F5F5
310
F5F5F5F5F5F5F5F5F5F5F528F5DCF5F5F5F5F5F5F5F5F5F5F5F5F5F5F5F5F5F5F5E2E2F5F5F5F5F5F5F5F5F5F5F5F5F5F5F5F5F5F5F5DCF528F5F5F5F5F5F5F5F5F5F5F5F5F5F5F5F5F5F5F5F5F5F5F5F5F5F5F5F5F5F5F5F5F5F5F5F5F5F5F5F5F5F5F5F5F5F5F5F5F5F5F5F5F5F5F5F5F5F5F5F5F5F5F5F5F5F5F5F5F5F5
310
F5F5F5F5F5F5F5F5F5F5F5F5F5F5F5F5F5F5F5F5F5F5F5F5F5F5F5F5F5F5F5F5F5F5F5F5F5F5F5F5F5F5F5F5F5F5F5F5F5F5F5F5F5F5F5F5F5F5F5F5F5F5F5F528F5DCF5F5F5F5F5F5F5F5F5F5F5F5F5F5F5F5F5F5F5E2E2F5F5F5F5F5F5F5F5F5F5F5F5F5F5F5F5F5F5F5DCF528F5F5F5F5F5F5F5F5F5F5F5F5F5F5F5F5F5
310
F5F5F5F5F5F5F5F5F5F5F5F5F5F5F5F5F5F5F5F5F5F5F5F5F5F5F5F5F5F5F5F5F5F5F5F5F5F5F5F5F5F5F5F5F5F5F5F5F5F5F5F5F5F5F5F5F5F5F5F5F5F5F5F5F5F5F5F5F5F5F5F5F5F5F5F5F5F5F5F5F5F5F5F5F5F5F5F5F5F5F5F5F5F5F5F5F5F5F5F5F5F5F5F5F5F5F5F5F5F5F5F5F5F5F5F5F528F5DCF5F5F5F5F5F5F5
310
F5F5F5F5F5F5F5F5F5F5F5F5E2E2F5F5F5F5F5F5F5F5F5F5F5F5F5F5F5F5F5F5F5DCF528F5F5F5F5F5F5F5F5F5F5F5F5F5F5F5F5F5F5F5F5F5F5F5F5F5F5F5F5F5F5F5F5F5F5F5F5F5F5F5F5F5F5F5F5F5F5F5F5F5F5F5F5F5F5F5F5F5F5F5F5F5F5F5F5F5F5F5F5F5F5F5F5F5F5F5F5F5F5F5F5F5F5F5F5F5F5F5F5F5F5F5
310
F5F5F5F5F5F5F5F5F5F5F5F5F5F5F5F5F5F5F5F5F5F5F5F5F5F5F5F5F5F5F5F5F5F5F5F5F5F5F5F5F5F5F528F5DCF5F5F5F5F5F5F5F5F5F5F5F5F5F5F5F5F5F5F5E2E2F5F5F5F5F5F5F5F5F5F5F5F5F5F5F5F5F5F5F5DCF528F5F5F5F5F5F5F5F5F5F5F5F5F5F5F5F5F5F5F5F5F5F5F5F5F5F5F5F5F5F5F5F5F5F5F5F5F5F5
310
F5F5F5F5F5F5F5F5F5F5F5F5F5F5F5F5F5F5F5F5F5F5F5F5F5F5F5F5F5F5F5F5F5F5F5F5F5F5F5F5F5F5F5F5F5F5F5F5F5F5F5F5F5F5F5F5F5F5F5F5F5F5F5F5F5F5F5F5F5F5F5F5F5F5F5F5F5F5F5F5F5F5F5F5F5F5F5F5F5F5F5F5F5F5F5F528F5DCF5F5F5F5F5F5F5F5F5F5F5F5F5F5F5F5F5F5F5E2E2F5F5F5F5F5F5F5
310
F5F5F5F5F5F5F5F5F5F5F5F5DCF528F5F5F5F5F5F5F5F5F5F5F5F5F5F5F5F5F5F5F5F5F5F5F5F5F5F5F5F5F5F5F5F5F5F5F5F5F5F5F5F5F5F5F5F5F5F5F5F5F5F5F5F5F5F5F5F5F5F5F5F5F5F5F5F5F5F5F5F5F5F5F5F5F5F5F5F5F5F5F5F5F5F5F5F5F5F5F5F5F5F5F5F5F5F5F5F5F5F5F5F5F5F5F5F5F5F5F5F5F5F5F5F5
310
F5F5F5F5F5F5F5F5F5F5F5F5F5F5F5F5F5F5F5F5F5F528F5DCF5F5F5F5F5F5F5F5F5F5F5F5F5F5F5F5F5F5F5E2E2F5F5F5F5F5F5F5F5F5F5F5F5F5F5F5F5F5F5F5DCF528F5F5F5F5F5F5F5F5F5F5F5F5F5F5F5F5F5F5F5F5F5F5F5F5F5F5F5F5F5F5F5F5F5F5F5F5F5F5F5F5F5F5F5F5F5F5F5F5F5F5F5F5F5F5F5F5F5F5F5
310
F5F5F5F5F5F5F5F5F5F5F5F5F5F5F5F5F5F5F5F5F5F5F5F5F5F5F5F5F5F5F5F5F5F5F5F5F5F5F5F5F5F5F5F5F5F5F5F5F5F5F5F5F5F5F5F5F5F5F5F5F5F5F5F5F5F5F5F5F5F5F5F5F5F5F528F5DCF5F5F5F5F5F5F5F5F5F5F5F5F5F5F5F5F5F5F5E2E2F5E2F5F5F5F5F5F5F5F5F5F5F5F5F5F5F5F5F5DCF528F5F5F5F5F5F5
310
F5F5F5F5F5F5F5F5F5F5F5F5F5F5F5F5F5F5F5F5F5F5F5F5F5F5F5F5F5F5F5F5F5F5F5F5F5F5F5F5F5F5F5F5F5F5F5F5F5F5F5F5F5F5F5F5F5F5F5F5F5F5F5F5F5F5F5F5F5F5F5F5F5F5F5F5F5F5F5F5F5F5F5F5F5F5F5F5F5F5F5F5F5F5F5F5F5F5F5F5F5F5F5F5F5F5F5F5F5F5F5F5F5F5F5F5F5F5F5F5F5F5F5F5F5F5F5
310
F528F5DCF5F5F5F5F5F5F5F5F5F5F5F5F5F5F5F5F5E2F5E2E2F5E2F5F5F5F5F5F5F5F5F5F5F5F5F5F5F5F5F5DCF528F5F5F5F5F5F5F5F5F5F5F5F5F5F5F5F5F5F5F5F5F5F5F5F5F5F5F5F5F5F5F5F5F5F5F5F5F5F5F5F5F5F5F5F5F5F5F5F5F5F5F5F5F5F5F5F5F5F5F5F5F5F5F5F5F5F5F5F5F5F5F5F5F5F5F5F5F5F5F5F5
310
F5F5F5F5F5F5F5F5F5F5F5F5F5F5F5F5F5F5F5F5F5F5F5F5F5F5F5F5F5F5F5F5F5F5F5F5F5F5F5F5F5F5F5F5F5F5F5F5F5F5F5F5F5F528F5DCF5F5F5F5F5F5F5F5F5F5F5F5F5F5F5F5F5E2F5E2E2F5E2F5F5F5F5F5F5F5F5F5F5F5F5F5F5F5F5F5DCF528F5F5F5F5F5F5F5F5F5F5F5F5F5F5F5F5F5F5F5F5F5F5F5F5F5F5F5
310
F5F5F5F5F5F5F5F5F5F5F5F5F5F5F5F5F5F5F5F5F5F5F5F5F5F5F5F5F5F5F5F5F5F5F5F5F5F5F5F5F5F5F5F5F5F5F5F5F5F5F5F5F5F5F5F5F5F5F5F5F5F5F5F5F5F5F5F5F5F5F5F5F5F5F5F5F5F5F5F5F5F5F5F5F5F5F5F5F5F5F5F5F5F5F5F5F5F5F5F5F5F5F5F5F5F5F528F5DCF5F5F5F5F5F5F5F5F5F5F5F5F5F5F5F5F5
310
E2F5E2E2F5E2F5F5F5F5F5F5F5F5F5F5F5F5F5F5F5F5F5DCF528F5F5F5F5F5F5F5F5F5F5F5F5F5F5F5F5F5F5F5F5F5F5F5F5F5F5F5F5F5F5F5F5F5F5F5F5F5F5F5F5F5F5F5F5F5F5F5F5F5F5F5F5F5F5F5F5F5F5F5F5F5F5F5F5F5F5F5F5F5F5F5F5F5F5F5F5F5F5F5F5F5F5F5F5F5F5F5F5F5F5F5F5F5F5F5F5F5F5F5F5F5
310
F5F5F5F5F5F5F5F5F5F5F5F5F5F5F5F5F5F5F5F5F5F5F5F5F5F5F5F5F5F5F5F5F528F5DCF5F5F5F5F5F5F5F5F5F5F5F5F5F5F5F5F5E2F5E2E2F5E2F5F5F5F5F5F5F5F5F5F5F5F5F5F5F5F5F5DCF528F5F5F5F5F5F5F5F5F5F5F5F5F5F5F5F5F5F5F5F5F5F5F5F5F5F5F5F5F5F5F5F5F5F5F5F5F5F5F5F5F5F5F5F5F5F5F5F5
310
F5F5F5F5F5F5F5F5F5F5F5F5F5F5F5F5F5F5F5F5F5F5F5F5F5F5F5F5F5F5F5F5F5F5F5F5F5F5F5F5F5F5F5F5F5F5F5F5F5F5F5F5F5F5F5F5F5F5F5F5F5F5F5F5F5F5F5F5F5F5F5F5F5F5F5F5F5F5F5F5F5F5F5F5F5F528F5DCF5F5F5F5F5F5F5F5F5F5F5F5F5F5F5F5F5E2F5E2E2F5E2F5F5F5F5F5F5F5F5F5F5F5F5F5F5F5
310
F5F5DCF528F5F5F5F5F5F5F5F5F5F5F5F5F5F5F5F5F5F5F5F5F5F5F5F5F5F5F5F5F5F5F5F5F5F5F5F5F5F5F5F5F5F5F5F5F5F5F5F5F5F5F5F5F5F5F5F5F5F5F5F5F5F5F5F5F5F5F5F5F5F5F5F5F5F5F5F5F5F5F5F5F5F5F5F5F5F5F5F5F5F5F5F5F5F5F5F5F5F5F5F5F5F5F5F5F5F5F5F5F5F5F5F5F5F5F5F5F5F5F5F5F5F5
310
F5F5F5F5F5F5F5F5F5F5F5F528F5DCF5F5F5F5F5F5F5F5F5F5F5F5F5F5F5F5F5E2F5E2E2F5E2F5F5F5F5F5F5F5F5F5F5F5F5F5F5F5F5F5DCF528F5F5F5F5F5F5F5F5F5F5F5F5F5F5F5F5F5F5F5F5F5F5F5F5F5F5F5F5F5F5F5F5F5F5F5F5F5F5F5F5F5F5F5F5F5F5F5F5F5F5F5F5F5F5F5F5F5F5F5F5F5F5F5F5F5F5F5F5F5
310
F5F5F5F5F5F5F5F5F5F5F5F5F5F5F5F5F5F5F5F5F5F5F5F5F5F5F5F5F5F5F5F5F5F5F5F5F5F5F5F5F5F5F5F5F5F5F5F5F5F5F5F5F5F5F5F5F5F5F5F5F5F5F5F5F528F5DCF5F5F5F5F5F5F5F5F5F5F5F5F5F5F5F5F5E2F5E2E2F5E2F5F5F5F5F5F5F5F5F5F5F5F5F5F5F5F5F5DCF528F5F5F5F5F5F5F5F5F5F5F5F5F5F5F5F5
310
F5F5F5F5F5F5F5F5F5F5F5F5F5F5F5F5F5F5F5F5F5F5F5F5F5F5F5F5F5F5F5F5F5F5F5F5F5F5F5F5F5F5F5F5F5F5F5F5F5F5F5F5F5F5F5F5F5F5F5F5F5F5F5F5F5F5F5F5F5F5F5F5F5F5F5F5F5F5F5F5F5F5F5F5F5F5F5F5F5F5F5F5F5F5F5F5F5F5F5F5F5F5F5F5F5F5F5F5F5F5F5F5F5F5F5F5F5F528F5DCF5F5F5F5F5F5
310
F5F5F5F5F5F5F5F5F5F5F5E2F5E2E2F5E2F5F5F5F5F5F5F5F5F5F5F5F5F5F5F5F5F5DCF528282828282828282828282828282828282828282828282828282828282828282828282828282828282828282828282828282828282828282828282828282828282828282828282828282828282828282828282828282828282828
310
282828282828282828282828282828282828282828282828282828282828282828282828282828282828282828F5DCF5F5F5F5F5F5F5F5F5F5F5F5F5F5F5F5F5E2F5E2E2F5E2F5F5F5F5F5F5F5F5F5F5F5F5F5F5F5F5F5DCF528F5F5F5F5F5F5F5F5F5F5F5F5F5F5F5F5F5F5F5F5F5F5F5F5F5F5F5F5F5F5F5F5F5F5F5F5F5
310
F5F5F5F5F5F5F5F5F5F5F5F5F5F5F5F5F5F5F5F5F5F5F5F5F5F5F5F5F528F5F5F5F5F5F5F5F5F5F5F5F5F5F5F5F5F5F5F5F5F5F5F5F5F5F5F5F5F5F5F5F5F5F5F5F5F5F5F5F5F5F5F5F5F5F5F5F5F5F5F5F5F5F5F5F5F5F5F5F5F5F5F5F5F5F5F528F5DCF5F5F5F5F5F5F5F5F5F5F5F5F5F5F5F5F5E2F5E2E2F5E2F5F5F5F5
310
F5F5F5F5F5F5F5F5F5F5F5F5F5DCF528F5F5F5F5F5F5F5F5F5F5F5F5F52D2D2D2D2D2D2D2D2D2D2D2D2D2D2D2D2D2D2D2D2D2D2D2D2D2D2D2D2D2D2D2D2D2D2D2D2D2DF5F5F5F5F5F5F5F5F5F5F5F5F5F5F528F5F5F52D2D2D2DF52D2D2D2D2D2DF5F5F5F5F5F5F5F5F5F5F5F5F5F5F5F5F5F5F5F5F5F5F5F5F5F5F5F5F5F5
310
F5F5F5F5F5F5F5F5F5F5F5F5F5F5F5F5F5F5F5F5F5F5F528F5DCF5F5F5F5F5F5F5F5F5F5F5F5F5F5F5F5F5E2F5E2E2F5E2F5F5F5F5F5F5F5F5F5F5F5F5F5F5F5F5F5DCF528F5F5F5F5F5F5F5F5F5F5F5F5F52D2D2D2D2D2D2D2D2D2D2D2D2D2D2D2D2D2D2D2D2D2D2D2D2D2D2D2D2D2D2D2D2D2D2D2D2D2DF5F5F5F5F5F5F5
310
F5F5F5F5F5F5F5F528F5F5F52D2D2D2DF52D2D2D2DF52DF5F5F5F5F5F5F5F5F5F5F5F5F5F5F5F5F5F5F5F5F5F5F5F5F5F5F5F5F5F5F5F5F5F5F5F5F5F5F5F5F5F5F5F5F5F5F5F5F5F5F5F5F528F5DCF5F5F5F5F5F5F5F5F5F5F5F5F5F5F5F5F5E2F5E2E2F5E2F5F5F5F5F5F5F5F5F5F5F5F5F5F5F5F5F5DCF528F5F5F5F5F5
310
F5F5F5F5F5F5F5F5F5F5F5F5F5F5F5F5F5F5F5F5F5F5F5F5F5F5F5F5F5F5F5F5F5F5F5F5F5F5F5F5F5F5F5F5F5F5F5F5F5F5F5F5F5F5F5F5F5F5F5F5F528F5F5F5F5F5F5F5F5F5F5F5F5F5F5F5F5F5F5F5F5F5F5F5F5F5F5F5F5F5F5F5F5F5F5F5F5F5F5F5F5F5F5F5F5F5F5F5F5F5F5F5F5F5F5F5F5F5F5F5F5F5F5F5F5F5
310
F5F528F5DCF5F5F5F5F5F5F5F5F5F5F5F5F5F5F5F5F5E2F5E2E2F5E2F5F5F5F5F5F5F5F5F5F5F5F5F5F5F5F5F5DCF52828282828282828282828282828282828282828282828282828282D2D2D2D2D2D2D2D2D2D2D2D2D28282828282828282828282828282828282828282828282828282828282828282828282828282828
310
2828282828282828282828282828282828282828282828282828282828282828282828282828282828282828282828282828282828282828F5DCF5F5F5F5F5F5F5F5F5F5F5F5F5F5F5F5F5E2F5E2E2F5E2F5F5F5F5F5F5F5F5F5F5F5F5F5F5F5F5F5DCF528F5F5F5F5F5F5F5F5F5F5F5F5F5F5F5F5F5F5F5F5F5F5F5F5F5F5
310
2D2D2D2D2D2D2D2D2D2D2D2D2DF5F5F5F5F5F5F5F5F5F5F5F5F5F5F5F5F5F5F5F5F5F5F5F5F5F5F528F5F5F52D2D2D2D2D2D2D2D2D2D2DF5F52D2D2D2D2D2D2D2D2D2DF5F5F5F5F5F5F5F5F5F5F5F5F5F5F5F5F5F5F5F5F5F5F5F5F5F5F5F5F5F5F5F5F5F5F5F5F5F5F5F5F528F5DCF5F5F5F5F5F5F5F5F5F5F5F5F5F5F5F5
310
F5E2F5E2E2F5E2F5F5F5F5F5F5F5F5F5F5F5F5F5F5F5F5F5DCF528F5F5F5F5F5F5F5F5F5F5F5F5F5F5F5F5F5F5F5F5F5F5F5F5F5F52D2D2D2D2D2D2D2D2D2D2D2D2DF5F5F5F5F5F5F5F5F5F5F5F5F5F5F5F5F5F5F5F5F5F5F5F5F5F5F528F5F5F52D2D2D2D2D2D2D2D2D2D2DF52D2D2D2D2D2D2D2D2D2D2DF5F5F5F5F5F5F5
310
F5F5F5F5F5F5F5F5F5F5F5F5F5F5F5F5F5F5F5F5F5F5F5F5F5F5F5F5F5F5F5F5F5F528F5DCF5F5F5F5F5F5F5F5F5F5F5F5F5F5F5F5F5E2F5E2E2F5F5F5F5F5F5F5F5F5F5F5F5F5F5F5F5F5F5F5DCF528F5F5F5F5F5F5F5F5F5F5F5F5F5F5F5F5F5F5F5F5F5F5F5F5F5F5F5F5F5F5F5F5F5F5F5F5F5F5F5F5F5F5F5F5F5F5F5
310
F5F5F5F5F5F5F5F5F5F5F5F5F5F5F5F5F5F5F528F5F5F5F5F5F5F5F5F5F5F5F5F5F5F5F5F5F5F5F5F5F5F5F5F5F5F5F5F5F5F5F5F5F5F5F5F5F5F5F5F5F5F5F5F5F5F5F5F5F5F5F5F5F5F5F5F5F5F5F5F5F5F5F5F5F5F528F5DCF5F5F5F5F5F5F5F5F5F5F5F5F5F5F5F5F5F5F5E2E2F5F5F5F5F5F5F5F5F5F5F5F5F5F5F5F5
310
F5F5F5DCF52828282828282828282828282828282828282828282828282828282828282828282828282828282828282828282828282828282828282828282828282828282828282828282828282828282828282828282828282828282828282828282828282828282828282828282828282828282828282828282828282828
310
2828282828282828282828282828F5DCF5F5F5F5F5F5F5F5F5F5F5F5F5F5F5F5F5F5F5E2E2F5F5F5F5F5F5F5F5F5F5F5F5F5F5F5F5F5F5F5DCF5F5F5F5F5F5F5F5F5F5F5F5F5F5F5F5F5F5F5F5F5F5F5F5F5F5F5F5F5F5F5F5F5F5F5F5F5F5F5F5F5F5F5F5F5F5F5F5F5F5F5F5F5F5F5F5F5F5F5F5F5F5F5F5F5F5F5F5F5F5
310
F5F5F5F5F5F5F5F5F5F5F5F5F5F5F5F5F5F5F5F5F5F5F5F5F5F5F5F5F5F5F5F5F5F5F5F5F5F5F5F5F5F5F5F5F5F5F5F5F5F5F5F5F5F5F5F5F5F5F5F5F5F5F5F5F5F5F5F5DCF5F5F5F5F5F5F5F5F5F5F5F5F5F5F5F5F5F5F5E2E2F5F5F5F5F5F5F5F5F5F5F5F5F5F5F5F5F5F5F5DCDCDCDCDCDCDCDCDCDCDCDCDCDCDCDCDCDC
310
DCDCDCDCDCDCDCDCDCDCDCDCDCDCDCDCDCDCDCDCDCDCDCDCDCDCDCDCDCDCDCDCDCDCDCDCDCDCDCDCDCDCDCDCDCDCDCDCDCDCDCDCDCDCDCDCDCDCDCDCDCDCDCDCDCDCDCDCDCDCDCDCDCDCDCDCDCDCDCDCDCDCDCDCDCDCDCDCDCDCDCDCDCDCDCDCDCDCDCDCDCDCDCDCDCDCDCDCDCDCDCDCDCDCDCDCDCDCDCDCDCDCF5F5F5F5F5
310
F5F5F5F5F5F5F5F5F5F5F5F5F5F5E2E2F5F5F5F5F5F5F5F5F5F5F5F5F5F5F5F5F5F5F5DCDCDCDCDCDCDCDCDCDCDCDCDCDCDCDCDCDCDCDCDCDCDCDCDCDCDCDCDCDCDCDCDCDCDCDCDCDCDCDCDCDCDCDCDCDCDCDCDCDCDCDCDCDCDCDCDCDCDCDCDCDCDCDCDCDCDCDCDCDCDCDCDCDCDCDCDCDCDCDCDCDCDCDCDCDCDCDCDCDCDCDC
310
DCDCDCDCDCDCDCDCDCDCDCDCDCDCDCDCDCDCDCDCDCDCDCDCDCDCDCDCDCDCDCDCDCDCDCDCDCDCDCDCDCDCDCDCDCDCDCDCF5F5F5F5F5F5F5F5F5F5F5F5F5F5F5F5F5F5F5E2E2F5F5F5F5F5F5F5F5F5F5F5F5F5F5F5F5F5F5F5F5F5F5F5F5F5F5F5F5F5F5F5F5F5F5F5F5F5F5F5F5F5F5F5F5F5F5F5F5F5F5F5F5F5F5F5F5F5F5
310
F5F5F5F5F5F5F5F5F5F5F5F5F5F5F5F5F5F5F5F5F5F5F5F5F5F5F5F5F5F5F5F5F5F5F5F5F5F5F5F5F5F5F5F5F5F5F5F5F5F5F5F5F5F5F5F5F5F5F5F5F5F5F5F5F5F5F5F5F5F5F5F5F5F5F5F5F5F5F5F5F5F5F5F5F5F5F5F5F5F5F5F5F5F5F5F5F5F5F5F5F5F5F5F5F5F5F5F5F5F5F5F5F5F5F5F5F5F5F5F5E2E2F5F5F5F5F5
310
F5F5F5F5F5F5F5F5F5F5F5F5F5F5F5F5F5F5F5F5F5F5F5F5F5F5F5F5F5F5F5F5F5F5F5F5F5F5F5F5F5F5F5F5F5F5F5F5F5F5F5F5F5F5F5F5F5F5F5F5F5F5F5F5F5F5F5F5F5F5F5F5F5F5F5F5F5F5F5F5F5F5F5F5F5F5F5F5F5F5F5F5F5F5F5F5F5F5F5F5F5F5F5F5F5F5F5F5F5F5F5F5F5F5F5F5F5F5F5F5F5F5F5F5F5F5F5
310
F5F5F5F5F5F5F5F5F5F5F5F5F5F5F5F5F5F5F5F5F5F5F5F5F5F5F5F5F5F5F5F5F5F5F5F5F5F5F5F5F5F5F5F5F5F5E2E2F5F5F5F5F5F5F5F5F5F5F5F5F5F5F5F5F5F5F5F5F5F5F5F5F5F5F5F5F5F5F5F5F5F5F5F5F5F5F5F5F5F5F5F5F5F5F5F5F5F5F5F5F5F5F5F5F5F5F5F5F5F5F5F5F5F5F5F5F5F5F5F5F5F5F5F5F5F5F5
310
F5F5F5F5F5F5F5F5F5F5F5F5F5F5F5F5F5F5F5F5F5F5F5F5F5F5F5F5F5F5F5F5F5F5F5F5F5F5F5F5F5F5F5F5F5F5F5F5F5F5F5F5F5F5F5F5F5F5F5F5F5F5F5F5F5F5F5F5F5F5F5F5F5F5F5F5F5F5F5F5F5F5F5F5F5F5F5F5F5F5F5F5F5F5F5F5F5F5F5E2E2F5F5F5F5F5F5F5F5F5F5F5F5F5F5F5F5F5F5F5F5F5F5F5F5F5F5
310
F5F5F5F5F5F5F5F5F5F5F5F5F5F5F5F5F5F5F5F5F5F5F5F5F5F5F5F5F5F5F5F5F5F5F5F5F5F5F5F5F5F5F5F5F5F5F5F5F5F5F5F5F5F5F5F5F5F5F5F5F5F5F5F5F5F5F5F5F5F5F5F5F5F5F5F5F5F5F5F5F5F5F5F5F5F5F5F5F5F5F5F5F5F5F5F5F5F5F5F5F5F5F5F5F5F5F5F5F5F5F5F5F5F5F5F5F5F5F5F5F5F5F5F5F5F5F5
310
F5F5F5F5F5F5F5F5F5F5F5F5F5F5F5F5F5F5F5F5F5F5F5F5F5E2E2F5E2F5F5F5F5F5F5F5F5F5F5F5F5F5F5F5F5F5F5F5F5F5F5F5F5F5F5F5F5F5F5F5F5F5F5F5F5F5F5F5F5F5F5F5F5F5F5F5F5F5F5F5F5F5F5F5F5F5F5F5F5F5F5F5F5F5F5F5F5F5F5F5F5F5F5F5F5F5F5F5F5F5F5F5F5F5F5F5F5F5F5F5F5F5F5F5F5F5F5
310
F5F5F5F5F5F5F5F5F5F5F5F5F5F5F5F5F5F5F5F5F5F5F5F5F5F5F5F5F5F5F5F5F5F5F5F5F5F5F5F5F5F5F5F5F5F5F5F5F5F5F5F5F5F5F5F5F5F5F5F5F5F5F5F5F5F5F5F5F5F5F5F5F5F5F5F5E2F5E2E2F5E2F5F5F5F5F5F5F5F5F5F5F5F5F5F5F5F5F5F5F5F5F5F5F5F5F5F5F5F5F5F5F5F5F5F5F5F5F5F5F5F5F5F5F5F5F5
310
F5F5F5F5F5F5F5F5F5F5F5F5F5F5F5F5F5F5F5F5F5F5F5F5F5F5F5F5F5F5F5F5F5F5F5F5F5F5F5F5F5F5F5F5F5F5F5F5F5F5F5F5F5F5F5F5F5F5F5F5F5F5F5F5F5F5F5F5F5F5F5F5F5F5F5F5F5F5F5F5F5F5F5F5F5F5F5F5F5F5F5F5F5F5F5F5F5F5F5F5F5F5F5F5F5F5F5F5F5F5F5F5F5F5F5F5F5F5F5F5F5F5F5F5F5F5F5
310
F5F5E2F5E2E2F5E2F5F5F5F5F5F5F5F5F5F5F5F5F5F5F5F5F5F5F5F5F5F5F5F5F5F5F5F5F5F5F5F5F5F5F5F5F5F5F5F5F5F5F5F5F5F5F5F5F5F5F5F5F5F5F5F5F5F5F5F5F5F5F5F5F5F5F5F5F5F5F5F5F5F5F5F5F5F5F5F5F5F5F5F5F5F5F5F5F5F5F5F5F5F5F5F5F5F5F5F5F5F5F5F5F5F5F5F5F5F5F5F5F5F5F5F5F5F5F5
310
F5F5F5F5F5F5F5F5F5F5F5F5F5F5F5F5F5F5F5F5F5F5F5F5F5F5F5F5F5F5F5F5F5F5F5F5F5F5F5F5F5F5F5F5F5F5F5F5F5F5F5F5F5F5F5E2F5E2E2F5E2F5F5F5F5F5F5F5F5F5F5F5F5F5F5F5F5F5F5F5F5F5F5F5F5F5F5F5F5F5F5F5F5F5F5F5F5F5F5F5F5F5F5F5F5F5F5F5F5F5F5F5F5F5F5F5F5F5F5F5F5F5F5F5F5F5F5
310
F5F5F5F5F5F5F5F5F5F5F5F5F5F5F5F5F5F5F5F5F5F5F5F5F5F5F5F5F5F5F5F5F5F5F5F5F5F5F5F5F5F5F5F5F5F5F5F5F5F5F5F5F5F5F5F5F5F5F5F5F5F5F5F5F5F5F5F5F5F5F5F5F5F5F5F5F5F5F5F5F5F5F5F5F5F5F5F5F5F5F5F5F5F5F5F5F5F5F5F5F5F5F5F5F5F5F5F5E2F5E2E2F5E2F5F5F5F5F5F5F5F5F5F5F5F5F5
310
F5F5F5F5F5F5F5F5F5F5F5F5F5F5F5F5F5F5F5F5F5F5F5F5F5F5F5F5F5F5F5F5F5F5F5F5F5F5F5F5F5F5F5F5F5F5F5F5F5F5F5F5F5F5F5F5F5F5F5F5F5F5F5F5F5F5F5F5F5F5F5F5F5F5F5F5F5F5F5F5F5F5F5F5F5F5F5F5F5F5F5F5F5F5F5F5F5F5F5F5F5F5F5F5F5F5F5F5F5F5F5F5F5F5F5F5F5F5F5F5F5F5F5F5F5F5F5
310
F5F5F5F5F5F5F5F5F5F5F5F5F5F5F5F5F5F5F5F5F5F5F5F5F5F5F5F5F5F5F5F5F5F5E2F5E2E2F5E2F5F5F5F5F5F5F5F5F5F5F5F5F5F5F5F5F5F5F5F5F5F5F5F5F5F5F5F5F5F5F5F5F5F5F5F5F5F5F5F5F5F5F5F5F5F5F5F5F5F5F5F5F5F5F5F5F5F5F5F5F5F5F5F5F5F5F5F5F5F5F5F5F5F5F5F5F5F5F5F5F5F5F5F5F5F5F5
310
F5F5F5F5F5F5F5F5F5F5F5F5F5F5F5F5F5F5F5F5F5F5F5F5F5F5F5F5F5F5F5F5F5F5F5F5F5F5F5F5F5F5F5F5F5F5F5F5F5F5F5F5F5F5F5F5F5F5F5F5F5F5F5F5F5F5F5F5F5F5F5F5F5F5F5F5F5F5F5F5F5F5F5F5F5F5F5E2F5E2E2F5E2F5F5F5F5F5F5F5F5F5F5F5F5F5F5F5F5F5F5F5F5F5F5F5F5F5F5F5F5F5F5F5F5F5F5
310
F5F5F5F5F5F5F5F5F5F5F5F5F5F5F5F5F5F5F5F5F5F5F5F5F5F5F5F5F5F5F5F5F5F5F5F5F5F5F5F5F5F5F5F5F5F5F5F5F5F5F5F5F5F5F5F5F5F5F5F5F5F5F5F5F5F5F5F5F5F5F5F5F5F5F5F5F5F5F5F5F5F5F5F5F5F5F5F5F5F5F5F5F5F5F5F5F5F5F5F5F5F5F5F5F5F5F5F5F5F5F5F5F5F5F5F5F5F5F5F5F5F5F5F5F5F5F5
310
F5F5F5F5F5F5F5F5F5F5F5F5F5E2F5E2E2F5E2E2E2E2E2E2E2E2E2F5F5F5F5F5F5F5F5F5E2E2E2E2E2E2E2E2E2E2E2E2E2E2E2E2F5F5F5F5F5F5F5F5F5E2E2E2E2E2E2E2E2E2E2E2E2E2E2E2E2F5F5F5F5F5F5F5F5F5E2E2E2E2E2E2E2E2E2E2E2E2E2E2E2E2F5F5F5F5F5F5F5F5F5E2E2E2E2E2E2E2E2E2E2E2E2E2E2E2E2
310
F5F5F5F5F5F5F5F5F5E2E2E2E2E2E2E2E2E2E2E2E2E2E2E2E2F5F5F5F5F5F5F5F5F5E2E2E2E2E2E2E2E2E2E2E2E2E2E2E2E2F5F5F5F5F5F5F5F5F5E2E2E2E2E2E2E2E2F5E2E2F5F5F5F5F5F5F5F5F5F5F5F5F5F5F5F5F5F5F5F5F5F5F5F5F5F5F5F5F5F5F5F5F5F5F5F5F5F5F5F5F5F5F5F5F5F5F5F5F5F5F5F5F5F5F5F5F5
310
F5F5F5F5F5F5F5F5F5F5F5F5F5F5F5F5F5F5F5F5F5F5F5F5F5F5F5F5F5F5F5F5F5F5F5F5F5F5F5F5F5F5F5F5F5F5F5F5F5F5F5F5F5F5F5F5F5F5F5F5F5F5F5F5F5F5F5F5F5F5F5F5F5F5F5F5F5F5F5F5F5F5F5F5F5F5F5F5F5F5F5F5F5F5F5F5F5F5F5F5F5F5F5F5F5F5F5F5F5F5F5F5F5F5F5F5F5F5F5F5F5E2E2E2E2E2E2
310
E2E2E2E2E2E2E2E2E2E2E2E2E2E2E2E2E2E2E2E2E2E2E2E2E2E2E2E2E2E2E2E2E2E2E2E2E2E2E2E2E2E2E2E2E2E2E2E2E2E2E2E2E2E2E2E2E2E2E2E2E2E2E2E2E2E2E2E2E2E2E2E2E2E2E2E2E2E2E2E2E2E2E2E2E2E2E2E2E2E2E2E2E2E2E2E2E2E2E2E2E2E2E2E2E2E2E2E2E2E2E2E2E2E2E2E2E2E2E2E2E2E2E2E2E2E2E2
310
E2E2E2E2E2E2E2E2E2E2E2E2E2E2E2E2E2E2E2E2E2E2E2E2E2E2E2E2E2E2E2E2E2E2E2E2E2E2E2E2E2E2E2E2E2E2E2E2
  0
XRECORD
  5
3CDA
102
{ACAD_REACTORS
330
3CD9
102
}
330
3CD9
100
AcDbXrecord
280
     1
102
SHADEPLOT
 70
     0
102
SHADEPLOTRESLEVEL
 70
     2
102
SHADEPLOTCUSTOMDPI
 70
   300
  0
XRECORD
  5
3CD3
102
{ACAD_REACTORS
330
3CD2
102
}
330
3CD2
100
AcDbXrecord
280
     1
102
SHADEPLOT
 70
     0
102
SHADEPLOTRESLEVEL
 70
     2
102
SHADEPLOTCUSTOMDPI
 70
   300
  0
XRECORD
  5
3CDE
102
{ACAD_REACTORS
330
3CDD
102
}
330
3CDD
100
AcDbXrecord
280
     1
102
MATERIAL
148
0.0
149
0.0
149
0.0
 93
        0
 94
       63
282
     0
 72
     1
 77
     1
171
     1
175
     1
179
     1
273
     0
  0
XRECORD
  5
3CDC
102
{ACAD_REACTORS
330
3CDB
102
}
330
3CDB
100
AcDbXrecord
280
     1
102
MATERIAL
148
0.0
149
0.0
149
0.0
 93
        0
 94
       63
282
     0
 72
     1
 77
     1
171
     1
175
     1
179
     1
273
     0
  0
XRECORD
  5
3CD1
102
{ACAD_REACTORS
330
3CD0
102
}
330
3CD0
100
AcDbXrecord
280
     1
102
MATERIAL
148
0.0
149
0.0
149
0.0
 93
        0
 94
       63
282
     0
 72
     1
 77
     1
171
     1
175
     1
179
     1
273
     0
  0
XRECORD
  5
3CE0
102
{ACAD_REACTORS
330
3CDF
102
}
330
3CDF
100
AcDbXrecord
280
     1
102
ACAD_ROUNDTRIP_PRE2007_TABLESTYLE
 90
        4
 91
        0
  1

 92
        4
 93
        0
  2

 94
        4
 95
        0
  3

  0
ENDSEC
  0
EOF
