  0
SECTION
  2
HEADER
  9
$ACADVER
  1
AC1015
  9
$ACADMAINTVER
 70
    20
  9
$DWGCODEPAGE
  3
ANSI_1252
  9
$INSBASE
 10
0.0
 20
0.0
 30
0.0
  9
$EXTMIN
 10
0.0149999999999999
 20
0.015
 30
0.0
  9
$EXTMAX
 10
0.4050000000000001
 20
0.282
 30
0.0
  9
$LIMMIN
 10
0.0
 20
0.0
  9
$LIMMAX
 10
1.0
 20
0.5
  9
$ORTHOMODE
 70
     0
  9
$REGENMODE
 70
     1
  9
$FILLMODE
 70
     1
  9
$QTEXTMODE
 70
     0
  9
$MIRRTEXT
 70
     0
  9
$LTSCALE
 40
1.0
  9
$ATTMODE
 70
     1
  9
$TEXTSIZE
 40
0.005
  9
$TRACEWID
 40
1.0
  9
$TEXTSTYLE
  7
style1
  9
$CLAYER
  8
Dimensione
  9
$CELTYPE
  6
ByLayer
  9
$CECOLOR
 62
   256
  9
$CELTSCALE
 40
1.0
  9
$DISPSILH
 70
     0
  9
$DIMSCALE
 40
0.001
  9
$DIMASZ
 40
1.5
  9
$DIMEXO
 40
0.0625
  9
$DIMDLI
 40
0.38
  9
$DIMRND
 40
0.0
  9
$DIMDLE
 40
0.0
  9
$DIMEXE
 40
0.18
  9
$DIMTP
 40
0.0
  9
$DIMTM
 40
0.0
  9
$DIMTXT
 40
3.0
  9
$DIMCEN
 40
0.0
  9
$DIMTSZ
 40
0.0
  9
$DIMTOL
 70
     0
  9
$DIMLIM
 70
     0
  9
$DIMTIH
 70
     1
  9
$DIMTOH
 70
     1
  9
$DIMSE1
 70
     0
  9
$DIMSE2
 70
     0
  9
$DIMTAD
 70
     0
  9
$DIMZIN
 70
     0
  9
$DIMBLK
  1
ArchTick
  9
$DIMASO
 70
     1
  9
$DIMSHO
 70
     1
  9
$DIMPOST
  1

  9
$DIMAPOST
  1

  9
$DIMALT
 70
     0
  9
$DIMALTD
 70
     2
  9
$DIMALTF
 40
25.4
  9
$DIMLFAC
 40
1.0
  9
$DIMTOFL
 70
     0
  9
$DIMTVP
 40
0.0
  9
$DIMTIX
 70
     0
  9
$DIMSOXD
 70
     0
  9
$DIMSAH
 70
     0
  9
$DIMBLK1
  1

  9
$DIMBLK2
  1

  9
$DIMSTYLE
  2
Bovelacci
  9
$DIMCLRD
 70
     5
  9
$DIMCLRE
 70
     5
  9
$DIMCLRT
 70
     4
  9
$DIMTFAC
 40
1.0
  9
$DIMGAP
 40
2.0
  9
$DIMJUST
 70
     0
  9
$DIMSD1
 70
     0
  9
$DIMSD2
 70
     0
  9
$DIMTOLJ
 70
     1
  9
$DIMTZIN
 70
     0
  9
$DIMALTZ
 70
     0
  9
$DIMALTTZ
 70
     0
  9
$DIMUPT
 70
     0
  9
$DIMDEC
 70
     2
  9
$DIMTDEC
 70
     2
  9
$DIMALTU
 70
     2
  9
$DIMALTTD
 70
     2
  9
$DIMTXSTY
  7
ROMANS
  9
$DIMAUNIT
 70
     0
  9
$DIMADEC
 70
     0
  9
$DIMALTRND
 40
0.0
  9
$DIMAZIN
 70
     0
  9
$DIMDSEP
 70
    46
  9
$DIMATFIT
 70
     3
  9
$DIMFRAC
 70
     0
  9
$DIMLDRBLK
  1

  9
$DIMLUNIT
 70
     2
  9
$DIMLWD
 70
    -2
  9
$DIMLWE
 70
    -2
  9
$DIMTMOVE
 70
     2
  9
$LUNITS
 70
     2
  9
$LUPREC
 70
     2
  9
$SKETCHINC
 40
1.0
  9
$FILLETRAD
 40
0.0
  9
$AUNITS
 70
     0
  9
$AUPREC
 70
     0
  9
$MENU
  1
.
  9
$ELEVATION
 40
0.0
  9
$PELEVATION
 40
0.0
  9
$THICKNESS
 40
0.0
  9
$LIMCHECK
 70
     0
  9
$CHAMFERA
 40
0.0
  9
$CHAMFERB
 40
0.0
  9
$CHAMFERC
 40
0.0
  9
$CHAMFERD
 40
0.0
  9
$SKPOLY
 70
     0
  9
$TDCREATE
 40
2454297.583735706
  9
$TDUCREATE
 40
2454297.542069039
  9
$TDUPDATE
 40
2454431.913234410
  9
$TDUUPDATE
 40
2454431.871567743
  9
$TDINDWG
 40
0.4563728009
  9
$TDUSRTIMER
 40
0.4563722454
  9
$USRTIMER
 70
     1
  9
$ANGBASE
 50
0.0
  9
$ANGDIR
 70
     0
  9
$PDMODE
 70
     0
  9
$PDSIZE
 40
0.0
  9
$PLINEWID
 40
0.0
  9
$SPLFRAME
 70
     0
  9
$SPLINETYPE
 70
     6
  9
$SPLINESEGS
 70
     8
  9
$HANDSEED
  5
3FF8
  9
$SURFTAB1
 70
     6
  9
$SURFTAB2
 70
     6
  9
$SURFTYPE
 70
     6
  9
$SURFU
 70
     6
  9
$SURFV
 70
     6
  9
$UCSBASE
  2

  9
$UCSNAME
  2

  9
$UCSORG
 10
0.0
 20
0.0
 30
0.0
  9
$UCSXDIR
 10
1.0
 20
0.0
 30
0.0
  9
$UCSYDIR
 10
0.0
 20
1.0
 30
0.0
  9
$UCSORTHOREF
  2

  9
$UCSORTHOVIEW
 70
     0
  9
$UCSORGTOP
 10
0.0
 20
0.0
 30
0.0
  9
$UCSORGBOTTOM
 10
0.0
 20
0.0
 30
0.0
  9
$UCSORGLEFT
 10
0.0
 20
0.0
 30
0.0
  9
$UCSORGRIGHT
 10
0.0
 20
0.0
 30
0.0
  9
$UCSORGFRONT
 10
0.0
 20
0.0
 30
0.0
  9
$UCSORGBACK
 10
0.0
 20
0.0
 30
0.0
  9
$PUCSBASE
  2

  9
$PUCSNAME
  2

  9
$PUCSORG
 10
0.0
 20
0.0
 30
0.0
  9
$PUCSXDIR
 10
1.0
 20
0.0
 30
0.0
  9
$PUCSYDIR
 10
0.0
 20
1.0
 30
0.0
  9
$PUCSORTHOREF
  2

  9
$PUCSORTHOVIEW
 70
     0
  9
$PUCSORGTOP
 10
0.0
 20
0.0
 30
0.0
  9
$PUCSORGBOTTOM
 10
0.0
 20
0.0
 30
0.0
  9
$PUCSORGLEFT
 10
0.0
 20
0.0
 30
0.0
  9
$PUCSORGRIGHT
 10
0.0
 20
0.0
 30
0.0
  9
$PUCSORGFRONT
 10
0.0
 20
0.0
 30
0.0
  9
$PUCSORGBACK
 10
0.0
 20
0.0
 30
0.0
  9
$USERI1
 70
     0
  9
$USERI2
 70
     0
  9
$USERI3
 70
     0
  9
$USERI4
 70
     0
  9
$USERI5
 70
     0
  9
$USERR1
 40
0.0
  9
$USERR2
 40
0.0
  9
$USERR3
 40
0.0
  9
$USERR4
 40
0.0
  9
$USERR5
 40
0.0
  9
$WORLDVIEW
 70
     1
  9
$SHADEDGE
 70
     3
  9
$SHADEDIF
 70
    70
  9
$TILEMODE
 70
     1
  9
$MAXACTVP
 70
    64
  9
$PINSBASE
 10
0.0
 20
0.0
 30
0.0
  9
$PLIMCHECK
 70
     0
  9
$PEXTMIN
 10
29.06606628894805
 20
20.36233246326446
 30
0.0
  9
$PEXTMAX
 10
261.5945966005325
 20
183.2609921693802
 30
0.0
  9
$PLIMMIN
 10
-3.17498779296875
 20
-3.174999952316281
  9
$PLIMMAX
 10
293.8356628417969
 20
206.7983276844024
  9
$UNITMODE
 70
     0
  9
$VISRETAIN
 70
     1
  9
$PLINEGEN
 70
     0
  9
$PSLTSCALE
 70
     1
  9
$TREEDEPTH
 70
  3020
  9
$CMLSTYLE
  2
Standard
  9
$CMLJUST
 70
     0
  9
$CMLSCALE
 40
20.0
  9
$PROXYGRAPHICS
 70
     1
  9
$MEASUREMENT
 70
     1
  9
$CELWEIGHT
370
    -1
  9
$ENDCAPS
280
     0
  9
$JOINSTYLE
280
     0
  9
$LWDISPLAY
290
     0
  9
$INSUNITS
 70
     4
  9
$HYPERLINKBASE
  1

  9
$STYLESHEET
  1

  9
$XEDIT
290
     1
  9
$CEPSNTYPE
380
     0
  9
$PSTYLEMODE
290
     1
  9
$FINGERPRINTGUID
  2
{4F38C4E7-9F37-4C76-96D9-79C94F9B03D9}
  9
$VERSIONGUID
  2
{81B2E2F4-AABD-4106-88F5-29AB3ACBD78E}
  9
$EXTNAMES
290
     1
  9
$PSVPSCALE
 40
0.0
  9
$OLESTARTUP
290
     0
  0
ENDSEC
  0
SECTION
  2
CLASSES
  0
CLASS
  1
ACDBDICTIONARYWDFLT
  2
AcDbDictionaryWithDefault
  3
ObjectDBX Classes
 90
        0
280
     0
281
     0
  0
CLASS
  1
TABLESTYLE
  2
AcDbTableStyle
  3
ObjectDBX Classes
 90
     4095
280
     0
281
     0
  0
CLASS
  1
SORTENTSTABLE
  2
AcDbSortentsTable
  3
ObjectDBX Classes
 90
        0
280
     0
281
     0
  0
CLASS
  1
DICTIONARYVAR
  2
AcDbDictionaryVar
  3
ObjectDBX Classes
 90
        0
280
     0
281
     0
  0
CLASS
  1
DIMASSOC
  2
AcDbDimAssoc
  3
"AcDbDimAssoc|Product Desc:     AcDim ARX App For Dimension|Company:          Autodesk, Inc.|WEB Address:      www.autodesk.com"
 90
        0
280
     0
281
     0
  0
CLASS
  1
ACDBPLACEHOLDER
  2
AcDbPlaceHolder
  3
ObjectDBX Classes
 90
        0
280
     0
281
     0
  0
CLASS
  1
LAYOUT
  2
AcDbLayout
  3
ObjectDBX Classes
 90
        0
280
     0
281
     0
  0
CLASS
  1
MATERIAL
  2
AcDbMaterial
  3
ObjectDBX Classes
 90
     1024
280
     0
281
     0
  0
CLASS
  1
VISUALSTYLE
  2
AcDbVisualStyle
  3
ObjectDBX Classes
 90
     4095
280
     0
281
     0
  0
CLASS
  1
ACAD_EVALUATION_GRAPH
  2
AcDbEvalGraph
  3
ObjectDBX Classes
 90
    33921
280
     0
281
     0
  0
CLASS
  1
ACAECUSTOBJ
  2
AcAeEditorObj
  3
AcAeEditorObj
 90
    33792
280
     0
281
     0
  0
CLASS
  1
ACDB_DYNAMICBLOCKPURGEPREVENTER_VERSION
  2
AcDbDynamicBlockPurgePreventer
  3
ObjectDBX Classes
 90
    33921
280
     0
281
     0
  0
ENDSEC
  0
SECTION
  2
TABLES
  0
TABLE
  2
VPORT
  5
96
330
0
100
AcDbSymbolTable
 70
     1
  0
VPORT
  5
3FC7
330
96
100
AcDbSymbolTableRecord
100
AcDbViewportTableRecord
  2
*Active
 70
     0
 10
0.0
 20
0.0
 11
1.0
 21
1.0
 12
0.1986671010572536
 22
0.148035192656988
 13
0.0
 23
0.0
 14
10.0
 24
10.0
 15
10.0
 25
10.0
 16
0.0
 26
0.0
 36
1.0
 17
0.0
 27
0.0
 37
0.0
 40
0.2707693175967391
 41
1.839339339339339
 42
50.0
 43
0.0
 44
0.0
 50
0.0
 51
0.0
 71
     0
 72
  1000
 73
     1
 74
     3
 75
     0
 76
     0
 77
     0
 78
     0
281
     0
 65
     1
110
0.0
120
0.0
130
0.0
111
1.0
121
0.0
131
0.0
112
0.0
122
1.0
132
0.0
 79
     0
146
0.0
  0
ENDTAB
  0
TABLE
  2
LTYPE
  5
91
330
0
100
AcDbSymbolTable
 70
     2
  0
LTYPE
  5
92
330
91
100
AcDbSymbolTableRecord
100
AcDbLinetypeTableRecord
  2
ByBlock
 70
     0
  3

 72
    65
 73
     0
 40
0.0
  0
LTYPE
  5
93
330
91
100
AcDbSymbolTableRecord
100
AcDbLinetypeTableRecord
  2
ByLayer
 70
     0
  3

 72
    65
 73
     0
 40
0.0
  0
LTYPE
  5
C
330
91
100
AcDbSymbolTableRecord
100
AcDbLinetypeTableRecord
  2
Continuous
 70
     0
  3
Solid line
 72
    65
 73
     0
 40
0.0
  0
ENDTAB
  0
TABLE
  2
LAYER
  5
8A
102
{ACAD_XDICTIONARY
360
8B
102
}
330
0
100
AcDbSymbolTable
 70
     7
  0
LAYER
  5
6
330
8A
100
AcDbSymbolTableRecord
100
AcDbLayerTableRecord
  2
0
 70
     0
 62
     7
  6
Continuous
370
    -3
390
7
  0
LAYER
  5
3F
330
8A
100
AcDbSymbolTableRecord
100
AcDbLayerTableRecord
  2
Defpoints
 70
     0
 62
     7
  6
Continuous
290
     0
370
    -3
390
7
  0
LAYER
  5
2E
330
8A
100
AcDbSymbolTableRecord
100
AcDbLayerTableRecord
  2
Dimensione
 70
     0
 62
   150
  6
Continuous
370
    -3
390
7
1001
AcAecLayerStandard
1000

1000

  0
LAYER
  5
54
330
8A
100
AcDbSymbolTableRecord
100
AcDbLayerTableRecord
  2
Sezione
 70
     0
 62
     2
  6
Continuous
370
    -3
390
7
1001
AcAecLayerStandard
1000

1000

  0
LAYER
  5
E
330
8A
100
AcDbSymbolTableRecord
100
AcDbLayerTableRecord
  2
Table
 70
     0
 62
     3
  6
Continuous
370
    -3
390
7
1001
AcAecLayerStandard
1000

1000

  0
LAYER
  5
19
330
8A
100
AcDbSymbolTableRecord
100
AcDbLayerTableRecord
  2
Text
 70
     0
 62
     4
  6
Continuous
370
    -3
390
7
1001
AcAecLayerStandard
1000

1000

  0
LAYER
  5
25D5
330
8A
100
AcDbSymbolTableRecord
100
AcDbLayerTableRecord
  2
Profilo
 70
     0
 62
     1
  6
Continuous
370
    -3
390
7
1001
AcAecLayerStandard
1000

1000

  0
ENDTAB
  0
TABLE
  2
STYLE
  5
8F
330
0
100
AcDbSymbolTable
 70
     4
  0
STYLE
  5
1A
330
8F
100
AcDbSymbolTableRecord
100
AcDbTextStyleTableRecord
  2
Standard
 70
     0
 40
0.0
 41
1.0
 50
0.0
 71
     0
 42
2.5
  3
txt
  4

  0
STYLE
  5
20
330
8F
100
AcDbSymbolTableRecord
100
AcDbTextStyleTableRecord
  2
ROMANS
 70
     0
 40
0.0
 41
1.0
 50
0.0
 71
     0
 42
2.5
  3
romans
  4

  0
STYLE
  5
28
330
8F
100
AcDbSymbolTableRecord
100
AcDbTextStyleTableRecord
  2
Arial
 70
     0
 40
0.0
 41
1.0
 50
0.0
 71
     0
 42
0.25
  3
ARIAL.TTF
  4

1001
ACAD
1000
Arial
1071
       34
  0
STYLE
  5
26
330
8F
100
AcDbSymbolTableRecord
100
AcDbTextStyleTableRecord
  2
style1
 70
     0
 40
0.0
 41
1.0
 50
0.0
 71
     0
 42
0.005
  3
TIMES.TTF
  4

1001
ACAD
1000
Times New Roman
1071
       18
  0
ENDTAB
  0
TABLE
  2
VIEW
  5
94
330
0
100
AcDbSymbolTable
 70
     0
  0
ENDTAB
  0
TABLE
  2
UCS
  5
95
330
0
100
AcDbSymbolTable
 70
     0
  0
ENDTAB
  0
TABLE
  2
APPID
  5
98
330
0
100
AcDbSymbolTable
 70
    14
  0
APPID
  5
1B
330
98
100
AcDbSymbolTableRecord
100
AcDbRegAppTableRecord
  2
ACAD
 70
     0
  0
APPID
  5
34
330
98
100
AcDbSymbolTableRecord
100
AcDbRegAppTableRecord
  2
ACAD_DSTYLE_DIMJOGGED_JOGANGLE_SYMBOL
 70
     0
  0
APPID
  5
F
330
98
100
AcDbSymbolTableRecord
100
AcDbRegAppTableRecord
  2
AcAecLayerStandard
 70
     0
  0
APPID
  5
85
330
98
100
AcDbSymbolTableRecord
100
AcDbRegAppTableRecord
  2
ACAD_PSEXT
 70
     0
  0
APPID
  5
BA
330
98
100
AcDbSymbolTableRecord
100
AcDbRegAppTableRecord
  2
ACAD_DSTYLE_DIMEXT_LENGTH
 70
     0
  0
APPID
  5
101
330
98
100
AcDbSymbolTableRecord
100
AcDbRegAppTableRecord
  2
ACAD_EXEMPT_FROM_CAD_STANDARDS
 70
     0
  0
APPID
  5
102
330
98
100
AcDbSymbolTableRecord
100
AcDbRegAppTableRecord
  2
ACAD_DSTYLE_DIM_LINETYPE
 70
     0
  0
APPID
  5
103
330
98
100
AcDbSymbolTableRecord
100
AcDbRegAppTableRecord
  2
ACAD_DSTYLE_DIM_EXT1_LINETYPE
 70
     0
  0
APPID
  5
104
330
98
100
AcDbSymbolTableRecord
100
AcDbRegAppTableRecord
  2
ACAD_DSTYLE_DIM_EXT2_LINETYPE
 70
     0
  0
APPID
  5
10D5
330
98
100
AcDbSymbolTableRecord
100
AcDbRegAppTableRecord
  2
ACAUTHENVIRON
 70
     0
  0
APPID
  5
10D9
330
98
100
AcDbSymbolTableRecord
100
AcDbRegAppTableRecord
  2
AcDbDynamicBlockTrueName
 70
     0
  0
APPID
  5
10DA
330
98
100
AcDbSymbolTableRecord
100
AcDbRegAppTableRecord
  2
AcDbDynamicBlockGUID
 70
     0
  0
APPID
  5
10DC
330
98
100
AcDbSymbolTableRecord
100
AcDbRegAppTableRecord
  2
AcDbBlockRepETag
 70
     0
  0
APPID
  5
249F
330
98
100
AcDbSymbolTableRecord
100
AcDbRegAppTableRecord
  2
DCO15
 70
     0
  0
ENDTAB
  0
TABLE
  2
DIMSTYLE
  5
99
330
0
100
AcDbSymbolTable
 70
     3
100
AcDbDimStyleTable
 71
     1
340
2F
  0
DIMSTYLE
105
2F
102
{ACAD_REACTORS
330
3F51
330
3F6B
330
3F9F
102
}
330
99
100
AcDbSymbolTableRecord
100
AcDbDimStyleTableRecord
  2
Bovelacci
 70
     0
 40
0.001
 41
1.5
140
3.0
141
0.0
147
2.0
176
     5
177
     5
178
     4
271
     2
272
     2
279
     2
340
20
342
30
1001
ACAD_DSTYLE_DIMJOGGED_JOGANGLE_SYMBOL
1070
   384
1040
0.7853981633974483
1001
ACAD_DSTYLE_DIMEXT_LENGTH
1070
   378
1040
0.18
  0
DIMSTYLE
105
194
330
99
100
AcDbSymbolTableRecord
100
AcDbDimStyleTableRecord
  2
STANDARD
 70
     0
340
1A
  0
ENDTAB
  0
TABLE
  2
BLOCK_RECORD
  5
1
330
0
100
AcDbSymbolTable
 70
    37
  0
BLOCK_RECORD
  5
2
102
{ACAD_XDICTIONARY
360
3
102
}
330
1
100
AcDbSymbolTableRecord
100
AcDbBlockTableRecord
  2
*Model_Space
340
77
  0
BLOCK_RECORD
  5
79
330
1
100
AcDbSymbolTableRecord
100
AcDbBlockTableRecord
  2
*Paper_Space
340
82
  0
BLOCK_RECORD
  5
86
330
1
100
AcDbSymbolTableRecord
100
AcDbBlockTableRecord
  2
*Paper_Space0
340
89
  0
BLOCK_RECORD
  5
30
330
1
100
AcDbSymbolTableRecord
100
AcDbBlockTableRecord
  2
_ArchTick
340
0
310
2800000020000000200000000100080000000000000400000000000000000000000000000000000000000000000080000080000000808000800000008000800080800000C0C0C000C0DCC000F0CAA6000020400000206000002080000020A0000020C0000020E00000400000004020000040400000406000004080000040A0
310
000040C0000040E00000600000006020000060400000606000006080000060A0000060C0000060E00000800000008020000080400000806000008080000080A0000080C0000080E00000A0000000A0200000A0400000A0600000A0800000A0A00000A0C00000A0E00000C0000000C0200000C0400000C0600000C0800000C0
310
A00000C0C00000C0E00000E0000000E0200000E0400000E0600000E0800000E0A00000E0C00000E0E00040000000400020004000400040006000400080004000A0004000C0004000E00040200000402020004020400040206000402080004020A0004020C0004020E000404000004040200040404000404060004040800040
310
40A0004040C0004040E00040600000406020004060400040606000406080004060A0004060C0004060E00040800000408020004080400040806000408080004080A0004080C0004080E00040A0000040A0200040A0400040A0600040A0800040A0A00040A0C00040A0E00040C0000040C0200040C0400040C0600040C08000
310
40C0A00040C0C00040C0E00040E0000040E0200040E0400040E0600040E0800040E0A00040E0C00040E0E00080000000800020008000400080006000800080008000A0008000C0008000E00080200000802020008020400080206000802080008020A0008020C0008020E00080400000804020008040400080406000804080
310
008040A0008040C0008040E00080600000806020008060400080606000806080008060A0008060C0008060E00080800000808020008080400080806000808080008080A0008080C0008080E00080A0000080A0200080A0400080A0600080A0800080A0A00080A0C00080A0E00080C0000080C0200080C0400080C0600080C0
310
800080C0A00080C0C00080C0E00080E0000080E0200080E0400080E0600080E0800080E0A00080E0C00080E0E000C0000000C0002000C0004000C0006000C0008000C000A000C000C000C000E000C0200000C0202000C0204000C0206000C0208000C020A000C020C000C020E000C0400000C0402000C0404000C0406000C0
310
408000C040A000C040C000C040E000C0600000C0602000C0604000C0606000C0608000C060A000C060C000C060E000C0800000C0802000C0804000C0806000C0808000C080A000C080C000C080E000C0A00000C0A02000C0A04000C0A06000C0A08000C0A0A000C0A0C000C0A0E000C0C00000C0C02000C0C04000C0C06000
310
C0C08000C0C0A000F0FBFF00A4A0A000808080000000FF0000FF000000FFFF00FF000000FF00FF00FFFF0000FFFFFF00000000FF000000000000000000000000000000000000000000000000000000000000FF00FF00000000000000000000000000000000000000000000000000000000FF000000FF000000000000000000
310
0000000000000000000000000000000000FF0000000000FF0000000000000000000000000000000000000000000000000000FF0000000000FF0000000000000000000000000000000000000000000000000000FF0000000000FF0000000000000000000000000000000000000000000000000000FF0000000000FF00000000
310
00000000000000000000000000000000000000000000FF0000000000FF0000000000000000000000000000000000000000000000000000FF0000000000FF0000000000000000000000000000000000000000000000000000FF0000000000FF0000000000000000000000000000000000000000000000000000FF0000000000
310
FF0000000000000000000000000000000000000000000000000000FF0000000000FF0000000000000000000000000000000000000000000000000000FF0000000000FF0000000000000000000000000000000000000000000000000000FF0000000000FF0000000000000000000000000000000000000000000000000000FF
310
0000000000FF0000000000000000000000000000000000000000000000000000FF0000000000FF0000000000000000000000000000000000000000000000000000FF0000000000FF0000000000000000000000000000000000000000000000000000FF0000000000FF00000000000000000000000000000000000000000000
310
00000000FF0000000000FF0000000000000000000000000000000000000000000000000000FF0000000000FF0000000000000000000000000000000000000000000000000000FF0000000000FF0000000000000000000000000000000000000000000000000000FF0000000000FF0000000000000000000000000000000000
310
000000000000000000FF0000000000FF0000000000000000000000000000000000000000000000000000FF0000000000FF0000000000000000000000000000000000000000000000000000FF0000000000FF0000000000000000000000000000000000000000000000000000FF0000000000FF000000000000000000000000
310
0000000000000000000000000000FF0000000000FF0000000000000000000000000000000000000000000000000000FF0000000000FF0000000000000000000000000000000000000000000000000000FF0000000000FF0000000000000000000000000000000000000000000000000000FF000000FF000000000000000000
310
00000000000000000000000000000000000000FF00FF000000000000000000000000000000000000000000000000000000000000FF000000
102
{BLKREFS
331
30E5
331
30E6
331
30EF
331
30F0
331
30F9
331
30FA
331
31F1
331
31F2
331
320B
331
320C
331
3225
331
3226
331
323F
331
3240
331
3331
331
3332
331
334B
331
334C
331
336E
331
336F
331
3386
331
3387
331
33A0
331
33A1
331
3410
331
3411
331
342A
331
342B
331
343F
331
3440
331
348E
331
348F
331
34B3
331
34B4
331
3530
331
3531
331
354A
331
354B
331
35D3
331
35D4
331
35ED
331
35EE
331
367E
331
367F
331
3688
331
3689
331
3707
331
3708
331
3720
331
3721
331
3C75
331
3C76
331
3C7F
331
3C80
331
3CAD
331
3CAE
331
3F64
331
3F65
331
3F7E
331
3F7F
331
3F98
331
3F99
331
3FB2
331
3FB3
102
}
  0
BLOCK_RECORD
  5
4E0
330
1
100
AcDbSymbolTableRecord
100
AcDbBlockTableRecord
  2
_Arrivo
340
0
310
2800000020000000200000000100080000000000000400000000000000000000000000000000000000000000000080000080000000808000800000008000800080800000C0C0C000C0DCC000F0CAA6000020400000206000002080000020A0000020C0000020E00000400000004020000040400000406000004080000040A0
310
000040C0000040E00000600000006020000060400000606000006080000060A0000060C0000060E00000800000008020000080400000806000008080000080A0000080C0000080E00000A0000000A0200000A0400000A0600000A0800000A0A00000A0C00000A0E00000C0000000C0200000C0400000C0600000C0800000C0
310
A00000C0C00000C0E00000E0000000E0200000E0400000E0600000E0800000E0A00000E0C00000E0E00040000000400020004000400040006000400080004000A0004000C0004000E00040200000402020004020400040206000402080004020A0004020C0004020E000404000004040200040404000404060004040800040
310
40A0004040C0004040E00040600000406020004060400040606000406080004060A0004060C0004060E00040800000408020004080400040806000408080004080A0004080C0004080E00040A0000040A0200040A0400040A0600040A0800040A0A00040A0C00040A0E00040C0000040C0200040C0400040C0600040C08000
310
40C0A00040C0C00040C0E00040E0000040E0200040E0400040E0600040E0800040E0A00040E0C00040E0E00080000000800020008000400080006000800080008000A0008000C0008000E00080200000802020008020400080206000802080008020A0008020C0008020E00080400000804020008040400080406000804080
310
008040A0008040C0008040E00080600000806020008060400080606000806080008060A0008060C0008060E00080800000808020008080400080806000808080008080A0008080C0008080E00080A0000080A0200080A0400080A0600080A0800080A0A00080A0C00080A0E00080C0000080C0200080C0400080C0600080C0
310
800080C0A00080C0C00080C0E00080E0000080E0200080E0400080E0600080E0800080E0A00080E0C00080E0E000C0000000C0002000C0004000C0006000C0008000C000A000C000C000C000E000C0200000C0202000C0204000C0206000C0208000C020A000C020C000C020E000C0400000C0402000C0404000C0406000C0
310
408000C040A000C040C000C040E000C0600000C0602000C0604000C0606000C0608000C060A000C060C000C060E000C0800000C0802000C0804000C0806000C0808000C080A000C080C000C080E000C0A00000C0A02000C0A04000C0A06000C0A08000C0A0A000C0A0C000C0A0E000C0C00000C0C02000C0C04000C0C06000
310
C0C08000C0C0A000F0FBFF00A4A0A000808080000000FF0000FF000000FFFF00FF000000FF00FF00FFFF0000FFFFFF00000000000000000000000000000000000000000000000000000000000000000000000000000000000000FF0000000000000000000000000000000000000000000000000000000000000000FF000000
310
00000000000000000000000000000000000000000000000000000000FF0000000000000000000000000000000000000000000000000000000000000000FF00000000000000000000000000000000000000000000000000000000000000FF0000000000000000000000000000000000000000000000000000000000000000FF
310
0000000000000000000000000000000000000000000000000000000000000000FF00000000000000000000000000000000000000000000000000000000000000FF0000000000000000000000000000000000000000000000000000000000000000FF0000000000000000000000000000000000000000000000000000000000
310
0000FF0000000000000000000000000000000000000000000000000000000000000000FF00000000000000000000000000000000000000000000000000000000000000FF0000000000000000000000000000000000000000000000000000000000000000FF0000FF0000000000000000000000000000000000000000000000
310
000000000000FFFF000000000000000000000000000000000000000000000000000000000000FFFF00000000000000000000000000000000000000000000000000000000FFFFFFFFFFFF00000000000000000000000000000000000000000000000000000000FFFF0000000000000000000000000000000000000000000000
310
000000000000FF0000FF000000000000000000000000000000000000000000000000000000FF00000000000000000000000000000000000000000000000000000000000000FF000000000000000000000000000000000000000000000000000000000000FF0000000000000000000000000000000000000000000000000000
310
0000000000FF000000000000000000000000000000000000000000000000000000000000FF00000000000000000000000000000000000000000000000000000000000000FF000000000000000000000000000000000000000000000000000000000000FF000000000000000000000000000000000000000000000000000000
310
000000FF00000000000000000000000000000000000000000000000000000000000000FF000000000000000000000000000000000000000000000000000000000000FF00000000000000000000000000000000000000000000000000000000000000FF00000000000000000000000000000000000000000000000000000000
310
0000FF0000000000000000000000000000000000000000000000000000000000000000000000000000000000000000000000000000000000
  0
BLOCK_RECORD
  5
4E6
330
1
100
AcDbSymbolTableRecord
100
AcDbBlockTableRecord
  2
_Partenza
340
0
310
2800000020000000200000000100080000000000000400000000000000000000000000000000000000000000000080000080000000808000800000008000800080800000C0C0C000C0DCC000F0CAA6000020400000206000002080000020A0000020C0000020E00000400000004020000040400000406000004080000040A0
310
000040C0000040E00000600000006020000060400000606000006080000060A0000060C0000060E00000800000008020000080400000806000008080000080A0000080C0000080E00000A0000000A0200000A0400000A0600000A0800000A0A00000A0C00000A0E00000C0000000C0200000C0400000C0600000C0800000C0
310
A00000C0C00000C0E00000E0000000E0200000E0400000E0600000E0800000E0A00000E0C00000E0E00040000000400020004000400040006000400080004000A0004000C0004000E00040200000402020004020400040206000402080004020A0004020C0004020E000404000004040200040404000404060004040800040
310
40A0004040C0004040E00040600000406020004060400040606000406080004060A0004060C0004060E00040800000408020004080400040806000408080004080A0004080C0004080E00040A0000040A0200040A0400040A0600040A0800040A0A00040A0C00040A0E00040C0000040C0200040C0400040C0600040C08000
310
40C0A00040C0C00040C0E00040E0000040E0200040E0400040E0600040E0800040E0A00040E0C00040E0E00080000000800020008000400080006000800080008000A0008000C0008000E00080200000802020008020400080206000802080008020A0008020C0008020E00080400000804020008040400080406000804080
310
008040A0008040C0008040E00080600000806020008060400080606000806080008060A0008060C0008060E00080800000808020008080400080806000808080008080A0008080C0008080E00080A0000080A0200080A0400080A0600080A0800080A0A00080A0C00080A0E00080C0000080C0200080C0400080C0600080C0
310
800080C0A00080C0C00080C0E00080E0000080E0200080E0400080E0600080E0800080E0A00080E0C00080E0E000C0000000C0002000C0004000C0006000C0008000C000A000C000C000C000E000C0200000C0202000C0204000C0206000C0208000C020A000C020C000C020E000C0400000C0402000C0404000C0406000C0
310
408000C040A000C040C000C040E000C0600000C0602000C0604000C0606000C0608000C060A000C060C000C060E000C0800000C0802000C0804000C0806000C0808000C080A000C080C000C080E000C0A00000C0A02000C0A04000C0A06000C0A08000C0A0A000C0A0C000C0A0E000C0C00000C0C02000C0C04000C0C06000
310
C0C08000C0C0A000F0FBFF00A4A0A000808080000000FF0000FF000000FFFF00FF000000FF00FF00FFFF0000FFFFFF0000000000000000000000000000000000000000000000000000000000000000000000000000000000000000000000000000000000000000000000000000000000000000000000000000000000000000
310
000000000000000000000000000000000000000000000000000000000000000000000000000000000000000000000000000000000000000000000000000000000000000000000000000000000000000000000000000000000000000000000000000000000000000000000000000000000000FFFFFFFFFFFFFFFFFFFFFFFFFF
310
FFFFFFFFFFFFFFFFFFFFFFFFFFFFFFFFFF0000000000000000000000000000000000000000000000000000000000000000000000000000000000000000000000000000000000000000000000000000000000000000000000000000000000000000000000000000000000000000000000000000000000000000000000000000
310
00000000000000000000000000000000000000000000000000000000000000000000000000000000000000000000000000000000000000000000000000000000000000000000000000000000000000000000000000000000000000000000000000000000000000000000000000000000000000000000000000000000000000
310
00000000000000000000000000000000000000000000000000000000000000000000000000000000000000000000000000000000000000000000000000000000000000000000000000000000000000000000000000000000000000000000000000000000000000000000000000000000000000000000000000000000000000
310
00000000000000000000000000000000000000000000000000000000000000000000000000000000000000000000000000000000000000000000000000000000000000000000000000000000000000000000000000000000000000000000000000000000000000000000000000000000000000000000000000000000000000
310
000000000000000000000000000000000000000000000000000000000000000000000000000000000000000000000000000000000000000000000000000000000000000000000000000000000000000000000000000000FFFFFFFFFFFFFFFFFFFFFFFFFFFFFFFFFFFFFFFFFFFFFFFFFFFFFFFFFFFF00000000000000000000
310
00000000000000000000000000000000000000000000000000000000000000000000000000000000000000000000000000000000000000000000000000000000000000000000000000000000000000000000000000000000000000000000000000000000000000000000000000000000000000000000000000000000000000
310
0000000000000000000000000000000000000000000000000000000000000000000000000000000000000000000000000000000000000000
  0
BLOCK_RECORD
  5
3F52
330
1
100
AcDbSymbolTableRecord
100
AcDbBlockTableRecord
  2
*D32
340
0
  0
BLOCK_RECORD
  5
3F6C
330
1
100
AcDbSymbolTableRecord
100
AcDbBlockTableRecord
  2
*D33
340
0
  0
BLOCK_RECORD
  5
3FA0
330
1
100
AcDbSymbolTableRecord
100
AcDbBlockTableRecord
  2
*D35
340
0
  0
ENDTAB
  0
ENDSEC
  0
SECTION
  2
BLOCKS
  0
BLOCK
  5
5
330
2
100
AcDbEntity
  8
0
100
AcDbBlockBegin
  2
*Model_Space
 70
     0
 10
0.0
 20
0.0
 30
0.0
  3
*Model_Space
  1

  0
ENDBLK
  5
76
330
2
100
AcDbEntity
  8
0
100
AcDbBlockEnd
  0
BLOCK
  5
7A
330
79
100
AcDbEntity
 67
     1
  8
0
100
AcDbBlockBegin
  2
*Paper_Space
 70
     0
 10
0.0
 20
0.0
 30
0.0
  3
*Paper_Space
  1

  0
ENDBLK
  5
81
330
79
100
AcDbEntity
 67
     1
  8
0
100
AcDbBlockEnd
  0
BLOCK
  5
87
330
86
100
AcDbEntity
 67
     1
  8
0
100
AcDbBlockBegin
  2
*Paper_Space0
 70
     0
 10
0.0
 20
0.0
 30
0.0
  3
*Paper_Space0
  1

  0
ENDBLK
  5
88
330
86
100
AcDbEntity
 67
     1
  8
0
100
AcDbBlockEnd
  0
BLOCK
  5
31
330
30
100
AcDbEntity
  8
0
 62
     1
100
AcDbBlockBegin
  2
_ArchTick
 70
     0
 10
0.0
 20
0.0
 30
0.0
  3
_ArchTick
  1

  0
LWPOLYLINE
  5
32
330
30
100
AcDbEntity
  8
0
  6
ByBlock
 62
     0
100
AcDbPolyline
 90
        2
 70
     0
 43
0.15
 10
-0.5
 20
-0.5
 10
0.5
 20
0.5
  0
ENDBLK
  5
33
330
30
100
AcDbEntity
  8
0
 62
     1
100
AcDbBlockEnd
  0
BLOCK
  5
4E1
330
4E0
100
AcDbEntity
  8
0
100
AcDbBlockBegin
  2
_Arrivo
 70
     0
 10
0.0
 20
0.0
 30
0.0
  3
_Arrivo
  1

  0
LINE
  5
4E2
330
4E0
100
AcDbEntity
  8
0
  6
ByBlock
 62
     0
370
    -2
100
AcDbLine
 10
0.025
 20
-0.0433012701891858
 30
0.0
 11
-0.15
 21
0.2598076211353328
 31
0.0
  0
LINE
  5
4E3
330
4E0
100
AcDbEntity
  8
0
  6
ByBlock
 62
     0
370
    -2
100
AcDbLine
 10
0.025
 20
0.0433012701892585
 30
0.0
 11
-0.15
 21
-0.2598076211353328
 31
0.0
  0
LINE
  5
4E4
330
4E0
100
AcDbEntity
  8
0
  6
ByBlock
 62
     0
370
    -2
100
AcDbLine
 10
-0.05
 20
0.0
 30
0.0
 11
0.05
 21
0.0
 31
0.0
  0
ENDBLK
  5
4E5
330
4E0
100
AcDbEntity
  8
0
100
AcDbBlockEnd
  0
BLOCK
  5
4E7
330
4E6
100
AcDbEntity
  8
0
100
AcDbBlockBegin
  2
_Partenza
 70
     0
 10
0.0
 20
0.0
 30
0.0
  3
_Partenza
  1

  0
LINE
  5
4E8
330
4E6
100
AcDbEntity
  8
0
  6
ByBlock
 62
     0
370
    -2
100
AcDbLine
 10
-0.05
 20
0.05
 30
0.0
 11
0.1
 21
0.05
 31
0.0
  0
LINE
  5
4E9
330
4E6
100
AcDbEntity
  8
0
  6
ByBlock
 62
     0
370
    -2
100
AcDbLine
 10
-0.05
 20
-0.05
 30
0.0
 11
0.1
 21
-0.05
 31
0.0
  0
ENDBLK
  5
4EA
330
4E6
100
AcDbEntity
  8
0
100
AcDbBlockEnd
  0
BLOCK
  5
3F5D
330
3F52
100
AcDbEntity
  8
0
100
AcDbBlockBegin
  2
*D32
 70
     1
 10
0.0
 20
0.0
 30
0.0
  3
*D32
  1

  0
LINE
  5
3F60
330
3F52
100
AcDbEntity
  8
Dimensione
 62
     5
370
    -2
100
AcDbLine
 10
0.1323851045303403
 20
0.0741134040348271
 30
0.0
 11
0.1660358109857608
 21
0.0741134040348271
 31
0.0
  0
LINE
  5
3F61
330
3F52
100
AcDbEntity
  8
Dimensione
 62
     5
370
    -2
100
AcDbLine
 10
0.1384484851465732
 20
0.236493583193937
 30
0.0
 11
0.1660358109857609
 21
0.236493583193937
 31
0.0
  0
LINE
  5
3F62
330
3F52
100
AcDbEntity
  8
Dimensione
 62
     5
370
    -2
100
AcDbLine
 10
0.1658558109857608
 20
0.0741134040348271
 30
0.0
 11
0.1658558109857608
 21
0.1518034936143821
 31
0.0
  0
LINE
  5
3F63
330
3F52
100
AcDbEntity
  8
Dimensione
 62
     5
370
    -2
100
AcDbLine
 10
0.1658558109857608
 20
0.236493583193937
 30
0.0
 11
0.1658558109857608
 21
0.1588034936143821
 31
0.0
  0
INSERT
  5
3F64
330
3F52
100
AcDbEntity
  8
Dimensione
 62
     5
370
    -2
100
AcDbBlockReference
  2
_ArchTick
 10
0.1658558109857608
 20
0.0741134040348271
 30
0.0
 41
0.0015
 42
0.0015
 43
0.0015
 50
270.0
  0
INSERT
  5
3F65
330
3F52
100
AcDbEntity
  8
Dimensione
 62
     5
370
    -2
100
AcDbBlockReference
  2
_ArchTick
 10
0.1658558109857608
 20
0.236493583193937
 30
0.0
 41
0.0015
 42
0.0015
 43
0.0015
 50
90.0
  0
MTEXT
  5
3F66
330
3F52
100
AcDbEntity
  8
Dimensione
 62
     4
100
AcDbMText
 10
0.1658558109857608
 20
0.1553034936143821
 30
0.0
 40
0.003
 41
0.0
 71
     5
 72
     1
  1
\A1;3130 mm
  7
ROMANS
 73
     1
 44
1.0
1001
ACAD
1000
MTEXTBEGIN
1070
    73
1070
     1
1070
    44
1040
1.0
1070
    74
1070
     0
1000
MTEXTEND
  0
POINT
  5
3F67
330
3F52
100
AcDbEntity
  8
Defpoints
 62
     0
100
AcDbPoint
 10
0.1323226045303403
 20
0.0741134040348271
 30
0.0
  0
POINT
  5
3F68
330
3F52
100
AcDbEntity
  8
Defpoints
 62
     0
100
AcDbPoint
 10
0.1383859851465732
 20
0.236493583193937
 30
0.0
  0
POINT
  5
3F69
330
3F52
100
AcDbEntity
  8
Defpoints
 62
     0
100
AcDbPoint
 10
0.1658558109857608
 20
0.236493583193937
 30
0.0
  0
ENDBLK
  5
3F5E
330
3F52
100
AcDbEntity
  8
0
100
AcDbBlockEnd
  0
BLOCK
  5
3F77
330
3F6C
100
AcDbEntity
  8
0
100
AcDbBlockBegin
  2
*D33
 70
     1
 10
0.0
 20
0.0
 30
0.0
  3
*D33
  1

  0
LINE
  5
3F7A
330
3F6C
100
AcDbEntity
  8
Dimensione
 62
     5
370
    -2
100
AcDbLine
 10
0.0868639588976841
 20
0.2348087304109908
 30
0.0
 11
0.0868639588976841
 21
0.2450714125046997
 31
0.0
  0
LINE
  5
3F7B
330
3F6C
100
AcDbEntity
  8
Dimensione
 62
     5
370
    -2
100
AcDbLine
 10
0.1410530650318034
 20
0.2357061033893354
 30
0.0
 11
0.1410530650318034
 21
0.2450714125046997
 31
0.0
  0
LINE
  5
3F7C
330
3F6C
100
AcDbEntity
  8
Dimensione
 62
     5
370
    -2
100
AcDbLine
 10
0.0868639588976841
 20
0.2448914125046997
 30
0.0
 11
0.1023870833933151
 21
0.2448914125046997
 31
0.0
  0
LINE
  5
3F7D
330
3F6C
100
AcDbEntity
  8
Dimensione
 62
     5
370
    -2
100
AcDbLine
 10
0.1410530650318034
 20
0.2448914125046997
 30
0.0
 11
0.1255299405361723
 21
0.2448914125046997
 31
0.0
  0
INSERT
  5
3F7E
330
3F6C
100
AcDbEntity
  8
Dimensione
 62
     5
370
    -2
100
AcDbBlockReference
  2
_ArchTick
 10
0.0868639588976841
 20
0.2448914125046997
 30
0.0
 41
0.0015
 42
0.0015
 43
0.0015
 50
180.0
  0
INSERT
  5
3F7F
330
3F6C
100
AcDbEntity
  8
Dimensione
 62
     5
370
    -2
100
AcDbBlockReference
  2
_ArchTick
 10
0.1410530650318034
 20
0.2448914125046997
 30
0.0
 41
0.0015
 42
0.0015
 43
0.0015
  0
MTEXT
  5
3F80
330
3F6C
100
AcDbEntity
  8
Dimensione
 62
     4
100
AcDbMText
 10
0.1139585119647437
 20
0.2448914125046997
 30
0.0
 40
0.003
 41
0.0
 71
     5
 72
     1
  1
\A1;215 mm
  7
ROMANS
 73
     1
 44
1.0
1001
ACAD
1000
MTEXTBEGIN
1070
    73
1070
     1
1070
    44
1040
1.0
1070
    74
1070
     0
1000
MTEXTEND
  0
POINT
  5
3F81
330
3F6C
100
AcDbEntity
  8
Defpoints
 62
     0
100
AcDbPoint
 10
0.0868639588976841
 20
0.2347462304109908
 30
0.0
  0
POINT
  5
3F82
330
3F6C
100
AcDbEntity
  8
Defpoints
 62
     0
100
AcDbPoint
 10
0.1410530650318034
 20
0.2356436033893354
 30
0.0
  0
POINT
  5
3F83
330
3F6C
100
AcDbEntity
  8
Defpoints
 62
     0
100
AcDbPoint
 10
0.1410530650318034
 20
0.2448914125046997
 30
0.0
  0
ENDBLK
  5
3F78
330
3F6C
100
AcDbEntity
  8
0
100
AcDbBlockEnd
  0
BLOCK
  5
3FAB
330
3FA0
100
AcDbEntity
  8
0
100
AcDbBlockBegin
  2
*D35
 70
     1
 10
0.0
 20
0.0
 30
0.0
  3
*D35
  1

  0
LINE
  5
3FAE
330
3FA0
100
AcDbEntity
  8
Dimensione
 62
     5
370
    -2
100
AcDbLine
 10
0.0973226045303402
 20
0.0740509040348272
 30
0.0
 11
0.0973226045303402
 21
0.0635016508762479
 31
0.0
  0
LINE
  5
3FAF
330
3FA0
100
AcDbEntity
  8
Dimensione
 62
     5
370
    -2
100
AcDbLine
 10
0.1323226045303403
 20
0.0740509040348272
 30
0.0
 11
0.1323226045303403
 21
0.0635016508762479
 31
0.0
  0
LINE
  5
3FB0
330
3FA0
100
AcDbEntity
  8
Dimensione
 62
     5
370
    -2
100
AcDbLine
 10
0.0973226045303402
 20
0.0636816508762479
 30
0.0
 11
0.1034654616731973
 21
0.0636816508762479
 31
0.0
  0
LINE
  5
3FB1
330
3FA0
100
AcDbEntity
  8
Dimensione
 62
     5
370
    -2
100
AcDbLine
 10
0.1323226045303403
 20
0.0636816508762479
 30
0.0
 11
0.126179747387483
 21
0.0636816508762479
 31
0.0
  0
INSERT
  5
3FB2
330
3FA0
100
AcDbEntity
  8
Dimensione
 62
     5
370
    -2
100
AcDbBlockReference
  2
_ArchTick
 10
0.0973226045303402
 20
0.0636816508762479
 30
0.0
 41
0.0015
 42
0.0015
 43
0.0015
 50
180.0
  0
INSERT
  5
3FB3
330
3FA0
100
AcDbEntity
  8
Dimensione
 62
     5
370
    -2
100
AcDbBlockReference
  2
_ArchTick
 10
0.1323226045303403
 20
0.0636816508762479
 30
0.0
 41
0.0015
 42
0.0015
 43
0.0015
  0
MTEXT
  5
3FB4
330
3FA0
100
AcDbEntity
  8
Dimensione
 62
     4
100
AcDbMText
 10
0.1148226045303402
 20
0.0636816508762479
 30
0.0
 40
0.003
 41
0.0
 71
     5
 72
     1
  1
\A1;140 mm
  7
ROMANS
 73
     1
 44
1.0
1001
ACAD
1000
MTEXTBEGIN
1070
    73
1070
     1
1070
    44
1040
1.0
1070
    74
1070
     0
1000
MTEXTEND
  0
POINT
  5
3FB5
330
3FA0
100
AcDbEntity
  8
Defpoints
 62
     0
100
AcDbPoint
 10
0.0973226045303402
 20
0.0741134040348271
 30
0.0
  0
POINT
  5
3FB6
330
3FA0
100
AcDbEntity
  8
Defpoints
 62
     0
100
AcDbPoint
 10
0.1323226045303403
 20
0.0741134040348271
 30
0.0
  0
POINT
  5
3FB7
330
3FA0
100
AcDbEntity
  8
Defpoints
 62
     0
100
AcDbPoint
 10
0.1323226045303403
 20
0.0636816508762479
 30
0.0
  0
ENDBLK
  5
3FAC
330
3FA0
100
AcDbEntity
  8
0
100
AcDbBlockEnd
  0
ENDSEC
  0
SECTION
  2
ENTITIES
  0
LINE
  5
D
330
2
100
AcDbEntity
  8
Table
100
AcDbLine
 10
0.02
 20
0.02
 30
0.0
 11
0.4
 21
0.02
 31
0.0
  0
LINE
  5
10
330
2
100
AcDbEntity
  8
Table
100
AcDbLine
 10
0.4
 20
0.02
 30
0.0
 11
0.4
 21
0.2769999999999999
 31
0.0
  0
LINE
  5
11
330
2
100
AcDbEntity
  8
Table
100
AcDbLine
 10
0.4
 20
0.2769999999999999
 30
0.0
 11
0.02
 21
0.277
 31
0.0
  0
LINE
  5
12
330
2
100
AcDbEntity
  8
Table
100
AcDbLine
 10
0.02
 20
0.277
 30
0.0
 11
0.02
 21
0.02
 31
0.0
  0
LINE
  5
13
330
2
100
AcDbEntity
  8
Table
 62
     2
100
AcDbLine
 10
0.015
 20
0.015
 30
0.0
 11
0.4050000000000001
 21
0.015
 31
0.0
  0
LINE
  5
14
330
2
100
AcDbEntity
  8
Table
 62
     2
100
AcDbLine
 10
0.4050000000000001
 20
0.015
 30
0.0
 11
0.4050000000000001
 21
0.2819999999999998
 31
0.0
  0
LINE
  5
15
330
2
100
AcDbEntity
  8
Table
 62
     2
100
AcDbLine
 10
0.4050000000000001
 20
0.2819999999999998
 30
0.0
 11
0.0149999999999999
 21
0.282
 31
0.0
  0
LINE
  5
16
330
2
100
AcDbEntity
  8
Table
 62
     2
100
AcDbLine
 10
0.0149999999999999
 20
0.282
 30
0.0
 11
0.015
 21
0.015
 31
0.0
  0
LINE
  5
17
330
2
100
AcDbEntity
  8
Table
100
AcDbLine
 10
0.21
 20
0.2769999999999999
 30
0.0
 11
0.21
 21
0.2532994226089223
 31
0.0
  0
LINE
  5
1D
330
2
100
AcDbEntity
  8
Table
100
AcDbLine
 10
0.02
 20
0.0528099428524846
 30
0.0
 11
0.4
 21
0.0528099428524846
 31
0.0
  0
MTEXT
  5
1E
330
2
100
AcDbEntity
  8
Text
100
AcDbMText
 10
0.1133313047219695
 20
0.2610796890771976
 30
0.0
 40
0.003
 41
0.1103605678262056
 71
     2
 72
     5
  1
{\fTimes New Roman|b0|i0|c0|p18;Le lesene \fTimes New Roman|b0|i1|c0|p18;      Pilasters}
 73
     1
 44
1.0
1001
ACAD
1000
MTEXTBEGIN
1070
    73
1070
     1
1070
    44
1040
1.0
1070
    74
1070
     0
1000
MTEXTEND
1000
ACAD_MTEXT_DEFINED_HEIGHT_BEGIN
1070
    46
1040
0.0141952763113409
1000
ACAD_MTEXT_DEFINED_HEIGHT_END
  0
TEXT
  5
1F
330
2
100
AcDbEntity
  8
Text
100
AcDbText
 10
0.2180556919891047
 20
0.269976982173197
 30
0.0
 40
0.003
  1
Lesena grande - Big pilaster : L 215 x 65 x H 3130 mm
  7
ROMANS
100
AcDbText
  0
TEXT
  5
21
330
2
100
AcDbEntity
  8
Text
100
AcDbText
 10
0.2184542410678115
 20
0.2576348370183962
 30
0.0
 40
0.003
  1
File : E - EL02G
  7
ROMANS
100
AcDbText
  0
LINE
  5
22
330
2
100
AcDbEntity
  8
Table
100
AcDbLine
 10
0.4
 20
0.2654452889427402
 30
0.0
 11
0.02
 21
0.2654452889427403
 31
0.0
  0
LINE
  5
23
330
2
100
AcDbEntity
  8
Table
100
AcDbLine
 10
0.4
 20
0.2532994226089223
 30
0.0
 11
0.02
 21
0.2532994226089225
 31
0.0
  0
LINE
  5
24
330
2
100
AcDbEntity
  8
Table
100
AcDbLine
 10
0.21
 20
0.0528099428524846
 30
0.0
 11
0.21
 21
0.02
 31
0.0
  0
TEXT
  5
25
330
2
100
AcDbEntity
  8
Text
100
AcDbText
 10
0.0947789320547719
 20
0.2687784133392506
 30
0.0
 40
0.005
  1
EUROSTYL
  7
style1
 72
     1
 11
0.1140561490699125
 21
0.2687784133392506
 31
0.0
100
AcDbText
  0
MTEXT
  5
10F
102
{ACAD_XDICTIONARY
360
3FF4
102
}
330
2
100
AcDbEntity
  8
Text
100
AcDbMText
 10
0.305
 20
0.0471738284815141
 30
0.0
 40
0.005
 41
0.1900000000000001
 71
     2
 72
     5
  3
{\fTimes New Roman|b0|i0|c238|p18;\H1.6x;\C4;Bovelacci\P\H0.4375x;\T0.95;via del Commercio, 5  47100 Forli - Italy  \fTimes New Roman|b0|i0|c0|p18;\P\fTimes New Roman|b0|i0|c238|p18;tel.+39-0543721386  fax +39-0543721127\fTimes New Roman|b0|i0|c0|p18
  1
; \fTimes New Roman|b0|i0|c238|p18;www.bovelacci.it\fTimes New Roman|b0|i0|c0|p18; \fTimes New Roman|b0|i0|c238|p18;e-mail: bovelacci@bovelacci\fTimes New Roman|b0|i0|c0|p18;.it}
 73
     1
 44
1.0
1001
ACAD
1000
MTEXTBEGIN
1070
    73
1070
     1
1070
    44
1040
1.0
1070
    74
1070
     0
1000
MTEXTEND
1000
ACAD_MTEXT_DEFINED_HEIGHT_BEGIN
1070
    46
1040
0.0271738284815141
1000
ACAD_MTEXT_DEFINED_HEIGHT_END
  0
MTEXT
  5
110
102
{ACAD_XDICTIONARY
360
3FF6
102
}
330
2
100
AcDbEntity
  8
Text
100
AcDbMText
 10
0.0219676065851835
 20
0.0500313976452307
 30
0.0
 40
0.002
 41
0.1863544980601608
 71
     1
 72
     5
  3
{\fArial|b0|i0|c0|p34;\H1.25x;Le caratteristiche tecniche indicate vengono fornite a titolo indicativo e potranno essere modificate senza preavviso. Non devono quindi essere considerate a scopo di specifica.\P\fArial|b0|i1|c0|p34;The given values are
  3
 indicative and can be changed without notice. They cannot be considered like a state.\PThis lealfet and designs embodied within are protected by copyright law and international treaties. Unauthorized repro- duction of the leaflet or any portion of i
  1
t or reproduction of any of the designs embodied therein may result in severe civil penalties and will be prosecuted to the maximum.\PAll right reserved, Bovelacci Forl\U+00EC Italy.}
 73
     1
 44
1.0
1001
ACAD
1000
MTEXTBEGIN
1070
    73
1070
     1
1070
    44
1040
1.0
1070
    74
1070
     0
1000
MTEXTEND
  0
TEXT
  5
3C6E
330
2
100
AcDbEntity
  8
Text
100
AcDbText
 10
0.184348982201479
 20
0.0708732342005391
 30
0.0
 40
0.005
  1
scala 1:4
  7
Arial
100
AcDbText
  0
TEXT
  5
3C6F
330
2
100
AcDbEntity
  8
Text
100
AcDbText
 10
0.3293900362899167
 20
0.0708732342005391
 30
0.0
 40
0.005
  1
scala 1:20
  7
Arial
100
AcDbText
  0
LINE
  5
3D66
330
2
100
AcDbEntity
  8
Profilo
  6
Continuous
370
     0
100
AcDbLine
 10
0.2909848009861875
 20
0.0762924595691192
 30
0.0
 11
0.2909848009861875
 21
0.2295876363000808
 31
0.0
  0
LINE
  5
3D67
330
2
100
AcDbEntity
  8
Profilo
  6
Continuous
370
     0
100
AcDbLine
 10
0.2909848009861875
 20
0.2295876363000808
 30
0.0
 11
0.2979848009861874
 21
0.2295876363000808
 31
0.0
  0
LINE
  5
3D68
330
2
100
AcDbEntity
  8
Profilo
  6
Continuous
370
     0
100
AcDbLine
 10
0.2979848009861874
 20
0.2295876363000808
 30
0.0
 11
0.2979848009861874
 21
0.0762924595691192
 31
0.0
  0
LINE
  5
3D69
330
2
100
AcDbEntity
  8
Profilo
  6
Continuous
370
     0
100
AcDbLine
 10
0.2979848009861874
 20
0.0762924595691192
 30
0.0
 11
0.2909848009861875
 21
0.0762924595691192
 31
0.0
  0
LINE
  5
3D6A
330
2
100
AcDbEntity
  8
Profilo
  6
Continuous
370
     0
100
AcDbLine
 10
0.2915746371320347
 20
0.2263226347297624
 30
0.0
 11
0.2915746371320347
 21
0.0905483817586818
 31
0.0
  0
LINE
  5
3D6B
330
2
100
AcDbEntity
  8
Profilo
  6
Continuous
370
     0
100
AcDbLine
 10
0.2923335175753872
 20
0.2263226347297624
 30
0.0
 11
0.2923335175753872
 21
0.0905483817586818
 31
0.0
  0
ARC
  5
3D6C
330
2
100
AcDbEntity
  8
Profilo
  6
Continuous
370
     0
100
AcDbCircle
 10
0.2919540773537113
 20
0.0905483817586818
 30
0.0
 40
0.0003794402216763
100
AcDbArc
 50
180.0
 51
0.0
  0
ARC
  5
3D6D
330
2
100
AcDbEntity
  8
Profilo
  6
Continuous
370
     0
100
AcDbCircle
 10
0.2919540773537113
 20
0.2263226347297624
 30
0.0
 40
0.0003794402216763
100
AcDbArc
 50
0.0
 51
180.0
  0
LINE
  5
3D6E
330
2
100
AcDbEntity
  8
Profilo
  6
Continuous
370
     0
100
AcDbLine
 10
0.2927960018077989
 20
0.2263226347297624
 30
0.0
 11
0.2927960018077989
 21
0.0905483817586818
 31
0.0
  0
LINE
  5
3D6F
330
2
100
AcDbEntity
  8
Profilo
  6
Continuous
370
     0
100
AcDbLine
 10
0.2935548822511515
 20
0.2263226347297624
 30
0.0
 11
0.2935548822511515
 21
0.0905483817586818
 31
0.0
  0
ARC
  5
3D70
330
2
100
AcDbEntity
  8
Profilo
  6
Continuous
370
     0
100
AcDbCircle
 10
0.293175442029475
 20
0.0905483817586818
 30
0.0
 40
0.0003794402216763
100
AcDbArc
 50
180.0
 51
0.0
  0
ARC
  5
3D71
330
2
100
AcDbEntity
  8
Profilo
  6
Continuous
370
     0
100
AcDbCircle
 10
0.293175442029475
 20
0.2263226347297624
 30
0.0
 40
0.0003794402216763
100
AcDbArc
 50
0.0
 51
180.0
  0
LINE
  5
3D72
330
2
100
AcDbEntity
  8
Profilo
  6
Continuous
370
     0
100
AcDbLine
 10
0.2940433998620404
 20
0.2263226347297624
 30
0.0
 11
0.2940433998620404
 21
0.0905483817586818
 31
0.0
  0
LINE
  5
3D73
330
2
100
AcDbEntity
  8
Profilo
  6
Continuous
370
     0
100
AcDbLine
 10
0.2948022803053934
 20
0.2263226347297624
 30
0.0
 11
0.2948022803053934
 21
0.0905483817586818
 31
0.0
  0
ARC
  5
3D74
330
2
100
AcDbEntity
  8
Profilo
  6
Continuous
370
     0
100
AcDbCircle
 10
0.294422840083717
 20
0.0905483817586818
 30
0.0
 40
0.0003794402216763
100
AcDbArc
 50
180.0
 51
0.0
  0
ARC
  5
3D75
330
2
100
AcDbEntity
  8
Profilo
  6
Continuous
370
     0
100
AcDbCircle
 10
0.294422840083717
 20
0.2263226347297624
 30
0.0
 40
0.0003794402216763
100
AcDbArc
 50
0.0
 51
180.0
  0
LINE
  5
3D76
330
2
100
AcDbEntity
  8
Profilo
  6
Continuous
370
     0
100
AcDbLine
 10
0.2952762930398798
 20
0.2263226347297624
 30
0.0
 11
0.2952762930398798
 21
0.0905483817586818
 31
0.0
  0
LINE
  5
3D77
330
2
100
AcDbEntity
  8
Profilo
  6
Continuous
370
     0
100
AcDbLine
 10
0.2960351734832323
 20
0.2263226347297624
 30
0.0
 11
0.2960351734832323
 21
0.0905483817586818
 31
0.0
  0
ARC
  5
3D78
330
2
100
AcDbEntity
  8
Profilo
  6
Continuous
370
     0
100
AcDbCircle
 10
0.2956557332615561
 20
0.0905483817586818
 30
0.0
 40
0.0003794402216763
100
AcDbArc
 50
180.0
 51
0.0
  0
ARC
  5
3D79
330
2
100
AcDbEntity
  8
Profilo
  6
Continuous
370
     0
100
AcDbCircle
 10
0.2956557332615561
 20
0.2263226347297624
 30
0.0
 40
0.0003794402216763
100
AcDbArc
 50
0.0
 51
180.0
  0
LINE
  5
3D7A
330
2
100
AcDbEntity
  8
Profilo
  6
Continuous
370
     0
100
AcDbLine
 10
0.296509186826758
 20
0.2263226347297624
 30
0.0
 11
0.296509186826758
 21
0.0905483817586818
 31
0.0
  0
LINE
  5
3D7B
330
2
100
AcDbEntity
  8
Profilo
  6
Continuous
370
     0
100
AcDbLine
 10
0.2972680672701107
 20
0.2263226347297624
 30
0.0
 11
0.2972680672701107
 21
0.0905483817586818
 31
0.0
  0
ARC
  5
3D7C
330
2
100
AcDbEntity
  8
Profilo
  6
Continuous
370
     0
100
AcDbCircle
 10
0.2968886270484345
 20
0.0905483817586818
 30
0.0
 40
0.0003794402216763
100
AcDbArc
 50
180.0
 51
0.0
  0
ARC
  5
3D7D
330
2
100
AcDbEntity
  8
Profilo
  6
Continuous
370
     0
100
AcDbCircle
 10
0.2968886270484345
 20
0.2263226347297624
 30
0.0
 40
0.0003794402216763
100
AcDbArc
 50
0.0
 51
180.0
  0
LINE
  5
3D7E
330
2
100
AcDbEntity
  8
Profilo
  6
Continuous
370
     0
100
AcDbLine
 10
0.2909848009861875
 20
0.08944192708678
 30
0.0
 11
0.2979848009861874
 21
0.08944192708678
 31
0.0
  0
LINE
  5
3D7F
330
2
100
AcDbEntity
  8
Profilo
  6
Continuous
370
     0
100
AcDbLine
 10
0.2909848009861875
 20
0.0887234308991454
 30
0.0
 11
0.2979848009861874
 21
0.0887234308991454
 31
0.0
  0
LINE
  5
3D80
330
2
100
AcDbEntity
  8
Profilo
  6
Continuous
370
     0
100
AcDbLine
 10
0.2909848009861875
 20
0.0885067411726538
 30
0.0
 11
0.2979848009861874
 21
0.0885067411726538
 31
0.0
  0
LINE
  5
3D81
330
2
100
AcDbEntity
  8
Profilo
  6
Continuous
370
     0
100
AcDbLine
 10
0.2909848009861875
 20
0.0881874093586785
 30
0.0
 11
0.2979848009861874
 21
0.0881874093586785
 31
0.0
  0
LINE
  5
3D82
330
2
100
AcDbEntity
  8
Profilo
  6
Continuous
370
     0
100
AcDbLine
 10
0.2909848009861875
 20
0.087229414310562
 30
0.0
 11
0.2979848009861874
 21
0.087229414310562
 31
0.0
  0
LINE
  5
3D83
330
2
100
AcDbEntity
  8
Profilo
  6
Continuous
370
     0
100
AcDbLine
 10
0.2909848009861875
 20
0.0868758682048842
 30
0.0
 11
0.2979848009861874
 21
0.0868758682048842
 31
0.0
  0
LINE
  5
3D84
330
2
100
AcDbEntity
  8
Profilo
  6
Continuous
370
     0
100
AcDbLine
 10
0.2909848009861875
 20
0.086431084775622
 30
0.0
 11
0.2979848009861874
 21
0.086431084775622
 31
0.0
  0
LINE
  5
3D85
330
2
100
AcDbEntity
  8
Profilo
  6
Continuous
370
     0
100
AcDbLine
 10
0.2973889475335361
 20
0.0849495000097879
 30
0.0
 11
0.2979848009861874
 21
0.0849495000097879
 31
0.0
  0
LINE
  5
3D86
330
2
100
AcDbEntity
  8
Profilo
  6
Continuous
370
     0
100
AcDbLine
 10
0.2909848009861875
 20
0.2280736527108313
 30
0.0
 11
0.2979848009861874
 21
0.2280736527108313
 31
0.0
  0
LINE
  5
3D87
330
2
100
AcDbEntity
  8
Profilo
  6
Continuous
370
     0
100
AcDbLine
 10
0.2973889475335361
 20
0.0781468206210886
 30
0.0
 11
0.2979848009861874
 21
0.0781468206210886
 31
0.0
  0
LWPOLYLINE
  5
3D88
330
2
100
AcDbEntity
  8
Profilo
  6
Continuous
370
     0
100
AcDbPolyline
 90
        4
 70
     1
 43
0.0
 10
0.2921954544904162
 20
0.0873289236322714
 10
0.2929950224032409
 20
0.0873289236322714
 10
0.2929950224032409
 20
0.0881035311795354
 10
0.2921954544904162
 20
0.0881035311795354
  0
LWPOLYLINE
  5
3D89
330
2
100
AcDbEntity
  8
Profilo
  6
Continuous
370
     0
100
AcDbPolyline
 90
        2
 70
     0
 43
0.0
 10
0.292090657123832
 20
0.0881874093586785
 10
0.292090657123832
 20
0.087229414310562
  0
LWPOLYLINE
  5
3D8A
330
2
100
AcDbEntity
  8
Profilo
  6
Continuous
370
     0
100
AcDbPolyline
 90
        2
 70
     0
 43
0.0
 10
0.2930998197698251
 20
0.087229414310562
 10
0.2930998197698251
 20
0.0881874093586785
  0
LINE
  5
3D8B
330
2
100
AcDbEntity
  8
Profilo
  6
Continuous
370
     0
100
AcDbLine
 10
0.2921954544904162
 20
0.0881035311795354
 30
0.0
 11
0.2929950224032409
 21
0.0873289236322714
 31
0.0
  0
LINE
  5
3D8C
330
2
100
AcDbEntity
  8
Profilo
  6
Continuous
370
     0
100
AcDbLine
 10
0.2929950224032409
 20
0.0881035311795354
 30
0.0
 11
0.2921954544904162
 21
0.0873289236322714
 31
0.0
  0
LWPOLYLINE
  5
3D8D
330
2
100
AcDbEntity
  8
Profilo
  6
Continuous
370
     0
100
AcDbPolyline
 90
        4
 70
     1
 43
0.0
 10
0.293445799076067
 20
0.0873289236322714
 10
0.2942453669888916
 20
0.0873289236322714
 10
0.2942453669888916
 20
0.0881035311795354
 10
0.293445799076067
 20
0.0881035311795354
  0
LWPOLYLINE
  5
3D8E
330
2
100
AcDbEntity
  8
Profilo
  6
Continuous
370
     0
100
AcDbPolyline
 90
        2
 70
     0
 43
0.0
 10
0.2933410017094826
 20
0.0881874093586785
 10
0.2933410017094826
 20
0.087229414310562
  0
LWPOLYLINE
  5
3D8F
330
2
100
AcDbEntity
  8
Profilo
  6
Continuous
370
     0
100
AcDbPolyline
 90
        2
 70
     0
 43
0.0
 10
0.294350164355476
 20
0.087229414310562
 10
0.294350164355476
 20
0.0881874093586785
  0
LINE
  5
3D90
330
2
100
AcDbEntity
  8
Profilo
  6
Continuous
370
     0
100
AcDbLine
 10
0.293445799076067
 20
0.0881035311795354
 30
0.0
 11
0.2942453669888916
 21
0.0873289236322714
 31
0.0
  0
LINE
  5
3D91
330
2
100
AcDbEntity
  8
Profilo
  6
Continuous
370
     0
100
AcDbLine
 10
0.2942453669888916
 20
0.0881035311795354
 30
0.0
 11
0.293445799076067
 21
0.0873289236322714
 31
0.0
  0
LWPOLYLINE
  5
3D92
330
2
100
AcDbEntity
  8
Profilo
  6
Continuous
370
     0
100
AcDbPolyline
 90
        4
 70
     1
 43
0.0
 10
0.2946650375961572
 20
0.0873289236322714
 10
0.295464605508982
 20
0.0873289236322714
 10
0.295464605508982
 20
0.0881035311795354
 10
0.2946650375961572
 20
0.0881035311795354
  0
LWPOLYLINE
  5
3D93
330
2
100
AcDbEntity
  8
Profilo
  6
Continuous
370
     0
100
AcDbPolyline
 90
        2
 70
     0
 43
0.0
 10
0.2945602402295731
 20
0.0881874093586785
 10
0.2945602402295731
 20
0.087229414310562
  0
LWPOLYLINE
  5
3D94
330
2
100
AcDbEntity
  8
Profilo
  6
Continuous
370
     0
100
AcDbPolyline
 90
        2
 70
     0
 43
0.0
 10
0.2955694028755662
 20
0.087229414310562
 10
0.2955694028755662
 20
0.0881874093586785
  0
LINE
  5
3D95
330
2
100
AcDbEntity
  8
Profilo
  6
Continuous
370
     0
100
AcDbLine
 10
0.2946650375961572
 20
0.0881035311795354
 30
0.0
 11
0.295464605508982
 21
0.0873289236322714
 31
0.0
  0
LINE
  5
3D96
330
2
100
AcDbEntity
  8
Profilo
  6
Continuous
370
     0
100
AcDbLine
 10
0.295464605508982
 20
0.0881035311795354
 30
0.0
 11
0.2946650375961572
 21
0.0873289236322714
 31
0.0
  0
LWPOLYLINE
  5
3D97
330
2
100
AcDbEntity
  8
Profilo
  6
Continuous
370
     0
100
AcDbPolyline
 90
        4
 70
     1
 43
0.0
 10
0.2958979734067373
 20
0.0873289236322714
 10
0.2966975413195616
 20
0.0873289236322714
 10
0.2966975413195616
 20
0.0881035311795354
 10
0.2958979734067373
 20
0.0881035311795354
  0
LWPOLYLINE
  5
3D98
330
2
100
AcDbEntity
  8
Profilo
  6
Continuous
370
     0
100
AcDbPolyline
 90
        2
 70
     0
 43
0.0
 10
0.2957931760401531
 20
0.0881874093586785
 10
0.2957931760401531
 20
0.087229414310562
  0
LWPOLYLINE
  5
3D99
330
2
100
AcDbEntity
  8
Profilo
  6
Continuous
370
     0
100
AcDbPolyline
 90
        2
 70
     0
 43
0.0
 10
0.2968023386861458
 20
0.087229414310562
 10
0.2968023386861458
 20
0.0881874093586785
  0
LINE
  5
3D9A
330
2
100
AcDbEntity
  8
Profilo
  6
Continuous
370
     0
100
AcDbLine
 10
0.2958979734067373
 20
0.0881035311795354
 30
0.0
 11
0.2966975413195616
 21
0.0873289236322714
 31
0.0
  0
LINE
  5
3D9B
330
2
100
AcDbEntity
  8
Profilo
  6
Continuous
370
     0
100
AcDbLine
 10
0.2966975413195616
 20
0.0881035311795354
 30
0.0
 11
0.2958979734067373
 21
0.0873289236322714
 31
0.0
  0
LWPOLYLINE
  5
3D9C
330
2
100
AcDbEntity
  8
Profilo
  6
Continuous
370
     0
100
AcDbPolyline
 90
        4
 70
     1
 43
0.0
 10
0.2971485670894003
 20
0.0873289236322714
 10
0.2979481350022246
 20
0.0873289236322714
 10
0.2979481350022246
 20
0.0881035311795354
 10
0.2971485670894003
 20
0.0881035311795354
  0
LWPOLYLINE
  5
3D9D
330
2
100
AcDbEntity
  8
Profilo
  6
Continuous
370
     0
100
AcDbPolyline
 90
        2
 70
     0
 43
0.0
 10
0.2970437697228161
 20
0.0881874093586785
 10
0.2970437697228161
 20
0.087229414310562
  0
LINE
  5
3D9E
330
2
100
AcDbEntity
  8
Profilo
  6
Continuous
370
     0
100
AcDbLine
 10
0.2971485670894003
 20
0.0881035311795354
 30
0.0
 11
0.2979481350022246
 21
0.0873289236322714
 31
0.0
  0
LINE
  5
3D9F
330
2
100
AcDbEntity
  8
Profilo
  6
Continuous
370
     0
100
AcDbLine
 10
0.2979481350022246
 20
0.0881035311795354
 30
0.0
 11
0.2971485670894003
 21
0.0873289236322714
 31
0.0
  0
LWPOLYLINE
  5
3DA0
330
2
100
AcDbEntity
  8
Profilo
  6
Continuous
370
     0
100
AcDbPolyline
 90
        2
 70
     0
 43
0.0
 10
0.2909848009861875
 20
0.087229414310562
 10
0.2909848009861875
 20
0.0881874093586785
  0
LWPOLYLINE
  5
3DA1
330
2
100
AcDbEntity
  8
Profilo
  6
Continuous
370
     0
100
AcDbPolyline
 90
        4
 70
     1
 43
0.0
 10
0.2909919255261673
 20
0.0873172077577534
 10
0.291791493438992
 20
0.0873172077577534
 10
0.291791493438992
 20
0.0880918153050174
 10
0.2909919255261673
 20
0.0880918153050174
  0
LWPOLYLINE
  5
3DA2
330
2
100
AcDbEntity
  8
Profilo
  6
Continuous
370
     0
100
AcDbPolyline
 90
        2
 70
     0
 43
0.0
 10
0.2918962908055762
 20
0.0872176984360431
 10
0.2918962908055762
 20
0.0881756934841597
  0
LINE
  5
3DA3
330
2
100
AcDbEntity
  8
Profilo
  6
Continuous
370
     0
100
AcDbLine
 10
0.2909919255261673
 20
0.0880918153050174
 30
0.0
 11
0.291791493438992
 21
0.0873172077577534
 31
0.0
  0
LINE
  5
3DA4
330
2
100
AcDbEntity
  8
Profilo
  6
Continuous
370
     0
100
AcDbLine
 10
0.291791493438992
 20
0.0880918153050174
 30
0.0
 11
0.2909919255261673
 21
0.0873172077577534
 31
0.0
  0
LINE
  5
3DA5
330
2
100
AcDbEntity
  8
Profilo
  6
Continuous
370
     0
100
AcDbLine
 10
0.2912487890058657
 20
0.0849495000097879
 30
0.0
 11
0.2912487890058657
 21
0.0781468206210886
 31
0.0
  0
LINE
  5
3DA6
330
2
100
AcDbEntity
  8
Profilo
  6
Continuous
370
     0
100
AcDbLine
 10
0.2916201159125018
 20
0.0849495000097879
 30
0.0
 11
0.2916201159125018
 21
0.0781468206210886
 31
0.0
  0
LINE
  5
3DA7
330
2
100
AcDbEntity
  8
Profilo
  6
Continuous
370
     0
100
AcDbLine
 10
0.2973889475335361
 20
0.0849495000097879
 30
0.0
 11
0.2973889475335361
 21
0.0781468206210886
 31
0.0
  0
LINE
  5
3DA8
330
2
100
AcDbEntity
  8
Profilo
  6
Continuous
370
     0
100
AcDbLine
 10
0.2977337513942175
 20
0.0849495000097879
 30
0.0
 11
0.2977337513942175
 21
0.0781468206210886
 31
0.0
  0
LINE
  5
3DA9
330
2
100
AcDbEntity
  8
Profilo
  6
Continuous
370
     0
100
AcDbLine
 10
0.2907366138782239
 20
0.2303797896985471
 30
0.0
 11
0.2981156469572281
 21
0.2303797896985471
 31
0.0
  0
LINE
  5
3DAA
330
2
100
AcDbEntity
  8
Profilo
  6
Continuous
370
     0
100
AcDbLine
 10
0.290812044664958
 20
0.2296869719511798
 30
0.0
 11
0.2981445275937331
 21
0.2296869719511798
 31
0.0
  0
LWPOLYLINE
  5
3DAB
330
2
100
AcDbEntity
  8
Profilo
  6
Continuous
370
     0
100
AcDbPolyline
 90
       82
 70
   128
 43
0.0
 10
0.2909848009861875
 20
0.2295876363000808
 10
0.2907651424901003
 20
0.2297139409097934
 10
0.290645643527468
 20
0.2299247234726626
 10
0.2906315850767624
 20
0.2301846882922311
 10
0.2907159369990728
 20
0.230381418500463
 10
0.2905964386454796
 20
0.2309575571643357
 10
0.2904221352949117
 20
0.2314477095792726
 10
0.2901522091435189
 20
0.2316837858291521
 10
0.289916023152011
 20
0.2316837858291521
 10
0.28980355432829
 20
0.2318861372942873
 10
0.2897585664333779
 20
0.2322009056274591
 10
0.2896460970006183
 20
0.2324144984249693
 10
0.2895673683367821
 20
0.2326505746748478
 10
0.289544874693846
 20
0.232796717115249
 10
0.2893841486530544
 20
0.2331357697980732
 10
0.289260077633521
 20
0.2336822064556294
 10
0.2892717090632129
 20
0.2340387470994529
 10
0.2893180325809812
 20
0.2344168933911309
 10
0.2894033315591702
 20
0.2345796621342652
 10
0.289539034617434
 20
0.2346687969014099
 10
0.2895002625760896
 20
0.234769558541808
 10
0.2893296640106728
 20
0.2349245759048354
 10
0.2892831376828675
 20
0.2350602161959379
 10
0.2891435568723339
 20
0.2351609778363359
 10
0.2889906722106019
 20
0.2354805888622449
 10
0.2888930718596563
 20
0.2358512976411122
 10
0.2888345121363201
 20
0.2361146957041783
 10
0.2888930718596563
 20
0.2363098057743342
 10
0.289122431740368
 20
0.2364122383544156
 10
0.2894884319905957
 20
0.2364951599668625
 10
0.2898788327853401
 20
0.2364707712573191
 10
0.2914825339684592
 20
0.2363465983460526
 10
0.2927568003938537
 20
0.2362966501271362
 10
0.2941684873679158
 20
0.2362966501271362
 10
0.2942151056606326
 20
0.2363466318199791
 10
0.2943117394664469
 20
0.236379834411459
 10
0.2944053530471153
 20
0.2363617238354131
 10
0.2944778274879174
 20
0.2363043743342891
 10
0.2947254506256278
 20
0.2363013557736781
 10
0.2963835140342599
 20
0.2363424656943824
 10
0.2972029652482224
 20
0.236381100907339
 10
0.2983161810149584
 20
0.2365433699044298
 10
0.2989114424815562
 20
0.2366438220094544
 10
0.2991974771094341
 20
0.2366592763309235
 10
0.2994757812033779
 20
0.2366129137603263
 10
0.2997308930864802
 20
0.2364892803700032
 10
0.299800469109966
 20
0.2364120095502781
 10
0.2998975213256763
 20
0.2360956391943322
 10
0.2999694774741617
 20
0.2358452404355336
 10
0.2999614820081971
 20
0.2356800840168638
 10
0.2999348316730601
 20
0.2355548848343706
 10
0.2997722638978781
 20
0.2353684177322155
 10
0.2994728894854921
 20
0.2351108476767794
 10
0.2993524684375863
 20
0.2349603910378797
 10
0.2993261262762599
 20
0.234847548460251
 10
0.2993411792878975
 20
0.2345992951832807
 10
0.2995113283824213
 20
0.2341973473541231
 10
0.2995783939465302
 20
0.233955276908411
 10
0.2996454601196781
 20
0.2336796892163042
 10
0.2996342824241533
 20
0.2334823084324515
 10
0.2995711920585782
 20
0.2332078549157603
 10
0.2994460022341261
 20
0.2328026660228277
 10
0.2993983108144263
 20
0.232576237352577
 10
0.2992969673088632
 20
0.2324272708941537
 10
0.2992731215990132
 20
0.2323200149180695
 10
0.2992969673088632
 20
0.2321412550891986
 10
0.2992731215990132
 20
0.2320042061364779
 10
0.2991837000348161
 20
0.2318850330485013
 10
0.299058510210364
 20
0.2318314050604586
 10
0.2988915908504532
 20
0.2318254463076069
 10
0.2986948638964513
 20
0.2317658599605247
 10
0.2984862143920439
 20
0.2315453896493147
 10
0.2982403842655916
 20
0.2310293551938696
 10
0.2981794200556904
 20
0.2306965538654019
 10
0.2981372148606562
 20
0.2304949978983005
 10
0.2981372148606562
 20
0.2304012512116096
 10
0.2981934888600617
 20
0.2303121916623484
 10
0.2982638316638377
 20
0.2300918863579089
 10
0.2982497628594665
 20
0.2299231419280552
 10
0.2981794200556904
 20
0.2297309610234335
 10
0.2981372148606562
 20
0.2296700254801791
 10
0.2979848009861874
 20
0.2295876363000808
  0
LWPOLYLINE
  5
3DAC
330
2
100
AcDbEntity
  8
Profilo
  6
Continuous
370
     0
100
AcDbPolyline
 90
        7
 70
   128
 43
0.0
 10
0.2892496460109555
 20
0.2351186723057144
 10
0.289243802280309
 20
0.2356911099346712
 10
0.2897755976041758
 20
0.2358429811423535
 10
0.2906580271205101
 20
0.2357436805404252
 10
0.2919670611548357
 20
0.2356268565345148
 10
0.2931709056013645
 20
0.2355626035281703
 10
0.2939598323821559
 20
0.2355742859287617
  0
LWPOLYLINE
  5
3DAD
330
2
100
AcDbEntity
  8
Profilo
  6
Continuous
370
     0
100
AcDbPolyline
 90
        7
 70
   128
 43
0.0
 10
0.2946707869257357
 20
0.2356276217091098
 10
0.2959330705058492
 20
0.2357327633144287
 10
0.2973414510063641
 20
0.2358904759193118
 10
0.2982823196562825
 20
0.2359956175246307
 10
0.2988433342424224
 20
0.2360715529315658
 10
0.2993575977653102
 20
0.2359956175246307
 10
0.2995446026273565
 20
0.2352479438868094
  0
LWPOLYLINE
  5
3DAE
330
2
100
AcDbEntity
  8
Profilo
  6
Continuous
370
     0
100
AcDbPolyline
 90
       10
 70
   128
 43
0.0
 10
0.2986680168416689
 20
0.2350785488813349
 10
0.2987732070385052
 20
0.2351486432848802
 10
0.2988082706404636
 20
0.2353180382903548
 10
0.2988082706404636
 20
0.2354757505014277
 10
0.2988082706404636
 20
0.2356042569079277
 10
0.2988082706404636
 20
0.2357269223110381
 10
0.298819958710796
 20
0.2358612697209288
 10
0.298819958710796
 20
0.2359547289256563
 10
0.2988141143711105
 20
0.2360598705309752
 10
0.2990712464370739
 20
0.2366031023553603
  0
LWPOLYLINE
  5
3DAF
330
2
100
AcDbEntity
  8
Profilo
  6
Continuous
370
     0
100
AcDbPolyline
 90
        9
 70
   128
 43
0.0
 10
0.2989134608372999
 20
0.2347514416647876
 10
0.2991063100390323
 20
0.2349091542696715
 10
0.2991179975003257
 20
0.2350493430767631
 10
0.2990303391044686
 20
0.2352128966850358
 10
0.2991705929032633
 20
0.2355867335039465
 10
0.2993634414959565
 20
0.2357970167145843
 10
0.2993634414959565
 20
0.2359313641244741
 10
0.2995270708263775
 20
0.2361066001333394
 10
0.2997842022833017
 20
0.2362818361422037
  0
LWPOLYLINE
  5
3DB0
330
2
100
AcDbEntity
  8
Profilo
  6
Continuous
370
     0
100
AcDbPolyline
 90
        7
 70
   128
 43
0.0
 10
0.2895702704083332
 20
0.2348063700164495
 10
0.2895496410342357
 20
0.2350692754220688
 10
0.2894877523029042
 20
0.2353167162671366
 10
0.289358817496717
 20
0.2355022969009368
 10
0.2892814561257733
 20
0.2356621022169862
 10
0.2891267346019644
 20
0.2357806672609205
 10
0.2888946510981725
 20
0.235945627955569
  0
LWPOLYLINE
  5
3DB1
330
2
100
AcDbEntity
  8
Profilo
  6
Continuous
370
     0
100
AcDbPolyline
 90
        7
 70
   128
 43
0.0
 10
0.289817825942698
 20
0.2348888501668678
 10
0.289817825942698
 20
0.2352548560558689
 10
0.2897456219152785
 20
0.2355847770513551
 10
0.289761094554891
 20
0.2358167525482475
 10
0.2896682611533741
 20
0.2361002782868304
 10
0.289611529765567
 20
0.236301323874994
 10
0.289621844452616
 20
0.2364714391606197
  0
LWPOLYLINE
  5
3DB2
330
2
100
AcDbEntity
  8
Profilo
  6
Continuous
370
     0
100
AcDbPolyline
 90
        4
 70
   128
 43
0.0
 10
0.2919784946468038
 20
0.2347390051163084
 10
0.2924973704231761
 20
0.2347435544199188
 10
0.2930981741460412
 20
0.2347390051163084
 10
0.2935533279832403
 20
0.2347572027245637
  0
LWPOLYLINE
  5
3DB3
330
2
100
AcDbEntity
  8
Profilo
  6
Continuous
370
     0
100
AcDbPolyline
 90
        3
 70
   128
 43
0.0
 10
0.2922060718699226
 20
0.2345615771559288
 10
0.2928114269423576
 20
0.234579774764185
 10
0.2936170493133749
 20
0.2345979723724403
  0
LWPOLYLINE
  5
3DB4
330
2
100
AcDbEntity
  8
Profilo
  6
Continuous
370
     0
100
AcDbPolyline
 90
        2
 70
   128
 43
0.0
 10
0.295194108078866
 20
0.2347982842908828
 10
0.2966779101606314
 20
0.2349666136440398
  0
LWPOLYLINE
  5
3DB5
330
2
100
AcDbEntity
  8
Profilo
  6
Continuous
370
     0
100
AcDbPolyline
 90
        2
 70
   128
 43
0.0
 10
0.2951713501129387
 20
0.234689097853726
 10
0.2965322608840046
 20
0.2347846359862378
  0
LWPOLYLINE
  5
3DB6
330
2
100
AcDbEntity
  8
Profilo
  6
Continuous
370
     0
100
AcDbPolyline
 90
       68
 70
   128
 43
0.0
 10
0.2938032873951311
 20
0.2318670575495971
 10
0.2937582227612863
 20
0.2319886754156919
 10
0.2937582227612863
 20
0.2321463285551287
 10
0.2938303262972455
 20
0.2322319115416926
 10
0.2939925584918555
 20
0.2322544335875315
 10
0.2940962072106026
 20
0.2321958766621618
 10
0.2941457781251202
 20
0.2321328153276256
 10
0.2941728170272346
 20
0.2322093898896649
 10
0.2941367649547353
 20
0.232592261518431
 10
0.2940511425767578
 20
0.2329661247226724
 10
0.2939474938580107
 20
0.2331417951049686
 10
0.2938573645903213
 20
0.233011168420538
 10
0.2937311838591714
 20
0.2328895501606331
 10
0.2936095094086946
 20
0.2328850457514648
 10
0.2935419127624468
 20
0.232961620313505
 10
0.2934833286775447
 20
0.2331057602254377
 10
0.2934157320312971
 20
0.2331598127416391
 10
0.293217447764188
 20
0.2331913432120016
 10
0.2930281766674632
 20
0.2332363869098683
 10
0.2929290342293889
 20
0.2332634133648745
 10
0.2929921245949636
 20
0.2333985444584715
 10
0.2932309672152451
 20
0.233529171142902
 10
0.293519380141005
 20
0.2336462849936397
 10
0.2935779642259071
 20
0.2336913286915063
 10
0.2934157320312971
 20
0.2337588944352108
 10
0.2932039283131307
 20
0.2337183551465125
 10
0.2930236697777515
 20
0.233601241295774
 10
0.2927848277665093
 20
0.2335967368866067
 10
0.2926856859374738
 20
0.2337048419190094
 10
0.2925473987260956
 20
0.233776263465315
 10
0.2924759968032373
 20
0.2339208802822581
 10
0.2926451275843021
 20
0.2340651918957477
 10
0.2927803214858364
 20
0.2341372616548085
 10
0.2928794633148717
 20
0.2342273490505407
 10
0.2930416961185205
 20
0.2342768971575739
 10
0.2935774800397828
 20
0.234016609413061
 10
0.2935604640949636
 20
0.2341073190300278
 10
0.2936341998558458
 20
0.2342660606628142
 10
0.2938327186030278
 20
0.2342830685683156
 10
0.2938837664374845
 20
0.2343000768676291
 10
0.293645144898415
 20
0.2346083461393836
 10
0.2935487212111076
 20
0.2348181118824872
 10
0.293276466703043
 20
0.2350278776255909
 10
0.2930098841765851
 20
0.2350732324340742
 10
0.2928113654294033
 20
0.2349825228171074
 10
0.2926241906454336
 20
0.2349768535152736
 10
0.2926128466822213
 20
0.2351129175469127
 10
0.2927376296685211
 20
0.2352603205760315
 10
0.2929021171351045
 20
0.2353793767021682
 10
0.2931176518271055
 20
0.2353737074003344
 10
0.2933161705742875
 20
0.2353340222874959
 10
0.293344530482319
 20
0.2353963850014816
 10
0.2935203613030761
 20
0.2353793767021682
 10
0.2936508168800211
 20
0.2352659898778653
 10
0.2937302240134709
 20
0.2351072482450789
 10
0.2937358959950771
 20
0.2350108693262784
 10
0.2938266477007783
 20
0.2351412644498938
 10
0.2939060554432666
 20
0.2352036271638795
 10
0.2939514312961173
 20
0.2352092964657142
 10
0.2938890394984477
 20
0.2353396915893298
 10
0.2939003834616605
 20
0.2354984332221161
 10
0.2939797905951096
 20
0.2355324490331208
 10
0.2940194944663541
 20
0.2356628441567372
 10
0.29402770370506
 20
0.2358424522543036
 10
0.2940751100944376
 20
0.235965095604003
 10
0.2941364604351602
 20
0.2360124805077181
 10
0.2941531919586962
 20
0.2361156124959729
 10
0.2941671353010018
 20
0.2362744911749546
  0
LWPOLYLINE
  5
3DB7
330
2
100
AcDbEntity
  8
Profilo
  6
Continuous
370
     0
100
AcDbPolyline
 90
       71
 70
   128
 43
0.0
 10
0.2944934061003415
 20
0.2362689163877387
 10
0.2945101382329165
 20
0.2361434856444312
 10
0.2945101382329165
 20
0.2359873943590566
 10
0.29453523551822
 20
0.2358842623708027
 10
0.2945910082784044
 20
0.2357421076596577
 10
0.2945937970686738
 20
0.2356166769163503
 10
0.2946830334849693
 20
0.2355302688959331
 10
0.294719285931349
 20
0.235343516674681
 10
0.2947081313793121
 20
0.2352348098992102
 10
0.2948535869814892
 20
0.2351193925858654
 10
0.2949260918742487
 20
0.235002324023382
 10
0.2949484009783221
 20
0.2351444787345271
 10
0.294976287053895
 20
0.2353089322007256
 10
0.2950683122604594
 20
0.2354120641889794
 10
0.29524678509305
 20
0.2354622364863024
 10
0.2953443872711132
 20
0.2354009146145476
 10
0.2954754537143265
 20
0.2354594490926944
 10
0.2956818126224896
 20
0.2354678112735184
 10
0.2958770175876551
 20
0.235431575550425
 10
0.2959941406885624
 20
0.2353256561685622
 10
0.2960303925259031
 20
0.2352113749996876
 10
0.2960303925259031
 20
0.2351193925858654
 10
0.295921635795803
 20
0.2351556279151477
 10
0.2958323993795076
 20
0.2352141623932955
 10
0.2956595035184157
 20
0.2352197371805115
 10
0.2955172831322046
 20
0.2351639900959725
 10
0.295363908193957
 20
0.2350775820755553
 10
0.295257939645087
 20
0.2349549387258559
 10
0.2951352395726807
 20
0.2347904852596574
 10
0.2951324507824118
 20
0.2346901406650115
 10
0.2950487919466544
 20
0.2345368363794336
 10
0.2949790758441639
 20
0.2343751703068431
 10
0.2951362146443603
 20
0.2343296847531386
 10
0.2951795288996872
 20
0.2342627754922182
 10
0.2951362146443603
 20
0.2341525714476746
 10
0.2952385941255185
 20
0.2342037377237303
 10
0.295360662015286
 20
0.2343218132607054
 10
0.2955536080542436
 20
0.2343847867754101
 10
0.2958134948042839
 20
0.2343926586616536
 10
0.2958686219829689
 20
0.2343375566393822
 10
0.2958568090596108
 20
0.2342194811024062
 10
0.2959985653579888
 20
0.234132892322782
 10
0.2960891319157883
 20
0.2341368280689987
 10
0.2962360175418901
 20
0.2339961473920824
 10
0.2962289496425512
 20
0.2338901736643155
 10
0.2961017219731024
 20
0.2338760437289302
 10
0.2959674257952753
 20
0.2339466930120451
 10
0.2958896758573544
 20
0.2338831086966224
 10
0.2958260617181096
 20
0.2337559396719659
 10
0.2957271068640941
 20
0.2336429005826948
 10
0.2955504020721569
 20
0.2336429005826948
 10
0.2953807645705186
 20
0.2336429005826948
 10
0.295366628162802
 20
0.233614641105736
 10
0.2955786748875897
 20
0.233430952733349
 10
0.2955716063792118
 20
0.2332260694578845
 10
0.2954090373859519
 20
0.2331271603039987
 10
0.2952606054094475
 20
0.2331271603039987
 10
0.2951616505554315
 20
0.2331200953363065
 10
0.2951475141477153
 20
0.2329787967700756
 10
0.2950414907853211
 20
0.2328869525838821
 10
0.2949354680319667
 20
0.2329081474869608
 10
0.294822376770234
 20
0.2329787967700756
 10
0.2947234219162183
 20
0.233063575988576
 10
0.2946032621461081
 20
0.2329505368993049
 10
0.2945749893306748
 20
0.2326467444699545
 10
0.2945426999020457
 20
0.2322366896494415
 10
0.2946426036390575
 20
0.2322927072820742
 10
0.2948058602375183
 20
0.2322951426087303
 10
0.2948887072240884
 20
0.2322245118347284
 10
0.2949423142410545
 20
0.2321076059161498
 10
0.2949060733664188
 20
0.2318845270014844
  0
LWPOLYLINE
  5
3DB8
330
2
100
AcDbEntity
  8
Profilo
  6
Continuous
370
     0
100
AcDbPolyline
 90
        7
 70
   128
 43
0.0
 10
0.2943910071299309
 20
0.2320742576146346
 10
0.2943762860446302
 20
0.2325549203681184
 10
0.2944302633573999
 20
0.2330159642497779
 10
0.2945676589354622
 20
0.2333445809435358
 10
0.2948326366437592
 20
0.233722244423041
 10
0.2950534510961542
 20
0.2339478618428204
 10
0.29530370771915
 20
0.2340851939455847
  0
LWPOLYLINE
  5
3DB9
330
2
100
AcDbEntity
  8
Profilo
  6
Continuous
370
     0
100
AcDbPolyline
 90
        7
 70
   128
 43
0.0
 10
0.2945136822317318
 20
0.2330306786005514
 10
0.294670705923529
 20
0.2332955337639775
 10
0.2947982874447241
 20
0.2334917224822108
 10
0.2949602181649544
 20
0.2337075304660795
 10
0.2951614051126541
 20
0.2338988146632621
 10
0.2954116617356501
 20
0.2340067184582905
 10
0.2958287561073103
 20
0.2341636698266891
  0
LWPOLYLINE
  5
3DBA
330
2
100
AcDbEntity
  8
Profilo
  6
Continuous
370
     0
100
AcDbPolyline
 90
       12
 70
   128
 43
0.0
 10
0.2949945673639898
 20
0.2336143406280127
 10
0.2951614051126541
 20
0.2335996266710503
 10
0.295328242861318
 20
0.2335113413540342
 10
0.2953576850319197
 20
0.2334181519097793
 10
0.2952840796054157
 20
0.2333200571568516
 10
0.295185940254822
 20
0.2333102477209399
 10
0.2950779862383221
 20
0.2332857243280658
 10
0.295068172181455
 20
0.2331827250540872
 10
0.2950289159539863
 20
0.233099344651933
 10
0.2949700322218218
 20
0.2330895352160214
 10
0.2947982874447241
 20
0.2331434873104405
 10
0.2947099615419586
 20
0.2332612005413815
  0
LWPOLYLINE
  5
3DBB
330
2
100
AcDbEntity
  8
Profilo
  6
Continuous
370
     0
100
AcDbPolyline
 90
        5
 70
   128
 43
0.0
 10
0.2953773125366148
 20
0.2339429569279595
 10
0.2955490573137129
 20
0.2339380524069088
 10
0.2956864535008143
 20
0.2339429569279595
 10
0.295789499879842
 20
0.2340312422449756
 10
0.2959268960669437
 20
0.234080289424534
  0
LWPOLYLINE
  5
3DBC
330
2
100
AcDbEntity
  8
Profilo
  6
Continuous
370
     0
100
AcDbPolyline
 90
       19
 70
   128
 43
0.0
 10
0.2957355231761112
 20
0.2342421453139825
 10
0.2956913605292479
 20
0.2342960970145906
 10
0.2955932205696152
 20
0.234315715886414
 10
0.2954852665531154
 20
0.2342764781427673
 10
0.2954067547072165
 20
0.2342225264421591
 10
0.2953331498897516
 20
0.234168574347739
 10
0.295244823986986
 20
0.2341195271681806
 10
0.2951417769989197
 20
0.2340606705527106
 10
0.2950583581245878
 20
0.2340606705527106
 10
0.2950092884492905
 20
0.2341097177322689
 10
0.2949896603355562
 20
0.2341930981344241
 10
0.2949602181649544
 20
0.2342470498350323
 10
0.2949013344327904
 20
0.2342764781427673
 10
0.2947786593309898
 20
0.2342225264421591
 10
0.294705054513525
 20
0.2341244316892314
 10
0.2945872870491966
 20
0.2339086240991738
 10
0.2944842400611303
 20
0.2336535783716593
 10
0.2944351703858334
 20
0.2334181519097793
 10
0.2944302633573999
 20
0.2332219627977349
  0
LWPOLYLINE
  5
3DBD
330
2
100
AcDbEntity
  8
Profilo
  6
Continuous
370
     0
100
AcDbPolyline
 90
       14
 70
   128
 43
0.0
 10
0.2939935408720051
 20
0.2332857243280658
 10
0.2938708657702038
 20
0.2333053431998891
 10
0.2937432842490086
 20
0.2332121533618223
 10
0.2936696794315439
 20
0.2331238684386172
 10
0.2935960746140791
 20
0.233128772959668
 10
0.2935813535287783
 20
0.2332121533618223
 10
0.2934684924838446
 20
0.2332906288491165
 10
0.2933507244104772
 20
0.2333298665927632
 10
0.2931986077471138
 20
0.2333347715076242
 10
0.2931200959012155
 20
0.2333445809435358
 10
0.2932476780314499
 20
0.233427961345691
 10
0.293399794694813
 20
0.2335015319181225
 10
0.293620609147208
 20
0.2335947217561893
 10
0.2936893069362392
 20
0.2336437689357477
  0
LWPOLYLINE
  5
3DBE
330
2
100
AcDbEntity
  8
Profilo
  6
Continuous
370
     0
100
AcDbPolyline
 90
       11
 70
   128
 43
0.0
 10
0.2934341432848095
 20
0.2338988146632621
 10
0.2932869336498796
 20
0.2339478618428204
 10
0.2931102818443483
 20
0.2339380524069088
 10
0.2930219559415823
 20
0.2339037191843128
 10
0.2929238165909886
 20
0.2338007203041454
 10
0.2928354906882231
 20
0.2338105297400571
 10
0.2927520718138912
 20
0.2339625761935939
 10
0.2928551181929184
 20
0.2340361467660263
 10
0.2929189095625551
 20
0.234080289424534
 10
0.2930857473112196
 20
0.234045956201938
 10
0.2932525850598835
 20
0.234016527894203
  0
LWPOLYLINE
  5
3DBF
330
2
100
AcDbEntity
  8
Profilo
  6
Continuous
370
     0
100
AcDbPolyline
 90
        5
 70
   128
 43
0.0
 10
0.2942683326371693
 20
0.2328148706166826
 10
0.2941064013078993
 20
0.2333102477209399
 10
0.2939591916729698
 20
0.2336241500639243
 10
0.2937580053343094
 20
0.2338252436970195
 10
0.2935666324434776
 20
0.2339478618428204
  0
LWPOLYLINE
  5
3DC0
330
2
100
AcDbEntity
  8
Profilo
  6
Continuous
370
     0
100
AcDbPolyline
 90
        5
 70
   128
 43
0.0
 10
0.294243797495001
 20
0.2329963453779546
 10
0.294243797495001
 20
0.2334721036103875
 10
0.2942045412675327
 20
0.2338890052273505
 10
0.2940720527179035
 20
0.2341097177322689
 10
0.2939297501114075
 20
0.2342421453139825
  0
LWPOLYLINE
  5
3DC1
330
2
100
AcDbEntity
  8
Profilo
  6
Continuous
370
     0
100
AcDbPolyline
 90
        2
 70
   128
 43
0.0
 10
0.2943517515115013
 20
0.2338350531329312
 10
0.2943370304262005
 20
0.2344481434681275
  0
LWPOLYLINE
  5
3DC2
330
2
100
AcDbEntity
  8
Profilo
  6
Continuous
370
     0
100
AcDbPolyline
 90
       24
 70
   128
 43
0.0
 10
0.2943378976979505
 20
0.2346333507691871
 10
0.2942686085319044
 20
0.2347632071594805
 10
0.2941949897065388
 20
0.2347805214498696
 10
0.2941560142461184
 20
0.2349017206949688
 10
0.2941473531003624
 20
0.2350618768965378
 10
0.2941040479806229
 20
0.2351571047060541
 10
0.2940564119834859
 20
0.2352480045336889
 10
0.2940694033975997
 20
0.2353908464448688
 10
0.2941213702721346
 20
0.2355510026464377
 10
0.2941690062692719
 20
0.2355726453125182
 10
0.2941819976833857
 20
0.2354644315883045
 10
0.2941690062692719
 20
0.2353215896771246
 10
0.2941776674150272
 20
0.2351744189964422
 10
0.2942686085319044
 20
0.2351527763303616
 10
0.2942729394093015
 20
0.2350791911869259
 10
0.2942945919691717
 20
0.2349926201287936
 10
0.2943249056747974
 20
0.2350705340417318
 10
0.2944331696922249
 20
0.2351700906207506
 10
0.2945154502723848
 20
0.2352133759529118
 10
0.2945630862695221
 20
0.2351657618512482
 10
0.2945630862695221
 20
0.2351008338530065
 10
0.2944894668351179
 20
0.2348800780288883
 10
0.2944894668351179
 20
0.2348021641159501
 10
0.2943898639634457
 20
0.2346939503917364
  0
LWPOLYLINE
  5
3DC3
330
2
100
AcDbEntity
  8
Profilo
  6
Continuous
370
     0
100
AcDbPolyline
 90
        9
 70
   128
 43
0.0
 10
0.2945197805407433
 20
0.2352783043449635
 10
0.2944894668351179
 20
0.2353692037787882
 10
0.294493797103476
 20
0.2354774171091909
 10
0.2945067891266295
 20
0.2355726453125182
 10
0.2945457639780105
 20
0.2355769736882097
 10
0.2945890690977504
 20
0.2355033885447741
 10
0.2945847388293923
 20
0.2353821892996747
 10
0.2946020611209035
 20
0.2352609900545755
 10
0.294593399975148
 20
0.2352393473884948
  0
LWPOLYLINE
  5
3DC4
330
2
100
AcDbEntity
  8
Profilo
  6
Continuous
370
     0
100
AcDbPolyline
 90
        6
 70
   128
 43
0.0
 10
0.2943032531149272
 20
0.2356462304559539
 10
0.2942382948262787
 20
0.2357544441801668
 10
0.2942772696776601
 20
0.2359102720060442
 10
0.2942989228465691
 20
0.2359449001930103
 10
0.2943119142606829
 20
0.235789072760944
 10
0.2943205754064388
 20
0.2357068300785031
  0
LWPOLYLINE
  5
3DC5
330
2
100
AcDbEntity
  8
Profilo
  6
Continuous
370
     0
100
AcDbPolyline
 90
        5
 70
   128
 43
0.0
 10
0.2941300314178905
 20
0.2358150438027169
 10
0.294108378248981
 20
0.2358972860913466
 10
0.2941949897065388
 20
0.2359665428590909
 10
0.2942123113890114
 20
0.2359059432365407
 10
0.2941819976833857
 20
0.235806386657522
  0
LWPOLYLINE
  5
3DC6
330
2
100
AcDbEntity
  8
Profilo
  6
Continuous
370
     0
100
AcDbPolyline
 90
        8
 70
   128
 43
0.0
 10
0.2943725416719345
 20
0.2359189287574273
 10
0.2944548222520946
 20
0.2359319146721238
 10
0.2945024582492317
 20
0.2358843005704612
 10
0.2945197805407433
 20
0.2357847439914413
 10
0.2944851359577201
 20
0.2356808590367311
 10
0.294437499960583
 20
0.2356548876011479
 10
0.2943855336950876
 20
0.2357414586592812
 10
0.2943898639634457
 20
0.2358280293236024
  0
LWPOLYLINE
  5
3DC7
330
2
100
AcDbEntity
  8
Profilo
  6
Continuous
370
     0
100
AcDbPolyline
 90
        5
 70
   128
 43
0.0
 10
0.2943075833832858
 20
0.2361223706849673
 10
0.2942642782635458
 20
0.236204612973598
 10
0.2942816005550575
 20
0.2363214838430059
 10
0.2943335668205531
 20
0.2362911840317303
 10
0.2943292365521946
 20
0.2362089413492895
  0
LWPOLYLINE
  5
3DC8
330
2
100
AcDbEntity
  8
Profilo
  6
Continuous
370
     0
100
AcDbPolyline
 90
        5
 70
   128
 43
0.0
 10
0.2943768725493319
 20
0.2361656560171284
 10
0.2943725416719345
 20
0.2363214838430059
 10
0.2944115171323551
 20
0.2363171550735024
 10
0.2944418308379806
 20
0.2362565554509532
 10
0.2944504919837365
 20
0.2361656560171284
  0
LWPOLYLINE
  5
3DC9
330
2
100
AcDbEntity
  8
Profilo
  6
Continuous
370
     0
100
AcDbPolyline
 90
        6
 70
   128
 43
0.0
 10
0.2937400599957474
 20
0.2319444232777521
 10
0.293405472766811
 20
0.2321925509290428
 10
0.2931950058895791
 20
0.2325215897880941
 10
0.2929953330132076
 20
0.2329585099949517
 10
0.2928442285729118
 20
0.2332228201240813
 10
0.2927416937867708
 20
0.2335410709271146
  0
LWPOLYLINE
  5
3DCA
330
2
100
AcDbEntity
  8
Profilo
  6
Continuous
370
     0
100
AcDbPolyline
 90
       31
 70
   128
 43
0.0
 10
0.292504244648065
 20
0.2340103556958391
 10
0.2922991744667436
 20
0.2343340005268804
 10
0.2921312909978584
 20
0.234579073386957
 10
0.29186146229273
 20
0.2348110189542198
 10
0.2915160810629334
 20
0.2349836294257599
 10
0.2911113380052406
 20
0.2351076932514053
 10
0.2907389745139708
 20
0.2351400578132712
 10
0.2903935932841741
 20
0.2350915111673774
 10
0.2901183678831347
 20
0.2349458708358841
 10
0.289875522048519
 20
0.2346815611005656
 10
0.2897514010877753
 20
0.2343255517076574
 10
0.289772987262378
 20
0.233834690433085
 10
0.2900266264888147
 20
0.2333438291585126
 10
0.2901939204078026
 20
0.2332629179507521
 10
0.290620249640098
 20
0.2330849134512031
 10
0.2910573722642147
 20
0.2330849134512031
 10
0.2912678385324072
 20
0.2332143713048573
 10
0.2914567192350366
 20
0.2335757747257754
 10
0.2914297357554845
 20
0.2339911188205962
 10
0.2912894253160489
 20
0.2342716110337537
 10
0.2910843551347275
 20
0.2343740983535512
 10
0.2908307159082908
 20
0.2343740983535512
 10
0.2906472325106109
 20
0.234239246471887
 10
0.2905716805949829
 20
0.2340612419723389
 10
0.2906256463360084
 20
0.2338077202930382
 10
0.2907821468631753
 20
0.2336890504954019
 10
0.2909494407821631
 20
0.2337375971412966
 10
0.2910088032190992
 20
0.2338832370789787
 10
0.2909440440862527
 20
0.234034271438481
 10
0.2908253198214197
 20
0.2341151826462415
 10
0.2907173883393681
 20
0.2341097886182326
  0
LWPOLYLINE
  5
3DCB
330
2
100
AcDbEntity
  8
Profilo
  6
Continuous
370
     0
100
AcDbPolyline
 90
       17
 70
   128
 43
0.0
 10
0.2908415093001118
 20
0.2342662170057448
 10
0.2910735623519458
 20
0.2341583352641263
 10
0.291176097138087
 20
0.2339803307645782
 10
0.2912138727913816
 20
0.233683656467393
 10
0.2911437175716636
 20
0.233478681433987
 10
0.2909466775715381
 20
0.2333615723089795
 10
0.2906634225983422
 20
0.2333869817763974
 10
0.2902910584980332
 20
0.2336027452596323
 10
0.2901399546667767
 20
0.2338724490229599
 10
0.2901723336241608
 20
0.2342554289497258
 10
0.2904034365749206
 20
0.2344962332933682
 10
0.2907630997727906
 20
0.2346085761249536
 10
0.2912688757260802
 20
0.2345112122850713
 10
0.2915322711506647
 20
0.2342176703598501
 10
0.2917859097680624
 20
0.2337537792253244
 10
0.292104808148488
 20
0.2332606641709241
 10
0.2923120367645582
 20
0.2329292518135293
  0
LWPOLYLINE
  5
3DCC
330
2
100
AcDbEntity
  8
Profilo
  6
Continuous
370
     0
100
AcDbPolyline
 90
        5
 70
   128
 43
0.0
 10
0.2926506217264764
 20
0.232409958179009
 10
0.2927649243670787
 20
0.2322481038648039
 10
0.2929982929434776
 20
0.23196247872027
 10
0.2933935904129896
 20
0.2316530516444455
 10
0.2935555199151416
 20
0.231529280814116
  0
LWPOLYLINE
  5
3DCD
330
2
100
AcDbEntity
  8
Profilo
  6
Continuous
370
     0
100
AcDbPolyline
 90
       14
 70
   128
 43
0.0
 10
0.2897015554966012
 20
0.2343577181826365
 10
0.2896591164305331
 20
0.2341974674664498
 10
0.2895365150224696
 20
0.2341456214727668
 10
0.2894752140139181
 20
0.2339759437110609
 10
0.289512937898885
 20
0.2336554418848771
 10
0.2896355393069485
 20
0.233565889678169
 10
0.2898100107523218
 20
0.2333537929682995
 10
0.2899231811891438
 20
0.2330945633936965
 10
0.2898335878759068
 20
0.2328824662900168
 10
0.2897603783248504
 20
0.2327380436218516
 10
0.2898056469868104
 20
0.232624925376588
 10
0.2900697117454212
 20
0.232745584706932
 10
0.2904394027728996
 20
0.2328209971329814
 10
0.2906732890325763
 20
0.2327682083559843
  0
LWPOLYLINE
  5
3DCE
330
2
100
AcDbEntity
  8
Profilo
  6
Continuous
370
     0
100
AcDbPolyline
 90
       10
 70
   128
 43
0.0
 10
0.2899716308625862
 20
0.2319763798515169
 10
0.2901828827912822
 20
0.2321950756507748
 10
0.2903564108350118
 20
0.2322101578209366
 10
0.2904243132189133
 20
0.2322855702469861
 10
0.2905752075407015
 20
0.2323836059282778
 10
0.2907940042463919
 20
0.2322931113320664
 10
0.2909147200692461
 20
0.2320517922775673
 10
0.2908845409612728
 20
0.2316219425517541
 10
0.290869451407286
 20
0.230988479590656
 10
0.2908845409612728
 20
0.2304681352686324
  0
LWPOLYLINE
  5
3DCF
330
2
100
AcDbEntity
  8
Profilo
  6
Continuous
370
     0
100
AcDbPolyline
 90
        2
 70
   128
 43
0.0
 10
0.2911335167749358
 20
0.2304002639276634
 10
0.2909977113980948
 20
0.2306114182480289
  0
LWPOLYLINE
  5
3DD0
330
2
100
AcDbEntity
  8
Profilo
  6
Continuous
370
     0
100
AcDbPolyline
 90
        4
 70
   128
 43
0.0
 10
0.2912768663197316
 20
0.2304907589176848
 10
0.2911636952738705
 20
0.2310186443247897
 10
0.2911184272209495
 20
0.2314409529655215
 10
0.2911184272209495
 20
0.2317878491802038
  0
LWPOLYLINE
  5
3DD1
330
2
100
AcDbEntity
  8
Profilo
  6
Continuous
370
     0
100
AcDbPolyline
 90
      176
 70
   128
 43
0.0
 10
0.2913749472025666
 20
0.2315691537747571
 10
0.2913674024255735
 20
0.2314183293164691
 10
0.2914503943634612
 20
0.2312976695923131
 10
0.2915258415243558
 20
0.2313429172842298
 10
0.2915258415243558
 20
0.2315239064766514
 10
0.2914353048094744
 20
0.2316294836368345
 10
0.2912844110967247
 20
0.2317501433609896
 10
0.2911561504968767
 20
0.2319085089043589
 10
0.2911636952738705
 20
0.2320517922775673
 10
0.2912089639358306
 20
0.2321422868737777
 10
0.2912089639358306
 20
0.2322478640339608
 10
0.2912089639358306
 20
0.2323760648431964
 10
0.2912995000416725
 20
0.2325118067375133
 10
0.2913824919795602
 20
0.2326626311958011
 10
0.2914503943634612
 20
0.2328059145690096
 10
0.2915861991312631
 20
0.2328209971329814
 10
0.2916918254001311
 20
0.2327229610578787
 10
0.2916767358461443
 20
0.2325042656524329
 10
0.2916616462921577
 20
0.2322931113320664
 10
0.2917672725610256
 20
0.2321347457886972
 10
0.2918049958369529
 20
0.2322931113320664
 10
0.2918351749449266
 20
0.2325193482164047
 10
0.2919106221058207
 20
0.232677713759774
 10
0.2919860692667155
 20
0.2327380436218516
 10
0.2920388820966295
 20
0.232677713759774
 10
0.2920766059815965
 20
0.232798373483929
 10
0.2922108254204905
 20
0.2328564861905937
 10
0.2923295259327967
 20
0.2328750248390954
 10
0.2924704819537318
 20
0.2328787321749855
 10
0.2925483792791277
 20
0.2327600871874367
 10
0.2925520883275523
 20
0.2325858270420022
 10
0.2925261231614598
 20
0.232478304455933
 10
0.2926003108293917
 20
0.2324486434059516
 10
0.2926374043588378
 20
0.2323893205183656
 10
0.2926522417706161
 20
0.232274383260517
 10
0.2925483792791277
 20
0.2320964153853831
 10
0.2923925852373752
 20
0.2319518162899309
 10
0.2925520883275523
 20
0.2320222619728067
 10
0.2926856262516375
 20
0.2320074314478155
 10
0.2927264294385479
 20
0.2319184475102482
 10
0.2927005014238433
 20
0.2317431811779442
 10
0.2926374415102257
 20
0.2316875660200595
 10
0.2927301762474002
 20
0.2316356589856862
 10
0.2927301762474002
 20
0.2315095981449255
 10
0.2926003479807795
 20
0.2313464611885929
 10
0.2923703662710952
 20
0.231098047630582
 10
0.2922924695547386
 20
0.2309460334695403
 10
0.2924148791154701
 20
0.2309868177086237
 10
0.292529869970312
 20
0.2311054630899837
 10
0.292644860825154
 20
0.231205569822841
 10
0.292826073115843
 20
0.231265200276746
 10
0.2929567978880923
 20
0.2312512006927705
 10
0.2929941472139821
 20
0.2311672024013017
 10
0.2931295408803576
 20
0.2310552041542606
 10
0.2931155348070191
 20
0.2309105404738192
 10
0.2930641787987522
 20
0.2306398785685519
 10
0.2930641787987522
 20
0.2304532153485654
 10
0.2931295408803576
 20
0.2304905478350382
 10
0.2932182468235527
 20
0.2306258789845773
 10
0.2931762286035377
 20
0.2307378768378073
 10
0.2932415906851431
 20
0.2308592080095608
 10
0.2933489715958026
 20
0.2308592080095608
 10
0.2934143342864475
 20
0.2309245400577937
 10
0.2933956593189828
 20
0.231041204570286
 10
0.2933396344165904
 20
0.231153202423516
 10
0.2934470153272501
 20
0.2312232011310111
 10
0.2935077091237685
 20
0.2311998682285121
 10
0.2936197589285541
 20
0.2311765353260141
 10
0.2936804521160336
 20
0.2312372011087959
 10
0.2936057522461764
 20
0.2313351989842403
 10
0.2935730712053739
 20
0.2314565301559947
 10
0.2936104211403021
 20
0.2316105275487696
 10
0.2936851210101594
 20
0.2316991924995016
 10
0.2938251835706611
 20
0.2317131920834763
 10
0.2939092206197307
 20
0.2316291937920065
 10
0.2939512394487847
 20
0.2315918613055339
 10
0.2938812084730538
 20
0.2317131920834763
 10
0.2938812084730538
 20
0.2318018574280183
 10
0.2939932576688002
 20
0.2319231882059607
 10
0.2940586203594446
 20
0.2319138552812483
 10
0.2942407011399613
 20
0.2318718561355135
 10
0.2943807637004629
 20
0.2318671894762522
 10
0.2945348317252636
 20
0.2319045219627249
 10
0.2946889003591033
 20
0.2318905223787503
 10
0.2947822751964246
 20
0.2318018574280183
 10
0.294730919188158
 20
0.23163852711053
 10
0.2947682691230862
 20
0.2316058608895084
 10
0.2949129999686746
 20
0.2316665262784792
 10
0.2950203808793343
 20
0.2316151942080319
 10
0.2950870877193832
 20
0.2315165658413233
 10
0.2951010937927216
 20
0.2314512337930903
 10
0.2950497377844548
 20
0.2313625688423584
 10
0.2949657007353852
 20
0.2313205696966235
 10
0.2950637444668325
 20
0.2313019030595766
 10
0.2951337754425636
 20
0.2312132381088446
 10
0.2953065184348287
 20
0.2312739038916274
 10
0.2954092310604015
 20
0.2312552372545795
 10
0.2954605870686684
 20
0.2312039051841321
 10
0.2955539619059899
 20
0.2312739038916274
 10
0.2956239928817208
 20
0.2313345692805981
 10
0.2957827304096867
 20
0.2313392359398603
 10
0.2959321301494009
 20
0.2312739038916274
 10
0.2959601422960778
 20
0.2313019030595766
 10
0.2961142109299175
 20
0.2312879034756019
 10
0.2962122540523255
 20
0.2311945718656088
 10
0.2962636106696315
 20
0.2311339064766371
 10
0.2963243038571111
 20
0.2310405748666438
 10
0.2963709915802914
 20
0.231045241132094
 10
0.2963943354418812
 20
0.231110573574139
 10
0.2963289727512368
 20
0.2312505709891284
 10
0.2961982479789871
 20
0.2313765684263329
 10
0.2960628549216506
 20
0.2314792333548505
 10
0.296006830019258
 20
0.231553898721607
 10
0.296006830019258
 20
0.2316332303538155
 10
0.2960441799541864
 20
0.2316798961588116
 10
0.2961142109299175
 20
0.2316892294773351
 10
0.2960815292800756
 20
0.2317638948440924
 10
0.2960161671984702
 20
0.2318292268923254
 10
0.2960208360925964
 20
0.231955224723341
 10
0.296104873141666
 20
0.2320578892580476
 10
0.2961889107997746
 20
0.2320672225765711
 10
0.2962776167429699
 20
0.2320532225987855
 10
0.2963663226861657
 20
0.2319972238690759
 10
0.2964083415152197
 20
0.2319505580640788
 10
0.296483041385077
 20
0.2318852256220349
 10
0.2965250602141312
 20
0.2319645576480535
 10
0.2964690353117385
 20
0.2320718892358333
 10
0.2963990037269684
 20
0.2321605541865643
 10
0.2962729478488442
 20
0.2322492191372962
 10
0.2962075857672388
 20
0.2323285511633149
 10
0.2961795730115229
 20
0.2324452156758061
 10
0.2962122540523255
 20
0.2325152143833014
 10
0.2962309290197895
 20
0.2325712131130108
 10
0.2962833057776726
 20
0.2326331505112156
 10
0.2962599619160824
 20
0.2328058141472283
 10
0.2962646308102084
 20
0.2330064769511893
 10
0.2963019807451368
 20
0.233109141879706
 10
0.2963860177942064
 20
0.2331604743439652
 10
0.2965307486397946
 20
0.2331184748044194
 10
0.2966521362328316
 20
0.2330018102919271
 10
0.2967408421760273
 20
0.232908478681934
 10
0.2967688549317431
 20
0.2328291470497263
 10
0.2968762358424029
 20
0.2328758128547226
 10
0.2969462668181339
 20
0.2327404817051834
 10
0.297025635582117
 20
0.2326378171704777
 10
0.2971050037370606
 20
0.2325304855826988
 10
0.2970956665578484
 20
0.2324558206097525
 10
0.2971376853869026
 20
0.2324558206097525
 10
0.2971563603543668
 20
0.2325444855604846
 10
0.2971843725010437
 20
0.2327684812669436
 10
0.2972310602242241
 20
0.2328991457572216
 10
0.2973104283791677
 20
0.2329644778054545
 10
0.2973617843874345
 20
0.2329598111461922
 10
0.2973944660372765
 20
0.2331044752204447
 10
0.2973944660372765
 20
0.2332024734897002
 10
0.2975261275117391
 20
0.2332935899133349
 10
0.2976289613361032
 20
0.2332568804357189
 10
0.2977097595149716
 20
0.2331797907690109
 10
0.2978052483271831
 20
0.2331320683693473
 10
0.2978162658454118
 20
0.2329852308526934
 10
0.2978493196181742
 20
0.2329705472191716
 10
0.2978897190121281
 20
0.2330659916246867
 10
0.2979925528364917
 20
0.2331577649249166
 10
0.2982705688549179
 20
0.2330788920824165
 10
0.2984947123153077
 20
0.2329009781593774
 10
0.2986661160304811
 20
0.2326769383460956
 10
0.2988177430263679
 20
0.2326176335738117
 10
0.2989429992360875
 20
0.2325978654476544
 10
0.2990682560548461
 20
0.2326110443296965
 10
0.2991671426964775
 20
0.2327296534804526
 10
0.299094626231974
 20
0.2328746203952929
 10
0.2989364069963249
 20
0.2329602829316605
 10
0.2988243352661299
 20
0.2330261769480596
 10
0.2986793011190449
 20
0.2330591239562592
 10
0.2983628632567863
 20
0.2330591239562592
 10
0.2983167163603713
 20
0.2330723028383014
  0
LWPOLYLINE
  5
3DD2
330
2
100
AcDbEntity
  8
Profilo
  6
Continuous
370
     0
100
AcDbPolyline
 90
        6
 70
   128
 43
0.0
 10
0.2979409459040951
 20
0.2328350841429774
 10
0.2981584971247229
 20
0.2325715076835708
 10
0.2984617498984172
 20
0.2324594877769299
 10
0.2987913728492399
 20
0.232288163098005
 10
0.2988309275058927
 20
0.2320838918046917
 10
0.2989561843246511
 20
0.2318532623534846
  0
LWPOLYLINE
  5
3DD3
330
2
100
AcDbEntity
  8
Profilo
  6
Continuous
370
     0
100
AcDbPolyline
 90
        7
 70
   128
 43
0.0
 10
0.298725448624499
 20
0.2331052498465009
 10
0.298725448624499
 20
0.2332963426515832
 10
0.2988507048342188
 20
0.2336060446074214
 10
0.2989891467415411
 20
0.2337641904043031
 10
0.2991012184717361
 20
0.2338037270504298
 10
0.2991144035602999
 20
0.2336719386238205
 10
0.299094626231974
 20
0.2335006143387067
  0
LWPOLYLINE
  5
3DD4
330
2
100
AcDbEntity
  8
Profilo
  6
Continuous
370
     0
100
AcDbPolyline
 90
        2
 70
   128
 43
0.0
 10
0.2992462526188211
 20
0.2334874354566645
 10
0.2993451392604525
 20
0.2344428994820746
  0
LWPOLYLINE
  5
3DD5
330
2
100
AcDbEntity
  8
Profilo
  6
Continuous
370
     0
100
AcDbPolyline
 90
        3
 70
   128
 43
0.0
 10
0.2994703960792115
 20
0.2329471040496183
 10
0.2993781016773427
 20
0.2336258127335787
 10
0.2994176563339948
 20
0.234232038157024
  0
LWPOLYLINE
  5
3DD6
330
2
100
AcDbEntity
  8
Profilo
  6
Continuous
370
     0
100
AcDbPolyline
 90
        2
 70
   128
 43
0.0
 10
0.2994703960792115
 20
0.2335335613469063
 10
0.2994967656472998
 20
0.2339882302175849
  0
LWPOLYLINE
  5
3DD7
330
2
100
AcDbEntity
  8
Profilo
  6
Continuous
370
     0
100
AcDbPolyline
 90
        3
 70
   128
 43
0.0
 10
0.2992198824416936
 20
0.2328746203952929
 10
0.2993253619321261
 20
0.2332106801152156
 10
0.2993253619321261
 20
0.2334544884484649
  0
LWPOLYLINE
  5
3DD8
330
2
100
AcDbEntity
  8
Profilo
  6
Continuous
370
     0
100
AcDbPolyline
 90
        2
 70
   128
 43
0.0
 10
0.2992792150357115
 20
0.2324397196507717
 10
0.2992198824416936
 20
0.2326505805820112
  0
LWPOLYLINE
  5
3DD9
330
2
100
AcDbEntity
  8
Profilo
  6
Continuous
370
     0
100
AcDbPolyline
 90
        7
 70
   128
 43
0.0
 10
0.2978222819341381
 20
0.2304431294573957
 10
0.297809096845574
 20
0.2308055465475909
 10
0.2978816139191163
 20
0.2313788249628366
 10
0.2978750216793542
 20
0.2316292225402028
 10
0.297888206158879
 20
0.231938924496041
 10
0.2979870934095492
 20
0.2321827328292913
 10
0.2980859800511801
 20
0.2323540575082152
  0
LWPOLYLINE
  5
3DDA
330
2
100
AcDbEntity
  8
Profilo
  6
Continuous
370
     0
100
AcDbPolyline
 90
        3
 70
   128
 43
0.0
 10
0.2981321275566342
 20
0.2306671692706775
 10
0.2980859800511801
 20
0.230990050108558
 10
0.2980727949626163
 20
0.2312075006777237
  0
LWPOLYLINE
  5
3DDB
330
2
100
AcDbEntity
  8
Profilo
  6
Continuous
370
     0
100
AcDbPolyline
 90
        5
 70
   128
 43
0.0
 10
0.2980859800511801
 20
0.2313392887105219
 10
0.2980727949626163
 20
0.2316819376745598
 10
0.2982046446301769
 20
0.2319257460078099
 10
0.2982705688549179
 20
0.2321431961831646
 10
0.2983496781682227
 20
0.2322749846097739
  0
LWPOLYLINE
  5
3DDC
330
2
100
AcDbEntity
  8
Profilo
  6
Continuous
370
     0
100
AcDbPolyline
 90
        6
 70
   128
 43
0.0
 10
0.2974333269983365
 20
0.2304628975835531
 10
0.2975453987285315
 20
0.2308055465475909
 10
0.2976442853701624
 20
0.231108659259314
 10
0.2977168024437051
 20
0.2313590568366792
 10
0.2977233952925065
 20
0.2315962755320033
 10
0.2977233952925065
 20
0.2316885273124859
  0
LWPOLYLINE
  5
3DDD
330
2
100
AcDbEntity
  8
Profilo
  6
Continuous
370
     0
100
AcDbPolyline
 90
        3
 70
   128
 43
0.0
 10
0.2975190291604432
 20
0.2304826657097114
 10
0.2975849533851842
 20
0.230812136185518
 10
0.2977168024437051
 20
0.2311811429136394
  0
LWPOLYLINE
  5
3DDE
330
2
100
AcDbEntity
  8
Profilo
  6
Continuous
370
     0
100
AcDbPolyline
 90
        6
 70
   128
 43
0.0
 10
0.2973063088383552
 20
0.2304912842614368
 10
0.2974126263666585
 20
0.2309440793798135
 10
0.297486586253948
 20
0.2314523187421421
 10
0.2974819636467976
 20
0.2317618824703518
 10
0.2974449840076727
 20
0.2318681507686786
 10
0.2975374337145245
 20
0.2319790392565805
  0
LWPOLYLINE
  5
3DDF
330
2
100
AcDbEntity
  8
Profilo
  6
Continuous
370
     0
100
AcDbPolyline
 90
       13
 70
   128
 43
0.0
 10
0.297130654029913
 20
0.2304912842614368
 10
0.2972046139172022
 20
0.2307962278000716
 10
0.2973063088383552
 20
0.2311889580911123
 10
0.2973386664793693
 20
0.231558586646658
 10
0.2972924416259433
 20
0.2314985222131329
 10
0.2972277263439151
 20
0.2314846612505981
 10
0.2971583890637763
 20
0.231530864721588
 10
0.2971029189960492
 20
0.2316186514739948
 10
0.2971398992442138
 20
0.2317387807348568
 10
0.2971861240976399
 20
0.2318404288436087
 10
0.2972924416259433
 20
0.2319004932771337
 10
0.2973987591542466
 20
0.2319374563689757
 10
0.2974264941881097
 20
0.2320252431213816
  0
LWPOLYLINE
  5
3DE0
330
2
100
AcDbEntity
  8
Profilo
  6
Continuous
370
     0
100
AcDbPolyline
 90
        4
 70
   128
 43
0.0
 10
0.2973247992669568
 20
0.2321546131552035
 10
0.2974542292219735
 20
0.2322470200971844
 10
0.2974218715809593
 20
0.2324041124498872
 10
0.2973247992669568
 20
0.2324687974667992
  0
LWPOLYLINE
  5
3DE1
330
2
100
AcDbEntity
  8
Profilo
  6
Continuous
370
     0
100
AcDbPolyline
 90
        4
 70
   128
 43
0.0
 10
0.2972878190187929
 20
0.2317757438266978
 10
0.2972369715582164
 20
0.2317156789993608
 10
0.2972369715582164
 20
0.2316278922469549
 10
0.2972600839849293
 20
0.231558586646658
  0
LWPOLYLINE
  5
3DE2
330
2
100
AcDbEntity
  8
Profilo
  6
Continuous
370
     0
100
AcDbPolyline
 90
        4
 70
   128
 43
0.0
 10
0.2970102153198719
 20
0.2305252228855026
 10
0.2970753770275964
 20
0.2312974978907571
 10
0.2970009061564602
 20
0.232013945867859
 10
0.2967961118698739
 20
0.2327024805277889
  0
LWPOLYLINE
  5
3DE3
330
2
100
AcDbEntity
  8
Profilo
  6
Continuous
370
     0
100
AcDbPolyline
 90
        5
 70
   128
 43
0.0
 10
0.2968240387510697
 20
0.2304787000338661
 10
0.2967961118698739
 20
0.2314184565173922
 10
0.2966937153356197
 20
0.2321721227758027
 10
0.2964703033312495
 20
0.2325629123666885
 10
0.2963585976335834
 20
0.2326187397886531
  0
LWPOLYLINE
  5
3DE4
330
2
100
AcDbEntity
  8
Profilo
  6
Continuous
370
     0
100
AcDbPolyline
 90
        4
 70
   128
 43
0.0
 10
0.296600626746699
 20
0.2305066137448484
 10
0.2966564799000513
 20
0.23118584344064
 10
0.2965913181923268
 20
0.2315115018268552
 10
0.2964703033312495
 20
0.2317162011926253
  0
LWPOLYLINE
  5
3DE5
330
2
100
AcDbEntity
  8
Profilo
  6
Continuous
370
     0
100
AcDbPolyline
 90
        5
 70
   128
 43
0.0
 10
0.296206694133923
 20
0.230441968109028
 10
0.296206694133923
 20
0.2307667644431658
 10
0.296165503598113
 20
0.2309771957267045
 10
0.2960831225264928
 20
0.2310915603834924
 10
0.2959915882054838
 20
0.2311967760252618
  0
LWPOLYLINE
  5
3DE6
330
2
100
AcDbEntity
  8
Profilo
  6
Continuous
370
     0
100
AcDbPolyline
 90
        4
 70
   128
 43
0.0
 10
0.2963989154162914
 20
0.230487714365554
 10
0.2963439953109173
 20
0.2308353832372381
 10
0.2962799213471143
 20
0.2310137925744006
 10
0.2961380432409064
 20
0.2311693285863945
  0
LWPOLYLINE
  5
3DE7
330
2
100
AcDbEntity
  8
Profilo
  6
Continuous
370
     0
100
AcDbPolyline
 90
       15
 70
   128
 43
0.0
 10
0.2954240763896889
 20
0.231192201517752
 10
0.2954927272827057
 20
0.2310961348910014
 10
0.295543071067905
 20
0.231036665505758
 10
0.2955110337814841
 20
0.23091772594765
 10
0.2954973036028807
 20
0.2307713389506747
 10
0.2954973036028807
 20
0.2306020790223421
 10
0.2955613775666832
 20
0.2305151618044212
 10
0.295675795315685
 20
0.2305014378880816
 10
0.2957673296366941
 20
0.2305471837507974
 10
0.295790213064687
 20
0.2306341013625293
 10
0.2957490231379161
 20
0.2307393166104875
 10
0.2957398692794875
 20
0.2308445322522568
 10
0.29576275270748
 20
0.2309314498639887
 10
0.2957124089222809
 20
0.2309863447417232
 10
0.2955110337814841
 20
0.2311739030939035
  0
LWPOLYLINE
  5
3DE8
330
2
100
AcDbEntity
  8
Profilo
  6
Continuous
370
     0
100
AcDbPolyline
 90
        8
 70
   128
 43
0.0
 10
0.2951174367492797
 20
0.2304328190940094
 10
0.2950945533212872
 20
0.2306341013625293
 10
0.2951403201772724
 20
0.2308262342222194
 10
0.2952730450340917
 20
0.2309405988790074
 10
0.2953508491764971
 20
0.2309634718103648
 10
0.2952684681048774
 20
0.2307942118820322
 10
0.2953050817114733
 20
0.2305975045148323
 10
0.2954423834975066
 20
0.2304602665328757
  0
LWPOLYLINE
  5
3DE9
330
2
100
AcDbEntity
  8
Profilo
  6
Continuous
370
     0
100
AcDbPolyline
 90
        3
 70
   128
 43
0.0
 10
0.2948931781804907
 20
0.2310000686580619
 10
0.2949755586430711
 20
0.2311190082161698
 10
0.2950899763920731
 20
0.2312013505327707
  0
LWPOLYLINE
  5
3DEA
330
2
100
AcDbEntity
  8
Profilo
  6
Continuous
370
     0
100
AcDbPolyline
 90
        3
 70
   128
 43
0.0
 10
0.2946485770950435
 20
0.2313774450494147
 10
0.2946737785260418
 20
0.2315069938733891
 10
0.294727782636534
 20
0.2315825638238023
  0
LWPOLYLINE
  5
3DEB
330
2
100
AcDbEntity
  8
Profilo
  6
Continuous
370
     0
100
AcDbPolyline
 90
        3
 70
   128
 43
0.0
 10
0.2938097200666359
 20
0.2308880381185267
 10
0.2937341151646016
 20
0.231031981518816
 10
0.2936513095926938
 20
0.2311543330546328
  0
LWPOLYLINE
  5
3DEC
330
2
100
AcDbEntity
  8
Profilo
  6
Continuous
370
     0
100
AcDbPolyline
 90
        4
 70
   128
 43
0.0
 10
0.2936297081921127
 20
0.2303914346871014
 10
0.2936081067915313
 20
0.2305749619908268
 10
0.2935145005193331
 20
0.2307764825149463
 10
0.293467697078714
 20
0.2308124681681134
  0
LWPOLYLINE
  5
3DED
330
2
100
AcDbEntity
  8
Profilo
  6
Continuous
370
     0
100
AcDbPolyline
 90
        5
 70
   128
 43
0.0
 10
0.29413734232385
 20
0.2303986315814487
 10
0.2941949464647593
 20
0.2306577292293976
 10
0.2942237485352139
 20
0.23096360846275
 10
0.2942561506360859
 20
0.2312155088225414
 10
0.2942525499966295
 20
0.2313738464053364
  0
LWPOLYLINE
  5
3DEE
330
2
100
AcDbEntity
  8
Profilo
  6
Continuous
370
     0
100
AcDbPolyline
 90
        5
 70
   128
 43
0.0
 10
0.2946053742938808
 20
0.2303914346871014
 10
0.2944973666819355
 20
0.2307045108148013
 10
0.2944289624497749
 20
0.2309672071068292
 10
0.2944217617799014
 20
0.231226304754778
 10
0.2944217617799014
 20
0.2313774450494147
  0
LWPOLYLINE
  5
3DEF
330
2
100
AcDbEntity
  8
Profilo
  6
Continuous
370
     0
100
AcDbPolyline
 90
        4
 70
   128
 43
0.0
 10
0.2947740525588571
 20
0.230451859851419
 10
0.2946512647848134
 20
0.2308394308257525
 10
0.2945543276775022
 20
0.2312205425135697
 10
0.2945284776198087
 20
0.2314272467706737
  0
LWPOLYLINE
  5
3DF0
330
2
100
AcDbEntity
  8
Profilo
  6
Continuous
370
     0
100
AcDbPolyline
 90
        2
 70
   128
 43
0.0
 10
0.2939339269018997
 20
0.230419562237407
 10
0.2939662394740168
 20
0.2307296190168736
  0
LWPOLYLINE
  5
3DF1
330
2
100
AcDbEntity
  8
Profilo
  6
Continuous
370
     0
100
AcDbPolyline
 90
        9
 70
   128
 43
0.0
 10
0.2949345964969423
 20
0.2318835196331809
 10
0.2951128257138733
 20
0.2319797189742077
 10
0.2953516531081757
 20
0.2322505017794238
 10
0.295529881716067
 20
0.2325426626097907
 10
0.2957093551999816
 20
0.2328756257945412
 10
0.295857642225168
 20
0.2331549598098177
 10
0.2959374884758446
 20
0.2334456950446967
 10
0.2960230383781637
 20
0.2337991383657278
 10
0.296045851766654
 20
0.2338675464709645
  0
LWPOLYLINE
  5
3DF2
330
2
100
AcDbEntity
  8
Profilo
  6
Continuous
370
     0
100
AcDbPolyline
 90
       19
 70
   128
 43
0.0
 10
0.2961485120148599
 20
0.2340955744073125
 10
0.2964108653734585
 20
0.2345459290794929
 10
0.2965819651780963
 20
0.234773957015841
 10
0.2968386148850524
 20
0.2350304881981017
 10
0.2970382317298226
 20
0.2351730056090928
 10
0.2972948814367791
 20
0.2352870193803613
 10
0.2977283346000152
 20
0.2353725299057192
 10
0.2980591281240845
 20
0.2353611282923057
 10
0.2983785149539087
 20
0.2352471145210363
 10
0.2985496147585465
 20
0.2351445019693702
 10
0.2987093078689389
 20
0.2349620796990539
 10
0.2988632979367287
 20
0.2346713444641749
 10
0.2988975180194639
 20
0.2344718201675485
 10
0.2988861113252188
 20
0.2341639825125502
 10
0.2988176711597481
 20
0.2338447436379486
 10
0.2986351646608654
 20
0.2335255047633469
 10
0.2984583612045852
 20
0.2333544841064441
 10
0.2981788981091389
 20
0.2331891638624361
 10
0.2980591281240845
 20
0.2331720618361269
  0
LWPOLYLINE
  5
3DF3
330
2
100
AcDbEntity
  8
Profilo
  6
Continuous
370
     0
100
AcDbPolyline
 90
       33
 70
   128
 43
0.0
 10
0.297397541684985
 20
0.2332632731681906
 10
0.2972378485745928
 20
0.2335084027370378
 10
0.2971580017148767
 20
0.2338504444446553
 10
0.2971694084091216
 20
0.2341924861522728
 10
0.2972777716999311
 20
0.2344832213871509
 10
0.2974944982815493
 20
0.2346941472971908
 10
0.2977739613769956
 20
0.2347511541828251
 10
0.2980648311666876
 20
0.234688446490484
 10
0.2982074145402322
 20
0.2345459290794929
 10
0.2982872613999479
 20
0.2343749084225892
 10
0.2983271845252862
 20
0.2341183772403286
 10
0.2982416346229675
 20
0.233941655776719
 10
0.2980990512494228
 20
0.2337649339192984
 10
0.2979564678758786
 20
0.2336908250073541
 10
0.2977625546827505
 20
0.2336965258140608
 10
0.2976142682666034
 20
0.2337820363394186
 10
0.2975002013241519
 20
0.2339530569963214
 10
0.2974716848930587
 20
0.234169683319257
 10
0.2975287183642847
 20
0.2343920104488983
 10
0.2976827084320739
 20
0.2345402282727861
 10
0.297876621625202
 20
0.2345459290794929
 10
0.2979051380562951
 20
0.2344433165278259
 10
0.2977511479885053
 20
0.2343806088354849
 10
0.2976598950435838
 20
0.23435780639628
 10
0.2976028615723583
 20
0.2341639825125502
 10
0.2976484883493387
 20
0.2340328667149716
 10
0.2977739613769956
 20
0.2340157646886625
 10
0.2979336544873883
 20
0.234044267934574
 10
0.2980363147355942
 20
0.2341981869589796
 10
0.2980648311666876
 20
0.2344091124752075
 10
0.2979678745701237
 20
0.2346029359651272
 10
0.297819588153976
 20
0.2346827456837773
 10
0.2976770047804318
 20
0.2346770452708816
  0
LWPOLYLINE
  5
3DF4
330
2
100
AcDbEntity
  8
Profilo
  6
Continuous
370
     0
100
AcDbPolyline
 90
        4
 70
   128
 43
0.0
 10
0.2964564915413999
 20
0.2331777626428336
 10
0.2966389986493219
 20
0.2335711104293787
 10
0.2968842416620327
 20
0.2339302541633055
 10
0.2971009682436512
 20
0.2341126764336217
  0
LWPOLYLINE
  5
3DF5
330
2
100
AcDbEntity
  8
Profilo
  6
Continuous
370
     0
100
AcDbPolyline
 90
        6
 70
   128
 43
0.0
 10
0.2960857755010313
 20
0.2328357209352161
 10
0.2962682819999143
 20
0.2333031780275157
 10
0.2965363384011155
 20
0.2338276416116394
 10
0.2968557252309396
 20
0.2342380918183047
 10
0.2971123749378961
 20
0.2345003234134602
 10
0.2972777716999311
 20
0.2346029359651272
  0
LWPOLYLINE
  5
3DF6
330
2
100
AcDbEntity
  8
Profilo
  6
Continuous
370
     0
100
AcDbPolyline
 90
        8
 70
   128
 43
0.0
 10
0.2981446780264032
 20
0.2347397525694116
 10
0.2983956246907569
 20
0.2347169501302067
 10
0.2985325044126594
 20
0.234585833938818
 10
0.2985895378838847
 20
0.2343920104488983
 10
0.2985952415355269
 20
0.2341981869589796
 10
0.2985210977184143
 20
0.2340328667149716
 10
0.2983671082596637
 20
0.2339131521369964
 10
0.2982359315803644
 20
0.2338732472776712
  0
LWPOLYLINE
  5
3DF7
330
2
100
AcDbEntity
  8
Profilo
  6
Continuous
370
     0
100
AcDbPolyline
 90
        6
 70
   128
 43
0.0
 10
0.2951162089263528
 20
0.2315302621908988
 10
0.2953671555907065
 20
0.2316499767688741
 10
0.2956009919091727
 20
0.2318552014783961
 10
0.295857642225168
 20
0.2321630391333954
 10
0.2959831152528254
 20
0.2323853662630367
 10
0.2962397649597819
 20
0.2327502104098592
  0
LWPOLYLINE
  5
3DF8
330
2
100
AcDbEntity
  8
Profilo
  6
Continuous
370
     0
100
AcDbPolyline
 90
        2
 70
   128
 43
0.0
 10
0.2909480125853556
 20
0.2321616879681688
 10
0.2912057201933162
 20
0.2323790274826591
  0
LWPOLYLINE
  5
3DF9
330
2
100
AcDbEntity
  8
Profilo
  6
Continuous
370
     0
100
AcDbPolyline
 90
        5
 70
   128
 43
0.0
 10
0.2915117471403403
 20
0.2328781040465868
 10
0.2916325470105976
 20
0.2331598407022133
 10
0.291705027541791
 20
0.2334657262365412
 10
0.291705027541791
 20
0.2337474628921678
 10
0.2916647603093327
 20
0.2339326040329948
  0
LWPOLYLINE
  5
3DFA
330
2
100
AcDbEntity
  8
Profilo
  6
Continuous
370
     0
100
AcDbPolyline
 90
        4
 70
   128
 43
0.0
 10
0.2909560665190787
 20
0.2327815085317864
 10
0.2908916393125689
 20
0.2329103024202499
 10
0.2911735062855418
 20
0.2330471461974874
 10
0.2909882798178138
 20
0.2327976079155229
  0
LWPOLYLINE
  5
3DFB
330
2
100
AcDbEntity
  8
Profilo
  6
Continuous
370
     0
100
AcDbPolyline
 90
        2
 70
   128
 43
0.0
 10
0.290569505716177
 20
0.2319443480598685
 10
0.2904164919381456
 20
0.2321777869580953
  0
LWPOLYLINE
  5
3DFC
330
2
100
AcDbEntity
  8
Profilo
  6
Continuous
370
     0
100
AcDbPolyline
 90
        2
 70
   128
 43
0.0
 10
0.2916676556814532
 20
0.2303982405272173
 10
0.2915805923168462
 20
0.2311185998342586
  0
LWPOLYLINE
  5
3DFD
330
2
100
AcDbEntity
  8
Profilo
  6
Continuous
370
     0
100
AcDbPolyline
 90
        2
 70
   128
 43
0.0
 10
0.2914354863031412
 20
0.2304320826676107
 10
0.2913726066651125
 20
0.2311476079457538
  0
LWPOLYLINE
  5
3DFE
330
2
100
AcDbEntity
  8
Profilo
  6
Continuous
370
     0
100
AcDbPolyline
 90
        7
 70
   128
 43
0.0
 10
0.2919240093953825
 20
0.2304272482449023
 10
0.2919578677088626
 20
0.2310364114977228
 10
0.2920400940845387
 20
0.231544047147928
 10
0.2921561793827338
 20
0.2318437943516295
 10
0.2921610157626262
 20
0.2320081714185122
 10
0.2923109587652619
 20
0.2321532104007486
 10
0.2924802491145841
 20
0.2323079186222135
  0
LWPOLYLINE
  5
3DFF
330
2
100
AcDbEntity
  8
Profilo
  6
Continuous
370
     0
100
AcDbPolyline
 90
        5
 70
   128
 43
0.0
 10
0.2921658527515571
 20
0.2304900984967919
 10
0.2921368314270085
 20
0.230968726429313
 10
0.2922045480539686
 20
0.231278142872243
 10
0.2923061217763308
 20
0.231461858417582
 10
0.2924076961077318
 20
0.2316649128351886
  0
LWPOLYLINE
  5
3E00
330
2
100
AcDbEntity
  8
Profilo
  6
Continuous
370
     0
100
AcDbPolyline
 90
        4
 70
   128
 43
0.0
 10
0.2925334547747507
 20
0.230407909766445
 10
0.2924609017678978
 20
0.2306303026625089
 10
0.2924560647789669
 20
0.2307705068282258
 10
0.2924947594723393
 20
0.230983230485061
  0
LWPOLYLINE
  5
3E01
330
2
100
AcDbEntity
  8
Profilo
  6
Continuous
370
     0
100
AcDbPolyline
 90
        3
 70
   128
 43
0.0
 10
0.2927752981309253
 20
0.2305287754537057
 10
0.2927849714997486
 20
0.2306883180978789
 10
0.2928526875176698
 20
0.2308671992205097
  0
LWPOLYLINE
  5
3E02
330
2
100
AcDbEntity
  8
Profilo
  6
Continuous
370
     0
100
AcDbPolyline
 90
        2
 70
   128
 43
0.0
 10
0.2917298245707938
 20
0.2318645627574938
 10
0.2917538353302536
 20
0.2320885635834959
  0
LINE
  5
3EA6
330
2
100
AcDbEntity
  8
Profilo
  6
Continuous
370
     0
100
AcDbLine
 10
0.0973226045303402
 20
0.0741134040348271
 30
0.0
 11
0.0973226045303402
 21
0.1638755000044693
 31
0.0
  0
LINE
  5
3EA7
330
2
100
AcDbEntity
  8
Profilo
  6
Continuous
370
     0
100
AcDbLine
 10
0.0973226045303402
 20
0.2011353830397236
 30
0.0
 11
0.1323226045303403
 21
0.2011353830397236
 31
0.0
  0
LINE
  5
3EA8
330
2
100
AcDbEntity
  8
Profilo
  6
Continuous
370
     0
100
AcDbLine
 10
0.1323226045303403
 20
0.2011353830397236
 30
0.0
 11
0.1323226045303403
 21
0.1652449735817557
 31
0.0
  0
LINE
  5
3EA9
102
{ACAD_REACTORS
330
3F6A
330
3FB8
102
}
330
2
100
AcDbEntity
  8
Profilo
  6
Continuous
370
     0
100
AcDbLine
 10
0.1323226045303403
 20
0.0741134040348271
 30
0.0
 11
0.0973226045303402
 21
0.0741134040348271
 31
0.0
  0
LINE
  5
3EAA
330
2
100
AcDbEntity
  8
Profilo
  6
Continuous
370
     0
100
AcDbLine
 10
0.1002717852595767
 20
0.1848103751881314
 30
0.0
 11
0.1002717852595767
 21
0.1666903229513352
 31
0.0
  0
LINE
  5
3EAB
330
2
100
AcDbEntity
  8
Profilo
  6
Continuous
370
     0
100
AcDbLine
 10
0.1040661874763389
 20
0.1848103751881314
 30
0.0
 11
0.1040661874763389
 21
0.1680362749632639
 31
0.0
  0
ARC
  5
3EAC
330
2
100
AcDbEntity
  8
Profilo
  6
Continuous
370
     0
100
AcDbCircle
 10
0.1021689863679587
 20
0.1453930149826399
 30
0.0
 40
0.0018972011083815
100
AcDbArc
 50
180.0
 51
0.0
  0
ARC
  5
3EAD
330
2
100
AcDbEntity
  8
Profilo
  6
Continuous
370
     0
100
AcDbCircle
 10
0.1021689863679587
 20
0.1848103751881314
 30
0.0
 40
0.0018972011083815
100
AcDbArc
 50
0.0
 51
180.0
  0
LINE
  5
3EAE
330
2
100
AcDbEntity
  8
Profilo
  6
Continuous
370
     0
100
AcDbLine
 10
0.1063786086383978
 20
0.1848103751881314
 30
0.0
 11
0.1063786086383978
 21
0.1691811861822817
 31
0.0
  0
LINE
  5
3EAF
330
2
100
AcDbEntity
  8
Profilo
  6
Continuous
370
     0
100
AcDbLine
 10
0.11017301085516
 20
0.1848103751881314
 30
0.0
 11
0.11017301085516
 21
0.1695234358280727
 31
0.0
  0
ARC
  5
3EB0
330
2
100
AcDbEntity
  8
Profilo
  6
Continuous
370
     0
100
AcDbCircle
 10
0.1082758097467775
 20
0.1453930149826399
 30
0.0
 40
0.0018972011083815
100
AcDbArc
 50
180.0
 51
0.0
  0
ARC
  5
3EB1
330
2
100
AcDbEntity
  8
Profilo
  6
Continuous
370
     0
100
AcDbCircle
 10
0.1082758097467775
 20
0.1848103751881314
 30
0.0
 40
0.0018972011083815
100
AcDbArc
 50
0.0
 51
180.0
  0
LINE
  5
3EB2
330
2
100
AcDbEntity
  8
Profilo
  6
Continuous
370
     0
100
AcDbLine
 10
0.1126155989096049
 20
0.1848103751881314
 30
0.0
 11
0.1126155989096049
 21
0.1686562319156211
 31
0.0
  0
LINE
  5
3EB3
330
2
100
AcDbEntity
  8
Profilo
  6
Continuous
370
     0
100
AcDbLine
 10
0.1164100011263702
 20
0.1848103751881314
 30
0.0
 11
0.1164100011263702
 21
0.1655110811113951
 31
0.0
  0
ARC
  5
3EB4
330
2
100
AcDbEntity
  8
Profilo
  6
Continuous
370
     0
100
AcDbCircle
 10
0.1145128000179874
 20
0.1453930149826399
 30
0.0
 40
0.0018972011083815
100
AcDbArc
 50
180.0
 51
0.0
  0
ARC
  5
3EB5
330
2
100
AcDbEntity
  8
Profilo
  6
Continuous
370
     0
100
AcDbCircle
 10
0.1145128000179874
 20
0.1848103751881314
 30
0.0
 40
0.0018972011083815
100
AcDbArc
 50
0.0
 51
180.0
  0
LINE
  5
3EB6
330
2
100
AcDbEntity
  8
Profilo
  6
Continuous
370
     0
100
AcDbLine
 10
0.1187800647988011
 20
0.1848103751881314
 30
0.0
 11
0.1187800647988011
 21
0.164335013030785
 31
0.0
  0
LINE
  5
3EB7
330
2
100
AcDbEntity
  8
Profilo
  6
Continuous
370
     0
100
AcDbLine
 10
0.1225744670155637
 20
0.1848103751881314
 30
0.0
 11
0.1225744670155637
 21
0.1704094234201529
 31
0.0
  0
ARC
  5
3EB8
330
2
100
AcDbEntity
  8
Profilo
  6
Continuous
370
     0
100
AcDbCircle
 10
0.1206772659071835
 20
0.1453930149826399
 30
0.0
 40
0.0018972011083815
100
AcDbArc
 50
180.0
 51
0.0
  0
ARC
  5
3EB9
330
2
100
AcDbEntity
  8
Profilo
  6
Continuous
370
     0
100
AcDbCircle
 10
0.1206772659071835
 20
0.1848103751881314
 30
0.0
 40
0.0018972011083815
100
AcDbArc
 50
0.0
 51
180.0
  0
LINE
  5
3EBA
330
2
100
AcDbEntity
  8
Profilo
  6
Continuous
370
     0
100
AcDbLine
 10
0.1249445337331934
 20
0.1848103751881314
 30
0.0
 11
0.1249445337331934
 21
0.1704046999813216
 31
0.0
  0
LINE
  5
3EBB
330
2
100
AcDbEntity
  8
Profilo
  6
Continuous
370
     0
100
AcDbLine
 10
0.128738935949956
 20
0.1848103751881314
 30
0.0
 11
0.128738935949956
 21
0.1649445332977436
 31
0.0
  0
ARC
  5
3EBC
330
2
100
AcDbEntity
  8
Profilo
  6
Continuous
370
     0
100
AcDbCircle
 10
0.1268417348415758
 20
0.1453930149826399
 30
0.0
 40
0.0018972011083815
100
AcDbArc
 50
180.0
 51
0.0
  0
ARC
  5
3EBD
330
2
100
AcDbEntity
  8
Profilo
  6
Continuous
370
     0
100
AcDbCircle
 10
0.1268417348415758
 20
0.1848103751881314
 30
0.0
 40
0.0018972011083815
100
AcDbArc
 50
0.0
 51
180.0
  0
LINE
  5
3EBE
330
2
100
AcDbEntity
  8
Profilo
  6
Continuous
370
     0
100
AcDbLine
 10
0.0973226045303402
 20
0.1398607416231312
 30
0.0
 11
0.1323226045303403
 21
0.1398607416231312
 31
0.0
  0
LINE
  5
3EBF
330
2
100
AcDbEntity
  8
Profilo
  6
Continuous
370
     0
100
AcDbLine
 10
0.0973226045303402
 20
0.1362682606849581
 30
0.0
 11
0.1323226045303403
 21
0.1362682606849581
 31
0.0
  0
LINE
  5
3EC0
330
2
100
AcDbEntity
  8
Profilo
  6
Continuous
370
     0
100
AcDbLine
 10
0.0973226045303402
 20
0.1351848120525001
 30
0.0
 11
0.1323226045303403
 21
0.1351848120525001
 31
0.0
  0
LINE
  5
3EC1
330
2
100
AcDbEntity
  8
Profilo
  6
Continuous
370
     0
100
AcDbLine
 10
0.0973226045303402
 20
0.1335881529826239
 30
0.0
 11
0.1323226045303403
 21
0.1335881529826239
 31
0.0
  0
LINE
  5
3EC2
330
2
100
AcDbEntity
  8
Profilo
  6
Continuous
370
     0
100
AcDbLine
 10
0.0973226045303402
 20
0.1287981777420413
 30
0.0
 11
0.1323226045303403
 21
0.1287981777420413
 31
0.0
  0
LINE
  5
3EC3
330
2
100
AcDbEntity
  8
Profilo
  6
Continuous
370
     0
100
AcDbLine
 10
0.0973226045303402
 20
0.1270304472136523
 30
0.0
 11
0.1323226045303403
 21
0.1270304472136523
 31
0.0
  0
LINE
  5
3EC4
330
2
100
AcDbEntity
  8
Profilo
  6
Continuous
370
     0
100
AcDbLine
 10
0.0973226045303402
 20
0.1248065300673415
 30
0.0
 11
0.1323226045303403
 21
0.1248065300673415
 31
0.0
  0
LINE
  5
3EC5
330
2
100
AcDbEntity
  8
Profilo
  6
Continuous
370
     0
100
AcDbLine
 10
0.1293433372670831
 20
0.1173986062381705
 30
0.0
 11
0.1323226045303403
 21
0.1173986062381705
 31
0.0
  0
LINE
  5
3EC6
330
2
100
AcDbEntity
  8
Profilo
  6
Continuous
370
     0
100
AcDbLine
 10
0.0973226045303402
 20
0.1935654650934757
 30
0.0
 11
0.1323226045303403
 21
0.1935654650934757
 31
0.0
  0
LINE
  5
3EC7
330
2
100
AcDbEntity
  8
Profilo
  6
Continuous
370
     0
100
AcDbLine
 10
0.1293433372670831
 20
0.0833852092946741
 30
0.0
 11
0.1323226045303403
 21
0.0833852092946741
 31
0.0
  0
LWPOLYLINE
  5
3EC8
330
2
100
AcDbEntity
  8
Profilo
  6
Continuous
370
     0
100
AcDbPolyline
 90
        4
 70
     1
 43
0.0
 10
0.1033758720514841
 20
0.1292957243505882
 10
0.1073737116156073
 20
0.1292957243505882
 10
0.1073737116156073
 20
0.1331687620869081
 10
0.1033758720514841
 20
0.1331687620869081
  0
LWPOLYLINE
  5
3EC9
330
2
100
AcDbEntity
  8
Profilo
  6
Continuous
370
     0
100
AcDbPolyline
 90
        2
 70
     0
 43
0.0
 10
0.1028518852185627
 20
0.1335881529826239
 10
0.1028518852185627
 20
0.1287981777420413
  0
LWPOLYLINE
  5
3ECA
330
2
100
AcDbEntity
  8
Profilo
  6
Continuous
370
     0
100
AcDbPolyline
 90
        2
 70
     0
 43
0.0
 10
0.1078976984485287
 20
0.1287981777420413
 10
0.1078976984485287
 20
0.1335881529826239
  0
LINE
  5
3ECB
330
2
100
AcDbEntity
  8
Profilo
  6
Continuous
370
     0
100
AcDbLine
 10
0.1033758720514841
 20
0.1331687620869081
 30
0.0
 11
0.1073737116156073
 21
0.1292957243505882
 31
0.0
  0
LINE
  5
3ECC
330
2
100
AcDbEntity
  8
Profilo
  6
Continuous
370
     0
100
AcDbLine
 10
0.1073737116156073
 20
0.1331687620869081
 30
0.0
 11
0.1033758720514841
 21
0.1292957243505882
 31
0.0
  0
LWPOLYLINE
  5
3ECD
330
2
100
AcDbEntity
  8
Profilo
  6
Continuous
370
     0
100
AcDbPolyline
 90
        4
 70
     1
 43
0.0
 10
0.1096275949797376
 20
0.1292957243505882
 10
0.1136254345438612
 20
0.1292957243505882
 10
0.1136254345438612
 20
0.1331687620869081
 10
0.1096275949797376
 20
0.1331687620869081
  0
LWPOLYLINE
  5
3ECE
330
2
100
AcDbEntity
  8
Profilo
  6
Continuous
370
     0
100
AcDbPolyline
 90
        2
 70
     0
 43
0.0
 10
0.1091036081468162
 20
0.1335881529826239
 10
0.1091036081468162
 20
0.1287981777420413
  0
LWPOLYLINE
  5
3ECF
330
2
100
AcDbEntity
  8
Profilo
  6
Continuous
370
     0
100
AcDbPolyline
 90
        2
 70
     0
 43
0.0
 10
0.1141494213767826
 20
0.1287981777420413
 10
0.1141494213767826
 20
0.1335881529826239
  0
LINE
  5
3ED0
330
2
100
AcDbEntity
  8
Profilo
  6
Continuous
370
     0
100
AcDbLine
 10
0.1096275949797376
 20
0.1331687620869081
 30
0.0
 11
0.1136254345438612
 21
0.1292957243505882
 31
0.0
  0
LINE
  5
3ED1
330
2
100
AcDbEntity
  8
Profilo
  6
Continuous
370
     0
100
AcDbLine
 10
0.1136254345438612
 20
0.1331687620869081
 30
0.0
 11
0.1096275949797376
 21
0.1292957243505882
 31
0.0
  0
LWPOLYLINE
  5
3ED2
330
2
100
AcDbEntity
  8
Profilo
  6
Continuous
370
     0
100
AcDbPolyline
 90
        4
 70
     1
 43
0.0
 10
0.1157237875801891
 20
0.1292957243505882
 10
0.1197216271443127
 20
0.1292957243505882
 10
0.1197216271443127
 20
0.1331687620869081
 10
0.1157237875801891
 20
0.1331687620869081
  0
LWPOLYLINE
  5
3ED3
330
2
100
AcDbEntity
  8
Profilo
  6
Continuous
370
     0
100
AcDbPolyline
 90
        2
 70
     0
 43
0.0
 10
0.1151998007472681
 20
0.1335881529826239
 10
0.1151998007472681
 20
0.1287981777420413
  0
LWPOLYLINE
  5
3ED4
330
2
100
AcDbEntity
  8
Profilo
  6
Continuous
370
     0
100
AcDbPolyline
 90
        2
 70
     0
 43
0.0
 10
0.1202456139772341
 20
0.1287981777420413
 10
0.1202456139772341
 20
0.1335881529826239
  0
LINE
  5
3ED5
330
2
100
AcDbEntity
  8
Profilo
  6
Continuous
370
     0
100
AcDbLine
 10
0.1157237875801891
 20
0.1331687620869081
 30
0.0
 11
0.1197216271443127
 21
0.1292957243505882
 31
0.0
  0
LINE
  5
3ED6
330
2
100
AcDbEntity
  8
Profilo
  6
Continuous
370
     0
100
AcDbLine
 10
0.1197216271443127
 20
0.1331687620869081
 30
0.0
 11
0.1157237875801891
 21
0.1292957243505882
 31
0.0
  0
LWPOLYLINE
  5
3ED7
330
2
100
AcDbEntity
  8
Profilo
  6
Continuous
370
     0
100
AcDbPolyline
 90
        4
 70
     1
 43
0.0
 10
0.1218884666330897
 20
0.1292957243505882
 10
0.1258863061972111
 20
0.1292957243505882
 10
0.1258863061972111
 20
0.1331687620869081
 10
0.1218884666330897
 20
0.1331687620869081
  0
LWPOLYLINE
  5
3ED8
330
2
100
AcDbEntity
  8
Profilo
  6
Continuous
370
     0
100
AcDbPolyline
 90
        2
 70
     0
 43
0.0
 10
0.1213644798001683
 20
0.1335881529826239
 10
0.1213644798001683
 20
0.1287981777420413
  0
LWPOLYLINE
  5
3ED9
330
2
100
AcDbEntity
  8
Profilo
  6
Continuous
370
     0
100
AcDbPolyline
 90
        2
 70
     0
 43
0.0
 10
0.1264102930301321
 20
0.1287981777420413
 10
0.1264102930301321
 20
0.1335881529826239
  0
LINE
  5
3EDA
330
2
100
AcDbEntity
  8
Profilo
  6
Continuous
370
     0
100
AcDbLine
 10
0.1218884666330897
 20
0.1331687620869081
 30
0.0
 11
0.1258863061972111
 21
0.1292957243505882
 31
0.0
  0
LINE
  5
3EDB
330
2
100
AcDbEntity
  8
Profilo
  6
Continuous
370
     0
100
AcDbLine
 10
0.1258863061972111
 20
0.1331687620869081
 30
0.0
 11
0.1218884666330897
 21
0.1292957243505882
 31
0.0
  0
LWPOLYLINE
  5
3EDC
330
2
100
AcDbEntity
  8
Profilo
  6
Continuous
370
     0
100
AcDbPolyline
 90
        4
 70
     1
 43
0.0
 10
0.1281414350464045
 20
0.1292957243505882
 10
0.1321392746105259
 20
0.1292957243505882
 10
0.1321392746105259
 20
0.1331687620869081
 10
0.1281414350464045
 20
0.1331687620869081
  0
LWPOLYLINE
  5
3EDD
330
2
100
AcDbEntity
  8
Profilo
  6
Continuous
370
     0
100
AcDbPolyline
 90
        2
 70
     0
 43
0.0
 10
0.1276174482134835
 20
0.1335881529826239
 10
0.1276174482134835
 20
0.1287981777420413
  0
LINE
  5
3EDE
330
2
100
AcDbEntity
  8
Profilo
  6
Continuous
370
     0
100
AcDbLine
 10
0.1281414350464045
 20
0.1331687620869081
 30
0.0
 11
0.1321392746105259
 21
0.1292957243505882
 31
0.0
  0
LINE
  5
3EDF
330
2
100
AcDbEntity
  8
Profilo
  6
Continuous
370
     0
100
AcDbLine
 10
0.1321392746105259
 20
0.1331687620869081
 30
0.0
 11
0.1281414350464045
 21
0.1292957243505882
 31
0.0
  0
LWPOLYLINE
  5
3EE0
330
2
100
AcDbEntity
  8
Profilo
  6
Continuous
370
     0
100
AcDbPolyline
 90
        2
 70
     0
 43
0.0
 10
0.0973226045303402
 20
0.1287981777420413
 10
0.0973226045303402
 20
0.1335881529826239
  0
LWPOLYLINE
  5
3EE1
330
2
100
AcDbEntity
  8
Profilo
  6
Continuous
370
     0
100
AcDbPolyline
 90
        4
 70
     1
 43
0.0
 10
0.0973582272302394
 20
0.1292371449779984
 10
0.1013560667943629
 20
0.1292371449779984
 10
0.1013560667943629
 20
0.1331101827143183
 10
0.0973582272302394
 20
0.1331101827143183
  0
LWPOLYLINE
  5
3EE2
330
2
100
AcDbEntity
  8
Profilo
  6
Continuous
370
     0
100
AcDbPolyline
 90
        2
 70
     0
 43
0.0
 10
0.1018800536272844
 20
0.1287395983694469
 10
0.1018800536272844
 20
0.1335295736100295
  0
LINE
  5
3EE3
330
2
100
AcDbEntity
  8
Profilo
  6
Continuous
370
     0
100
AcDbLine
 10
0.0973582272302394
 20
0.1331101827143183
 30
0.0
 11
0.1013560667943629
 21
0.1292371449779984
 31
0.0
  0
LINE
  5
3EE4
330
2
100
AcDbEntity
  8
Profilo
  6
Continuous
370
     0
100
AcDbLine
 10
0.1013560667943629
 20
0.1331101827143183
 30
0.0
 11
0.0973582272302394
 21
0.1292371449779984
 31
0.0
  0
LINE
  5
3EE5
330
2
100
AcDbEntity
  8
Profilo
  6
Continuous
370
     0
100
AcDbLine
 10
0.0986425446287314
 20
0.1173986062381705
 30
0.0
 11
0.0986425446287314
 21
0.0833852092946741
 31
0.0
  0
LINE
  5
3EE6
330
2
100
AcDbEntity
  8
Profilo
  6
Continuous
370
     0
100
AcDbLine
 10
0.1004991791619116
 20
0.1173986062381705
 30
0.0
 11
0.1004991791619116
 21
0.0833852092946741
 31
0.0
  0
LINE
  5
3EE7
330
2
100
AcDbEntity
  8
Profilo
  6
Continuous
370
     0
100
AcDbLine
 10
0.1293433372670831
 20
0.1173986062381705
 30
0.0
 11
0.1293433372670831
 21
0.0833852092946741
 31
0.0
  0
LINE
  5
3EE8
330
2
100
AcDbEntity
  8
Profilo
  6
Continuous
370
     0
100
AcDbLine
 10
0.1310673565704903
 20
0.1173986062381705
 30
0.0
 11
0.1310673565704903
 21
0.0833852092946741
 31
0.0
  0
LINE
  5
3EE9
330
2
100
AcDbEntity
  8
Profilo
  6
Continuous
370
     0
100
AcDbLine
 10
0.0960816689905224
 20
0.2050961500320549
 30
0.0
 11
0.1329768343855431
 21
0.2050961500320549
 31
0.0
  0
LINE
  5
3EEA
330
2
100
AcDbEntity
  8
Profilo
  6
Continuous
370
     0
100
AcDbLine
 10
0.0964588229241934
 20
0.2016320612952187
 30
0.0
 11
0.1331212375680688
 21
0.2016320612952187
 31
0.0
  0
LWPOLYLINE
  5
3EEB
102
{ACAD_REACTORS
330
3F6A
330
3F84
102
}
330
2
100
AcDbEntity
  8
Profilo
  6
Continuous
370
     0
100
AcDbPolyline
 90
       82
 70
   128
 43
0.0
 10
0.0973226045303402
 20
0.2011353830397236
 10
0.0962243120499045
 20
0.2017669060882863
 10
0.0956268172367425
 20
0.2028208189026324
 10
0.0955565249832153
 20
0.2041206430004745
 10
0.095978284594767
 20
0.2051042940416345
 10
0.0953807928268011
 20
0.2079849873609982
 10
0.094509276073961
 20
0.2104357494356823
 10
0.0931596453169967
 20
0.2116161306850799
 10
0.091978715359458
 20
0.2116161306850799
 10
0.0914163712408525
 20
0.2126278880107559
 10
0.0911914317662932
 20
0.2142017296766148
 10
0.0906290846024938
 20
0.2152696936641658
 10
0.0902354412833138
 20
0.2164500749135587
 10
0.0901229730686328
 20
0.2171807871155649
 10
0.0893193428646746
 20
0.2188760505296854
 10
0.0886989877670082
 20
0.2216082338174667
 10
0.0887571449154674
 20
0.2233909370365843
 10
0.0889887625043096
 20
0.2252816684949741
 10
0.0894152573952538
 20
0.2260955122106452
 10
0.0900937726865734
 20
0.2265411860463691
 10
0.0898999124798512
 20
0.2270449942483594
 10
0.0890469196527666
 20
0.2278200810634965
 10
0.0888142880137397
 20
0.2284982825190087
 10
0.0881163839610722
 20
0.2290020907209991
 10
0.0873519606524118
 20
0.2306001458505438
 10
0.0868639588976841
 20
0.2324536897448806
 10
0.0865711602810024
 20
0.2337706800602111
 10
0.0868639588976841
 20
0.2347462304109908
 10
0.0880107583012429
 20
0.2352583933113974
 10
0.0898407595523816
 20
0.2356730013736317
 10
0.0917927635261036
 20
0.2355510578259148
 10
0.0998112694416991
 20
0.2349301932695824
 10
0.1061826015686718
 20
0.2346804521750003
 10
0.1132410364389815
 20
0.2346804521750003
 10
0.1134741279025659
 20
0.2349303606392148
 10
0.1139572969316376
 20
0.2350963735966145
 10
0.1144253648349798
 20
0.2350058207163848
 10
0.1147877370389896
 20
0.2347190732107647
 10
0.116025852727542
 20
0.2347039804077096
 10
0.1243161697707027
 20
0.2349095300112314
 10
0.1284134258405154
 20
0.2351027060760142
 10
0.1339795046741949
 20
0.2359140510614683
 10
0.1369558120071836
 20
0.2364163115865914
 10
0.1383859851465732
 20
0.236493583193937
 10
0.139777505616292
 20
0.2362617703409513
 10
0.1410530650318034
 20
0.2356436033893354
 10
0.1414009451492326
 20
0.2352572492907097
 10
0.1418862062277841
 20
0.2336753975109804
 10
0.1422459869702113
 20
0.2324234037169879
 10
0.1422060096403879
 20
0.2315976216236386
 10
0.1420727579647032
 20
0.2309716257111722
 10
0.1412599190887938
 20
0.2300392902003971
 10
0.1397630470268636
 20
0.228751439923216
 10
0.1391609417873347
 20
0.2279991567287181
 10
0.1390292309807024
 20
0.2274349438405747
 10
0.1391044960388905
 20
0.2261936774557227
 10
0.1399552415115099
 20
0.2241839383099351
 10
0.1402905693320533
 20
0.2229735860813742
 10
0.1406259001977927
 20
0.2215956476208405
 10
0.1405700117201696
 20
0.2206087437015767
 10
0.140254559892294
 20
0.2192364761181211
 10
0.1396286107700333
 20
0.2172105316534578
 10
0.1393901536715338
 20
0.2160783883022046
 10
0.1388834361437188
 20
0.215333556010088
 10
0.1387642075944688
 20
0.214797276129667
 10
0.1388834361437188
 20
0.2139034769853125
 10
0.1387642075944688
 20
0.2132182322217087
 10
0.138317099773483
 20
0.2126223667818257
 10
0.1376911506512224
 20
0.2123542268416128
 10
0.1368565538516693
 20
0.2123244330773542
 10
0.1358729190816597
 20
0.2120265013419427
 10
0.1348296715596224
 20
0.2109241497858927
 10
0.1336005209273612
 20
0.2083439775086673
 10
0.1332956998778547
 20
0.2066799708663287
 10
0.1330846739026841
 20
0.2056721910308221
 10
0.1330846739026841
 20
0.2052034575973676
 10
0.1333660438997106
 20
0.2047581598510615
 10
0.1337177579185909
 20
0.2036566333288639
 10
0.1336474138967354
 20
0.2028129111795951
 10
0.1332956998778547
 20
0.2018520066564866
 10
0.1330846739026841
 20
0.2015473289402148
 10
0.1323226045303403
 20
0.2011353830397236
  0
LWPOLYLINE
  5
3EEC
330
2
100
AcDbEntity
  8
Profilo
  6
Continuous
370
     0
100
AcDbPolyline
 90
        7
 70
   128
 43
0.0
 10
0.0886468296541803
 20
0.2287905630678912
 10
0.0886176110009482
 20
0.2316527512126758
 10
0.0912765876202815
 20
0.2324121072510867
 10
0.0956887352019531
 20
0.2319156042414454
 10
0.102233905373581
 20
0.2313314842118934
 10
0.1082531276062255
 20
0.2310102191801708
 10
0.1121977615101821
 20
0.2310686311831283
  0
LWPOLYLINE
  5
3EED
330
2
100
AcDbEntity
  8
Profilo
  6
Continuous
370
     0
100
AcDbPolyline
 90
        7
 70
   128
 43
0.0
 10
0.115752534228081
 20
0.2313353100848685
 10
0.1220639521286482
 20
0.2318610181114631
 10
0.1291058546312227
 20
0.2326495811358782
 10
0.1338101978808157
 20
0.2331752891624728
 10
0.1366152708115149
 20
0.2335549661971481
 10
0.1391865884259538
 20
0.2331752891624728
 10
0.1401216127361851
 20
0.2294369209733669
  0
LWPOLYLINE
  5
3EEE
330
2
100
AcDbEntity
  8
Profilo
  6
Continuous
370
     0
100
AcDbPolyline
 90
       10
 70
   128
 43
0.0
 10
0.1357386838077477
 20
0.2285899459459943
 10
0.136264634791929
 20
0.2289404179637209
 10
0.1364399528017208
 20
0.2297873929910934
 10
0.1364399528017208
 20
0.2305759540464578
 10
0.1364399528017208
 20
0.2312184860789581
 10
0.1364399528017208
 20
0.2318318130945098
 10
0.1364983931533832
 20
0.2325035501439636
 10
0.1364983931533832
 20
0.2329708461676008
 10
0.1364691714549555
 20
0.2334965541941953
 10
0.1377548317847728
 20
0.2362127133161207
  0
LWPOLYLINE
  5
3EEF
330
2
100
AcDbEntity
  8
Profilo
  6
Continuous
370
     0
100
AcDbPolyline
 90
        9
 70
   128
 43
0.0
 10
0.1369659037859026
 20
0.2269544098632577
 10
0.1379301497945642
 20
0.2277429728876772
 10
0.1379885871010309
 20
0.2284439169231351
 10
0.1375502951217467
 20
0.2292616849644988
 10
0.1382515641157198
 20
0.2311308690590519
 10
0.1392158070791858
 20
0.232182285112241
 10
0.1392158070791858
 20
0.2328540221616901
 10
0.1400339537312902
 20
0.2337302022060161
 10
0.1413196110159118
 20
0.2346063822503375
  0
LWPOLYLINE
  5
3EF0
330
2
100
AcDbEntity
  8
Profilo
  6
Continuous
370
     0
100
AcDbPolyline
 90
        7
 70
   128
 43
0.0
 10
0.0902499516410682
 20
0.2272290516215669
 10
0.0901468047705816
 20
0.2285435786496635
 10
0.0898373611139247
 20
0.2297807828750025
 10
0.0891926870829876
 20
0.2307086860440035
 10
0.0888058802282697
 20
0.2315077126242506
 10
0.0880322726092247
 20
0.2321005378439218
 10
0.0868718550902656
 20
0.2329253413171648
  0
LWPOLYLINE
  5
3EF1
330
2
100
AcDbEntity
  8
Profilo
  6
Continuous
370
     0
100
AcDbPolyline
 90
        7
 70
   128
 43
0.0
 10
0.0914877293128931
 20
0.2276414523736585
 10
0.0914877293128931
 20
0.2294714818186643
 10
0.0911267091757959
 20
0.2311210867960951
 10
0.0912040723738574
 20
0.232280964280557
 10
0.0907399053662737
 20
0.2336985929734712
 10
0.090456248427238
 20
0.2347038209142893
 10
0.0905078218624827
 20
0.2355543973424177
  0
LWPOLYLINE
  5
3EF2
330
2
100
AcDbEntity
  8
Profilo
  6
Continuous
370
     0
100
AcDbPolyline
 90
        4
 70
   128
 43
0.0
 10
0.1022910728334221
 20
0.2268922271208613
 10
0.1048854517152837
 20
0.2269149736389131
 10
0.1078894703296087
 20
0.2268922271208613
 10
0.1101652395156041
 20
0.2269832151621378
  0
LWPOLYLINE
  5
3EF3
330
2
100
AcDbEntity
  8
Profilo
  6
Continuous
370
     0
100
AcDbPolyline
 90
        3
 70
   128
 43
0.0
 10
0.1034289589490163
 20
0.2260050873189634
 10
0.1064557343111909
 20
0.2260960753602446
 10
0.1104838461662769
 20
0.2261870634015211
  0
LWPOLYLINE
  5
3EF4
330
2
100
AcDbEntity
  8
Profilo
  6
Continuous
370
     0
100
AcDbPolyline
 90
        2
 70
   128
 43
0.0
 10
0.1183691399937334
 20
0.2271886229937332
 10
0.1257881504025597
 20
0.2280302697595182
  0
LWPOLYLINE
  5
3EF5
330
2
100
AcDbEntity
  8
Profilo
  6
Continuous
370
     0
100
AcDbPolyline
 90
        2
 70
   128
 43
0.0
 10
0.1182553501640964
 20
0.2266426908079495
 10
0.1250599040194262
 20
0.2271203814705085
  0
LWPOLYLINE
  5
3EF6
330
2
100
AcDbEntity
  8
Profilo
  6
Continuous
370
     0
100
AcDbPolyline
 90
       68
 70
   128
 43
0.0
 10
0.1114150365750581
 20
0.2125324892873051
 10
0.1111897134058344
 20
0.2131405786177791
 10
0.1111897134058344
 20
0.2139288443149629
 10
0.11155023108563
 20
0.2143567592477829
 10
0.1123613920586806
 20
0.214469369476977
 10
0.1128796356524155
 20
0.2141765848501285
 10
0.1131274902250041
 20
0.2138612781774474
 10
0.1132626847355764
 20
0.214244150987644
 10
0.1130824243730792
 20
0.2161585091314744
 10
0.1126543124831918
 20
0.2180278251526815
 10
0.1121360688894568
 20
0.2189061770641625
 10
0.1116854225510089
 20
0.2182530436420098
 10
0.1110545188952599
 20
0.2176449523424848
 10
0.1104461466428752
 20
0.2176224302966434
 10
0.1101081634116374
 20
0.2180053031068445
 10
0.1098152429871262
 20
0.2187260026665081
 10
0.109477259755888
 20
0.218996265247515
 10
0.1084858384203429
 20
0.2191539175993278
 10
0.1075394829367182
 20
0.2193791360886608
 10
0.1070437707463476
 20
0.2195142683636921
 10
0.107359222574221
 20
0.2201899238316771
 10
0.1085534356756277
 20
0.2208430572538298
 10
0.1099955003044273
 20
0.2214286265075178
 10
0.1102884207289385
 20
0.2216538449968508
 10
0.109477259755888
 20
0.2219916737153733
 10
0.1084182411650558
 20
0.221788977271882
 10
0.10751694848816
 20
0.2212034080181895
 10
0.1063227384319489
 20
0.2211808859723525
 10
0.1058270292867722
 20
0.2217214111343664
 10
0.105135593229881
 20
0.2220785188658945
 10
0.1047785836155888
 20
0.2228016029506099
 10
0.1056242375209129
 20
0.2235231610180579
 10
0.1063002070285846
 20
0.223883509813362
 10
0.1067959161737617
 20
0.2243339467920233
 10
0.1076070801920053
 20
0.2245816873271889
 10
0.1102859997983168
 20
0.2232802486046246
 10
0.1102009200742211
 20
0.2237337966894586
 10
0.1105695988786319
 20
0.2245275048533903
 10
0.1115621926145414
 20
0.2246125443808975
 10
0.1118174317868257
 20
0.2246975858774647
 10
0.1106243240914777
 20
0.2262389322362377
 10
0.1101422056549408
 20
0.2272877609517556
 10
0.1087809331146179
 20
0.2283365896672735
 10
0.1074480204823285
 20
0.2285633637096904
 10
0.1064554267464191
 20
0.2281098156248564
 10
0.1055195528265713
 20
0.2280814691156874
 10
0.1054628330105096
 20
0.2287617892738829
 10
0.1060867479420082
 20
0.2294988044194768
 10
0.1069091852749251
 20
0.2300940850501605
 10
0.1079868587349306
 20
0.2300657385409914
 10
0.1089794524708401
 20
0.229867312976799
 10
0.1091212520109979
 20
0.2301791265467277
 10
0.110000406114783
 20
0.2300940850501605
 10
0.110652683999509
 20
0.2295271509286458
 10
0.1110497196667572
 20
0.2287334427647141
 10
0.1110780795747885
 20
0.228251548170711
 10
0.1115318381032946
 20
0.2289035237887882
 10
0.1119288768157363
 20
0.2292153373587169
 10
0.1121557560799893
 20
0.2292436838678906
 10
0.1118437970916406
 20
0.229895659485968
 10
0.1119005169077054
 20
0.2306893676498998
 10
0.112297552574951
 20
0.2308594467049234
 10
0.1124960719311732
 20
0.2315114223230053
 10
0.1125371181247035
 20
0.2324094628108373
 10
0.1127741500715915
 20
0.2330226795593346
 10
0.1130809017752039
 20
0.2332596040779098
 10
0.1131645593928834
 20
0.2337752640191839
 10
0.1132342761044125
 20
0.2345696574140923
  0
LWPOLYLINE
  5
3EF7
330
2
100
AcDbEntity
  8
Profilo
  6
Continuous
370
     0
100
AcDbPolyline
 90
       71
 70
   128
 43
0.0
 10
0.1148656301011099
 20
0.2345417834780128
 10
0.1149492907639851
 20
0.2339146297614756
 10
0.1149492907639851
 20
0.2331341733346024
 10
0.115074777190503
 20
0.2326185133933329
 10
0.1153536409914255
 20
0.2319077398376077
 10
0.1153675849427715
 20
0.2312805861210707
 10
0.1158137670242487
 20
0.2308485460189846
 10
0.1159950292561476
 20
0.2299147849127243
 10
0.1159392564959627
 20
0.2293712510353705
 10
0.1166665345068485
 20
0.2287941644686469
 10
0.1170290589706462
 20
0.2282088216562292
 10
0.1171406044910137
 20
0.2289195952119545
 10
0.1172800348688781
 20
0.229741862542947
 10
0.117740160901699
 20
0.2302575224842165
 10
0.1186325250646529
 20
0.2305083839708315
 10
0.119120535954969
 20
0.2302017746120575
 10
0.1197758681710352
 20
0.2304944470027916
 10
0.1208076627118513
 20
0.230536257906911
 10
0.1217836875376781
 20
0.2303550792914444
 10
0.1223693030422153
 20
0.2298254823821306
 10
0.1225505622289185
 20
0.2292540765377573
 10
0.1225505622289185
 20
0.2287941644686469
 10
0.122006778578418
 20
0.2289753411150581
 10
0.1215605964969408
 20
0.2292680135057969
 10
0.1206961171914811
 20
0.2292958874418767
 10
0.119985015260426
 20
0.2290171520191822
 10
0.1192181405691883
 20
0.2285851119170961
 10
0.1186882978248382
 20
0.2279718951685989
 10
0.118074797462806
 20
0.2271496278376062
 10
0.1180608535114622
 20
0.2266479048643766
 10
0.1176425593326753
 20
0.2258813834364874
 10
0.1172939788202223
 20
0.2250730530735345
 10
0.1180796728212039
 20
0.2248456253050128
 10
0.1182962440978383
 20
0.2245110790004106
 10
0.1180796728212039
 20
0.2239600587776926
 10
0.1185915702269948
 20
0.2242158901579705
 10
0.1192019096758328
 20
0.2248062678428462
 10
0.1201666398706211
 20
0.2251211354163696
 10
0.1214660736208217
 20
0.2251604948475872
 10
0.1217417095142474
 20
0.2248849847362304
 10
0.1216826448974562
 20
0.2242946070513503
 10
0.1223914263893464
 20
0.2238616631532295
 10
0.1228442591783438
 20
0.2238813418843129
 10
0.1235786873088531
 20
0.2231779384997317
 10
0.1235433478121592
 20
0.2226480698608972
 10
0.1229072094649144
 20
0.2225774201839703
 10
0.12223572857578
 20
0.222930666599545
 10
0.1218469788861745
 20
0.2226127450224316
 10
0.1215289081899513
 20
0.2219768998991489
 10
0.1210341339198733
 20
0.2214117044527935
 10
0.120150609960187
 20
0.2214117044527935
 10
0.1193024224519963
 20
0.2214117044527935
 10
0.1192317404134129
 20
0.2212704070679994
 10
0.1202919740373511
 20
0.2203519652060646
 10
0.1202566314954616
 20
0.2193275488287416
 10
0.1194437865291631
 20
0.2188330030593129
 10
0.118701626646641
 20
0.2188330030593129
 10
0.1182068523765603
 20
0.2187976782208518
 10
0.1181361703379791
 20
0.2180911853896976
 10
0.1176060535260088
 20
0.2176319644587301
 10
0.1170759397592369
 20
0.217737938974123
 10
0.1165104834505728
 20
0.2180911853896976
 10
0.1160157091804943
 20
0.2185150814821992
 10
0.1154149103299433
 20
0.2179498860358437
 10
0.1152735462527765
 20
0.216430923889092
 10
0.1151120991096319
 20
0.214380649786527
 10
0.1156116177946904
 20
0.2146607379496905
 10
0.1164279007869942
 20
0.2146729145829711
 10
0.1168421357198457
 20
0.2143197607129619
 10
0.1171101708046756
 20
0.2137352311200689
 10
0.1169289664314972
 20
0.2126198365467415
  0
LWPOLYLINE
  5
3EF8
330
2
100
AcDbEntity
  8
Profilo
  6
Continuous
370
     0
100
AcDbPolyline
 90
        7
 70
   128
 43
0.0
 10
0.1143536352490577
 20
0.2135684896124927
 10
0.1142800298225541
 20
0.2159718033799114
 10
0.1145499163864017
 20
0.2182770227882087
 10
0.1152368942767135
 20
0.2199201062569984
 10
0.1165617828181995
 20
0.2218084236545244
 10
0.1176658550801735
 20
0.2229365107534216
 10
0.1189171381951533
 20
0.223623171267243
  0
LWPOLYLINE
  5
3EF9
330
2
100
AcDbEntity
  8
Profilo
  6
Continuous
370
     0
100
AcDbPolyline
 90
        7
 70
   128
 43
0.0
 10
0.1149670107580616
 20
0.2183505945420761
 10
0.1157521292170478
 20
0.2196748703592066
 10
0.1163900368230237
 20
0.2206558139503734
 10
0.1171996904241754
 20
0.2217348538697168
 10
0.1182056251626733
 20
0.2226912748556298
 10
0.1194569082776531
 20
0.2232307938307716
 10
0.121542380135955
 20
0.224015550672765
  0
LWPOLYLINE
  5
3EFA
330
2
100
AcDbEntity
  8
Profilo
  6
Continuous
370
     0
100
AcDbPolyline
 90
       12
 70
   128
 43
0.0
 10
0.1173714364193512
 20
0.2212689046793828
 10
0.1182056251626733
 20
0.2211953348945705
 10
0.1190398139059932
 20
0.22075390830949
 10
0.1191870247590012
 20
0.2202879610882158
 10
0.1188189976264815
 20
0.2197974873235771
 10
0.1183283008735132
 20
0.2197484401440188
 10
0.1177885307910138
 20
0.2196258231796484
 10
0.1177394605066775
 20
0.2191108268097557
 10
0.117543179369334
 20
0.2186939247989845
 10
0.1172487607085113
 20
0.2186448776194261
 10
0.1163900368230237
 20
0.2189146380915223
 10
0.1159484073091956
 20
0.219503204246227
  0
LWPOLYLINE
  5
3EFB
330
2
100
AcDbEntity
  8
Profilo
  6
Continuous
370
     0
100
AcDbPolyline
 90
        5
 70
   128
 43
0.0
 10
0.1192851622824773
 20
0.2229119861791171
 10
0.1201438861679671
 20
0.2228874635738631
 10
0.120830867103475
 20
0.2229119861791171
 10
0.1213460989986133
 20
0.2233534127641974
 10
0.1220330799341212
 20
0.2235986486619892
  0
LWPOLYLINE
  5
3EFC
330
2
100
AcDbEntity
  8
Profilo
  6
Continuous
370
     0
100
AcDbPolyline
 90
       19
 70
   128
 43
0.0
 10
0.1210762154799592
 20
0.2244079281092317
 10
0.1208554022456427
 20
0.2246776866122726
 10
0.1203647024474792
 20
0.2247757809713893
 10
0.1198249323649794
 20
0.2245795922531559
 10
0.1194323731354849
 20
0.224309833750115
 10
0.1190643490481613
 20
0.2240400732780141
 10
0.1186227195343332
 20
0.2237948373802225
 10
0.1181074845940015
 20
0.2235005543028725
 10
0.1176903902223416
 20
0.2235005543028725
 10
0.1174450418458552
 20
0.2237457902006641
 10
0.1173469012771835
 20
0.2241626922114399
 10
0.1171996904241754
 20
0.2244324507144808
 10
0.1169052717633554
 20
0.2245795922531559
 10
0.116291896254352
 20
0.224309833750115
 10
0.1159238721670279
 20
0.2238193599854763
 10
0.1153350348453856
 20
0.2227403220351882
 10
0.114819799905054
 20
0.2214650933976161
 10
0.1145744515285698
 20
0.2202879610882158
 10
0.1145499163864017
 20
0.2193070155279937
  0
LWPOLYLINE
  5
3EFD
330
2
100
AcDbEntity
  8
Profilo
  6
Continuous
370
     0
100
AcDbPolyline
 90
       14
 70
   128
 43
0.0
 10
0.112366303959428
 20
0.2196258231796484
 10
0.1117529284504219
 20
0.2197239175387651
 10
0.111115020844446
 20
0.2192579683484308
 10
0.110746996757122
 20
0.2188165437324057
 10
0.1103789726697979
 20
0.2188410663376596
 10
0.1103053672432943
 20
0.2192579683484308
 10
0.1097410620186263
 20
0.2196503457849022
 10
0.1091522216517884
 20
0.2198465345031355
 10
0.1083916383349726
 20
0.21987105907744
 10
0.1079990791054808
 20
0.2199201062569984
 10
0.1086369897566524
 20
0.2203370082677742
 10
0.1093975730734682
 20
0.2207048611299318
 10
0.1105016453354422
 20
0.2211708103202661
 10
0.1108451342805981
 20
0.2214160462180577
  0
LWPOLYLINE
  5
3EFE
330
2
100
AcDbEntity
  8
Profilo
  6
Continuous
370
     0
100
AcDbPolyline
 90
       11
 70
   128
 43
0.0
 10
0.1095693160234505
 20
0.2226912748556298
 10
0.1088332678488002
 20
0.2229365107534216
 10
0.1079500088211445
 20
0.2228874635738631
 10
0.1075083793073146
 20
0.2227157974608838
 10
0.1070176825543463
 20
0.2222008030600464
 10
0.1065760530405182
 20
0.2222498502396049
 10
0.1061589586688587
 20
0.2230100825072891
 10
0.1066741905639947
 20
0.2233779353694512
 10
0.1069931474121786
 20
0.2235986486619892
 10
0.1078273361555002
 20
0.2234269825490096
 10
0.1086615248988201
 20
0.2232798410103345
  0
LWPOLYLINE
  5
3EFF
330
2
100
AcDbEntity
  8
Profilo
  6
Continuous
370
     0
100
AcDbPolyline
 90
        5
 70
   128
 43
0.0
 10
0.11374026278525
 20
0.2172715546227326
 10
0.1129306061388999
 20
0.2197484401440188
 10
0.1121945579642523
 20
0.221317951858941
 10
0.11118862627095
 20
0.2223234200244168
 10
0.1102317618167903
 20
0.2229365107534216
  0
LWPOLYLINE
  5
3F00
330
2
100
AcDbEntity
  8
Profilo
  6
Continuous
370
     0
100
AcDbPolyline
 90
        5
 70
   128
 43
0.0
 10
0.1136175870744074
 20
0.218178928429092
 10
0.1136175870744074
 20
0.2205577195912567
 10
0.1134213059370661
 20
0.2226422276760716
 10
0.1127588631889198
 20
0.2237457902006641
 10
0.1120473501564403
 20
0.2244079281092317
  0
LWPOLYLINE
  5
3F01
330
2
100
AcDbEntity
  8
Profilo
  6
Continuous
370
     0
100
AcDbPolyline
 90
        2
 70
   128
 43
0.0
 10
0.1141573571569099
 20
0.2223724672039753
 10
0.1140837517304059
 20
0.2254379188799569
  0
LWPOLYLINE
  5
3F02
330
2
100
AcDbEntity
  8
Profilo
  6
Continuous
370
     0
100
AcDbPolyline
 90
       24
 70
   128
 43
0.0
 10
0.1140880880891553
 20
0.226363955385255
 10
0.1137416422589244
 20
0.227013237336722
 10
0.1133735481320972
 20
0.2270998087886673
 10
0.1131786708299947
 20
0.2277058050141638
 10
0.1131353651012152
 20
0.2285065860220086
 10
0.1129188395025178
 20
0.2289827250695897
 10
0.1126806595168319
 20
0.229437224207764
 10
0.1127456165874014
 20
0.2301514337636634
 10
0.1130054509600762
 20
0.230952214771508
 10
0.1132436309457621
 20
0.2310604281019106
 10
0.1133085880163316
 20
0.2305193594808417
 10
0.1132436309457621
 20
0.2298051499249425
 10
0.1132869366745388
 20
0.2290692965215302
 10
0.1137416422589244
 20
0.2289610831911275
 10
0.113763296645911
 20
0.228593157473949
 10
0.1138715594452622
 20
0.2281603021832876
 10
0.1140231279733896
 20
0.2285498717479788
 10
0.114564448060527
 20
0.2290476546430729
 10
0.114975850961327
 20
0.2292640813038782
 10
0.1152140309470129
 20
0.2290260107955599
 10
0.1152140309470129
 20
0.2287013708043519
 10
0.1148459337749923
 20
0.2275975916837611
 10
0.1148459337749923
 20
0.22720802211907
 10
0.1143479194166317
 20
0.226666953498001
  0
LWPOLYLINE
  5
3F03
330
2
100
AcDbEntity
  8
Profilo
  6
Continuous
370
     0
100
AcDbPolyline
 90
        9
 70
   128
 43
0.0
 10
0.1149975023031198
 20
0.2295887232641369
 10
0.1148459337749923
 20
0.2300432204332607
 10
0.1148675851167828
 20
0.2305842870852741
 10
0.1149325452325502
 20
0.2310604281019106
 10
0.1151274194894549
 20
0.2310820699803682
 10
0.1153439450881546
 20
0.2307141442631897
 10
0.115322293746364
 20
0.230108148037693
 10
0.1154089052039202
 20
0.2295021518121965
 10
0.115365599475143
 20
0.2293939384817938
  0
LWPOLYLINE
  5
3F04
330
2
100
AcDbEntity
  8
Profilo
  6
Continuous
370
     0
100
AcDbPolyline
 90
        6
 70
   128
 43
0.0
 10
0.1139148651740385
 20
0.2314283538190891
 10
0.1135900737307969
 20
0.2319694224401534
 10
0.1137849479877038
 20
0.2327485615695404
 10
0.1138932138322479
 20
0.2329217025043708
 10
0.1139581709028179
 20
0.2321425653440392
 10
0.1140014766315969
 20
0.2317313519318351
  0
LWPOLYLINE
  5
3F05
330
2
100
AcDbEntity
  8
Profilo
  6
Continuous
370
     0
100
AcDbPolyline
 90
        5
 70
   128
 43
0.0
 10
0.1130487566888552
 20
0.2322724205529039
 10
0.1129404908443083
 20
0.2326836319960528
 10
0.1133735481320972
 20
0.2330299158347737
 10
0.1134601565444595
 20
0.232726917722023
 10
0.1133085880163316
 20
0.232229134826929
  0
LWPOLYLINE
  5
3F06
330
2
100
AcDbEntity
  8
Profilo
  6
Continuous
370
     0
100
AcDbPolyline
 90
        8
 70
   128
 43
0.0
 10
0.1142613079590755
 20
0.2327918453264555
 10
0.1146727108598755
 20
0.2328567748999386
 10
0.1149108908455618
 20
0.232618704391625
 10
0.1149975023031198
 20
0.2321209214965263
 10
0.1148242793880034
 20
0.2316014967229749
 10
0.1145860994023176
 20
0.2314716395450593
 10
0.1143262680748411
 20
0.2319044948357256
 10
0.1143479194166317
 20
0.2323373481573316
  0
LWPOLYLINE
  5
3F07
330
2
100
AcDbEntity
  8
Profilo
  6
Continuous
370
     0
100
AcDbPolyline
 90
        5
 70
   128
 43
0.0
 10
0.1139365165158317
 20
0.233809054964156
 10
0.113719990917132
 20
0.2342202664073094
 10
0.11380660237469
 20
0.2348046207543486
 10
0.1140664337021686
 20
0.234653121697971
 10
0.1140447823603758
 20
0.234241908285767
  0
LWPOLYLINE
  5
3F08
330
2
100
AcDbEntity
  8
Profilo
  6
Continuous
370
     0
100
AcDbPolyline
 90
        5
 70
   128
 43
0.0
 10
0.1142829623460617
 20
0.2340254816249616
 10
0.1142613079590755
 20
0.2348046207543486
 10
0.1144561852611785
 20
0.2347829769068312
 10
0.114607753789306
 20
0.2344799787940852
 10
0.114651059518085
 20
0.2340254816249616
  0
LWPOLYLINE
  5
3F09
330
2
100
AcDbEntity
  8
Profilo
  6
Continuous
370
     0
100
AcDbPolyline
 90
        6
 70
   128
 43
0.0
 10
0.1110988995781401
 20
0.2129193179280802
 10
0.1094259634334573
 20
0.2141599561845335
 10
0.108373629047299
 20
0.2158051504797898
 10
0.1073752646654409
 20
0.2179897515140781
 10
0.1066197424639621
 20
0.2193113021597262
 10
0.106107068533257
 20
0.2209025561748927
  0
LWPOLYLINE
  5
3F0A
330
2
100
AcDbEntity
  8
Profilo
  6
Continuous
370
     0
100
AcDbPolyline
 90
       31
 70
   128
 43
0.0
 10
0.1049198228397277
 20
0.2232489800185151
 10
0.1038944719331214
 20
0.2248672041737216
 10
0.1030550545886948
 20
0.2260925684741046
 10
0.1017059110630529
 20
0.2272522963104189
 10
0.0999790049140703
 20
0.2281153486681189
 10
0.097955289625606
 20
0.2287356677963457
 10
0.0960934721692564
 20
0.2288974906056751
 10
0.0943665660202733
 20
0.2286547573762063
 10
0.0929904390150771
 20
0.22792655571874
 10
0.0917762098419974
 20
0.2266050070421472
 10
0.0911556050382796
 20
0.2248249600776064
 10
0.0912635359112923
 20
0.2223706537047445
 10
0.0925317320434762
 20
0.2199163473318826
 10
0.0933682016384152
 20
0.2195117912930797
 10
0.0954998477998923
 20
0.2186217687953347
 10
0.0976854609204763
 20
0.2186217687953347
 10
0.0987377922614385
 20
0.2192690580636063
 10
0.0996821957745864
 20
0.2210760751681966
 10
0.0995472783768254
 20
0.2231527956423005
 10
0.098845726179647
 20
0.2245552567080882
 10
0.0978203752730407
 20
0.2250676933070752
 10
0.0965521791408573
 20
0.2250676933070752
 10
0.0956347621524572
 20
0.2243934338987541
 10
0.0952570025743169
 20
0.2235034114010137
 10
0.0955268312794449
 20
0.2222358030045106
 10
0.0963093339152796
 20
0.2216424540163289
 10
0.0971458035102186
 20
0.2218851872458023
 10
0.0974426156948987
 20
0.2226133869342133
 10
0.0971188200306665
 20
0.2233685587317244
 10
0.0965251987065008
 20
0.2237731147705273
 10
0.0959855412962436
 20
0.2237461446304825
  0
LWPOLYLINE
  5
3F0B
330
2
100
AcDbEntity
  8
Profilo
  6
Continuous
370
     0
100
AcDbPolyline
 90
       17
 70
   128
 43
0.0
 10
0.0966061460999615
 20
0.2245282865680431
 10
0.0977664113591326
 20
0.2239888778599512
 10
0.0982790852898377
 20
0.2230988553622109
 10
0.0984679635563111
 20
0.221615483876284
 10
0.0981171874577207
 20
0.2205906087092544
 10
0.097131987457094
 20
0.220005063084217
 10
0.0957157125911135
 20
0.2201321104213063
 10
0.0938538920895686
 20
0.2212109278374812
 10
0.0930983729332855
 20
0.2225594466541187
 10
0.0932602677202068
 20
0.2244743462879488
 10
0.0944157824740057
 20
0.2256783680061607
 10
0.0962140984633555
 20
0.2262400821640871
 10
0.0987429782298035
 20
0.2257532629646759
 10
0.1000599553527266
 20
0.2242855533385697
 10
0.1013281484397144
 20
0.2219660976659417
 10
0.1029226403418431
 20
0.2195005223939397
 10
0.1039587834221938
 20
0.2178434606069659
  0
LWPOLYLINE
  5
3F0C
330
2
100
AcDbEntity
  8
Profilo
  6
Continuous
370
     0
100
AcDbPolyline
 90
        5
 70
   128
 43
0.0
 10
0.1056517082317847
 20
0.2152469924343643
 10
0.1062232214347958
 20
0.2144377208633386
 10
0.1073900643167902
 20
0.2130095951406694
 10
0.1093665516643512
 20
0.2114624597615471
 10
0.1101761991751111
 20
0.210843605609899
  0
LWPOLYLINE
  5
3F0D
330
2
100
AcDbEntity
  8
Profilo
  6
Continuous
370
     0
100
AcDbPolyline
 90
       14
 70
   128
 43
0.0
 10
0.0909063770824079
 20
0.2249857924525018
 10
0.0906941817520681
 20
0.224184538871568
 10
0.0900811747117501
 20
0.2239253089031539
 10
0.0897746696689934
 20
0.2230769200946236
 10
0.0899632890938276
 20
0.2214744109637048
 10
0.0905762961341457
 20
0.2210266499301647
 10
0.0914486533610122
 20
0.2199661663808168
 10
0.092014505545122
 20
0.2186700185078019
 10
0.0915665389789373
 20
0.217609532989403
 10
0.0912004912236544
 20
0.216887419648577
 10
0.091426834533455
 20
0.216321828422259
 10
0.0927471583265085
 20
0.2169251250739792
 10
0.094595613463901
 20
0.2173021872042267
 10
0.0957650447622847
 20
0.217038243319241
  0
LWPOLYLINE
  5
3F0E
330
2
100
AcDbEntity
  8
Profilo
  6
Continuous
370
     0
100
AcDbPolyline
 90
       10
 70
   128
 43
0.0
 10
0.0922567539123329
 20
0.2130791007969039
 10
0.0933130135558136
 20
0.2141725797931933
 10
0.0941806537744619
 20
0.2142479906440022
 10
0.0945201656939694
 20
0.2146250527742495
 10
0.0952746373029108
 20
0.2151152311807081
 10
0.0963686208313623
 20
0.2146627581996516
 10
0.0969721999456335
 20
0.2134561629271559
 10
0.0968213044057675
 20
0.2113069142980901
 10
0.0967458566358328
 20
0.2081395994925992
 10
0.0968213044057675
 20
0.2055378778824817
  0
LWPOLYLINE
  5
3F0F
330
2
100
AcDbEntity
  8
Profilo
  6
Continuous
370
     0
100
AcDbPolyline
 90
        2
 70
   128
 43
0.0
 10
0.0980661834740824
 20
0.2051985211776364
 10
0.097387156589877
 20
0.2062542927794637
  0
LWPOLYLINE
  5
3F10
330
2
100
AcDbEntity
  8
Profilo
  6
Continuous
370
     0
100
AcDbPolyline
 90
        4
 70
   128
 43
0.0
 10
0.0987829311980604
 20
0.2056509961277435
 10
0.0982170759687549
 20
0.2082904231632678
 10
0.0979907357041503
 20
0.2104019663669268
 10
0.0979907357041503
 20
0.2121364474403384
  0
LWPOLYLINE
  5
3F11
330
2
100
AcDbEntity
  8
Profilo
  6
Continuous
370
     0
100
AcDbPolyline
 90
      176
 70
   128
 43
0.0
 10
0.099273335612236
 20
0.2110429704131045
 10
0.0992356117272699
 20
0.2102888481216651
 10
0.0996505714167091
 20
0.2096855495008849
 10
0.1000278072211822
 20
0.2099117879604684
 10
0.1000278072211822
 20
0.2108167339225764
 10
0.0995751236467748
 20
0.2113446197234923
 10
0.0988206550830264
 20
0.2119479183442678
 10
0.0981793520837871
 20
0.212739746061114
 10
0.0982170759687549
 20
0.2134561629271559
 10
0.0984434192785555
 20
0.2139086359082076
 10
0.0984434192785555
 20
0.2144365217091235
 10
0.0984434192785555
 20
0.2150775257553013
 10
0.0988960998077651
 20
0.2157562352268856
 10
0.0993110594972038
 20
0.2165103575183251
 10
0.0996505714167091
 20
0.217226774384367
 10
0.1003295952557188
 20
0.2173021872042267
 10
0.1008577266000579
 20
0.2168120068287129
 10
0.100782278830124
 20
0.2157185298014836
 10
0.100706831060192
 20
0.2146627581996516
 10
0.101234962404531
 20
0.2138709304828055
 10
0.1014235787841677
 20
0.2146627581996516
 10
0.1015744743240363
 20
0.2157939426213431
 10
0.1019517101285068
 20
0.2165857703381893
 10
0.1023289459329799
 20
0.216887419648577
 10
0.1025930100825505
 20
0.2165857703381893
 10
0.1027816295073851
 20
0.2171890689589648
 10
0.103452726701855
 20
0.2174796324922878
 10
0.1040462292633868
 20
0.2175723257347963
 10
0.1047510093680621
 20
0.2175908624142473
 10
0.105140495995041
 20
0.2169976374765028
 10
0.1051590412371648
 20
0.21612633674933
 10
0.1050292154067014
 20
0.2155887238189844
 10
0.1054001537463609
 20
0.2154404185690772
 10
0.1055856213935917
 20
0.2151438041311473
 10
0.1056598084524829
 20
0.2145691178419045
 10
0.105140495995041
 20
0.2136792784662347
 10
0.1043615257862784
 20
0.2129562829889737
 10
0.1051590412371648
 20
0.2133085114033533
 10
0.10582673085759
 20
0.2132343587783974
 10
0.1060307467921424
 20
0.2127894390905602
 10
0.1059011067186191
 20
0.2119131074290403
 10
0.1055858071505313
 20
0.2116350316396167
 10
0.1060494808364041
 20
0.2113754964677501
 10
0.1060494808364041
 20
0.2107451922639469
 10
0.1054003395033005
 20
0.2099295074822838
 10
0.1042504309548788
 20
0.2086874396922298
 10
0.1038609473730956
 20
0.2079273688870209
 10
0.1044729951767533
 20
0.2081312900824379
 10
0.1050479494509631
 20
0.2087245169892378
 10
0.1056229037251728
 20
0.2092250506535247
 10
0.1065289651786179
 20
0.2095232029230496
 10
0.1071825890398643
 20
0.2094532050031719
 10
0.1073693356693126
 20
0.2090332135458279
 10
0.1080463040011903
 20
0.2084732223106223
 10
0.107976273634498
 20
0.2077499039084154
 10
0.107719493593164
 20
0.2063965943820791
 10
0.107719493593164
 20
0.2054632782821468
 10
0.1080463040011903
 20
0.2056499407145103
 10
0.1084898337171665
 20
0.2063265964622061
 10
0.1082797426170918
 20
0.2068865857283562
 10
0.1086065530251186
 20
0.2074932415871236
 10
0.1091434575784156
 20
0.2074932415871236
 10
0.1094702710316406
 20
0.2078199018282882
 10
0.1093768961943171
 20
0.2084032243907494
 10
0.1090967716823541
 20
0.2089632136568995
 10
0.1096336762356538
 20
0.2093132071943751
 10
0.1099371452182449
 20
0.2091965426818803
 10
0.1104973942421732
 20
0.2090798781693899
 10
0.1108008601795714
 20
0.2093832070832988
 10
0.1104273608302853
 20
0.2098731964605207
 10
0.1102639556262717
 20
0.2104798523192928
 10
0.1104507053009138
 20
0.2112498392831679
 10
0.1108242046501999
 20
0.2116931640368276
 10
0.1115245174527084
 20
0.2117631619567006
 10
0.111944702698056
 20
0.2113431704993518
 10
0.1121547968433267
 20
0.2111565080669886
 10
0.1118046419646714
 20
0.2117631619567006
 10
0.1118046419646714
 20
0.212206488679411
 10
0.1123648879434036
 20
0.2128131425691231
 10
0.112691701396626
 20
0.2127664779455611
 10
0.1136021052992095
 20
0.2125564822168868
 10
0.114302418101718
 20
0.2125331489205804
 10
0.1150727582257209
 20
0.2127198113529438
 10
0.115843101394919
 20
0.2126498134330708
 10
0.1163099755815264
 20
0.212206488679411
 10
0.116053195540192
 20
0.2113898370919693
 10
0.1162399452148342
 20
0.2112265059868614
 10
0.1169635994427756
 20
0.2115298329317152
 10
0.1175005039960748
 20
0.211273172579479
 10
0.1178340381963188
 20
0.2107800307459358
 10
0.117904068563011
 20
0.2104533705047709
 10
0.1176472885216766
 20
0.2100100457511111
 10
0.1172271032763295
 20
0.2098000500224368
 10
0.117717321933565
 20
0.2097067168372022
 10
0.1180674768122203
 20
0.2092633920835425
 10
0.1189311917735463
 20
0.2095667209974561
 10
0.1194447549014108
 20
0.2094733878122168
 10
0.1197015349427448
 20
0.2092167274599803
 10
0.1201684091293522
 20
0.2095667209974561
 10
0.1205185640080071
 20
0.2098700479423099
 10
0.1213122516478369
 20
0.2098933812386208
 10
0.1220592503464069
 20
0.2095667209974561
 10
0.1221993110797914
 20
0.2097067168372022
 10
0.1229696542489904
 20
0.2096367189173292
 10
0.1234598698610299
 20
0.209170060867363
 10
0.12371665294756
 20
0.2088667339225048
 10
0.1240201188849581
 20
0.2084000758725386
 10
0.1242535575008596
 20
0.2084234071997897
 10
0.1243702768088091
 20
0.2087500694100144
 10
0.1240434633555867
 20
0.2094500564849611
 10
0.1233898394943376
 20
0.2100800436709842
 10
0.122712874207656
 20
0.2105933683135723
 10
0.1224327496956929
 20
0.2109666951473543
 10
0.1224327496956929
 20
0.2113633533083967
 10
0.1226194993703347
 20
0.2115966823333775
 10
0.1229696542489904
 20
0.2116433489259948
 10
0.1228062459997812
 20
0.2120166757597817
 10
0.1224794355917544
 20
0.2123433360009463
 10
0.1225027800623852
 20
0.2129733251560248
 10
0.1229229653077328
 20
0.2134866478295574
 10
0.1233431535982765
 20
0.2135333144221749
 10
0.1237866833142522
 20
0.2134633145332465
 10
0.1242302130302311
 20
0.2131833208846992
 10
0.1244403071755018
 20
0.2129499918597137
 10
0.1248138065247879
 20
0.2126233296494937
 10
0.1250239006700582
 20
0.2130199897795868
 10
0.1247437761580956
 20
0.2135566477184858
 10
0.1243936182342442
 20
0.2139999724721409
 10
0.1237633388436237
 20
0.2144432972258006
 10
0.1234365284355974
 20
0.2148399573558937
 10
0.1232964646570167
 20
0.2154232799183502
 10
0.1234598698610299
 20
0.215773273455826
 10
0.1235532446983512
 20
0.2160532671043733
 10
0.1238151284877662
 20
0.2163629540953971
 10
0.1236984091798141
 20
0.217226272275461
 10
0.1237217536504449
 20
0.2182295862952661
 10
0.1239085033250871
 20
0.2187429109378496
 10
0.1243286885704347
 20
0.2189995732591459
 10
0.1250523427983761
 20
0.2187895755614162
 10
0.1256592807635615
 20
0.218206252998955
 10
0.1261028104795399
 20
0.2177395949489891
 10
0.1262428742581179
 20
0.2173429367879514
 10
0.1267797788114175
 20
0.2175762658129321
 10
0.1271299336900729
 20
0.2168996100652363
 10
0.1275267775099875
 20
0.2163862873917082
 10
0.1279236182847065
 20
0.2158496294528136
 10
0.1278769323886451
 20
0.2154763045880823
 10
0.1280870265339153
 20
0.2154763045880823
 10
0.1281804013712366
 20
0.215919629341742
 10
0.1283204621046212
 20
0.2170396078740375
 10
0.1285539007205227
 20
0.2176929303254271
 10
0.1289507414952418
 20
0.2180195905665918
 10
0.1292075215365758
 20
0.2179962572702807
 10
0.129370929785785
 20
0.2187195776415431
 10
0.129370929785785
 20
0.2192095689878204
 10
0.130029237158098
 20
0.2196651511059939
 10
0.1305434062799189
 20
0.2194816037179139
 10
0.130947397174261
 20
0.2190961553843735
 10
0.1314248412353192
 20
0.2188575433860558
 10
0.1314799288264616
 20
0.2181233558027866
 10
0.1316451976902737
 20
0.2180499376351777
 10
0.1318471946600437
 20
0.2185271596627534
 10
0.1323613637818619
 20
0.2189860261639025
 10
0.133751443873992
 20
0.2185916619514019
 10
0.1348721611759416
 20
0.2177020923362065
 10
0.1357291797518081
 20
0.2165818932697976
 10
0.1364873147312418
 20
0.2162853694083777
 10
0.1371135957798408
 20
0.216186528777591
 10
0.1377398798736329
 20
0.216252423187802
 10
0.1382343130817905
 20
0.2168454689415822
 10
0.1378717307592723
 20
0.2175703035157843
 10
0.1370806345810278
 20
0.2179986161976219
 10
0.136520275930053
 20
0.2183280862796175
 10
0.135795105194628
 20
0.2184928213206152
 10
0.1342129158833338
 20
0.2184928213206152
 10
0.1339821814012598
 20
0.2185587157308264
  0
LWPOLYLINE
  5
3F12
330
2
100
AcDbEntity
  8
Profilo
  6
Continuous
370
     0
100
AcDbPolyline
 90
        6
 70
   128
 43
0.0
 10
0.1321033291198788
 20
0.2173726222542063
 10
0.1331910852230171
 20
0.2160547399571735
 10
0.1347073490914887
 20
0.215494640423969
 10
0.1363554638456028
 20
0.2146380170293445
 10
0.136553237128866
 20
0.2136166605627776
 10
0.1371795212226581
 20
0.2124635133067425
  0
LWPOLYLINE
  5
3F13
330
2
100
AcDbEntity
  8
Profilo
  6
Continuous
370
     0
100
AcDbPolyline
 90
        7
 70
   128
 43
0.0
 10
0.1360258427218977
 20
0.2187234507718241
 10
0.1360258427218977
 20
0.2196789147972353
 10
0.1366521237704967
 20
0.2212274245764263
 10
0.1373443333071087
 20
0.222018153560835
 10
0.1379046919580835
 20
0.2222158367914684
 10
0.137970617400903
 20
0.2215568946584219
 10
0.1378717307592723
 20
0.2207002732328529
  0
LWPOLYLINE
  5
3F14
330
2
100
AcDbEntity
  8
Profilo
  6
Continuous
370
     0
100
AcDbPolyline
 90
        2
 70
   128
 43
0.0
 10
0.1386298626935085
 20
0.2206343788226417
 10
0.1391242959016656
 20
0.2254116989496926
  0
LWPOLYLINE
  5
3F15
330
2
100
AcDbEntity
  8
0
  6
Continuous
 62
     1
370
     0
100
AcDbPolyline
 90
        3
 70
   128
 43
0.0
 10
0.1397505799954599
 20
0.2179327217874107
 10
0.1392891079861158
 20
0.221326265207213
 10
0.1394868812693772
 20
0.2243573923244395
  0
LWPOLYLINE
  5
3F16
330
2
100
AcDbEntity
  8
0
  6
Continuous
 62
     1
370
     0
100
AcDbPolyline
 90
        2
 70
   128
 43
0.0
 10
0.1397505799954599
 20
0.2208650082738506
 10
0.1398824278359014
 20
0.2231383526272439
  0
LWPOLYLINE
  5
3F17
330
2
100
AcDbEntity
  8
Profilo
  6
Continuous
370
     0
100
AcDbPolyline
 90
        3
 70
   128
 43
0.0
 10
0.1384980118078714
 20
0.2175703035157843
 10
0.1390254092600327
 20
0.2192506021153977
 10
0.1390254092600327
 20
0.220469643781644
  0
LWPOLYLINE
  5
3F18
330
2
100
AcDbEntity
  8
Profilo
  6
Continuous
370
     0
100
AcDbPolyline
 90
        2
 70
   128
 43
0.0
 10
0.1387946747779609
 20
0.2153957997931777
 10
0.1384980118078714
 20
0.2164501044493754
  0
LWPOLYLINE
  5
3F19
330
2
100
AcDbEntity
  8
Profilo
  6
Continuous
370
     0
100
AcDbPolyline
 90
        7
 70
   128
 43
0.0
 10
0.1315100092700927
 20
0.2054128488262983
 10
0.1314440838272732
 20
0.2072249342772738
 10
0.1318066691949848
 20
0.2100913263535025
 10
0.1317737079961736
 20
0.2113433142403336
 10
0.1318396303937979
 20
0.2128918240195248
 10
0.1323340666471484
 20
0.2141108656857757
 10
0.1328284998553038
 20
0.2149674890803954
  0
LWPOLYLINE
  5
3F1A
330
2
100
AcDbEntity
  8
Profilo
  6
Continuous
370
     0
100
AcDbPolyline
 90
        3
 70
   128
 43
0.0
 10
0.1330592373825734
 20
0.2065330478927072
 10
0.1328284998553038
 20
0.2081474520821094
 10
0.1327625744124838
 20
0.2092347049279382
  0
LWPOLYLINE
  5
3F1B
330
2
100
AcDbEntity
  8
Profilo
  6
Continuous
370
     0
100
AcDbPolyline
 90
        5
 70
   128
 43
0.0
 10
0.1328284998553038
 20
0.2098936450919291
 10
0.1327625744124838
 20
0.2116068899121182
 10
0.1334218227502872
 20
0.2128259315783689
 10
0.133751443873992
 20
0.2139131824551423
 10
0.1341469904405166
 20
0.2145721245881889
  0
LWPOLYLINE
  5
3F1C
330
2
100
AcDbEntity
  8
Profilo
  6
Continuous
370
     0
100
AcDbPolyline
 90
        6
 70
   128
 43
0.0
 10
0.1295652345910856
 20
0.205511689457085
 10
0.1301255932420604
 20
0.2072249342772738
 10
0.1306200264502153
 20
0.2087404978358893
 10
0.1309826118179291
 20
0.2099924857227158
 10
0.1310155760619356
 20
0.2111785791993359
 10
0.1310155760619356
 20
0.211639838101749
  0
LWPOLYLINE
  5
3F1D
330
2
100
AcDbEntity
  8
Profilo
  6
Continuous
370
     0
100
AcDbPolyline
 90
        3
 70
   128
 43
0.0
 10
0.1299937454016189
 20
0.2056105300878763
 10
0.1303233665253236
 20
0.2072578824669093
 10
0.1309826118179291
 20
0.209102916107516
  0
LWPOLYLINE
  5
3F1E
330
2
100
AcDbEntity
  8
Profilo
  6
Continuous
370
     0
100
AcDbPolyline
 90
        6
 70
   128
 43
0.0
 10
0.1289301437911794
 20
0.2056536228465038
 10
0.1294617314326962
 20
0.2079175984383872
 10
0.1298315308691427
 20
0.2104587952500299
 10
0.1298084178333907
 20
0.2120066138910781
 10
0.1296235196377662
 20
0.2125379553827127
 10
0.1300857681720249
 20
0.2130923978222219
  0
LWPOLYLINE
  5
3F1F
330
2
100
AcDbEntity
  8
Profilo
  6
Continuous
370
     0
100
AcDbPolyline
 90
       13
 70
   128
 43
0.0
 10
0.1280518697489681
 20
0.2056536228465038
 10
0.1284216691854145
 20
0.2071783405396774
 10
0.1289301437911794
 20
0.2091419919948807
 10
0.1290919319962498
 20
0.2109901347726091
 10
0.1288608077291191
 20
0.2106898126049843
 10
0.1285372313189783
 20
0.2106205077923096
 10
0.1281905449182838
 20
0.2108515251472593
 10
0.1279131945796497
 20
0.2112904589092936
 10
0.128098095820472
 20
0.2118911052136032
 10
0.1283292200876023
 20
0.212399345757363
 10
0.1288608077291191
 20
0.2126996679249877
 10
0.129392395370636
 20
0.2128844833841976
 10
0.1295310705399522
 20
0.2133234171462273
  0
LWPOLYLINE
  5
3F20
330
2
100
AcDbEntity
  8
Profilo
  6
Continuous
370
     0
100
AcDbPolyline
 90
        4
 70
   128
 43
0.0
 10
0.1290225959341873
 20
0.2139702673153367
 10
0.1296697457092701
 20
0.2144323020252412
 10
0.1295079575042002
 20
0.2152177637887558
 10
0.1290225959341873
 20
0.2155411888733152
  0
LWPOLYLINE
  5
3F21
330
2
100
AcDbEntity
  8
Profilo
  6
Continuous
370
     0
100
AcDbPolyline
 90
        4
 70
   128
 43
0.0
 10
0.1288376946933671
 20
0.2120759206728082
 10
0.1285834573904845
 20
0.2117755965361237
 10
0.1285834573904845
 20
0.2113366627740938
 10
0.1286990195240487
 20
0.2109901347726091
  0
LWPOLYLINE
  5
3F22
330
2
100
AcDbEntity
  8
Profilo
  6
Continuous
370
     0
100
AcDbPolyline
 90
        4
 70
   128
 43
0.0
 10
0.1274496761987631
 20
0.2058233159668323
 10
0.1277754847373855
 20
0.2096846909931052
 10
0.1274031303817038
 20
0.2132669308786148
 10
0.1263791589487724
 20
0.2167096041782639
  0
LWPOLYLINE
  5
3F23
330
2
100
AcDbEntity
  8
Profilo
  6
Continuous
370
     0
100
AcDbPolyline
 90
        5
 70
   128
 43
0.0
 10
0.1265187933547516
 20
0.2055907017086496
 10
0.1263791589487724
 20
0.2102894841262808
 10
0.1258671762775014
 20
0.214057815418333
 10
0.1247501162556501
 20
0.2160117633727618
 10
0.1241915877673203
 20
0.2162909004825848
  0
LWPOLYLINE
  5
3F24
330
2
100
AcDbEntity
  8
Profilo
  6
Continuous
370
     0
100
AcDbPolyline
 90
        4
 70
   128
 43
0.0
 10
0.1254017333328976
 20
0.205730270263561
 10
0.1256809990996595
 20
0.209126418742519
 10
0.125355190561037
 20
0.2107547106735954
 10
0.1247501162556501
 20
0.2117782075024455
  0
LWPOLYLINE
  5
3F25
330
2
100
AcDbEntity
  8
Profilo
  6
Continuous
370
     0
100
AcDbPolyline
 90
        5
 70
   128
 43
0.0
 10
0.1234320702690184
 20
0.2054070420844598
 10
0.1234320702690184
 20
0.2070310237551485
 10
0.1232261175899674
 20
0.2080831801728418
 10
0.1228142122318663
 20
0.2086550034567818
 10
0.122356540626821
 20
0.2091810816656283
  0
LWPOLYLINE
  5
3F26
330
2
100
AcDbEntity
  8
Profilo
  6
Continuous
370
     0
100
AcDbPolyline
 90
        4
 70
   128
 43
0.0
 10
0.1243931766808592
 20
0.2056357733670895
 10
0.1241185761539896
 20
0.2073741177255099
 10
0.1237982063349747
 20
0.2082661644113222
 10
0.1230888158039347
 20
0.2090438444712921
  0
LWPOLYLINE
  5
3F27
330
2
100
AcDbEntity
  8
Profilo
  6
Continuous
370
     0
100
AcDbPolyline
 90
       15
 70
   128
 43
0.0
 10
0.1195189815478477
 20
0.2091582091280792
 10
0.1198622360129309
 20
0.2086778759943264
 10
0.1201139549389278
 20
0.2083805290681093
 10
0.1199537685068241
 20
0.2077858312775693
 10
0.1198851176138063
 20
0.2070538962926931
 10
0.1198851176138063
 20
0.2062075966510297
 10
0.1202054874328189
 20
0.2057730105614257
 10
0.120777576177828
 20
0.2057043909797276
 10
0.1212352477828733
 20
0.2059331202933066
 10
0.1213496649228376
 20
0.2063677083519657
 10
0.1211437152889827
 20
0.2068937845917569
 10
0.1210979459968406
 20
0.2074198628006034
 10
0.1212123631368023
 20
0.2078544508592628
 10
0.1209606442108075
 20
0.2081289252479352
 10
0.1199537685068241
 20
0.2090667170088367
  0
LWPOLYLINE
  5
3F28
330
2
100
AcDbEntity
  8
Profilo
  6
Continuous
370
     0
100
AcDbPolyline
 90
        8
 70
   128
 43
0.0
 10
0.1179857833458011
 20
0.2053612970093663
 10
0.117871366205839
 20
0.2063677083519657
 10
0.118100200485765
 20
0.2073283726504163
 10
0.1187638247698608
 20
0.2079001959343565
 10
0.1191528454818886
 20
0.2080145605911436
 10
0.1187409401237898
 20
0.2071682609494803
 10
0.1189240081567693
 20
0.2061847241134806
 10
0.1196105170869361
 20
0.2054985342036979
  0
LWPOLYLINE
  5
3F29
330
2
100
AcDbEntity
  8
Profilo
  6
Continuous
370
     0
100
AcDbPolyline
 90
        3
 70
   128
 43
0.0
 10
0.1168644905018557
 20
0.2081975448296287
 10
0.1172763928147589
 20
0.2087922426201687
 10
0.117848481559768
 20
0.2092039542031729
  0
LWPOLYLINE
  5
3F2A
330
2
100
AcDbEntity
  8
Profilo
  6
Continuous
370
     0
100
AcDbPolyline
 90
        3
 70
   128
 43
0.0
 10
0.1156414850746206
 20
0.2100844267863928
 10
0.1157674922296117
 20
0.2107321709062648
 10
0.1160375127820732
 20
0.2111100206583309
  0
LWPOLYLINE
  5
3F2B
330
2
100
AcDbEntity
  8
Profilo
  6
Continuous
370
     0
100
AcDbPolyline
 90
        3
 70
   128
 43
0.0
 10
0.1114471999325817
 20
0.2076373921319525
 10
0.1110691754224109
 20
0.2083571091333991
 10
0.1106551475628721
 20
0.2089688668124838
  0
LWPOLYLINE
  5
3F2C
330
2
100
AcDbEntity
  8
Profilo
  6
Continuous
370
     0
100
AcDbPolyline
 90
        4
 70
   128
 43
0.0
 10
0.1105471405599667
 20
0.2051543749748264
 10
0.1104391335570587
 20
0.2060720114934535
 10
0.1099711021960683
 20
0.2070796141140512
 10
0.1097370849929731
 20
0.2072595423798862
  0
LWPOLYLINE
  5
3F2D
330
2
100
AcDbEntity
  8
Profilo
  6
Continuous
370
     0
100
AcDbPolyline
 90
        5
 70
   128
 43
0.0
 10
0.1130853112186525
 20
0.2051903594465629
 10
0.1133733319231993
 20
0.206485847686307
 10
0.1135173422754732
 20
0.2080152438530696
 10
0.1136793527798323
 20
0.2092747456520263
 10
0.1136613495825509
 20
0.2100664335660014
  0
LWPOLYLINE
  5
3F2E
330
2
100
AcDbEntity
  8
Profilo
  6
Continuous
370
     0
100
AcDbPolyline
 90
        5
 70
   128
 43
0.0
 10
0.1154254710688067
 20
0.2051543749748264
 10
0.1148854330090807
 20
0.2067197556133256
 10
0.1145434118482775
 20
0.2080332370734654
 10
0.1145074084989099
 20
0.2093287253132094
 10
0.1145074084989099
 20
0.2100844267863928
  0
LWPOLYLINE
  5
3F2F
330
2
100
AcDbEntity
  8
Profilo
  6
Continuous
370
     0
100
AcDbPolyline
 90
        4
 70
   128
 43
0.0
 10
0.1162688623936883
 20
0.2054565007964144
 10
0.1156549235234698
 20
0.2073943556680819
 10
0.1151702379869142
 20
0.2092999141071679
 10
0.1150409876984471
 20
0.2103334353926878
  0
LWPOLYLINE
  5
3F30
330
2
100
AcDbEntity
  8
Profilo
  6
Continuous
370
     0
100
AcDbPolyline
 90
        2
 70
   128
 43
0.0
 10
0.112068234108901
 20
0.2052950127263542
 10
0.1122297969694865
 20
0.2068452966236873
  0
LWPOLYLINE
  5
3F31
330
2
100
AcDbEntity
  8
Profilo
  6
Continuous
370
     0
100
AcDbPolyline
 90
        9
 70
   128
 43
0.0
 10
0.1170715820841144
 20
0.2126147997052237
 10
0.1179627281687692
 20
0.2130957964103581
 10
0.119156865140281
 20
0.214449710436438
 10
0.1200480081797375
 20
0.2159105145882729
 10
0.1209453755993111
 20
0.2175753305120254
 10
0.1216868107252429
 20
0.2189720005884081
 10
0.1220860419786254
 20
0.220425676762803
 10
0.1225137914902215
 20
0.2221928933679584
 10
0.1226278584326721
 20
0.2225349338941418
  0
LWPOLYLINE
  5
3F32
330
2
100
AcDbEntity
  8
Profilo
  6
Continuous
370
     0
100
AcDbPolyline
 90
       19
 70
   128
 43
0.0
 10
0.1231411596737022
 20
0.2236750735758823
 10
0.1244529264666951
 20
0.2259268469367839
 10
0.1253084254898846
 20
0.2270669866185244
 10
0.1265916740246649
 20
0.2283496425298277
 10
0.1275897582485159
 20
0.2290622295847835
 10
0.1288730067832988
 20
0.2296322984411261
 10
0.131040272599479
 20
0.2300598510679155
 10
0.1326942402198252
 20
0.2300028430008481
 10
0.1342911743689461
 20
0.2294327741445008
 10
0.1351466733921356
 20
0.2289197113861703
 10
0.1359451389440971
 20
0.2280076000345887
 10
0.136715089283046
 20
0.2265539238601939
 10
0.1368861896967224
 20
0.2255563023770619
 10
0.1368291562254971
 20
0.2240171141020706
 10
0.1364869553981438
 20
0.2224209197290623
 10
0.135574422903729
 20
0.220824725356054
 10
0.1346904056223295
 20
0.2199696220715401
 10
0.1332930901450977
 20
0.2191430208514999
 10
0.1326942402198252
 20
0.2190575107199539
  0
LWPOLYLINE
  5
3F33
330
2
100
AcDbEntity
  8
Profilo
  6
Continuous
370
     0
100
AcDbPolyline
 90
       33
 70
   128
 43
0.0
 10
0.129386308024328
 20
0.2195135673802724
 10
0.128587842472367
 20
0.220739215224508
 10
0.1281886081737857
 20
0.222449423762596
 10
0.1282456416450115
 20
0.2241596323006838
 10
0.1287874580990582
 20
0.2256133084750742
 10
0.1298710910071494
 20
0.2266679380252734
 10
0.1312684064843808
 20
0.2269529724534447
 10
0.1327227554328401
 20
0.2266394339917397
 10
0.1334356723005636
 20
0.2259268469367839
 10
0.1338349065991422
 20
0.2250717436522653
 10
0.1340345222258339
 20
0.2237890877409621
 10
0.13360677271424
 20
0.2229054804229145
 10
0.1328938558465169
 20
0.2220218711358113
 10
0.132180938978796
 20
0.2216513265760895
 10
0.1312113730131554
 20
0.2216798306096233
 10
0.1304699409324197
 20
0.2221073832364127
 10
0.1298996062201621
 20
0.2229624865209265
 10
0.1297570240646961
 20
0.2240456181356043
 10
0.1300421914208263
 20
0.2251572537838111
 10
0.1308121417597725
 20
0.2258983429032499
 10
0.1317817077254131
 20
0.2259268469367839
 10
0.131924289880879
 20
0.2254137841784487
 10
0.1311543395419301
 20
0.2251002457167437
 10
0.1306980748173219
 20
0.2249862335207193
 10
0.1304129074611939
 20
0.2240171141020706
 10
0.1306410413460961
 20
0.2233615351141773
 10
0.1312684064843808
 20
0.2232760249826315
 10
0.1320668720363445
 20
0.2234185412121894
 10
0.1325801732773746
 20
0.2241881363342175
 10
0.1327227554328401
 20
0.2252427639153569
 10
0.1322379724500213
 20
0.2262118813649552
 10
0.1314965403692829
 20
0.226610929958206
 10
0.130783623501562
 20
0.2265824278937276
  0
LWPOLYLINE
  5
3F34
330
2
100
AcDbEntity
  8
Profilo
  6
Continuous
370
     0
100
AcDbPolyline
 90
        4
 70
   128
 43
0.0
 10
0.1246810573064017
 20
0.2190860147534877
 10
0.1255935928460121
 20
0.2210527536862132
 10
0.126819807909567
 20
0.2228484723558468
 10
0.1279034408176582
 20
0.2237605837074283
  0
LWPOLYLINE
  5
3F35
330
2
100
AcDbEntity
  8
Profilo
  6
Continuous
370
     0
100
AcDbPolyline
 90
        6
 70
   128
 43
0.0
 10
0.1228274771045594
 20
0.2173758062153999
 10
0.1237400095989742
 20
0.2197130916768979
 10
0.1250802916049802
 20
0.2223354095975163
 10
0.1266772257541011
 20
0.224387660630843
 10
0.127960474288884
 20
0.22569881860662
 10
0.1287874580990582
 20
0.2262118813649552
  0
LWPOLYLINE
  5
3F36
330
2
100
AcDbEntity
  8
Profilo
  6
Continuous
370
     0
100
AcDbPolyline
 90
        8
 70
   128
 43
0.0
 10
0.1331219897314186
 20
0.2268959643863773
 10
0.1343767230531867
 20
0.2267819521903531
 10
0.1350611216626993
 20
0.2261263712334092
 10
0.1353462890188268
 20
0.2251572537838111
 10
0.1353748072770378
 20
0.2241881363342175
 10
0.135004088191474
 20
0.2233615351141773
 10
0.1342341408977208
 20
0.222762962224301
 10
0.1335782575012252
 20
0.2225634379276755
  0
LWPOLYLINE
  5
3F37
330
2
100
AcDbEntity
  8
Profilo
  6
Continuous
370
     0
100
AcDbPolyline
 90
        6
 70
   128
 43
0.0
 10
0.1179796442311671
 20
0.2108485124938135
 10
0.1192343775529348
 20
0.2114470853836898
 10
0.1204035591452666
 20
0.2124732089313002
 10
0.1216868107252429
 20
0.2140123972062964
 10
0.1223141758635298
 20
0.2151240328545032
 10
0.1235974243983127
 20
0.2169482535886154
  0
LWPOLYLINE
  5
3F38
330
2
100
AcDbEntity
  8
Profilo
  6
Continuous
370
     0
100
AcDbPolyline
 90
        2
 70
   128
 43
0.0
 10
0.0971386625261808
 20
0.2140056413801636
 10
0.0984272005659839
 20
0.2150923389526145
  0
LWPOLYLINE
  5
3F39
330
2
100
AcDbEntity
  8
Profilo
  6
Continuous
370
     0
100
AcDbPolyline
 90
        5
 70
   128
 43
0.0
 10
0.099957335301105
 20
0.2175877217722533
 10
0.1005613346523901
 20
0.2189964050503861
 10
0.1009237373083582
 20
0.2205258327220252
 10
0.1009237373083582
 20
0.221934516000158
 10
0.1007224011460663
 20
0.2228602217042932
  0
LWPOLYLINE
  5
3F3A
330
2
100
AcDbEntity
  8
Profilo
  6
Continuous
370
     0
100
AcDbPolyline
 90
        4
 70
   128
 43
0.0
 10
0.0971789321947965
 20
0.2171047441982512
 10
0.0968567961622466
 20
0.2177487136405689
 10
0.098266131027112
 20
0.218432932526756
 10
0.0973399986884722
 20
0.2171852411169344
  0
LWPOLYLINE
  5
3F3B
330
2
100
AcDbEntity
  8
Profilo
  6
Continuous
370
     0
100
AcDbPolyline
 90
        2
 70
   128
 43
0.0
 10
0.0952461281802877
 20
0.2129189418386621
 10
0.0944810592901306
 20
0.2140861363297961
  0
LWPOLYLINE
  5
3F3C
330
2
100
AcDbEntity
  8
Profilo
  6
Continuous
370
     0
100
AcDbPolyline
 90
        2
 70
   128
 43
0.0
 10
0.1007368780066695
 20
0.2051884041754057
 10
0.1003015611836342
 20
0.2087902007106124
  0
LWPOLYLINE
  5
3F3D
330
2
100
AcDbEntity
  8
Profilo
  6
Continuous
370
     0
100
AcDbPolyline
 90
        2
 70
   128
 43
0.0
 10
0.0995760311151086
 20
0.2053576148773728
 10
0.0992616329249656
 20
0.2089352412680885
  0
LWPOLYLINE
  5
3F3E
330
2
100
AcDbEntity
  8
Profilo
  6
Continuous
370
     0
100
AcDbPolyline
 90
        7
 70
   128
 43
0.0
 10
0.1020186465763158
 20
0.2053334427638311
 10
0.1021879381437158
 20
0.2083792590279334
 10
0.1025990700220962
 20
0.2109174372789595
 10
0.1031794965130723
 20
0.2124161732974668
 10
0.1032036784125339
 20
0.2132380586318801
 10
0.1039533934257117
 20
0.213963253543062
 10
0.1047998451723231
 20
0.2147367946503871
  0
LWPOLYLINE
  5
3F3F
330
2
100
AcDbEntity
  8
Profilo
  6
Continuous
370
     0
100
AcDbPolyline
 90
        5
 70
   128
 43
0.0
 10
0.1032278633571888
 20
0.2056476940232788
 10
0.1030827567344459
 20
0.2080408336858841
 10
0.1034213398692461
 20
0.2095879159005347
 10
0.1039292084810572
 20
0.2105064936272298
 10
0.1044370801380614
 20
0.2115217657152624
  0
LWPOLYLINE
  5
3F40
330
2
100
AcDbEntity
  8
Profilo
  6
Continuous
370
     0
100
AcDbPolyline
 90
        4
 70
   128
 43
0.0
 10
0.1050658734731562
 20
0.2052367503715444
 10
0.1047031084388923
 20
0.2063487148518637
 10
0.1046789234942373
 20
0.2070497356804486
 10
0.104872396961099
 20
0.2081133539646245
  0
LWPOLYLINE
  5
3F41
330
2
100
AcDbEntity
  8
Profilo
  6
Continuous
370
     0
100
AcDbPolyline
 90
        3
 70
   128
 43
0.0
 10
0.1062750902540293
 20
0.2058410788078475
 10
0.1063234570981457
 20
0.2066387920287143
 10
0.1066620371877525
 20
0.2075331976418679
  0
LWPOLYLINE
  5
3F42
330
2
100
AcDbEntity
  8
Profilo
  6
Continuous
370
     0
100
AcDbPolyline
 90
        2
 70
   128
 43
0.0
 10
0.1010477224533712
 20
0.2125200153267885
 10
0.1011677762506711
 20
0.2136400194567993
  0
SPLINE
  5
3F43
330
2
100
AcDbEntity
  8
Profilo
 62
     6
100
AcDbSpline
210
0.0
220
0.0
230
1.0
 70
     8
 71
     3
 72
    14
 73
    10
 74
     0
 42
0.0000000001
 43
0.0000000001
 40
0.0244319240513163
 40
0.0244319240513163
 40
0.0244319240513163
 40
0.0244319240513163
 40
0.0286370618764672
 40
0.034220503653164
 40
0.0421075019828146
 40
0.0482726722780875
 40
0.0567067154808266
 40
0.0652927887439129
 40
0.0692472898838361
 40
0.0692472898838361
 40
0.0692472898838361
 40
0.0692472898838361
 10
0.0973226045303401
 20
0.1679390642344355
 30
0.0
 10
0.0985185233501731
 20
0.1671097096532204
 30
0.0
 10
0.1013159544155909
 20
0.1658271979222241
 30
0.0
 10
0.1065620000778149
 20
0.1702976807806367
 30
0.0
 10
0.1135231059524376
 20
0.1695387503265473
 30
0.0
 10
0.1198600151821155
 20
0.1605347241749865
 30
0.0
 10
0.12337258516101
 20
0.1772476019506278
 30
0.0
 10
0.1276125439948039
 20
0.1634646333399986
 30
0.0
 10
0.1311547810248024
 20
0.1644636684703093
 30
0.0
 10
0.1323226045303372
 20
0.1652449735817603
 30
0.0
  0
SPLINE
  5
3F44
330
2
100
AcDbEntity
  8
Profilo
 62
     6
100
AcDbSpline
210
0.0
220
0.0
230
1.0
 70
     8
 71
     3
 72
    14
 73
    10
 74
     0
 42
0.0000000001
 43
0.0000000001
 40
0.0244319240837567
 40
0.0244319240837567
 40
0.0244319240837567
 40
0.0244319240837567
 40
0.0286370618764672
 40
0.034220503653164
 40
0.0421075019828146
 40
0.0482726722780875
 40
0.0567067154808266
 40
0.0652927887439129
 40
0.0692472898838361
 40
0.0692472898838361
 40
0.0692472898838361
 40
0.0692472898838361
 10
0.0973226045580177
 20
0.1638754999852752
 30
0.0
 10
0.098518523368715
 20
0.1630461454147534
 30
0.0
 10
0.1013159544252191
 20
0.1617636337004626
 30
0.0
 10
0.1065620000778149
 20
0.1662341165506704
 30
0.0
 10
0.1135231059524376
 20
0.165475186096581
 30
0.0
 10
0.1198600151821155
 20
0.1564711599450203
 30
0.0
 10
0.12337258516101
 20
0.1731840377206616
 30
0.0
 10
0.1276125439948039
 20
0.1594010691100324
 30
0.0
 10
0.1311547810248024
 20
0.1604001042403431
 30
0.0
 10
0.1323226045303372
 20
0.1611814093517941
 30
0.0
  0
LINE
  5
3F45
330
2
100
AcDbEntity
  8
Profilo
  6
Continuous
370
     0
100
AcDbLine
 10
0.128738935949956
 20
0.1608809690677774
 30
0.0
 11
0.128738935949956
 21
0.1453930149826399
 31
0.0
  0
LINE
  5
3F46
330
2
100
AcDbEntity
  8
Profilo
  6
Continuous
370
     0
100
AcDbLine
 10
0.1249445337331934
 20
0.1663411357513554
 30
0.0
 11
0.1249445337331934
 21
0.1453930149826399
 31
0.0
  0
LINE
  5
3F47
330
2
100
AcDbEntity
  8
Profilo
  6
Continuous
370
     0
100
AcDbLine
 10
0.1225744670155637
 20
0.1663458591901867
 30
0.0
 11
0.1225744670155637
 21
0.1453930149826399
 31
0.0
  0
LINE
  5
3F48
330
2
100
AcDbEntity
  8
Profilo
  6
Continuous
370
     0
100
AcDbLine
 10
0.1187800647988011
 20
0.1602714488008188
 30
0.0
 11
0.1187800647988011
 21
0.1453930149826399
 31
0.0
  0
LINE
  5
3F49
330
2
100
AcDbEntity
  8
Profilo
  6
Continuous
370
     0
100
AcDbLine
 10
0.1164100011263702
 20
0.1614475168814289
 30
0.0
 11
0.1164100011263702
 21
0.1453930149826399
 31
0.0
  0
LINE
  5
3F4A
330
2
100
AcDbEntity
  8
Profilo
  6
Continuous
370
     0
100
AcDbLine
 10
0.1126155989096049
 20
0.1645926676856548
 30
0.0
 11
0.1126155989096049
 21
0.1453930149826399
 31
0.0
  0
LINE
  5
3F4B
330
2
100
AcDbEntity
  8
Profilo
  6
Continuous
370
     0
100
AcDbLine
 10
0.11017301085516
 20
0.1654598715981065
 30
0.0
 11
0.11017301085516
 21
0.1453930149826399
 31
0.0
  0
LINE
  5
3F4C
330
2
100
AcDbEntity
  8
Profilo
  6
Continuous
370
     0
100
AcDbLine
 10
0.1063786086383978
 20
0.1651176219523155
 30
0.0
 11
0.1063786086383978
 21
0.1453930149826399
 31
0.0
  0
LINE
  5
3F4D
330
2
100
AcDbEntity
  8
Profilo
  6
Continuous
370
     0
100
AcDbLine
 10
0.1040661874763389
 20
0.1639727107332977
 30
0.0
 11
0.1040661874763389
 21
0.1453930149826399
 31
0.0
  0
LINE
  5
3F4E
330
2
100
AcDbEntity
  8
Profilo
  6
Continuous
370
     0
100
AcDbLine
 10
0.1002717852595767
 20
0.162626758721369
 30
0.0
 11
0.1002717852595767
 21
0.1453930149826399
 31
0.0
  0
LINE
  5
3F4F
330
2
100
AcDbEntity
  8
Profilo
  6
Continuous
370
     0
100
AcDbLine
 10
0.1323226045303403
 20
0.1611814093517895
 30
0.0
 11
0.1323226045303403
 21
0.0741134040348271
 31
0.0
  0
LINE
  5
3F50
330
2
100
AcDbEntity
  8
Profilo
  6
Continuous
370
     0
100
AcDbLine
 10
0.0973226045303402
 20
0.1679390642344355
 30
0.0
 11
0.0973226045303402
 21
0.2011353830397236
 31
0.0
  0
DIMENSION
  5
3F51
102
{ACAD_XDICTIONARY
360
3F5F
102
}
102
{ACAD_REACTORS
330
3F6A
102
}
330
2
100
AcDbEntity
  8
Dimensione
100
AcDbDimension
  2
*D32
 10
0.1658558109857608
 20
0.236493583193937
 30
0.0
 11
0.1658558109857608
 21
0.1553034936143821
 31
0.0
 70
    32
  1
3130 mm
 71
     5
 42
0.1623801791591098
  3
Bovelacci
100
AcDbAlignedDimension
 13
0.1323226045303403
 23
0.0741134040348271
 33
0.0
 14
0.1383859851465732
 24
0.236493583193937
 34
0.0
 50
90.0
100
AcDbRotatedDimension
  0
DIMENSION
  5
3F6B
102
{ACAD_XDICTIONARY
360
3F79
102
}
102
{ACAD_REACTORS
330
3F84
102
}
330
2
100
AcDbEntity
  8
Dimensione
100
AcDbDimension
  2
*D33
 10
0.1410530650318034
 20
0.2448914125046997
 30
0.0
 11
0.1139585119647437
 21
0.2448914125046997
 31
0.0
 70
    32
  1
215 mm
 71
     5
 42
0.0541891061341193
  3
Bovelacci
100
AcDbAlignedDimension
 13
0.0868639588976841
 23
0.2347462304109908
 33
0.0
 14
0.1410530650318034
 24
0.2356436033893354
 34
0.0
100
AcDbRotatedDimension
  0
DIMENSION
  5
3F9F
102
{ACAD_XDICTIONARY
360
3FAD
102
}
102
{ACAD_REACTORS
330
3FB8
102
}
330
2
100
AcDbEntity
  8
Dimensione
100
AcDbDimension
  2
*D35
 10
0.1323226045303403
 20
0.0636816508762479
 30
0.0
 11
0.1148226045303402
 21
0.0636816508762479
 31
0.0
 70
    32
  1
140 mm
 71
     5
 42
0.0350000000000002
  3
Bovelacci
100
AcDbAlignedDimension
 13
0.0973226045303402
 23
0.0741134040348271
 33
0.0
 14
0.1323226045303403
 24
0.0741134040348271
 34
0.0
100
AcDbRotatedDimension
  0
LINE
  5
3FDC
330
2
100
AcDbEntity
  8
Profilo
  6
Continuous
370
     0
100
AcDbLine
 10
0.0975199118986545
 20
0.1173986062381705
 30
0.0
 11
0.1004991791619116
 21
0.1173986062381705
 31
0.0
  0
LINE
  5
3FDD
330
2
100
AcDbEntity
  8
Profilo
  6
Continuous
370
     0
100
AcDbLine
 10
0.0975199118986545
 20
0.0833852092946741
 30
0.0
 11
0.1004991791619116
 21
0.0833852092946741
 31
0.0
  0
LINE
  5
3FDE
330
2
100
AcDbEntity
  8
Profilo
  6
Continuous
370
     0
100
AcDbLine
 10
0.2910242624598505
 20
0.0849495000097879
 30
0.0
 11
0.2916201159125018
 21
0.0849495000097879
 31
0.0
  0
LINE
  5
3FDF
330
2
100
AcDbEntity
  8
Profilo
  6
Continuous
370
     0
100
AcDbLine
 10
0.2910242624598505
 20
0.0781468206210886
 30
0.0
 11
0.2916201159125018
 21
0.0781468206210886
 31
0.0
  0
VIEWPORT
  5
7B
102
{ACAD_XDICTIONARY
360
3FE7
102
}
330
79
100
AcDbEntity
 67
     1
  8
0
100
AcDbViewport
 10
145.330337524414
 20
101.8116638660431
 30
0.0
 40
351.1337450215151
 41
222.1517806396485
 68
     1
 69
     1
 12
145.330337524414
 22
101.8116638660431
 13
0.0
 23
0.0
 14
10.0
 24
10.0
 15
10.0
 25
10.0
 16
0.0
 26
0.0
 36
1.0
 17
0.0
 27
0.0
 37
0.0
 42
50.0
 43
0.0
 44
0.0
 45
222.1517806396485
 50
0.0
 51
0.0
 72
  1000
 90
    32800
  1

281
     0
 71
     1
 74
     0
110
0.0
120
0.0
130
0.0
111
1.0
121
0.0
131
0.0
112
0.0
122
1.0
132
0.0
 79
     0
146
0.0
  0
VIEWPORT
  5
80
102
{ACAD_XDICTIONARY
360
3FE9
102
}
330
79
100
AcDbEntity
 67
     1
  8
Sezione
100
AcDbViewport
 10
145.3303314447403
 20
101.8116623163223
 30
0.0
 40
232.5285303115845
 41
162.8986597061157
 68
     2
 69
     2
 12
0.2100067158578973
 22
0.1484909068076998
 13
0.0
 23
0.0
 14
10.0
 24
10.0
 15
10.0
 25
10.0
 16
0.0
 26
0.0
 36
1.0
 17
0.0
 27
0.0
 37
0.0
 42
50.0
 43
0.0
 44
0.0
 45
0.2752830087467564
 50
0.0
 51
0.0
 72
  1000
 90
    32864
  1

281
     0
 71
     1
 74
     0
110
0.0
120
0.0
130
0.0
111
1.0
121
0.0
131
0.0
112
0.0
122
1.0
132
0.0
 79
     0
146
0.0
  0
ENDSEC
  0
SECTION
  2
OBJECTS
  0
DICTIONARY
  5
9
330
0
100
AcDbDictionary
281
     1
  3
ACAD_2007HEADERVARS_RT
350
3FE1
  3
ACAD_COLOR
350
A1
  3
ACAD_GROUP
350
9C
  3
ACAD_LAYOUT
350
78
  3
ACAD_MATERIAL
350
B
  3
ACAD_MLINESTYLE
350
9D
  3
ACAD_PLOTSETTINGS
350
9E
  3
ACAD_PLOTSTYLENAME
350
8
  3
ACAD_TABLESTYLE
350
A2
  3
ACAD_VISUALSTYLE
350
7F
  3
AcDbVariableDictionary
350
A9
  3
AEC_CLASSIFICATION_SYSTEM_DEFS
350
1217
  3
AEC_PROPERTY_SET_DEFS
350
10D
  3
ASE_INDEX_DICTIONARY
350
249E
  3
DWGPROPS
350
3FE0
  0
DICTIONARY
  5
8B
330
8A
100
AcDbDictionary
280
     1
281
     1
  3
ACAD_LAYERFILTERS
360
25D9
  3
ACAD_LAYERSTATES
360
8D
  3
ACLYDICTIONARY
360
25D8
  0
DICTIONARY
  5
3
330
2
100
AcDbDictionary
280
     1
281
     1
  3
ACAD_SORTENTS
360
A8
  0
DICTIONARY
  5
3FF4
330
10F
100
AcDbDictionary
280
     1
281
     1
  3
ACAD_MTEXT_RT
360
3FF5
  0
DICTIONARY
  5
3FF6
330
110
100
AcDbDictionary
280
     1
281
     1
  3
ACAD_MTEXT_RT
360
3FF7
  0
DICTIONARY
  5
3F5F
330
3F51
100
AcDbDictionary
280
     1
281
     1
  3
ACAD_DIMASSOC
360
3F6A
  0
DICTIONARY
  5
3F79
330
3F6B
100
AcDbDictionary
280
     1
281
     1
  3
ACAD_DIMASSOC
360
3F84
  0
DICTIONARY
  5
3FAD
330
3F9F
100
AcDbDictionary
280
     1
281
     1
  3
ACAD_DIMASSOC
360
3FB8
  0
DICTIONARY
  5
3FE7
330
7B
100
AcDbDictionary
280
     1
281
     1
  3
ACAD_XREC_ROUNDTRIP
360
3FE8
  0
DICTIONARY
  5
3FE9
330
80
100
AcDbDictionary
280
     1
281
     1
  3
ACAD_XREC_ROUNDTRIP
360
3FEA
  0
DICTIONARY
  5
3FE1
102
{ACAD_REACTORS
330
9
102
}
330
9
100
AcDbDictionary
281
     1
  3
DIMFXL
350
3FE2
  0
DICTIONARY
  5
A1
102
{ACAD_REACTORS
330
9
102
}
330
9
100
AcDbDictionary
281
     1
  0
DICTIONARY
  5
9C
102
{ACAD_REACTORS
330
9
102
}
330
9
100
AcDbDictionary
281
     1
  0
DICTIONARY
  5
78
102
{ACAD_REACTORS
330
9
102
}
330
9
100
AcDbDictionary
281
     1
  3
Layout1
350
82
  3
Layout2
350
89
  3
Model
350
77
  0
DICTIONARY
  5
B
102
{ACAD_REACTORS
330
9
102
}
330
9
100
AcDbDictionary
281
     1
  3
ByBlock
350
A0
  3
ByLayer
350
9F
  3
Global
350
A
  0
DICTIONARY
  5
9D
102
{ACAD_REACTORS
330
9
102
}
330
9
100
AcDbDictionary
281
     1
  3
Standard
350
A3
  0
DICTIONARY
  5
9E
102
{ACAD_REACTORS
330
9
102
}
330
9
100
AcDbDictionary
281
     1
  0
ACDBDICTIONARYWDFLT
  5
8
102
{ACAD_REACTORS
330
9
102
}
330
9
100
AcDbDictionary
281
     1
  3
Normal
350
7
100
AcDbDictionaryWithDefault
340
7
  0
DICTIONARY
  5
A2
102
{ACAD_REACTORS
330
9
102
}
330
9
100
AcDbDictionary
281
     1
  3
Standard
350
A4
  0
DICTIONARY
  5
7F
102
{ACAD_REACTORS
330
9
102
}
330
9
100
AcDbDictionary
281
     1
  3
2dWireframe
350
7E
  3
3D Hidden
350
D8
  3
3dWireframe
350
A6
  3
Basic
350
D7
  3
Brighten
350
DB
  3
ColorChange
350
DF
  3
Conceptual
350
D9
  3
Dim
350
DA
  3
Facepattern
350
DE
  3
Flat
350
D3
  3
FlatWithEdges
350
D4
  3
Gouraud
350
D5
  3
GouraudWithEdges
350
D6
  3
Linepattern
350
DD
  3
Realistic
350
A5
  3
Thicken
350
DC
  0
DICTIONARY
  5
A9
102
{ACAD_REACTORS
330
9
102
}
330
9
100
AcDbDictionary
281
     1
  3
CTABLESTYLE
350
AA
  3
DIMASSOC
350
AE
  3
HIDETEXT
350
AD
  3
INDEXCTL
350
AC
  3
PROJECTNAME
350
16A
  3
SORTENTS
350
AB
  0
DICTIONARY
  5
1217
102
{ACAD_REACTORS
330
9
102
}
330
9
100
AcDbDictionary
281
     1
  0
DICTIONARY
  5
10D
102
{ACAD_REACTORS
330
9
102
}
330
9
100
AcDbDictionary
281
     1
  0
DICTIONARY
  5
249E
102
{ACAD_REACTORS
330
9
102
}
330
9
100
AcDbDictionary
281
     1
  3
ASEBlockHierarchyIndexRecord
350
24A0
1001
DCO15
1040
1602050354.187
  0
XRECORD
  5
3FE0
102
{ACAD_REACTORS
330
9
102
}
330
9
100
AcDbXrecord
280
     1
  1
DWGPROPS COOKIE
  2

  3

  4

  6

  7

  8
Simone
  9

300
=
301
=
302
=
303
=
304
=
305
=
306
=
307
=
308
=
309
=
 40
0.4563715277777778
 41
2454297.583735706
 42
2454431.91323441
  1

 90
        0
  0
DICTIONARY
  5
25D9
102
{ACAD_REACTORS
330
8B
102
}
330
8B
100
AcDbDictionary
281
     1
  0
DICTIONARY
  5
8D
102
{ACAD_REACTORS
330
8B
102
}
330
8B
100
AcDbDictionary
281
     1
  0
DICTIONARY
  5
25D8
102
{ACAD_REACTORS
330
8B
102
}
330
8B
100
AcDbDictionary
281
     1
1001
ACAD
1000
<All
  0
SORTENTSTABLE
  5
A8
102
{ACAD_REACTORS
330
3
102
}
330
3
100
AcDbSortentsTable
330
2
331
3D75
  5
3D75
331
3D7D
  5
3D7D
331
3D85
  5
3D85
331
3EFB
  5
3F07
331
3DED
  5
3DED
331
3EBC
  5
3EC8
331
3DAE
  5
3DAE
331
3F32
  5
3F3E
331
3F03
  5
3F0F
331
3DF5
  5
3DF5
331
3EC4
  5
3ED0
331
3DB6
  5
3DB6
331
3F3A
  5
3F46
331
22
  5
23
331
3F0B
  5
3F17
331
3DFD
  5
3DFD
331
3ECC
  5
3ED8
331
3DBE
  5
3DBE
331
3F42
  5
3F4E
331
3ED4
  5
3EE0
331
3DC6
  5
3DC6
331
3F4A
  5
3EB9
331
3D66
  5
3D66
331
3D6E
  5
3D6E
331
3C6F
  5
3C6F
331
3F13
  5
3F1F
331
3EDC
  5
3EE8
331
3DCE
  5
3DCE
331
3D8F
  5
3D8F
331
3EE4
  5
3EF0
331
3DD6
  5
3DD6
331
3D97
  5
3D97
331
3F1B
  5
3F27
331
3EEC
  5
3EF8
331
3DDE
  5
3DDE
331
3EAD
  5
3EB1
331
3D9F
  5
3D9F
331
3F23
  5
3F2F
331
3EF4
  5
3F00
331
3DE6
  5
3DE6
331
3EB5
  5
3EBD
331
3DA7
  5
3DA7
331
3F2B
  5
3F37
331
13
  5
D
331
3D76
  5
3D76
331
3D7E
  5
3D7E
331
3D86
  5
3D86
331
3EFC
  5
3F08
331
3DEE
  5
3DEE
331
3EBD
  5
3EC9
331
3DAF
  5
3DAF
331
3F33
  5
3F3F
331
3F04
  5
3F10
331
3DF6
  5
3DF6
331
3EC5
  5
3ED1
331
3DB7
  5
3DB7
331
3F3B
  5
3F47
331
23
  5
24
331
3F43
  5
3F4F
331
3DFE
  5
3DFE
331
3ECD
  5
3ED9
331
3DBF
  5
3DBF
331
3F0C
  5
3F18
331
3ED5
  5
3EE1
331
3DC7
  5
3DC7
331
3F4B
  5
3EB5
331
3D67
  5
3D67
331
3D6F
  5
3D6F
331
3D88
  5
3D88
331
3EDD
  5
3EE9
331
3DCF
  5
3DCF
331
3D90
  5
3D90
331
3F14
  5
3F20
331
3EE5
  5
3EF1
331
3DD7
  5
3DD7
331
3EA6
  5
3EA6
331
3D98
  5
3D98
331
3F1C
  5
3F28
331
3EED
  5
3EF9
331
3DDF
  5
3DDF
331
3EAE
  5
3EB2
331
3DA0
  5
3DA0
331
3F24
  5
3F30
331
3EF5
  5
3F01
331
3DE7
  5
3DE7
331
3EB6
  5
3EBE
331
3F2C
  5
3F38
331
14
  5
10
331
3D77
  5
3D77
331
3D7F
  5
3D7F
331
3D87
  5
3D87
331
3DA8
  5
3DA8
331
3F34
  5
3F40
331
3DEF
  5
3DEF
331
3EBE
  5
3ECA
331
3DB0
  5
3DB0
331
3EFD
  5
3F09
331
3F3C
  5
3F48
331
24
  5
18
331
3EC6
  5
3ED2
331
3F05
  5
3F11
331
3DB8
  5
3DB8
331
3DF7
  5
3DF7
331
3F44
  5
3F50
331
3ECE
  5
3EDA
331
3F0D
  5
3F19
331
3DC0
  5
3DC0
331
3DFF
  5
3DFF
331
3ED6
  5
3EE2
331
3F4C
  5
3EB3
331
3D68
  5
3D68
331
3DC8
  5
3DC8
331
3D89
  5
3D89
331
3EDE
  5
3EEA
331
3DD0
  5
3DD0
331
3D91
  5
3D91
331
3F15
  5
3F21
331
3F1D
  5
3F29
331
3DD8
  5
3DD8
331
3EA7
  5
3EA8
331
3D99
  5
3D99
331
3EE6
  5
3EF2
331
3F25
  5
3F31
331
D
  5
13
331
3DE0
  5
3DE0
331
3EAF
  5
3EB4
331
3DA1
  5
3DA1
331
3EEE
  5
3EFA
331
3F2D
  5
3F39
331
15
  5
11
331
3EB7
  5
3EC0
331
3EF6
  5
3F02
331
1D
  5
1E
331
3D70
  5
3D70
331
3D78
  5
3D78
331
3D80
  5
3D80
331
3DA9
  5
3DA9
331
3DE8
  5
3DE8
331
3F35
  5
3F41
331
3EBF
  5
3ECB
331
3EFE
  5
3F0A
331
3DB1
  5
3DB1
331
3DF0
  5
3DF0
331
3F3D
  5
3F49
331
25
  5
25
331
3EC7
  5
3ED3
331
3F06
  5
3F12
331
3DB9
  5
3DB9
331
3DF8
  5
3DF8
331
3F45
  5
3EC7
331
3ECF
  5
3EDB
331
3DC1
  5
3DC1
331
3F0E
  5
3F1A
331
3F4D
  5
3EAF
331
3ED7
  5
3EE3
331
3D69
  5
3D69
331
3DC9
  5
3DC9
331
3D8A
  5
3D8A
331
3E00
  5
3E00
331
3F16
  5
3F22
331
3DD1
  5
3DD1
331
10F
  5
10F
331
3D92
  5
3D92
331
3EDF
  5
3EEB
331
3F1E
  5
3F2A
331
3EA8
  5
3EA9
331
3EE7
  5
3EF3
331
3D9A
  5
3D9A
331
3DD9
  5
3DD9
331
3F26
  5
3F32
331
3EB0
  5
3EB6
331
3EEF
  5
3EFB
331
3DA2
  5
3DA2
331
3DE1
  5
3DE1
331
3F2E
  5
3F3A
331
16
  5
12
331
3EF7
  5
3F03
331
1E
  5
1F
331
3D71
  5
3D71
331
3D79
  5
3D79
331
3D81
  5
3D81
331
3EB8
  5
3EC2
331
3DAA
  5
3DAA
331
3DE9
  5
3DE9
331
3F36
  5
3F42
331
3EC0
  5
3ECC
331
3EFF
  5
3F0B
331
3DB2
  5
3DB2
331
3DF1
  5
3DF1
331
3F3E
  5
3F4A
331
3F07
  5
3F13
331
3DBA
  5
3DBA
331
3DF9
  5
3DF9
331
3EC8
  5
3ED4
331
3F46
  5
3EC5
331
3F0F
  5
3F1B
331
3DC2
  5
3DC2
331
3ED0
  5
3EDC
331
3F4E
  5
3EAD
331
3D6A
  5
3D6A
331
3E01
  5
3E01
331
3ED8
  5
3EE4
331
3D8B
  5
3D8B
331
3DCA
  5
3DCA
331
3F17
  5
3F23
331
3EE0
  5
3EEC
331
110
  5
110
331
3D93
  5
3D93
331
3DD2
  5
3DD2
331
3F1F
  5
3F2B
331
3EA9
  5
3EAB
331
3EE8
  5
3EF4
331
3D9B
  5
3D9B
331
3DDA
  5
3DDA
331
3F27
  5
3F33
331
3EB1
  5
3EB7
331
3EF0
  5
3EFC
331
3DA3
  5
3DA3
331
3DE2
  5
3DE2
331
3F2F
  5
3F3B
331
17
  5
17
331
1F
  5
21
331
3D72
  5
3D72
331
3D7A
  5
3D7A
331
3D82
  5
3D82
331
3EF8
  5
3F04
331
3DAB
  5
3DAB
331
3DEA
  5
3DEA
331
3EB9
  5
3EC3
331
3F37
  5
3F43
331
3F00
  5
3F0C
331
3DB3
  5
3DB3
331
3DF2
  5
3DF2
331
3EC1
  5
3ECD
331
3F3F
  5
3F4B
331
3F08
  5
3F14
331
3DFA
  5
3DFA
331
3EC9
  5
3ED5
331
3DBB
  5
3DBB
331
3F47
  5
3EC1
331
3ED1
  5
3EDD
331
3DC3
  5
3DC3
331
3F4F
  5
3EAA
331
3D6B
  5
3D6B
331
3F10
  5
3F1C
331
3E02
  5
3E02
331
3ED9
  5
3EE5
331
3D8C
  5
3D8C
331
3DCB
  5
3DCB
331
3F18
  5
3F24
331
3EE1
  5
3EED
331
3D94
  5
3D94
331
3DD3
  5
3DD3
331
3F20
  5
3F2C
331
3EE9
  5
3EF5
331
3D9C
  5
3D9C
331
3DDB
  5
3DDB
331
3EAA
  5
3EAC
331
3F28
  5
3F34
331
10
  5
14
331
3EF1
  5
3EFD
331
3DA4
  5
3DA4
331
3DE3
  5
3DE3
331
3EB2
  5
3EB8
331
3D73
  5
3D73
331
3D7B
  5
3D7B
331
3D83
  5
3D83
331
3F30
  5
3F3C
331
3EF9
  5
3F05
331
3DEB
  5
3DEB
331
3EBA
  5
3EC4
331
3DAC
  5
3DAC
331
3F38
  5
3F44
331
3F01
  5
3F0D
331
3DF3
  5
3DF3
331
3EC2
  5
3ECE
331
3DB4
  5
3DB4
331
3F40
  5
3F4C
331
3F09
  5
3F15
331
3DFB
  5
3DFB
331
3ECA
  5
3ED6
331
3DBC
  5
3DBC
331
3ED2
  5
3EDE
331
3DC4
  5
3DC4
331
3F48
  5
3EBF
331
3D6C
  5
3D6C
331
3F11
  5
3F1D
331
3EDA
  5
3EE6
331
3D8D
  5
3D8D
331
3DCC
  5
3DCC
331
3F50
  5
3EA7
331
3F19
  5
3F25
331
3EE2
  5
3EEE
331
3D95
  5
3D95
331
3DD4
  5
3DD4
331
3F21
  5
3F2D
331
3EEA
  5
3EF6
331
3DDC
  5
3DDC
331
3EAB
  5
3EAE
331
3D9D
  5
3D9D
331
3F29
  5
3F35
331
11
  5
15
331
3EF2
  5
3EFE
331
3DE4
  5
3DE4
331
3EB3
  5
3EBA
331
3DA5
  5
3DA5
331
3D74
  5
3D74
331
3D7C
  5
3D7C
331
3D84
  5
3D84
331
3F31
  5
3F3D
331
3EFA
  5
3F06
331
3DEC
  5
3DEC
331
3EBB
  5
3EC6
331
3DAD
  5
3DAD
331
21
  5
22
331
3F02
  5
3F0E
331
3DF4
  5
3DF4
331
3EC3
  5
3ECF
331
3DB5
  5
3DB5
331
3F39
  5
3F45
331
3F0A
  5
3F16
331
3DFC
  5
3DFC
331
3ECB
  5
3ED7
331
3DBD
  5
3DBD
331
3F41
  5
3F4D
331
3ED3
  5
3EDF
331
3DC5
  5
3DC5
331
3F49
  5
3EBB
331
3D6D
  5
3D6D
331
3C6E
  5
3C6E
331
3F12
  5
3F1E
331
3EDB
  5
3EE7
331
3DCD
  5
3DCD
331
3D8E
  5
3D8E
331
3F1A
  5
3F26
331
3EE3
  5
3EEF
331
3DD5
  5
3DD5
331
3D96
  5
3D96
331
3F22
  5
3F2E
331
3EEB
  5
3EF7
331
3DDD
  5
3DDD
331
3EAC
  5
3EB0
331
3D9E
  5
3D9E
331
12
  5
16
331
3EF3
  5
3EFF
331
3DE5
  5
3DE5
331
3EB4
  5
3EBC
331
3DA6
  5
3DA6
331
3F2A
  5
3F36
  0
XRECORD
  5
3FF5
102
{ACAD_REACTORS
330
3FF4
102
}
330
3FF4
100
AcDbXrecord
280
     1
 40
7955300.0
  1
\pt0.09;{\fTimes New Roman|b0|i0|c238|p18;\H1.6x;\C4;Bovelacci\P\H0.4375x;\T0.95;via del Commercio, 5  47100 Forli - Italy  \fTimes New Roman|b0|i0|c0|p18;\P\fTimes New Roman|b0|i0|c238|p18;tel.+39-0543721386  fax +39-0543721127\fTimes New Roman|b0|i
  1
0|c0|p18; \fTimes New Roman|b0|i0|c238|p18;www.bovelacci.it\fTimes New Roman|b0|i0|c0|p18; \fTimes New Roman|b0|i0|c238|p18;e-mail: bovelacci@bovelacci\fTimes New Roman|b0|i0|c0|p18;.it}
  0
XRECORD
  5
3FF7
102
{ACAD_REACTORS
330
3FF6
102
}
330
3FF6
100
AcDbXrecord
280
     1
 40
21861278.0
  1
{\fArial|b0|i0|c0|p34;\H1.25x;Le caratteristiche tecniche indicate vengono fornite a titolo indicativo e potranno essere modificate senza preavviso. Non devono quindi essere considerate a scopo di specifica.\P\fArial|b0|i1|c0|p34;The given values are
  1
 indicative and can be changed without notice. They cannot be considered like a state.\PThis lealfet and designs embodied within are protected by copyright law and international treaties. Unauthorized repro- duction of the leaflet or any portion of i
  1
t or reproduction of any of the designs embodied therein may result in severe civil penalties and will be prosecuted to the maximum.\PAll right reserved, Bovelacci Forlì Italy.}
  0
DIMASSOC
  5
3F6A
102
{ACAD_REACTORS
330
3F5F
102
}
330
3F5F
100
AcDbDimAssoc
330
3F51
 90
        3
 70
     0
 71
     0
  1
AcDbOsnapPointRef
 72
    13
331
3EA9
 73
     2
 91
        0
 40
0.0
 10
0.0
 20
0.0
 30
2.000000000000000E+50
 75
     0
  1
AcDbOsnapPointRef
 72
     1
331
3EEB
 73
     2
 91
       43
 40
1.0
 10
0.0
 20
0.0
 30
2.000000000000000E+50
 75
     0
  0
DIMASSOC
  5
3F84
102
{ACAD_REACTORS
330
3F79
102
}
330
3F79
100
AcDbDimAssoc
330
3F6B
 90
        3
 70
     0
 71
     0
  1
AcDbOsnapPointRef
 72
     1
331
3EEB
 73
     2
 91
       27
 40
1.0
 10
0.0
 20
0.0
 30
2.000000000000000E+50
 75
     0
  1
AcDbOsnapPointRef
 72
     1
331
3EEB
 73
     2
 91
       45
 40
0.9999999999999998
 10
0.0
 20
0.0
 30
2.000000000000000E+50
 75
     0
  0
DIMASSOC
  5
3FB8
102
{ACAD_REACTORS
330
3FAD
102
}
330
3FAD
100
AcDbDimAssoc
330
3F9F
 90
        3
 70
     0
 71
     0
  1
AcDbOsnapPointRef
 72
     1
331
3EA9
 73
     2
 91
        0
 40
1.0
 10
0.0
 20
0.0
 30
2.000000000000000E+50
 75
     0
  1
AcDbOsnapPointRef
 72
    13
331
3EA9
 73
     2
 91
        0
 40
0.0
 10
0.0
 20
0.0
 30
2.000000000000000E+50
 75
     0
  0
XRECORD
  5
3FE8
102
{ACAD_REACTORS
330
3FE7
102
}
330
3FE7
100
AcDbXrecord
280
     1
102
SHADEPLOT
 70
     0
  0
XRECORD
  5
3FEA
102
{ACAD_REACTORS
330
3FE9
102
}
330
3FE9
100
AcDbXrecord
280
     1
102
SHADEPLOT
 70
     0
  0
XRECORD
  5
3FE2
102
{ACAD_REACTORS
330
3FE1
102
}
330
3FE1
100
AcDbXrecord
280
     1
 40
0.18
  0
LAYOUT
  5
82
102
{ACAD_XDICTIONARY
360
83
102
}
102
{ACAD_REACTORS
330
78
102
}
330
78
100
AcDbPlotSettings
  1

  2
C:\Documents and Settings\All Users\Dati applicazioni\Autodesk\ADT 2006\enu\Plotters\Default Windows System Printer.pc3
  4
A4
  6

 40
3.174999952316281
 41
3.174999952316281
 42
3.175003051757812
 43
3.17498779296875
 44
209.9733276367186
 45
297.0106506347656
 46
0.0
 47
0.0
 48
0.0
 49
0.0
140
0.0
141
0.0
142
1.0
143
1.0
 70
   688
 72
     1
 73
     1
 74
     5
  7

 75
    16
147
1.0
148
0.0
149
0.0
100
AcDbLayout
  1
Layout1
 70
     1
 71
     1
 10
-3.17498779296875
 20
-3.174999952316281
 11
293.8356628417969
 21
206.7983276844024
 12
0.0
 22
0.0
 32
0.0
 14
29.06606628894805
 24
20.36233246326446
 34
0.0
 15
261.5945966005325
 25
183.2609921693802
 35
0.0
146
0.0
 13
0.0
 23
0.0
 33
0.0
 16
1.0
 26
0.0
 36
0.0
 17
0.0
 27
1.0
 37
0.0
 76
     0
330
79
331
7B
1001
ACAD_PSEXT
1000
C:\Documents and Settings\All Users\Dati applicazioni\Autodesk\ADT 2006\enu\Plotters\Default Windows System Printer.pc3
1000
Microsoft Office Document Image Writer Driver
1000
Microsoft Document Imaging Writer Port:
1000

1070
     0
  0
LAYOUT
  5
89
102
{ACAD_XDICTIONARY
360
3FEC
102
}
102
{ACAD_REACTORS
330
78
102
}
330
78
100
AcDbPlotSettings
  1

  2
C:\Documents and Settings\All Users\Dati applicazioni\Autodesk\ADT 2006\enu\Plotters\Default Windows System Printer.pc3
  4

  6

 40
0.0
 41
0.0
 42
0.0
 43
0.0
 44
0.0
 45
0.0
 46
0.0
 47
0.0
 48
0.0
 49
0.0
140
0.0
141
0.0
142
1.0
143
1.0
 70
   688
 72
     0
 73
     0
 74
     5
  7

 75
    16
147
1.0
148
0.0
149
0.0
100
AcDbLayout
  1
Layout2
 70
     1
 71
     2
 10
0.0
 20
0.0
 11
12.0
 21
9.0
 12
0.0
 22
0.0
 32
0.0
 14
0.0
 24
0.0
 34
0.0
 15
0.0
 25
0.0
 35
0.0
146
0.0
 13
0.0
 23
0.0
 33
0.0
 16
1.0
 26
0.0
 36
0.0
 17
0.0
 27
1.0
 37
0.0
 76
     0
330
86
  0
LAYOUT
  5
77
102
{ACAD_XDICTIONARY
360
3FE5
102
}
102
{ACAD_REACTORS
330
78
102
}
330
78
100
AcDbPlotSettings
  1

  2
C:\Documents and Settings\All Users\Dati applicazioni\Autodesk\ADT 2006\enu\Plotters\Default Windows System Printer.pc3
  4

  6

 40
0.0
 41
0.0
 42
0.0
 43
0.0
 44
0.0
 45
0.0
 46
0.0
 47
0.0
 48
0.0
 49
0.0
140
0.0
141
0.0
142
1.0
143
1.0
 70
  1712
 72
     0
 73
     0
 74
     0
  7

 75
     0
147
1.0
148
0.0
149
0.0
100
AcDbLayout
  1
Model
 70
     1
 71
     0
 10
0.0
 20
0.0
 11
12.0
 21
9.0
 12
0.0
 22
0.0
 32
0.0
 14
0.0
 24
0.0
 34
0.0
 15
0.0
 25
0.0
 35
0.0
146
0.0
 13
0.0
 23
0.0
 33
0.0
 16
1.0
 26
0.0
 36
0.0
 17
0.0
 27
1.0
 37
0.0
 76
     0
330
2
331
3FC7
  0
MATERIAL
  5
A0
102
{ACAD_XDICTIONARY
360
3FF0
102
}
102
{ACAD_REACTORS
330
B
102
}
330
B
100
AcDbMaterial
  1
ByBlock
  0
MATERIAL
  5
9F
102
{ACAD_XDICTIONARY
360
3FEE
102
}
102
{ACAD_REACTORS
330
B
102
}
330
B
100
AcDbMaterial
  1
ByLayer
  0
MATERIAL
  5
A
102
{ACAD_XDICTIONARY
360
3FE3
102
}
102
{ACAD_REACTORS
330
B
102
}
330
B
100
AcDbMaterial
  1
Global
  0
MLINESTYLE
  5
A3
102
{ACAD_REACTORS
330
9D
102
}
330
9D
100
AcDbMlineStyle
  2
STANDARD
 70
     0
  3

 62
   256
 51
90.0
 52
90.0
 71
     2
 49
0.5
 62
   256
  6
BYLAYER
 49
-0.5
 62
   256
  6
BYLAYER
  0
ACDBPLACEHOLDER
  5
7
102
{ACAD_REACTORS
330
8
102
}
330
8
  0
TABLESTYLE
  5
A4
102
{ACAD_XDICTIONARY
360
3FF2
102
}
102
{ACAD_REACTORS
330
A2
102
}
330
A2
100
AcDbTableStyle
  3
Standard
 70
     0
 71
     0
 40
1.5
 41
1.5
280
     0
281
     0
  7
Standard
140
4.5
170
     2
 62
     0
 63
     7
283
     0
274
    -2
284
     1
 64
     0
275
    -2
285
     1
 65
     0
276
    -2
286
     1
 66
     0
277
    -2
287
     1
 67
     0
278
    -2
288
     1
 68
     0
279
    -2
289
     1
 69
     0
  7
Standard
140
6.0
170
     5
 62
     0
 63
     7
283
     0
274
    -2
284
     1
 64
     0
275
    -2
285
     1
 65
     0
276
    -2
286
     1
 66
     0
277
    -2
287
     1
 67
     0
278
    -2
288
     1
 68
     0
279
    -2
289
     1
 69
     0
  7
Standard
140
4.5
170
     5
 62
     0
 63
     7
283
     0
274
    -2
284
     1
 64
     0
275
    -2
285
     1
 65
     0
276
    -2
286
     1
 66
     0
277
    -2
287
     1
 67
     0
278
    -2
288
     1
 68
     0
279
    -2
289
     1
 69
     0
  0
VISUALSTYLE
  5
7E
102
{ACAD_REACTORS
330
7F
102
}
330
7F
100
AcDbVisualStyle
  2
2dWireframe
 70
     4
 71
     0
 72
     2
 73
     0
 90
        0
 40
-0.6
 41
-30.0
 62
     5
 63
     7
 74
     1
 91
        4
 64
     7
 65
   257
 75
     1
175
     1
 42
1.0
 92
        0
 66
   257
 43
1.0
 76
     1
 77
     6
 78
     2
 67
     7
 79
     5
170
     0
171
     0
290
     0
174
     0
 93
        1
 44
0.0
173
     0
291
     0
 45
0.0
1001
ACAD
1000
AcDbSavedByObjectVersion
1070
     0
1000
AcDbSavedByObjectVersion
1070
     0
1000
AcDbSavedByObjectVersion
1070
     0
1000
AcDbSavedByObjectVersion
1070
     0
  0
VISUALSTYLE
  5
D8
102
{ACAD_REACTORS
330
7F
102
}
330
7F
100
AcDbVisualStyle
  2
3D Hidden
 70
     6
 71
     1
 72
     2
 73
     2
 90
        0
 40
-0.6
 41
-30.0
 62
     5
 63
     7
 74
     2
 91
        2
 64
     7
 65
   257
 75
     2
175
     1
 42
40.0
 92
        0
 66
   257
 43
1.0
 76
     1
 77
     6
 78
     2
 67
     7
 79
     3
170
     0
171
     0
290
     0
174
     0
 93
        1
 44
0.0
173
     0
291
     0
 45
0.0
1001
ACAD
1000
AcDbSavedByObjectVersion
1070
     0
1000
AcDbSavedByObjectVersion
1070
     0
1000
AcDbSavedByObjectVersion
1070
     0
  0
VISUALSTYLE
  5
A6
102
{ACAD_REACTORS
330
7F
102
}
330
7F
100
AcDbVisualStyle
  2
3dWireframe
 70
     5
 71
     0
 72
     2
 73
     0
 90
        0
 40
-0.6
 41
-30.0
 62
     5
 63
     7
 74
     1
 91
        4
 64
     7
 65
   257
 75
     1
175
     1
 42
1.0
 92
        0
 66
   257
 43
1.0
 76
     1
 77
     6
 78
     2
 67
     7
 79
     5
170
     0
171
     0
290
     0
174
     0
 93
        1
 44
0.0
173
     0
291
     0
 45
0.0
1001
ACAD
1000
AcDbSavedByObjectVersion
1070
     0
1000
AcDbSavedByObjectVersion
1070
     0
1000
AcDbSavedByObjectVersion
1070
     0
1000
AcDbSavedByObjectVersion
1070
     0
  0
VISUALSTYLE
  5
D7
102
{ACAD_REACTORS
330
7F
102
}
330
7F
100
AcDbVisualStyle
  2
Basic
 70
     7
 71
     1
 72
     0
 73
     1
 90
        0
 40
-0.6
 41
-30.0
 62
     5
 63
     7
 74
     0
 91
        4
 64
     7
 65
   257
 75
     1
175
     1
 42
1.0
 92
        8
 66
     7
 43
1.0
 76
     1
 77
     6
 78
     2
 67
     7
 79
     5
170
     0
171
     0
290
     0
174
     0
 93
        1
 44
0.0
173
     0
291
     1
 45
0.0
1001
ACAD
1000
AcDbSavedByObjectVersion
1070
     0
1000
AcDbSavedByObjectVersion
1070
     0
1000
AcDbSavedByObjectVersion
1070
     0
  0
VISUALSTYLE
  5
DB
102
{ACAD_REACTORS
330
7F
102
}
330
7F
100
AcDbVisualStyle
  2
Brighten
 70
    12
 71
     2
 72
     2
 73
     0
 90
        0
 40
-0.6
 41
-30.0
 62
     5
 63
     7
 74
     1
 91
        4
 64
     7
 65
   257
 75
     1
175
     1
 42
1.0
 92
        8
 66
     7
 43
1.0
 76
     1
 77
     6
 78
     2
 67
     7
 79
     5
170
     0
171
     0
290
     0
174
     0
 93
        1
 44
50.0
173
     0
291
     1
 45
0.0
1001
ACAD
1000
AcDbSavedByObjectVersion
1070
     0
1000
AcDbSavedByObjectVersion
1070
     0
1000
AcDbSavedByObjectVersion
1070
     0
  0
VISUALSTYLE
  5
DF
102
{ACAD_REACTORS
330
7F
102
}
330
7F
100
AcDbVisualStyle
  2
ColorChange
 70
    16
 71
     2
 72
     2
 73
     3
 90
        0
 40
-0.6
 41
-30.0
 62
     5
 63
     8
 74
     1
 91
        4
 64
     7
 65
   257
 75
     1
175
     1
 42
1.0
 92
        8
 66
     8
 43
1.0
 76
     1
 77
     6
 78
     2
 67
     7
 79
     5
170
     0
171
     0
290
     0
174
     0
 93
        1
 44
0.0
173
     0
291
     1
 45
0.0
1001
ACAD
1000
AcDbSavedByObjectVersion
1070
     0
1000
AcDbSavedByObjectVersion
1070
     0
1000
AcDbSavedByObjectVersion
1070
     0
  0
VISUALSTYLE
  5
D9
102
{ACAD_REACTORS
330
7F
102
}
330
7F
100
AcDbVisualStyle
  2
Conceptual
 70
     9
 71
     3
 72
     2
 73
     0
 90
        0
 40
-0.6
 41
-30.0
 62
     5
 63
     7
 74
     2
 91
        2
 64
     7
 65
   257
 75
     1
175
     1
 42
40.0
 92
        8
 66
     7
 43
1.0
 76
     1
 77
     6
 78
     2
 67
     7
 79
     3
170
     0
171
     0
290
     0
174
     0
 93
        1
 44
0.0
173
     0
291
     0
 45
0.0
1001
ACAD
1000
AcDbSavedByObjectVersion
1070
     0
1000
AcDbSavedByObjectVersion
1070
     0
1000
AcDbSavedByObjectVersion
1070
     0
  0
VISUALSTYLE
  5
DA
102
{ACAD_REACTORS
330
7F
102
}
330
7F
100
AcDbVisualStyle
  2
Dim
 70
    11
 71
     2
 72
     2
 73
     0
 90
        0
 40
-0.6
 41
-30.0
 62
     5
 63
     7
 74
     1
 91
        4
 64
     7
 65
   257
 75
     1
175
     1
 42
1.0
 92
        8
 66
     7
 43
1.0
 76
     1
 77
     6
 78
     2
 67
     7
 79
     5
170
     0
171
     0
290
     0
174
     0
 93
        1
 44
-50.0
173
     0
291
     1
 45
0.0
1001
ACAD
1000
AcDbSavedByObjectVersion
1070
     0
1000
AcDbSavedByObjectVersion
1070
     0
1000
AcDbSavedByObjectVersion
1070
     0
  0
VISUALSTYLE
  5
DE
102
{ACAD_REACTORS
330
7F
102
}
330
7F
100
AcDbVisualStyle
  2
Facepattern
 70
    15
 71
     2
 72
     2
 73
     0
 90
        0
 40
-0.6
 41
-30.0
 62
     5
 63
     7
 74
     1
 91
        4
 64
     7
 65
   257
 75
     1
175
     1
 42
1.0
 92
        8
 66
     7
 43
1.0
 76
     1
 77
     6
 78
     2
 67
     7
 79
     5
170
     0
171
     0
290
     0
174
     0
 93
        1
 44
0.0
173
     0
291
     1
 45
0.0
1001
ACAD
1000
AcDbSavedByObjectVersion
1070
     0
1000
AcDbSavedByObjectVersion
1070
     0
1000
AcDbSavedByObjectVersion
1070
     0
  0
VISUALSTYLE
  5
D3
102
{ACAD_REACTORS
330
7F
102
}
330
7F
100
AcDbVisualStyle
  2
Flat
 70
     0
 71
     2
 72
     1
 73
     1
 90
        2
 40
-0.6
 41
30.0
 62
     5
 63
     7
 74
     0
 91
        4
 64
     7
 65
   257
 75
     1
175
     1
 42
1.0
 92
        8
 66
     7
 43
1.0
 76
     1
 77
     6
 78
     2
 67
     7
 79
     5
170
     0
171
     0
290
     0
174
     0
 93
       13
 44
0.0
173
     0
291
     1
 45
0.0
1001
ACAD
1000
AcDbSavedByObjectVersion
1070
     0
1000
AcDbSavedByObjectVersion
1070
     0
1000
AcDbSavedByObjectVersion
1070
     0
  0
VISUALSTYLE
  5
D4
102
{ACAD_REACTORS
330
7F
102
}
330
7F
100
AcDbVisualStyle
  2
FlatWithEdges
 70
     1
 71
     2
 72
     1
 73
     1
 90
        2
 40
-0.6
 41
30.0
 62
     5
 63
     7
 74
     1
 91
        4
 64
     7
 65
   257
 75
     1
175
     1
 42
1.0
 92
        0
 66
   257
 43
1.0
 76
     1
 77
     6
 78
     2
 67
     7
 79
     5
170
     0
171
     0
290
     0
174
     0
 93
       13
 44
0.0
173
     0
291
     1
 45
0.0
1001
ACAD
1000
AcDbSavedByObjectVersion
1070
     0
1000
AcDbSavedByObjectVersion
1070
     0
1000
AcDbSavedByObjectVersion
1070
     0
  0
VISUALSTYLE
  5
D5
102
{ACAD_REACTORS
330
7F
102
}
330
7F
100
AcDbVisualStyle
  2
Gouraud
 70
     2
 71
     2
 72
     2
 73
     1
 90
        2
 40
-0.6
 41
30.0
 62
     5
 63
     7
 74
     0
 91
        4
 64
     7
 65
   257
 75
     1
175
     1
 42
1.0
 92
        0
 66
     7
 43
1.0
 76
     1
 77
     6
 78
     2
 67
     7
 79
     5
170
     0
171
     0
290
     0
174
     0
 93
       13
 44
0.0
173
     0
291
     1
 45
0.0
1001
ACAD
1000
AcDbSavedByObjectVersion
1070
     0
1000
AcDbSavedByObjectVersion
1070
     0
1000
AcDbSavedByObjectVersion
1070
     0
  0
VISUALSTYLE
  5
D6
102
{ACAD_REACTORS
330
7F
102
}
330
7F
100
AcDbVisualStyle
  2
GouraudWithEdges
 70
     3
 71
     2
 72
     2
 73
     1
 90
        2
 40
-0.6
 41
30.0
 62
     5
 63
     7
 74
     1
 91
        4
 64
     7
 65
   257
 75
     1
175
     1
 42
1.0
 92
        0
 66
   257
 43
1.0
 76
     1
 77
     6
 78
     2
 67
     7
 79
     5
170
     0
171
     0
290
     0
174
     0
 93
       13
 44
0.0
173
     0
291
     1
 45
0.0
1001
ACAD
1000
AcDbSavedByObjectVersion
1070
     0
1000
AcDbSavedByObjectVersion
1070
     0
1000
AcDbSavedByObjectVersion
1070
     0
  0
VISUALSTYLE
  5
DD
102
{ACAD_REACTORS
330
7F
102
}
330
7F
100
AcDbVisualStyle
  2
Linepattern
 70
    14
 71
     2
 72
     2
 73
     0
 90
        0
 40
-0.6
 41
-30.0
 62
     5
 63
     7
 74
     1
 91
        4
 64
     7
 65
   257
 75
     7
175
     7
 42
1.0
 92
        8
 66
     7
 43
1.0
 76
     1
 77
     6
 78
     2
 67
     7
 79
     5
170
     0
171
     0
290
     0
174
     0
 93
        1
 44
0.0
173
     0
291
     1
 45
0.0
1001
ACAD
1000
AcDbSavedByObjectVersion
1070
     0
1000
AcDbSavedByObjectVersion
1070
     0
1000
AcDbSavedByObjectVersion
1070
     0
  0
VISUALSTYLE
  5
A5
102
{ACAD_REACTORS
330
7F
102
}
330
7F
100
AcDbVisualStyle
  2
Realistic
 70
     8
 71
     2
 72
     2
 73
     0
 90
        0
 40
-0.6
 41
-30.0
 62
     5
 63
     7
 74
     1
 91
        0
 64
     7
 65
   257
 75
     1
175
     1
 42
1.0
 92
        8
 66
     8
 43
1.0
 76
     1
 77
     6
 78
     2
 67
     7
 79
     5
170
     0
171
     0
290
     0
174
     0
 93
       13
 44
0.0
173
     0
291
     0
 45
0.0
1001
ACAD
1000
AcDbSavedByObjectVersion
1070
     0
1000
AcDbSavedByObjectVersion
1070
     0
1000
AcDbSavedByObjectVersion
1070
     0
1000
AcDbSavedByObjectVersion
1070
     0
  0
VISUALSTYLE
  5
DC
102
{ACAD_REACTORS
330
7F
102
}
330
7F
100
AcDbVisualStyle
  2
Thicken
 70
    13
 71
     2
 72
     2
 73
     0
 90
        0
 40
-0.6
 41
-30.0
 62
     5
 63
     7
 74
     1
 91
        4
 64
     7
 65
   257
 75
     1
175
     1
 42
1.0
 92
       12
 66
     7
 43
1.0
 76
     1
 77
     6
 78
     2
 67
     7
 79
     5
170
     0
171
     0
290
     0
174
     0
 93
        1
 44
0.0
173
     0
291
     1
 45
0.0
1001
ACAD
1000
AcDbSavedByObjectVersion
1070
     0
1000
AcDbSavedByObjectVersion
1070
     0
1000
AcDbSavedByObjectVersion
1070
     0
  0
DICTIONARYVAR
  5
AA
102
{ACAD_REACTORS
330
A9
102
}
330
A9
100
DictionaryVariables
280
     0
  1
STANDARD
  0
DICTIONARYVAR
  5
AE
102
{ACAD_REACTORS
330
A9
102
}
330
A9
100
DictionaryVariables
280
     0
  1
2
  0
DICTIONARYVAR
  5
AD
102
{ACAD_REACTORS
330
A9
102
}
330
A9
100
DictionaryVariables
280
     0
  1
1
  0
DICTIONARYVAR
  5
AC
102
{ACAD_REACTORS
330
A9
102
}
330
A9
100
DictionaryVariables
280
     0
  1
0
  0
DICTIONARYVAR
  5
16A
102
{ACAD_REACTORS
330
A9
102
}
330
A9
100
DictionaryVariables
280
     0
  1

  0
DICTIONARYVAR
  5
AB
102
{ACAD_REACTORS
330
A9
102
}
330
A9
100
DictionaryVariables
280
     0
  1
127
  0
XRECORD
  5
24A0
102
{ACAD_REACTORS
330
249E
102
}
330
249E
100
AcDbXrecord
280
     1
330
0
330
0
330
0
330
0
330
0
330
0
330
0
330
0
330
0
330
0
330
0
330
0
330
0
330
0
330
0
330
0
330
0
330
0
330
0
330
0
330
0
330
0
330
0
330
0
330
0
330
0
  0
DICTIONARY
  5
83
330
82
100
AcDbDictionary
280
     1
281
     1
  3
ACAD_XREC_ROUNDTRIP
360
3FEB
  3
ADSK_XREC_LAYOUTTHUMBNAIL
360
84
  0
DICTIONARY
  5
3FEC
330
89
100
AcDbDictionary
280
     1
281
     1
  3
ACAD_XREC_ROUNDTRIP
360
3FED
  0
DICTIONARY
  5
3FE5
330
77
100
AcDbDictionary
280
     1
281
     1
  3
ACAD_XREC_ROUNDTRIP
360
3FE6
  0
DICTIONARY
  5
3FF0
330
A0
100
AcDbDictionary
280
     1
281
     1
  3
ACAD_XREC_ROUNDTRIP
360
3FF1
  0
DICTIONARY
  5
3FEE
330
9F
100
AcDbDictionary
280
     1
281
     1
  3
ACAD_XREC_ROUNDTRIP
360
3FEF
  0
DICTIONARY
  5
3FE3
330
A
100
AcDbDictionary
280
     1
281
     1
  3
ACAD_XREC_ROUNDTRIP
360
3FE4
  0
DICTIONARY
  5
3FF2
330
A4
100
AcDbDictionary
280
     1
281
     1
  3
ACAD_XREC_ROUNDTRIP
360
3FF3
  0
XRECORD
  5
3FEB
102
{ACAD_REACTORS
330
83
102
}
330
83
100
AcDbXrecord
280
     1
102
SHADEPLOT
 70
     0
102
SHADEPLOTRESLEVEL
 70
     2
102
SHADEPLOTCUSTOMDPI
 70
   300
  0
XRECORD
  5
84
102
{ACAD_REACTORS
330
83
102
}
330
83
100
AcDbXrecord
280
     1
310
28000000B40000007F00000001000800000000004C59000000000000000000000001000000000000FFFFFF0000000000FFFFFF000000000000000000000000000000000000000000000000000000000000000000330000006600000099000000CC000000FF00000000330000333300006633000099330000CC330000FF3300
310
0000660000336600006666000099660000CC660000FF66000000990000339900006699000099990000CC990000FF99000000CC000033CC000066CC000099CC0000CCCC0000FFCC000000FF000033FF000066FF000099FF0000CCFF0000FFFF000000003300330033006600330099003300CC003300FF003300003333003333
310
33006633330099333300CC333300FF33330000663300336633006666330099663300CC663300FF66330000993300339933006699330099993300CC993300FF99330000CC330033CC330066CC330099CC3300CCCC3300FFCC330000FF330033FF330066FF330099FF3300CCFF3300FFFF330000006600330066006600660099
310
006600CC006600FF00660000336600333366006633660099336600CC336600FF33660000666600336666006666660099666600CC666600FF66660000996600339966006699660099996600CC996600FF99660000CC660033CC660066CC660099CC6600CCCC6600FFCC660000FF660033FF660066FF660099FF6600CCFF6600
310
FFFF660000009900330099006600990099009900CC009900FF00990000339900333399006633990099339900CC339900FF33990000669900336699006666990099669900CC669900FF66990000999900339999006699990099999900CC999900FF99990000CC990033CC990066CC990099CC9900CCCC9900FFCC990000FF99
310
0033FF990066FF990099FF9900CCFF9900FFFF99000000CC003300CC006600CC009900CC00CC00CC00FF00CC000033CC003333CC006633CC009933CC00CC33CC00FF33CC000066CC003366CC006666CC009966CC00CC66CC00FF66CC000099CC003399CC006699CC009999CC00CC99CC00FF99CC0000CCCC0033CCCC0066CC
310
CC0099CCCC00CCCCCC00FFCCCC0000FFCC0033FFCC0066FFCC0099FFCC00CCFFCC00FFFFCC000000FF003300FF006600FF009900FF00CC00FF00FF00FF000033FF003333FF006633FF009933FF00CC33FF00FF33FF000066FF003366FF006666FF009966FF00CC66FF00FF66FF000099FF003399FF006699FF009999FF00CC
310
99FF00FF99FF0000CCFF0033CCFF0066CCFF0099CCFF00CCCCFF00FFCCFF0000FFFF0033FFFF0066FFFF0099FFFF00CCFFFF00FFFFFF00000000000D0D0D001A1A1A00282828003535350043434300505050005D5D5D006B6B6B00787878008686860093939300A1A1A100AEAEAE00BBBBBB00C9C9C900D6D6D600E4E4E400
310
F1F1F100FFFFFF0000000000000000000000000000000000000000000000000000000000000000000000000000000000E2E2E2E2E2E2E2E2E2E2E2E2E2E2E2E2E2E2E2E2E2E2E2E2E2E2E2E2E2E2E2E2E2E2E2E2E2E2E2E2E2E2E2E2E2E2E2E2E2E2E2E2E2E2E2E2E2E2E2E2E2E2E2E2E2E2E2E2E2E2E2E2E2E2E2E2E2E2E2
310
E2E2E2E2E2E2E2E2E2E2E2E2E2E2E2E2E2E2E2E2E2E2E2E2E2E2E2E2E2E2E2E2E2E2E2E2E2E2E2E2E2E2E2E2E2E2E2E2E2E2E2E2E2E2E2E2E2E2E2E2E2E2E2E2E2E2E2E2E2E2E2E2E2E2E2E2E2E2E2E2E2E2E2E2E2E2E2E2E2E2E2E2E2E2E2E2E2E2E2E2E2E2F5F5F5F5F5F5F5F5F5F5F5F5F5F5F5F5F5F5F5F5F5F5F5F5F5
310
F5F5F5F5F5F5F5F5F5F5F5F5F5F5F5F5F5F5F5F5F5F5F5F5F5F5F5F5F5F5F5F5F5F5F5F5F5F5F5F5F5F5F5F5F5F5F5F5F5F5F5F5F5F5F5F5F5F5F5F5F5F5F5F5F5F5F5F5F5F5F5F5F5F5F5F5F5F5F5F5F5F5F5F5F5F5F5F5F5F5F5F5F5F5F5F5F5F5F5F5F5F5F5F5F5F5F5F5F5F5F5F5F5F5F5F5F5F5F5F5F5F5F5F5F5F5F5
310
F5F5F5F5F5F5F5F5F5F5F5F5F5F5F5F5F5F5F5F5F5F5F5F5F5F5E2E2F5E2E2E2E2E2E2E2E2E2F5F5F5F5F5F5F5F5F5E2E2E2E2E2E2E2E2E2E2E2E2E2E2E2E2F5F5F5F5F5F5F5F5F5E2E2E2E2E2E2E2E2E2E2E2E2E2E2E2E2F5F5F5F5F5F5F5F5F5E2E2E2E2E2E2E2E2E2E2E2E2E2E2E2E2F5F5F5F5F5F5F5F5F5E2E2E2E2E2
310
E2E2E2E2E2E2E2E2E2E2E2F5F5F5F5F5F5F5F5F5E2E2E2E2E2E2E2E2E2E2E2E2E2E2E2E2F5F5F5F5F5F5F5F5F5E2E2E2E2E2E2E2E2E2E2E2E2E2E2E2E2F5F5F5F5F5F5F5F5F5E2E2E2E2E2E2E2E2F5E2E2F5E2F5F5F5F5F5F5F5F5F5F5F5F5F5F5F5F5F5F5F5F5F5F5F5F5F5F5F5F5F5F5F5F5F5F5F5F5F5F5F5F5F5F5F5F5
310
F5F5F5F5F5F5F5F5F5F5F5F5F5F5F5F5F5F5F5F5F5F5F5F5F5F5F5F5F5F5F5F5F5F5F5F5F5F5F5F5F5F5F5F5F5F5F5F5F5F5F5F5F5F5F5F5F5F5F5F5F5F5F5F5F5F5F5F5F5F5F5F5F5F5F5F5F5F5F5F5F5F5F5F5F5F5F5F5F5F5F5F5F5F5F5F5F5F5F5F5F5F5F5F5F5F5F5F5F5F5F5F5F5F5F5F5F5F5F5F5F5F5F5F5F5F5F5
310
F5F5F5E2F5E2E2F5E2F5F5F5F5F5F5F5F5F5F5F5F5F5F5F5F5F5F5F5F5F5F5F5F5F5F5F5F5F5F5F5F5F5F5F5F5F5F5F5F5F5F5F5F5F5F5F5F5F5F5F5F5F5F5F5F5F5F5F5F5F5F5F5F5F5F5F5F5F5F5F5F5F5F5F5F5F5F5F5F5F5F5F5F5F5F5F5F5F5F5F5F5F5F5F5F5F5F5F5F5F5F5F5F5F5F5F5F5F5F5F5F5F5F5F5F5F5F5
310
F5F5F5F5F5F5F5F5F5F5F5F5F5F5F5F5F5F5F5F5F5F5F5F5F5F5F5F5F5F5F5F5F5F5F5F5F5F5F5F5F5F5F5F5F5F5F5F5F5F5F5F5F5F5F5F5E2F5E2E2F5E2F5F5F5F5F5F5F5F5F5F5F5F5F5F5F5F5F5F5F5F5F5F5F5F5F5F5F5F5F5F5F5F5F5F5F5F5F5F5F5F5F5F5F5F5F5F5F5F5F5F5F5F5F5F5F5F5F5F5F5F5F5F5F5F5F5
310
F5F5F5F5F5F5F5F5F5F5F5F5F5F5F5F5F5F5F5F5F5F5F5F5F5F5F5F5F5F5F5F5F5F5F5F5F5F5F5F5F5F5F5F5F5F5F5F5F5F5F5F5F5F5F5F5F5F5F5F5F5F5F5F5F5F5F5F5F5F5F5F5F5F5F5F5F5F5F5F5F5F5F5F5F5F5F5F5F5F5F5F5F5F5F5F5F5F5F5F5F5F5F5F5F5F5F5F5F5E2F5E2E2F5E2F5F5F5F5F5F5F5F5F5F5F5F5
310
F5F5F5F5F5F5F5F5F5F5F5F5F5F5F5F5F5F5F5F5F5F5F5F5F5F5F5F5F5F5F5F5F5F5F5F5F5F5F5F5F5F5F5F5F5F5F5F5F5F5F5F5F5F5F5F5F5F5F5F5F5F5F5F5F5F5F5F5F5F5F5F5F5F5F5F5F5F5F5F5F5F5F5F5F5F5F5F5F5F5F5F5F5F5F5F5F5F5F5F5F5F5F5F5F5F5F5F5F5F5F5F5F5F5F5F5F5F5F5F5F5F5F5F5F5F5F5
310
F5F5F5F5F5F5F5F5F5F5F5F5F5F5F5F5F5F5F5F5F5F5F5F5F5F5F5F5F5F5F5F5F5F5F5E2F5E2E2F5E2F5F5F5F5F5F5F5F5F5F5F5F5F5F5F5F5F5F5F5F5F5F5F5F5F5F5F5F5F5F5F5F5F5F5F5F5F5F5F5F5F5F5F5F5F5F5F5F5F5F5F5F5F5F5F5F5F5F5F5F5F5F5F5F5F5F5F5F5F5F5F5F5F5F5F5F5F5F5F5F5F5F5F5F5F5F5
310
F5F5F5F5F5F5F5F5F5F5F5F5F5F5F5F5F5F5F5F5F5F5F5F5F5F5F5F5F5F5F5F5F5F5F5F5F5F5F5F5F5F5F5F5F5F5F5F5F5F5F5F5F5F5F5F5F5F5F5F5F5F5F5F5F5F5F5F5F5F5F5F5F5F5F5F5F5F5F5F5F5F5F5F5F5F5F5F5E2F5E2E2F5E2F5F5F5F5F5F5F5F5F5F5F5F5F5F5F5F5F5F5F5F5F5F5F5F5F5F5F5F5F5F5F5F5F5
310
F5F5F5F5F5F5F5F5F5F5F5F5F5F5F5F5F5F5F5F5F5F5F5F5F5F5F5F5F5F5F5F5F5F5F5F5F5F5F5F5F5F5F5F5F5F5F5F5F5F5F5F5F5F5F5F5F5F5F5F5F5F5F5F5F5F5F5F5F5F5F5F5F5F5F5F5F5F5F5F5F5F5F5F5F5F5F5F5F5F5F5F5F5F5F5F5F5F5F5F5F5F5F5F5F5F5F5F5F5F5F5F5F5F5F5F5F5F5F5F5F5F5F5F5F5F5F5
310
F5F5F5F5F5F5F5F5F5F5F5F5F5F5E2F5E2E2F5E2F5F5F5F5F5F5F5F5F5F5F5F5F5F5F5F5F5F5F5F5F5F5F5F5F5F5F5F5F5F5F5F5F5F5F5F5F5F5F5F5F5F5F5F5F5F5F5F5F5F5F5F5F5F5F5F5F5F5F5F5F5F5F5F5F5F5F5F5F5F5F5F5F5F5F5F5F5F5F5F5F5F5F5F5F5F5F5F5F5F5F5F5F5F5F5F5F5F5F5F5F5F5F5F5F5F5F5
310
F5F5F5F5F5F5F5F5F5F5F5F5F5F5F5F5F5F5F5F5F5F5F5F5F5F5F5F5F5F5F5F5F5F5F5F5F5F5F5F5F5F5F5F5F5F5F5F5F5F5F5F5F5F5F5F5F5F5F5F5F5F5F5F5F5F5F5E2F5E2E2F5F5F5F5F5F5F5F5F5F5F5F5F5F5F5F5F5F5F5F5F5F5F5F5F5F5F5F5F5F5F5F5F5F5F5F5F5F5F5F5F5F5F5F5F5F5F5F5F5F5F5F5F5F5F5F5
310
F5F5F5F5F5F5F5F5F5F5F5F5F5F5F5F5F5F5F5F5F5F5F5F5F5F5F5F5F5F5F5F5F5F5F5F5F5F5F5F5F5F5F5F5F5F5F5F5F5F5F5F5F5F5F5F5F5F5F5F5F5F5F5F5F5F5F5F5F5F5F5F5F5F5F5F5F5F5F5F5F5F5F5F5F5F5F5F5F5F5F5F5F5F5F5F5F5F5F5F5F5F5F5F5F5F5F5F5F5F5F5F5F5F5F5F5F5F5F5F5F5F5E2E2F5F5F5
310
F5F5F5F5F5F5F5F5F5F5F5F5F5F5F5F5F5F5F5F5F5F5F5F5F5F5F5F5F5F5F5F5F5F5F5F5F5F5F5F5F5F5F5F5F5F5F5F5F5F5F5F5F5F5F5F5F5F5F5F5F5F5F5F5F5F5F5F5F5F5F5F5F5F5F5F5F5F5F5F5F5F5F5F5F5F5F5F5F5F5F5F5F5F5F5F5F5F5F5F5F5F5F5F5F5F5F5F5F5F5F5F5F5F5F5F5F5F5F5F5F5F5F5F5F5F5F5
310
F5F5F5F5F5F5F5F5F5F5F5F5F5F5F5F5F5F5F5F5F5F5F5F5F5F5F5F5F5F5F5F5F5F5F5F5F5F5F5F5F5F5F5F5F5F5F5F5E2E2F5F5F5F5F5F5F5F5F5F5F5F5F5F5F5F5F5F5F5F5F5F5F5F5F5F5F5F5F5F5F5F5F5F5F5F5F5F5F5F5F5F5F5F5F5F5F5F5F5F5F5F5F5F5F5F5F5F5F5F5F5F5F5F5F5F5F5F5F5F5F5F5F5F5F5F5F5
310
F5F5F5F5F5F5F5F5F5F5F5F5F5F5F5F5F5F5F5F5F5F5F5F5F5F5F5F5F5F5F5F5F5F5F5F5F5F5F5F5F5F5F5F5F5F5F5F5F5F5F5F5F5F5F5F5F5F5F5F5F5F5F5F5F5F5F5F5F5F5F5F5F5F5F5F5F5F5F5F5F5F5F5F5F5F5F5F5F5F5F5F5F5F5F5F5F5F5F5F5F5E2E2F5F5F5F5F5F5F5F5F5F5F5F5F5F5F5F5F5F5F5F5F5F5F5F5
310
F5F5F5F5F5F5F5F5F5F5F5F5F5F5F5F5F5F5F5F5F5F5F5F5F5F5F5F5F5F5F5F5F5F5F5F5F5F5F5F5F5F5F5F5F5F5F5F5F5F5F5F5F5F5F5F5F5F5F5F5F5F5F5F5F5F5F5F5F5F5F5F5F5F5F5F5F5F5F5F5F5F5F5F5F5F5F5F5F5F5F5F5F5F5F5F5F5F5F5F5F5F5F5F5F5F5F5F5F5F5F5F5F5F5F5F5F5F5F5F5F5F5F5F5F5F5F5
310
F5F5F5F5F5F5F5F5F5F5F5F5F5F5F5F5F5F5F5F5F5F5F5F5F5F5F5E2E2F5F5F5F5F5F5F5F5F5F5F5F5F5F5F5F5F5F5F5DCDCDCDCDCDCDCDCDCDCDCDCDCDCDCDCDCDCDCDCDCDCDCDCDCDCDCDCDCDCDCDCDCDCDCDCDCDCDCDCDCDCDCDCDCDCDCDCDCDCDCDCDCDCDCDCDCDCDCDCDCDCDCDCDCDCDCDCDCDCDCDCDCDCDCDCDCDCDC
310
DCDCDCDCDCDCDCDCDCDCDCDCDCDCDCDCDCDCDCDCDCDCDCDCDCDCDCDCDCDCDCDCDCDCDCDCDCDCDCDCDCDCDCDCDCDCDCDCDCDCDCDCDCDCDCDCDCDCDCDCDCF5F5F5F5F5F5F5F5F5F5F5F5F5F5F5F5F5F5F5E2E2F5F5F5F5F5F5F5F5F5F5F5F5F5F5F5F5F5F5F5DCDCDCDCDCDCDCDCDCDCDCDCDCDCDCDCDCDCDCDCDCDCDCDCDCDC
310
DCDCDCDCDCDCDCDCDCDCDCDCDCDCDCDCDCDCDCDCDCDCDCDCDCDCDCDCDCDCDCDCDCDCDCDCDCDCDCDCDCDCDCDCDCDCDCDCDCDCDCDCDCDCDCDCDCDCDCDCDCDCDCDCDCDCDCDCDCDCDCDCDCDCDCDCDCDCDCDCDCDCDCDCDCDCDCDCDCDCDCDCDCDCDCDCDCDCDCDCDCDCDCDCDCDCDCDCDCDCDCDCDCDCF5F5F5F5F5F5F5F5F5F5F5F5F5
310
F5F5F5F5F5F5E2E2F5F5F5F5F5F5F5F5F5F5F5F5F5F5F5F5F5F5F5DCF5F5F5F5F5F5F5F5F5F5F5F5F5F5F5F5F5F5F5F5F5F5F5F5F5F5F5F5F5F5F5F5F5F5F5F5F5F5F5F5F5F5F5F5F5F5F5F5F5F5F5F5F5F5F5F5F5F5F5F5F5F5F5F5F5F5F5F5F5F5F5F5F5F5F5F5F5F5F5F5F5F5F5F5F5F5F5F5F5F5F5F5F5F5F5F5F5F5F5
310
F5F5F5F5F5F5F5F5F5F5F5F5F5F5F5F5F5F5F5F5F5F5F5F5F5F5F5F5F5F5F5F5F5F5F5F5F5F5F5DCF5F5F5F5F5F5F5F5F5F5F5F5F5F5F5F5F5F5F5E2E2F5F5F5F5F5F5F5F5F5F5F5F5F5F5F5F5F5F5F5DCF5282828282828282828282828282828282828282828282828282828282828282828282828282828282828282828
310
28282828282828282828282828282828282828282828282828282828282828282828282828282828282828282828282828282828282828282828282828282828282828282828282828282828282828282828282828282828282828F5DCF5F5F5F5F5F5F5F5F5F5F5F5F5F5F5F5F5F5F5E2E2F5F5F5F5F5F5F5F5F5F5F5F5F5
310
F5F5F5F5F5F5DCF5282D2D2D2D2D2D2D2D2D2D2D2D2D2D2D2D2D2D2D2D2DF5F5F5F5F5F5F5F5F5F5F5F5F5F5F5F5F5F5F5F5F5F5F5F5F5F5F5F5F5F5F5F5F5F5F5F5F5F5F5F5F5F5F5F5F528F5F5F5F5F5F5F5F5F5F5F5F5F5F5F5F5F5F5F5F5F5F5F5F5F5F5F5F5F5F5F5F5F5F5F5F5F5F5F5F5F5F5F5F5F5F5F5F5F5F5F5
310
F5F5F5F5F5F5F5F5F5F5F5F5F5F5F5F528F5DCF5F5F5F5F5F5F5F5F5F5F5F5F5F5F5F5F5F5F5E2E2F5E2F5F5F5F5F5F5F5F5F5F5F5F5F5F5F5F5F5DCF5282D2D2D2D2D2D2D2D2D2D2D2D2D2D2D2D2D2D2D2D2D2D2D2D2D2D2D2D2DF5F5F5F5F5F5F5F5F5F5F5F5F5F5F5F5F5F5F5F5F5F5F5F5F5F5F5F5F5F5F5F5F5F5F5F5
310
F528F5F5F5F5F5F5F5F5F5F5F5F5F5F5F5F5F5F5F5F5F5F5F5F5F5F5F5F5F5F5F5F5F5F5F5F5F5F5F5F5F5F5F5F5F5F5F5F5F5F5F5F5F5F5F5F5F5F5F5F5F5F5F5F5F5F5F528F5DCF5F5F5F5F5F5F5F5F5F5F5F5F5F5F5F5F5E2F5E2E2F5E2F5F5F5F5F5F5F5F5F5F5F5F5F5F5F5F5F5DCF5282D2D2D2D2D2D2D2D2D2D2D2D
310
2D2D2D2D2D2D2D2D2D2D2D2D2D2D2D2D2DF5F5F5F5F5F5F5F5F5F5F5F5F5F5F5F5F5F5F5F5F5F5F5F5F5F5F5F5F5F5F5F5F5F5F5F5F528F5F5F5F5F5F5F5F52D2D2D2D2D2D2D2D2D2D2D2D2D2D2D2D2D2D2D2D2D2D2D2D2D2D2D2D2D2D2D2D2D2D2D2D2D2D2D2D2D2D2D2D2D2D2D2D2D2D2DF5F5F5F5F5F5F5F528F5DCF5F5
310
F5F5F5F5F5F5F5F5F5F5F5F5F5F5F5E2F5E2E2F5E2F5F5F5F5F5F5F5F5F5F5F5F5F5F5F5F5F5DCF5282D2D2D2D2D2D2D2D2D2D2D2D2D2D2D2D2D2D2D2D2D2D2D2D2D2D2D2D2D2D2D2D2D2D2D2D2D2D2D2D2D2D2D2D2D2D2D2D2D2D2D2D2D2D2D2D2D2D2D2D2D2D2D2D2D2D28F5F5F5F5F5F5F5F52D2D2D2D2D2D2D2D2D2D2D
310
2D2D2D2D2D2D2D2D2D2D2D2D2D2D2D2D2D2D2D2D2D2D2D2D2D2D2D2D2D2D2D2D2D2D2D2D2D2D2D2DF5F5F5F5F5F5F5F528F5DCF5F5F5F5F5F5F5F5F5F5F5F5F5F5F5F5F5E2F5E2E2F5E2F5F5F5F5F5F5F5F5F5F5F5F5F5F5F5F5F5DCF5282D2D2D2D2D2D2D2D2D2D2D2D2D2D2D2D2D2D2D2D2D2D2D2D2D2D2D2D2D2D2D2D2D
310
2D2D2D2D2D2D2D2D2D2D2D2D2D2D2D2D2D2D2D2D2D2D2D2D2D2D2D2D2DF5F5F5F528F5F5F5F5F5F5F5F5F5F5F5F52D2D2D2D2D2D2D2D2D2D2D2D2D2D2D2D2D2D2D2D2D2D2D2D2D2D2D2D2D2D2D2D2D2D2D2D2D2D2D2D2D2DF5F5F5F5F5F5F5F5F5F5F5F5F528F5DCF5F5F5F5F5F5F5F5F5F5F5F5F5F5F5F5F5E2F5E2E2F5E2
310
F5F5F5F5F5F5F5F5F5F5F5F5F5F5F5F5F5DCF5282D2D2D2D2D2D2D2D2D2D2D2D2D2D2D2D2D2D2D2D2D2D2D2D2D2D2D2D2D2D2D2D2D2D2D2D2D2D2D2D2D2D2D2D2D2D2D2D2D2D2D2D2D2D2D2D2D2D2D2D2D2DF5F5F5F528F5F5F5F5F5F5F5F5F5F5F5F52D2D2D2D2D2D2D2D2D2D2D2D2D2D2D2D2D2D2D2D2D2D2D2D2D2D2D2D
310
2D2D2D2D2D2D2D2D2D2D2D2D2D2DF5F5F5F5F5F5F5F5F5F5F5F5F528F5DCF5F5F5F5F5F5F5F5F5F5F5F5F5F5F5F5F5E2F5E2E2F5E2F5F5F5F5F5F5F5F5F5F5F5F5F5F5F5F5F5DCF5282D2D2D2D2D2D2D2D2D2D2D2D2D2D2D2D2D2D2D2D2D2D2D2D2D2D2D2D2D2D2D2D2D2D2D2D2D2D2D2D2D2D2D2D2D2D2D2D2D2D2D2D2D2D
310
2D2D2D2D2DF5F5F5F5F5F5F528F5F5F5F5F5F5F5F5F5F5F5F5F5F5F5F5F5F5F5F5F5F5F5F5F5F5F5F52D2D2D2D2D2D2D2D2D2DF5F5F5F5F5F5F5F5F5F5F5F5F5F5F5F5F5F5F5F5F5F5F5F5F5F5F5F5F528F5DCF5F5F5F5F5F5F5F5F5F5F5F5F5F5F5F5F5E2F5E2E2F5E2F5F5F5F5F5F5F5F5F5F5F5F5F5F5F5F5F5DCF5282D
310
2D2D2D2D2D2D2D2D2D2D2D2D2D2D2D2D2D2D2D2D2D2D2D2D2D2D2D2D2D2D2DF5F5F5F5F5F5F5F5F5F5F5F5F5F5F5F5F5F5F5F5F5F5F5F5F5F5F5F5F5F5F5F5F5F528F5F5F5F5F5F5F5F5F5F5F5F5F5F5F5F5F5F5F5F5F5F5F5F5F5F5F5F52D2D2D2D2D2D2D2D2D2DF5F5F5F5F5F5F5F5F5F5F5F5F5F5F5F5F5F5F5F5F5F5F5
310
F5F5F5F5F5F528F5DCF5F5F5F5F5F5F5F5F5F5F5F5F5F5F5F5F5E2F5E2E2F5E2F5F5F5F5F5F5F5F5F5F5F5F5F5F5F5F5F5DCF5282D2D2D2D2D2D2D2D2D2D2D2D2D2D2D2D2D2D2D2D2D2D2D2D2D2D2D2D2D2D2D2DF5F5F5F5F5F5F5F5F5F5F5F5F5F5F5F5F5F5F5F5F5F5F5F5F5F5F5F5F5F5F5F5F5F528F5F5F5F5F5F5F5F5
310
F5F5F5F5F5F5F5F5F5F5F5F5F5F5F5F5F5F5F5F52D2D2D2D2D2D2D2D2D2DF5F5F5F5F5F5F5F5F5F5F5F5F5F5F5F5F5F5F5F5F5F5F5F5F5F5F5F5F528F5DCF5F5F5F5F5F5F5F5F5F5F5F5F5F5F5F5F5E2F5E2E2F5E2F5F5F5F5F5F5F5F5F5F5F5F5F5F5F5F5F5DCF5282D2D2D2D2D2D2D2D2D2D2D2D2D2D2D2D2D2D2D2D2D2D
310
2D2D2D2D2D2D2D2D2D2D2D2D2D2D2D2D2D2D2D2D2D2D2D2D2D2D2D2D2D2D2D2D2D2D2D2D2D2D2D2D2D2DF5F528F5F5F5F5F5F5F5F5F5F5F5F5F5F5F5F5F5F5F5F5F5F5F5F5F5F5F5F5F5F5F5F5F5F5F5F5F5F5F5F5F5F5F5F5F5F5F5F5F5F5F5F5F5F5F5F5F5F5F5F5F5F5F5F5F5F5F528F5DCF5F5F5F5F5F5F5F5F5F5F5F5
310
F5F5F5F5F5E2F5E2E2F5E2F5F5F5F5F5F5F5F5F5F5F5F5F5F5F5F5F5DCF528F5F5F5F5F5F5F5F5F5F5F5F5F5F5F5F5F5F5F5F5F5F5F5F5F5F5F5F5F5F5F5F5F5F5F5F5F5F5F5F5F5F5F5F5F5F5F5F5F5F5F5F5F5F5F5F5F5F5F5F5F5F5F5F5F5F528F5F5F5F5F5F5F5F5F5F5F5F5F5F5F5F5F5F5F5F5F5F5F5F5F5F5F5F5F5
310
F5F5F5F5F5F5F5F5F5F5F5F5F5F5F5F5F5F5F5F5F5F5F5F5F5F5F5F5F5F5F5F5F5F5F5F5F5F528F5DCF5F5F5F5F5F5F5F5F5F5F5F5F5F5F5F5F5E2F5E2E2F5E2F5F5F5F5F5F5F5F5F5F5F5F5F5F5F5F5F5DCF52828282828282828282828282828282828282828282828282828282828282828282828282828282828282828
310
2828282828282828282828282828282828282828282828282828282828282828282828282828282828282828282828282828282828282828282828282828282828282828282828282828282828282828282828282828282828282828F5DCF5F5F5F5F5F5F5F5F5F5F5F5F5F5F5F5F5E2F5E2E2F5E2F5F5F5F5F5F5F5F5F5F5
310
F5F5F5F5F5F5F5DCF528F5F5F5F5F5F5F5F5F5F5F5F5F5F5F5F5F5F5F5F5F5F5F5F5F5F5F5F5F5F5F5F5F5F5F5F5F5F5F5F5F5F5F5F5F5F5F5F5F5F5F5F5F5F5F5F5F5F5F5F5F5F5F5F5F5F5F5F5F5F5F5F5F5F5F5F5F5F5F5F5F5F5F5F5F5F5F5F5F5F5F5F5F5F5F5F5F5F5F5F5F5F5F5F5F5F5F5F5F5F5F5F5F5F5F5F5F5
310
F5F5F5F5F5F5F5F5F5F5F5F5F5F5F5F5F528F5DCF5F5F5F5F5F5F5F5F5F5F5F5F5F5F5F5F5E2F5E2E2F5E2F5F5F5F5F5F5F5F5F5F5F5F5F5F5F5F5F5DCF528F5F5F5F5F5F5F5F5F5F5F5F5F5F5F5F5F5F5F5F5F5F5F5F5F5F5F5F5F5F5F5F5F5F5F5F5F5F5F5F5F5F5F5F5F5F5F5F5F5F5F5F5F5F5F5F5F5F5F5F5F5F5F5F5
310
F5F5F5F5F5F5F5F5F5F5F5F5F5F5F5F5F5F5F5F5F5F5F5F5F5F5F5F5F5F5F5F5F5F5F5F5F5F5F5F5F5F5F5F5F5F5F5F5F5F5F5F5F5F5F5F5F5F5F5F5F5F5F5F5F5F5F5F5F5F528F5DCF5F5F5F5F5F5F5F5F5F5F5F5F5F5F5F5F5E2F5E2E2F5E2F5F5F5F5F5F5F5F5F5F5F5F5F5F5F5F5F5DCF528F5F5F5F5F5F5F5F5F5F5F5
310
F5F5F5F5F5F5F5F5F5F5F5F5F5F5F5F5F5F5F5F5F5F5F5F5F5F5F5F5F5F5F5F5F5F5F5F5F5F5F5F5F5F5F5F5F5F5F5F5F5F5F5F5F5F5F5F5F5F5F5F5F5F5F5F5F5F5F5F5F5F5F5F5F5F5F5F5F5F5F5F5F5F5F5F5F5F5F5F5F5F5F5F5F5F5F5F5F5F5F5F5F5F5F5F5F5F5F5F5F5F5F5F5F5F5F5F5F5F5F5F5F5F5F528F5DCF5
310
F5F5F5F5F5F5F5F5F5F5F5F5F5F5F5F5E2F5E2E2F5E2F5F5F5F5F5F5F5F5F5F5F5F5F5F5F5F5F5DCF528F5F5F5F5F5F5F5F5F5F5F5F5F5F5F5F5F5F5F5F5F5F5F5F5F5F5F5F5F5F5F5F5F5F5F5F5F5F5F5F5F5F5F5F5F5F5F5F5F5F5F5F5F5F5F5F5F5F5F5F5F5F5F5F5F5F5F5F5F5F5F5F5F5F5F5F5F5F5F5F5F5F5F5F5F5
310
F5F5F5F5F5F5F5F5F5F5F5F5F5F5F5F5F5F5F5F5F5F5F5F5F5F5F5F5F5F5F5F5F5F5F5F5F5F5F5F5F5F5F5F5F5F5F5F5F528F5DCF5F5F5F5F5F5F5F5F5F5F5F5F5F5F5F5F5E2F5E2E2F5E2F5F5F5F5F5F5F5F5F5F5F5F5F5F5F5F5F5DCF528F5F5F5F5F5F5F5F5F5F5F5F5F5F5F5F5F5F5F5F5F5F5F5F5F5F5F5F5F5F5F5F5
310
F5F5F5F5F5F5F5F5F5F5F5F5F5F5F5F5F5F5F5F5F5F5F5F5F5F5F5F5F5F5F5F5F5F5F5F5F5F5F5F5F5F5F5F5F5F5F5F5F5F5F5F5F5F5F5F5F5F5F5F5F5F5F5F5F5F5F5F5F5F5F5F5F5F5F5F5F5F5F5F5F5F5F5F5F5F5F5F5F5F5F5F5F5F5F5F5F5F5F5F5F5F528F5DCF5F5F5F5F5F5F5F5F5F5F5F5F5F5F5F5F5E2F5E2E2F5
310
F5F5F5F5F5F5F5F5F5F5F5F5F5F5F5F5F5F5DCF528F5F5F5F5F5F5F5F5F5F5F5F5F5F5F5F5F5F5F5F5F5F5F5F5F5F5F5F5F5F5F5F5F5F5F5F5F5F5F5F5F5F5F5F5F5F5F5F5F5F5F5F5F5F5F5F5F5F5F5F5F5F5F5F5F5F5F5F5F5F5F5F5F5F5F5F5F5F5F5F5F5F5F5F5F5F5F5F5F5F5F5F5F5F5F5F5F5F5F5F5F5F5F5F5F5F5
310
F5F5F5F5F5F5F5F5F5F5F5F5F5F5F5F5F5F5F5F5F5F5F5F5F5F5F5F528F5DCF5F5F5F5F5F5F5F5F5F5F5F5F5F5F5F5F5F5F5E2E2F5F5F5F5F5F5F5F5F5F5F5F5F5F5F5F5F5F5F5DCF528F5F5F5F5F5F5F5F5F5F5F5F5F5F5F5F5F5F5F5F5F5F5F5F5F5F5F5F5F5F5F5F5F5F5F5F5F5F5F5F5F5F5F5F5F5F5F5F5F5F5F5F5F5
310
F5F5F5F5F5F5F5F5F5F5F5F5F5F5F5F5F5F5F5F5F5F5F5F5F5F5F5F5F5F5F5F5F5F5F5F5F5F5F5F5F5F5F5F5F5F5F5F5F5F5F5F5F5F5F5F5F5F5F5F5F5F5F5F5F5F5F5F5F5F5F5F5F5F5F5F5F5F5F5F5F528F5DCF5F5F5F5F5F5F5F5F5F5F5F5F5F5F5F5F5F5F5E2E2F5F5F5F5F5F5F5F5F5F5F5F5F5F5F5F5F5F5F5DCF528
310
F5F5F5F5F5F5F5F5F5F5F5F5F5F5F5F5F5F5F5F5F5F5F5F5F5F5F5F5F5F5F5F5F5F5F5F5F5F5F5F5F5F5F5F5F5F5F5F5F5F5F5F5F5F5F5F5F5F5F5F5F5F5F5F5F5F5F5F5F5F5F5F5F5F5F5F5F5F5F5F5F5F5F5F5F5F5F5F5F5F5F5F5F5F5F5F5F5F5F5F5F5F5F5F5F5F5F5F5F5F5F5F5F5F5F5F5F5F5F5F5F5F5F5F5F5F5F5
310
F5F5F5F5F5F5F528F5DCF5F5F5F5F5F5F5F5F5F5F5F5F5F5F5F5F5F5F5E2E2F5F5F5F5F5F5F5F5F5F5F5F5F5F5F5F5F5F5F5DCF528F5F5F5F5F5F5F5F5F5F5F5F5F5F5F5F5F5F5F5F5F5F5F5F5F5F5F5F5F5F5F5F5F5F5F5F5F5F5F5F5F5F5F5F5F5F5F5F5F5F5F5F5F5F5F5F5F5F5F5F5F5F5F5F5F5F5F5F5F5F5F5F5F5F5
310
F5F5F5F5F5F5F5F5F5F5F5F5F5F5F5F5F5F5F5F5F5F5F5F5F5F5F5F5F5F5F5F5F5F5F5F5F5F5F5F5F5F5F5F5F5F5F5F5F5F5F5F5F5F5F5F5F5F5F5F528F5DCF5F5F5F5F5F5F5F5F5F5F5F5F5F5F5F5F5F5F5E2E2F5F5F5F5F5F5F5F5F5F5F5F5F5F5F5F5F5F5F5DCF528F5F5F5F5F5F5F5F5F5F5F5F5F5F5F5F5F5F5F5F5F5
310
F5F5F5F5F5F5F5F5F5F5F5F5F5F5F5F5F5F5F5F5F5F5F5F5F5F5F5F5F5F5F5F5F5F5F5F5F5F5F5F5F5F5F5F5F5F5F5F5F5F5F5F5F5F5F5F5F5F5F5F5F5F5F5F5F5F5F5F5F5F5F5F5F5F5F5F5F5F5F5F5F5F5F5F5F5F5F5F5F5F5F5F5F5F5F5F5F5F5F5F5F5F5F5F5F5F5F5F5F5F5F5F5F528F5DCF5F5F5F5F5F5F5F5F5F5F5
310
F5F5F5F5F5F5F5F5E2E2F5F5F5F5F5F5F5F5F5F5F5F5F5F5F5F5F5F5F5DCF528F5F5F5F5F5F5F5F5F5F5F5F5F5F5F5F5F5F5F5F5F5F5F5F5F5F5F5F5F5F5F5F5F5F5F5F5F5F5F5F5F5F5F5F5F5F5F5F5F5F5F5F5F5F5F5F5F5F5F5F5F5F5F5F5F5F5F5F5F5F5F5F5F5F5F5F5F5F5F5F5F5F5F5F5F5F5F5F5F5F5F5F5F5F5F5
310
F5F5F5F5F5F5F5F5F5F5F5F5F5F5F5F5F5F5F5F5F5F5F5F5F5F5F5F5F5F5F5F5F5F5F5F5F5F5F528F5DCF5F5F5F5F5F5F5F5F5F5F5F5F5F5F5F5F5F5F5E2E2F5F5F5F5F5F5F5F5F5F5F5F5F5F5F5F5F5F5F5DCF528F5F5F5F5F5F5F5F5F5F5F5F5F5F5F5F5F5F5F5F5F5F5F5F5F5F5F5F5F5F5F5F5F5F5F5F5F5F5F5F5F5F5
310
F5F5F5F5F5F5F5F5F5F5F5F5F5F5F5F5F5F5F5F5F5F5F5F5F5F5F5F5F5F5F5F5F5F5F5F5F5F5F5F5F5F5F5F5F5F5F5F5F5F5F5F5F5F5F5F5F5F5F5F5F5F5F5F5F5F5F5F5F5F5F5F5F5F5F5F5F5F5F5F5F5F5F5F5F5F5F5F5F5F5F5F528F5DCF5F5F5F5F5F5F5F5F5F5F5F5F5F5F5F5F5F5F5E2E2F5F5F5F5F5F5F5F5F5F5F5
310
F5F5F5F5F5F5F5F5DCF528F5F5F5F5F5F5F5F5F5F5F5F5F5F5F52D2D2D2D2D2D2D2D2D2DF5F5F5F5F5F5F5F5F5F5F5F5F5F5F5F5F5F5F5F5F5F5F5F5F5F5F5F5F5F5F5F5F5F5F5F5F5F5F5F5F5F5F5F5F5F5F5F5F5F5F5F5F5F5F5F5F5F5F5F5F5F5F5F5F5F5F5F5F5F5F5F5F5F5F5F5F5F5F5F5F5F5F5F5F5F5F5F5F5F5F5
310
F5F5F5F5F5F5F5F5F5F5F5F5F5F5F5F5F5F528F5DCF5F5F5F5F5F5F5F5F5F5F5F5F5F5F5F5F5F5F5E2E2F5E2F5F5F5F5F5F5F5F5F5F5F5F5F5F5F5F5F5DCF528F5F5F5F5F5F5F5F5F5F5F5F5F5F5F52D2D2D2D2D2D2D2D2D2DF5F5F5F5F5F5F5F5F5F5F5F5F5F5F5F5F5F5F5F5F5F5F5F5F5F5F5F5F5F5F5F5F5F5F5F5F5F5
310
F5F5F5F5F5F5F5F5F5F5F5F5F5F5F5F5F5F5F5F5F5F5F5F5F5F5F5F5F5F5F5F5F5F5F5F5F5F5F5F5F5F5F5F5F5F5F5F5F5F5F5F5F5F5F5F5F5F5F5F5F5F5F5F5F5F5F5F5F5F5F528F5DCF5F5F5F5F5F5F5F5F5F5F5F5F5F5F5F5F5E2F5E2E2F5E2F5F5F5F5F5F5F5F5F5F5F5F5F5F5F5F5F5DCF528F5F5F5F5F5F5F5F5F5F5
310
F5F5F5F5F5F5F5F5F5F5F5F5F5F5F5F5F5F5F5F5F5F5F5F5F5F5F5F5F5F5F5F5F5F5F5F5F5F5F5F5F5F5F5F5F5F5F5F5F5F5F5F5F5F5F5F5F5F5F5F5F5F5F5F5F5F5F5F5F5F5F5F5F5F5F5F5F5F5F5F5F5F5F5F5F5F5F5F5F5F5F5F5F5F5F5F5F5F5F5F5F5F5F5F5F5F5F5F5F5F5F5F5F5F5F5F5F5F5F5F5F5F5F5F528F5DC
310
F5F5F5F5F5F5F5F5F5F5F5F5F5F5F5F5F5E2F5E2E2F5E2F5F5F5F5F5F5F5F5F5F5F5F5F5F5F5F5F5DCF528F5F5F5F5F5F5F5F5F5F5F5F5F5F5F5F5F5F5F5F5F5F5F5F5F5F5F5F5F5F5F5F5F5F5F5F5F5F5F5F5F5F5F5F5F5F5F5F5F5F5F5F5F5F5F5F5F5F5F5F5F5F5F5F5F5F5F5F5F5F5F5F5F5F5F5F5F5F5F5F5F5F5F5F5
310
F5F5F5F5F5F5F5F5F5F5F5F5F5F5F5F5F5F5F5F5F5F5F5F5F5F5F5F5F5F5F5F5F5F5F5F5F5F5F5F5F5F5F5F5F5F5F5F5F5F528F5DCF5F5F5F5F5F5F5F5F5F5F5F5F5F5F5F5F5E2F5E2E2F5E2F5F5F5F5F5F5F5F5F5F5F5F5F5F5F5F5F5DCF528F5F5F5F5F5F5F5F5F5F5F5F5F5F5F5F5F5F5F5F5F5F5F5F5F5F5F5F5F5F5F5
310
F5F5F5F5F5F5F5F5F5F5F5F5F5F5F5F5F5F5F5F5F5F5F5F5F5F5F5F5F5F5F5F5F5F5F5F5F5F5F5F5F5F5F5F5F5F5F5F5F5F5F5F5F5F5F5F5F5F5F5F5F5F5F5F5F5F5F5F5F5F5F5F5F5F5F5F5F5F5F5F5F5F5F5F5F5F5F5F5F5F5F5F5F5F5F5F5F5F5F5F5F5F5F528F5DCF5F5F5F5F5F5F5F5F5F5F5F5F5F5F5F5F5E2F5E2E2
310
F5E2F5F5F5F5F5F5F5F5F5F5F5F5F5F5F5F5F5DCF528F5F5F5F5F5F5F5F5F5F5F5F5F5F5F5F5F5F5F5F5F5F5F5F5F5F5F5F5F5F5F5F5F5F5F5F5F5F5F5F5F5F5F5F5F5F5F5F5F5F5F5F5F5F5F5F5F5F5F5F5F5F5F5F5F5F5F5F5F5F5F5F5F5F5F5F5F5F5F5F5F5F5F5F5F5F5F5F5F5F5F5F5F5F5F5F5F5F5F5F5F5F5F5F5F5
310
F5F5F5F5F5F5F5F5F5F5F5F5F5F5F5F5F5F5F5F5F5F5F5F5F5F5F5F5F528F5DCF5F5F5F5F5F5F5F5F5F5F5F5F5F5F5F5F5E2F5E2E2F5E2F5F5F5F5F5F5F5F5F5F5F5F5F5F5F5F5F5DCF528F5F5F5F5F5F5F5F5F5F5F5F5F5F5F5F5F5F5F5F5F5F5F5F5F5F5F5F5F5F5F5F5F5F5F5F5F5F5F5F5F5F5F5F5F5F5F5F5F5F5F5F5
310
F5F5F5F5F5F5F5F5F5F5F5F5F5F5F5F5F5F5F5F5F5F5F5F5F5F5F5F5F5F5F5F5F5F5F5F5F5F5F5F5F5F5F5F5F5F5F5F5F5F5F5F5F5F5F5F5F5F5F5F5F5F5F5F5F5F5F5F5F5F5F5F5F5F5F5F5F5F5F5F5F5F528F5DCF5F5F5F5F5F5F5F5F5F5F5F5F5F5F5F5F5E2F5E2E2F5E2F5F5F5F5F5F5F5F5F5F5F5F5F5F5F5F5F5DCF5
310
28F5F5F5F5F5F5F5F5F5F5F5F5F5F5F5F5F5F5F5F5F5F5F5F5F5F5F5F5F5F5F5F5F5F5F5F5F5F5F5F5F5F5F5F5F5F5F5F5F5F5F5F5F5F5F5F5F5F5F5F5F5F5F5F5F5F5F5F5F5F5F5F5F5F5F5F5F5F5F5F5F5F5F5F5F5F5F5F5F5F5F5F5F5F5F5F5F5F5F5F5F5F5F5F5F5F5F5F5F5F5F5F5F5F5F5F5F5F5F5F5F5F5F5F5F5F5
310
F5F5F5F5F5F5F5F528F5DCF5F5F5F5F5F5F5F5F5F5F5F5F5F5F5F5F5E2F5E2E2F5E2F5F5F5F5F5F5F5F5F5F5F5F5F5F5F5F5F5DCF528F5F5F5F5F5F5F5F5F5F5F5F5F5F5F5F5F5F5F5F5F5F5F5F5F5F5F5F5F5F5F5F5F5F5F5F5F5F5F5F5F5F5F5F5F5F5F5F5F5F5F5F5F5F5F5F5F5F5F5F5F5F5F5F5F5F5F5F5F5F5F5F5F5
310
F5F5F5F5F5F5F5F5F5F5F5F5F5F5F5F5F5F5F5F5F5F5F5F5F5F5F5F5F5F5F5F5F5F5F5F5F5F5F5F5F5F5F5F5F5F5F5F5F5F5F5F5F5F5F5F5F5F5F5F5F528F5DCF5F5F5F5F5F5F5F5F5F5F5F5F5F5F5F5F5E2F5E2E2F5E2F5F5F5F5F5F5F5F5F5F5F5F5F5F5F5F5F5DCF528F5F5F5F5F5F5F5F5F5F5F5F5F5F5F5F5F5F5F5F5
310
F5F5F5F5F5F5F5F5F5F5F5F5F5F5F5F5F5F5F5F5F5F5F5F5F5F5F5F5F5F5F5F5F5F5F5F5F5F5F5F5F5F5F5F5F5F5F5F5F5F5F5F5F5F5F5F5F5F5F5F5F5F5F5F5F5F5F5F5F5F5F5F5F5F5F5F5F5F5F5F5F5F5F5F5F5F5F5F5F5F5F5F5F5F5F5F5F5F5F5F5F5F5F5F5F5F5F5F5F5F5F5F5F5F528F5DCF5F5F5F5F5F5F5F5F5F5
310
F5F5F5F5F5F5F5E2F5E2E2F5E2F5F5F5F5F5F5F5F5F5F5F5F5F5F5F5F5F5DCF528F5F5F5F5F5F5F5F5F5DCF5F5F5F5F5F5F5F5F5F5F5F5F5F5F5F5F5F5F5F5F5F5F5F5F5F5F5F5F5F5F5F5F5F5F5F5F5F5F5F5F5F5F5F5F5F5F5F5F5F5F5F5F5F5F5F5F5F5F5F5F5F5F5F5F5F5F5F5F5F5F5F5F5F5F5F5F5F5F5F5F5F5F5F5
310
F5F5F5F5F5F5F5F5F5F5F5F5F5F5F5F5F5F5F5F5F5F5F5F5F5F5F5F5F5F5F5F5F5F5F5F5F5F5F5F528F5DCF5F5F5F5F5F5F5F5F5F5F5F5F5F5F5F5F5E2F5E2E2F5E2F5F5F5F5F5F5F5F5F5F5F5F5F5F5F5F5F5DCF528F5F5F5F5F5F5F5F50FDCF5F5F5F5F52D2D2D2D2D2D2D2DF5F5F5F5F50FF5F5F5F5F5F5F5F5F5F5F5F5
310
F5F5F5F5F5F5F5F5F5F5F5F5F5F5F5F5F5F5F5F5F5F5F5F5F5F5F5F5F5F5F5F5F5F5F5F5F5F5F5F5F5F5F5F5F5F5F5F5F5F5F5F5F5F5F5F5F5F5F5F5F5F5F5F5F5F5F5F5F5F5F5F5F5F5F5F5F5F5F5F5F5F5F5F5F5F5F5F5F5F5F5F5F528F5DCF5F5F5F5F5F5F5F5F5F5F5F5F5F5F5F5F5E2F5E2E2F5E2F5F5F5F5F5F5F5F5
310
F5F5F5F5F5F5F5F5F5DCF528F5F5F5F5DCF5F5DC0FDC0F0F0F0F0F2D2D2D2D2D2D2D2D0F0F0F0F0F0F0FF5F5F5F5F5F5F5F5F5F5F5F5F5F5F5F5F5F5F5F5F5F5F5F5F5F5F5F5F5F5F5F5F5F5F5F5F5F5F5F5F5F5F5F5F5F5F5F5F5F5F5F5F5F5F5F5F5F5F5F5F5F5F5F5F5F5F5F5F5F5F5F5F5F5F5F5F5F5F5F5F5F5F5F5F5
310
F5F5F5F5F5F5F5F5F5F5F5F5F5F5F5F5F5F5F528F5DCF5F5F5F5F5F5F5F5F5F5F5F5F5F5F5F5F5E2F5E2E2F5E2F5F5F5F5F5F5F5F5F5F5F5F5F5F5F5F5F5DCF528F5F5F5DCF5F5DCF5F5DCF5F5F5F5F5F5F5F5F5F5F5F5F5F5F5F5F5F50FF5F5F5F5F5F5F5F5F5F5F5F5F5F5F5F5F5F5F5F5F5F5F5F5F5F5F5F5F5F5F5F5F5
310
F5F5F5F5F5F5F5F5F5F5F5F5F5F5F5F5F5F5F5F5F5F5F5F5F5F5F5F5F5F5F5F5F5F5F5F5F5F5F5F5F5F5F5F5F5F5F5F5F5F5F5F5F5F5F5F5F5F5F5F5F5F5F5F5F5F5F5F5F5F5F5F528F5DCF5F5F5F5F5F5F5F5F5F5F5F5F5F5F5F5F5E2F5E2E2F5E2F5F5F5F5F5F5F5F5F5F5F5F5F5F5F5F5F5DCF528F5F5F5F5F5DCF5F5DC
310
DCF5F5F5F5F5F5F5F5F5F5F5F5F5F5F5F5F5F50FF5F5F5F5F5F5F5F5F5F5F5F5F5F5F5F5F5F5F5F5F5F5F5F5F5F5F5F5F5F5F5F5F5F5F5F5F5F5F5F5F5F5F5F5F5F5F5F5F5F5F5F5F5F5F5F5F5F5F5F5F5F5F5F5F5F5F5F5F5F5F5F5F5F5F5F5F5F5F5F5F5F5F5F5F5F5F5F5F5F5F5F5F5F5F5F5F5F5F5F5F5F5F5F5F528F5
310
DCF5F5F5F5F5F5F5F5F5F5F5F5F5F5F5F5F5E2F5E2E2F5E2F5F5F5F5F5F5F5F5F5F5F5F5F5F5F5F5F5DCF528F5F5F5F5DCF5F5DCF5DCF5F5F5F5F5F5F5F5F5F5F5F5F5F5F5F5F5F50FF5F5F5F5F5F5F5F5F5F5F5F5F5F5F5F5F5F5F5F5F5F5F5F5F5F5F5F5F5F5F5F5F5F5F5F5F5F5F5F5F5F5F5F5F5F5F5F5F5F5F5F5F5F5
310
F5F5F5F5F5F5F5F5F5F5F5F5F5F5F5F5F5F5F5F5F5F5F5F5F5F5F5F5F5F5F5F5F5F5F5F5F5F5F5F5F5F5F5F5F5F5F5F5F5F5F528F5DCF5F5F5F5F5F5F5F5F5F5F5F5F5F5F5F5F5E2F5E2E2F5E2F5F5F5F5F5F5F5F5F5F5F5F5F5F5F5F5F5DCF528F5F5F5DCF5F5DCF5F5DCF5F5F5F5F5F5F5F5F5F5F5F5F5F5F5F5F5F50FF5
310
F5F5F5F5F5F5F5F5F5F5F5F5F5F5F5F5F5F5F5F5F5F5F5F5F5F5F5F5F5F5F5F5F5F5F5F5F5F5F5F5F5F5F5F5F5F5F5F5F5F5F5F5F5F5F5F5F5F5F5F5F5F5F5F5F5F5F5F5F5F5F5F5F5F5F5F5F5F5F5F5F5F5F5F5F5F5F5F5F5F5F5F5F5F5F5F5F5F5F5F5F5F5F5F528F5DCF5F5F5F5F5F5F5F5F5F5F5F5F5F5F5F5F5E2F5E2
310
E2F5F5F5F5F5F5F5F5F5F5F5F5F5F5F5F5F5F5F5DCF528F5F5F5F5F5DCF5F5F5DC1B0F0F0F0F0F0F0F0F0F0F0F0F0F0F0F0F0F0F0F0F0F0F0F0F0FF5F5F5F5F5F5F5F5F5F5F5F5F5F5F5F5F5F5F5F5F5F5F5F5F5F5F5F5F5F5F5F5F5F5F5F5F5F5F5F5F5F5F5F5F5F5F5F5F5F5F5F5F5F5F5F5F5F5F5F5F5F5F5F5F5F5F5F5
310
F5F5F5F5F5F5F5F5F5F5F5F5F5F5F5F5F5F5F5F5F5F5F5F5F5F5F5F5F5F528F5DCF5F5F5F5F5F5F5F5F5F5F5F5F5F5F5F5F5F5F5E2E2F5F5F5F5F5F5F5F5F5F5F5F5F5F5F5F5F5F5F5DCF528F5F5F5F5DCF5F5F5DCDCBEF5F5F5F5F5F5F5F5F5F5F5F5F5F5F5F5F50FF5F5F5F5F50FF5F5F5F5F5F5F5F5F5F5F5F5F5F5F5F5
310
F5F5F5F5F5F5F5F5F5F5F5F5F5F5F5F5F5F5F5F5F5F5F5F5F5F5F5F5F5F5F5F5F5F5F5F5F5F5F5F5F5F5F5F5F5F5F5F5F5F5F5F5F5F5F5F5F5F5F5F5F5F5F5F5F5F5F5F5F5F5F5F5F5F5F5F5F5F5F5F5F5F5F528F5DCF5F5F5F5F5F5F5F5F5F5F5F5F5F5F5F5F5F5F5E2E2F5F5F5F5F5F5F5F5F5F5F5F5F5F5F5F5F5F5F5DC
310
F528F5F5F5DCF5F5F5DCF5DCF5BEBEF5F5F5F5F5F5F5F5F5F5F5F5F5F5F50FF5F5F5F5F50FF5F5F5F5F5F5F5F5F5F5F5F5F5F5F5F5F5F5F5F5F5F5F5F5F5F5F5F5F5F5F5F5F5F5F5F5F5F5F5F5F5F5F5F5F5F5F5F5F5F5F5F5F5F5F5F5F5F5F5F5F5F5F5F5F5F5F5F5F5F5F5F5F5F5F5F5F5F5F5F5F5F5F5F5F5F5F5F5F5F5
310
F5F5F5F5F5F5F5F5F528F5DCF5F5F5F5F5F5F5F5F5F5F5F5F5F5F5F5F5F5F5E2E2F5F5F5F5F5F5F5F5F5F5F5F5F5F5F5F5F5F5F5DCF528F5F5F5F5F5DCDCF5F5DCF5F5BEBEF5F5F5F5F5F5F5F5F5F5F5F5F5F50FF5F5F5F5F50FF5F5F5F5F5F5F5F5F5F5F5F5F5F5F5F5F5F5F5F5F5F5F5F5F5F5F5F5F5F5F5F5F5F5F5F5F5
310
F5F5F5F5F5F5F5F5F5F5F5F5F5F5F5F5F5F5F5F5F5F5F5F5F5F5F5F5F5F5F5F5F5F5F5F5F5F5F5F5F5F5F5F5F5F5F5F5F5F5F5F5F5F5F5F5F5F5F5F5F5F528F5DCF5F5F5F5F5F5F5F5F5F5F5F5F5F5F5F5F5F5F5E2E2F5F5F5F5F5F5F5F5F5F5F5F5F5F5F5F5F5F5F5DCF528F5F5F5F5DCF5F5F5DCDCF5F5F5BEF5F5F5F5F5
310
F5F5F5F5F5F5F5F5F50FF5F5F5F5F50FF5F5F5F5F5F5F5F5F5F5F5F5F5F5F5F5F5F5F5F5F5F5F5F5F5F5F5F5F5F5F5F5F5F5F5F5F5F5F5F5F5F5F5F5F5F5F5F5F5F5F5F5F5F5F5F5F5F5F5F5F5F5F5F5F5F5F5F5F5F5F5F5F5F5F5F5F5F5F5F5F5F5F5F5F5F5F5F5F5F5F5F5F5F5F5F5F5F5F528F5DCF5F5F5F5F5F5F5F5F5
310
F5F5F5F5F5F5F5F5F5F5E2E2F5F5F5F5F5F5F5F5F5F5F5F5F5F5F5F5F5F5F5DCF528F5F5F5DCF5F5F5DCF5DCF5F5F5BEBEBEF5F5F5F5F5F5F5F5F5F5F5F50FF5F5F5F5F50FF5F5F5F5F5F5F5F5F5F5F5F5F5F5F5F5F5F5F5F5F5F5F5F5F5F5F5F5F5F5F5F5F5F5F5F5F5F5F5F5F5F5F5F5F5F5F5F5F5F5F5F5F5F5F5F5F5F5
310
F5F5F5F5F5F5F5F5F5F5F5F5F5F5F5F5F5F5F5F5F5F5F5F5F5F5F5F5F5F5F5F5F5F5F5F5F5F5F5F5F528F5DCF5F5F5F5F5F5F5F5F5F5F5F5F5F5F5F5F5F5F5E2E2F5F5F5F5F5F5F5F5F5F5F5F5F5F5F5F5F5F5F5DCF528F5F5F5F5F5DCDCF5F5DCF5F5F5F5BEBEF5F5F5F5F5F5F5F5F5F5F5F50FF5F5F5F5F50FF5F5F5F5F5
310
F5F5F5F5F5F5F5F5F5F5F5F5F5F5F5F5F5F5F5F5F5F5F5F5F5F5F5F5F5F5F5F5F5F5F5F5F5F5F5F5F5F5F5F5F5F5F5F5F5F5F5F5F5F5F5F5F5F5F5F5F5F5F5F5F5F5F5F5F5F5F5F5F5F5F5F5F5F5F5F5F5F5F5F5F5F5F5F5F5F5F5F5F5F528F5DCF5F5F5F5F5F5F5F5F5F5F5F5F5F5F5F5F5F5F5E2E2F5F5F5F5F5F5F5F5F5
310
F5F5F5F5F5F5F5F5F5F5DCF528F5F5F5F5DCF5F5F5DCDCF5F5F5F5BEF5F5F5F5F5F5F5F5F5F5F5F5F50FF5F5F5F5F50FF5F5F5F5F5F5F5F5F5F5F5F5F5F5F5F5F5F5F5F5F5F5F5F5F5F5F5F5F5F5F5F5F5F5F5F5F5F5F5F5F5F5F5F5F5F5F5F5F5F5F5F5F5F5F5F5F5F5F5F5F5F5F5F5F5F5F5F5F5F5F5F5F5F5F5F5F5F5F5
310
F5F5F5F5F5F5F5F5F5F5F5F5F5F5F5F5F5F5F5F528F5DCF5F5F5F5F5F5F5F5F5F5F5F5F5F5F5F5F5F5F5E2E2F5F5F5F5F5F5F5F5F5F5F5F5F5F5F5F5F5F5F5DCF528F5F5F5DCF5F5F5DCF5DCF5F5F5F5BEF5F5F5F5F5F5F5F5F5F5F5F5F50FF5F5F5F5F50FF5F5F5F5F5F5F5F5F5F5F5F5F5F5F5F5F5F5F5F5F5F5F5F5F5F5
310
F5F5F5F5F5F5F5F5F5F5F5F5F5F5F5F5F5F5F5F5F5F5F5F5F5F5F5F5F5F5F5F5F5F5F5F5F5F5F5F5F5F5F5F5F5F5F5F5F5F5F5F5F5F5F5F5F5F5F5F5F5F5F5F5F5F5F5F5F5F5F5F5F528F5DCF5F5F5F5F5F5F5F5F5F5F5F5F5F5F5F5F5F5F5E2E2F5E2F5F5F5F5F5F5F5F5F5F5F5F5F5F5F5F5F5DCF528F5F5F5F5F5F5DCF5
310
F5DCBEBEF5F5BEF5F5F5F5F5F5F5F5F5F5F5F5F50FF5F52D2D2D2D2D2D2D2DF5F5F5F5F5F5F5F5F5F5F5F5F5F5F5F5F5F5F5F5F5F5F5F5F5F5F5F5F5F5F5F5F5F5F5F5F5F5F5F5F5F5F5F5F5F5F5F5F5F5F5F5F5F5F5F5F5F5F5F5F5F5F5F5F5F5F5F5F5F5F5F5F5F5F5F5F5F5F5F5F5F5F5F5F5F5F5F5F5F5F5F5F5F5F528
310
F5DCF5F5F5F5F5F5F5F5F5F5F5F5F5F5F5F5F5E2F5E2E2F5E2F5F5F5F5F5F5F5F5F5F5F5F5F5F5F5F5F5DCF528F5F5F5F5F5DCF5F5DCDCF5BEF5F5BEF5F5F5F5F5F5F5F5F5F5F5F5F50FF5F52D2D2D2D2D2D2D2DF5F5F5F5F5F5F5F5F5F5F5F5F5F5F5F5F5F5F5F5F5F5F5F5F5F5F5F5F5F5F5F5F5F5F5F5F5F5F5F5F5F5F5
310
F5F5F5F5F5F5F5F5F5F5F5F5F5F5F5F5F5F5F5F5F5F5F5F5F5F5F5F5F5F5F5F5F5F5F5F5F5F5F5F5F5F5F5F5F5F5F5F5F5F5F5F528F5DCF5F5F5F5F5F5F5F5F5F5F5F5F5F5F5F5F5E2F5E2E2F5E2F5F5F5F5F5F5F5F5F5F5F5F5F5F5F5F5F5DCF528F5F5F5F5DCF5F5DCF5DCF5BEF5F5BEBEF5F5F5F5F5F5F5F5F5F5F5F50F
310
F5F5F5F5F50FF5F5F5F5F5F5F5F5F5F5F5F5F5F5F5F5F5F5F5F5F5F5F5F5F5F5F5F5F5F5F5F5F5F5F5F5F5F5F5F5F5F5F5F5F5F5F5F5F5F5F5F5F5F5F5F5F5F5F5F5F5F5F5F5F5F5F5F5F5F5F5F5F5F5F5F5F5F5F5F5F5F5F5F5F5F5F5F5F5F5F5F5F5F5F5F5F5F5F528F5DCF5F5F5F5F5F5F5F5F5F5F5F5F5F5F5F5F5E2F5
310
E2E2F5E2F5F5F5F5F5F5F5F5F5F5F5F5F5F5F5F5F5DCF528F5F5F5DCF5F5DCF5F5DCF5F5BEF5F5BEF5F5F5F5F5F5F5F5F5F5F5F50FF5F5F5F5F50FF5F5F5F5F5F5F5F5F5F5F5F5F5F5F5F5F5F5F5F5F5F5F5F5F5F5F5F5F5F5F5F5F5F5F5F5F5F5F5F5F5F5F5F5F5F5F5F5F5F5F5F5F5F5F5F5F5F5F5F5F5F5F5F5F5F5F5F5
310
F5F5F5F5F5F5F5F5F5F5F5F5F5F5F5F5F5F5F5F5F5F5F5F5F5F5F5F5F5F5F528F5DCF5F5F5F5F5F5F5F5F5F5F5F5F5F5F5F5F5E2F5E2E2F5E2F5F5F5F5F5F5F5F5F5F5F5F5F5F5F5F5F5DCF528F5F5F5F5F5DCF5F5DCDCF5F5BEF5F5F5BEBEF5F5F5F5BEBEF5F5F5F50FF5F5F5F5F50FF5F5F5F5F5F5F5F5F5F5F5F5F5F5F5
310
F5F5F5F5F5F5F5F5F5F5F5F5F5F5F5F5F5F5F5F5F5F5F5F5F5F5F5F5F5F5F5F5F5F5F5F5F5F5F5F5F5F5F5F5F5F5F5F5F5F5F5F5F5F5F5F5F5F5F5F5F5F5F5F5F5F5F5F5F5F5F5F5F5F5F5F5F5F5F5F5F5F5F5F528F5DCF5F5F5F5F5F5F5F5F5F5F5F5F5F5F5F5F5E2F5E2E2F5E2F5F5F5F5F5F5F5F5F5F5F5F5F5F5F5F5F5
310
DCF528F5F5F5F5DCF5F5DCF5DCF5F5F5BEF5F5F5BEBEBEBEBEF5BEF5F5F5F50FF5F5F5F5F50FF5F5F5F5F5F5F5F5F5F5F5F5F5F5F5F5F5F5F5F5F5F5F5F5F5F5F5F5F5F5F5F5F5F5F5F5F5F5F5F5F5F5F5F5F5F5F5F5F5F5F5F5F5F5F5F5F5F5F5F5F5F5F5F5F5F5F5F5F5F5F5F5F5F5F5F5F5F5F5F5F5F5F5F5F5F5F5F5F5
310
F5F5F5F5F5F5F5F5F5F528F5DCF5F5F5F5F5F5F5F5F5F5F5F5F5F5F5F5F5E2F5E2E2F5E2F5F5F5F5F5F5F5F5F5F5F5F5F5F5F5F5F5DCF528F5F5F5DCF5F5DCF5F5DCF5F5F5F5BEF5F5F5F5F5F5F5F5BEBEF5F5F50FF5F5F5F5F50FF5F5F5F5F5F5F5F5F5F5F5F5F5F5F5F5F5F5F5F5F5F5F5F5F5F5F5F5F5F5F5F5F5F5F5F5
310
F5F5F5F5F5F5F5F5F5F5F5F5F5F5F5F5F5F5F5F5F5F5F5F5F5F5F5F5F5F5F5F5F5F5F5F5F5F5F5F5F5F5F5F5F5F5F5F5F5F5F5F5F5F5F5F5F5F5F5F5F5F5F528F5DCF5F5F5F5F5F5F5F5F5F5F5F5F5F5F5F5F5E2F5E2E2F5E2F5F5F5F5F5F5F5F5F5F5F5F5F5F5F5F5F5DCF528F5F5F5F5F5DCF5F5F5DCF5F5F5F5F5BEBEBE
310
F5F5F5F5F5F5F5BEBEF50FF5F5F5F5F50FF5F5F5F5F5F5F5F5F5F5F5F5F5F5F5F5F5F5F5F5F5F5F5F5F5F5F5F5F5F5F5F5F5F5F5F5F5F5F5F5F5F5F5F5F5F5F5F5F5F5F5F5F5F5F5F5F5F5F5F5F5F5F5F5F5F5F5F5F5F5F5F5F5F5F5F5F5F5F5F5F5F5F5F5F5F5F5F5F5F5F5F5F5F5F5F5F5F5F528F5DCF5F5F5F5F5F5F5F5
310
F5F5F5F5F5F5F5F5F5E2F5E2E2F5E2F5F5F5F5F5F5F5F5F5F5F5F5F5F5F5F5F5DCF528F5F5F5F5DCF5F5F5DCDCF5F5F5F5F5F5F5F5BEBEF5F5F5F5F5F5BEF50FF5F5F5F5F50FF5F5F5F5F5F5F5F5F5F5F5F5F5F5F5F5F5F5F5F5F5F5F5F5F5F5F5F5F5F5F5F5F5F5F5F5F5F5F5F5F5F5F5F5F5F5F5F5F5F5F5F5F5F5F5F5F5
310
F5F5F5F5F5F5F5F5F5F5F5F5F5F5F5F5F5F5F5F5F5F5F5F5F5F5F5F5F5F5F5F5F5F5F5F5F5F5F5F5F5F528F5DCF5F5F5F5F5F5F5F5F5F5F5F5F5F5F5F5F5E2F5E2E2F5E2F5F5F5F5F5F5F5F5F5F5F5F5F5F5F5F5F5DCF528F5F5F5DCF5F5F5DCF5DCF5F5F5F5F5F5F5F5F5BEBEF5F5F5F5F5F5BE1BF5F5F5F5F50FF5F5F5F5
310
F5F5F5F5F5F5F5F5F5F5F5F5F5F5F5F5F5F5F5F5F5F5F5F5F5F5F5F5F5F5F5F5F5F5F5F5F5F5F5F5F5F5F5F5F5F5F5F5F5F5F5F5F5F5F5F5F5F5F5F5F5F5F5F5F5F5F5F5F5F5F5F5F5F5F5F5F5F5F5F5F5F5F5F5F5F5F5F5F5F5F5F5F5F5F528F5DCF5F5F5F5F5F5F5F5F5F5F5F5F5F5F5F5F5E2F5E2E2F5E2F5F5F5F5F5F5
310
F5F5F5F5F5F5F5F5F5F5F5DCF528F5F5F5F5F5DCDCF5F5DCF5F5F5F5F5F5F5F5F5F5BEF5F5F5F5F5F5F5BEF5F5F5F5F50F0FF5F5F5F5F5F5F5F5F5F5F5F5F5F5F5F5F5F5F5F5F5F5F5F5F5F5F5F5F5F5F5F5F5F5F5F5F5F5F5F5F5F5F5F5F5F5F5F5F5F5F5F5F5F5F5F5F5F5F5F5F5F5F5F5F5F5F5F5F5F5F5F5F5F5F5F5F5
310
F5F5F5F5F5F5F5F5F5F5F5F5F5F5F5F5F5F5F5F5F528F5DCF5F5F5F5F5F5F5F5F5F5F5F5F5F5F5F5F5E2F5E2E2F5E2F5F5F5F5F5F5F5F5F5F5F5F5F5F5F5F5F5DCF528F5F5F5F5DCF5F5F5DCDCDCDCDCDCDCDCDCDCDCDCDCDCDCDCDCDCDCDCDCDCDCDCDCDCDCDCDCF5F5F5F5F5F5F5F5F5F5F5F5F5F5F5F5F5F5F5F5F5F5F5
310
F5F5F5F5F5F5F5F5F5F5F5F5F5F5F5F5F5F5F5F5F5F5F5F5F5F5F5F5F5F5F5F5F5F5F5F5F5F5F5F5F5F5F5F5F5F5F5F5F5F5F5F5F5F5F5F5F5F5F5F5F5F5F5F5F5F5F5F5F5F5F5F5F5F528F5DCF5F5F5F5F5F5F5F5F5F5F5F5F5F5F5F5F5E2F5E2E2F5E2F5F5F5F5F5F5F5F5F5F5F5F5F5F5F5F5F5DCF528F5F5F5DCF5F5F5
310
DCF5F5DCF5F5DCF5F5F5DCF5F5DCF5F5DCF5F5DCF5F5DCF5F5DCF5F5F5F5F5F5F5F5F5F5F5F5F5F5F5F5F5F5F5F5F5F5F5F5F5F5F5F5F5F5F5F5F5F5F5F5F5F5F5F5F5F5F5F5F5F5F5F5F5F5F5F5F5F5F5F5F5F5F5F5F5F5F5F5F5F5F5F5F5F5F5F5F5F5F5F5F5F5F5F5F5F5F5F5F5F5F5F5F5F5F5F5F5F5F5F5F5F5F5F5F5
310
28F5DCF5F5F5F5F5F5F5F5F5F5F5F5F5F5F5F5F5E2F5E2E2F5E2F5F5F5F5F5F5F5F5F5F5F5F5F5F5F5F5F5DCF528F5F5F5F5F5DCDCF5F5DCF5F5DCF5F5F5DCF5F5DCF5F5DCF5F5DCF5F5DCF5F5DCF5F5F5F5F5F5F5F5F5F5F5F5F5F5F5F5F5F5F5F5F5F5F5F5F5F5F5F5F5F5F5F5F5F5F5F5F5F5F5F5F5F5F5F5F5F5F5F5F5
310
F5F5F5F5F5F5F5F5F5F5F5F5F5F5F5F5F5F5F5F5F5F5F5F5F5F5F5F5F5F5F5F5F5F5F5F5F5F5F5F5F5F5F5F5F5F5F5F5F5F5F5F5F528F5DCF5F5F5F5F5F5F5F5F5F5F5F5F5F5F5F5F5E2F5E2E2F5E2F5F5F5F5F5F5F5F5F5F5F5F5F5F5F5F5F5DCF528F5F5F5F5DCF5F5F5DCF5F5DCF5F5DCDCF5DCDCF5DCDCF5F5DCF5F5DC
310
F5F5DCF5F5F5F5F5F5F5F5F5F5F5F5F5F5F5F5F5F5F5F5F5F5F5F5F5F5F5F5F5F5F5F5F5F5F5F5F5F5F5F5F5F5F5F5F5F5F5F5F5F5F5F5F5F5F5F5F5F5F5F5F5F5F5F5F5F5F5F5F5F5F5F5F5F5F5F5F5F5F5F5F5F5F5F5F5F5F5F5F5F5F5F5F5F5F5F5F5F5F5F5F5F5F528F5DCF5F5F5F5F5F5F5F5F5F5F5F5F5F5F5F5F5E2
310
F5E2E2F5E2F5F5F5F5F5F5F5F5F5F5F5F5F5F5F5F5F5DCF528F5F5F5DCF5F5F5DCF5F5DCF5F5DCF5F5DCF5F5DCF5F5F5DCF5F5DCF5F5DCF5F5F5DCF5F5F5F5F5F5F5F5F5F5F5F5F5F5F5F5F5F5F5F5F5F5F5F5F5F5F5F5F5F5F5F5F5F5F5F5F5F5F5F5F5F5F5F5F5F5F5F5F5F5F5F5F5F5F5F5F5F5F5F5F5F5F5F5F5F5F5F5
310
F5F5F5F5F5F5F5F5F5F5F5F5F5F5F5F5F5F5F5F5F5F5F5F5F5F5F5F5F5F5F5F528F5DCF5F5F5F5F5F5F5F5F5F5F5F5F5F5F5F5F5E2F5E2E2F5F5F5F5F5F5F5F5F5F5F5F5F5F5F5F5F5F5F5DCF528F5F5F5F5F5F5DCF5F5DCF5F5DCF5F5DCF5F5DCF5F5F5DCF5F5DCF5F5DCF5F5DCDCF5F5F5F5F5F5F5F5F5F5F5F5F5F5F5F5
310
F5F5F5F5F5F5F5F5F5F5F5F5F5F5F5F5F5F5F5F5F5F5F5F5F5F5F5F5F5F5F5F5F5F5F5F5F5F5F5F5F5F5F5F5F5F5F5F5F5F5F5F5F5F5F5F5F5F5F5F5F5F5F5F5F5F5F5F5F5F5F5F5F5F5F5F5F5F5F5F5F5F5F5F5F528F5DCF5F5F5F5F5F5F5F5F5F5F5F5F5F5F5F5F5F5F5E2E2F5F5F5F5F5F5F5F5F5F5F5F5F5F5F5F5F5F5
310
F5DCF528F5F5F5F5F5F5F5F5F5F5F5F5F5F5F5F5F5F5F5F5F5F5F5F5F5F5F5F5F5F5F5F5F5F5F5F5F5F5F5F5F5F5F5F5F5F5F5F5F5F5F5F5F5F5F5F5F5F5F5F5F5F5F5F5F5F5F5F5F5F5F5F5F5F5F5F5F5F5F5F5F5F5F5F5F5F5F5F5F5F5F5F5F5F5F5F5F5F5F5F5F5F5F5F5F5F5F5F5F5F5F5F5F5F5F5F5F5F5F5F5F5F5F5
310
F5F5F5F5F5F5F5F5F5F5F528F5DCF5F5F5F5F5F5F5F5F5F5F5F5F5F5F5F5F5F5F5E2E2F5F5F5F5F5F5F5F5F5F5F5F5F5F5F5F5F5F5F5DCF528F5F5F5F5F5F5F5F5F5F5F5F5F5F5F5F5F5F5F5F5F5F5F5F5F5F5F5F5F5F5F5F5F5F5F5F5F5F5F5F5F5F5F5F5F5F5F5F5F5F5F5F5F5F5F5F5F5F5F5F5F5F5F5F5F5F5F5F5F5F5
310
F5F5F5F5F5F5F5F5F5F5F5F5F5F5F5F5F5F5F5F5F5F5F5F5F5F5F5F5F5F5F5F5F5F5F5F5F5F5F5F5F5F5F5F5F5F5F5F5F5F5F5F5F5F5F5F5F5F5F5F5F5F5F5F528F5DCF5F5F5F5F5F5F5F5F5F5F5F5F5F5F5F5F5F5F5E2E2F5F5F5F5F5F5F5F5F5F5F5F5F5F5F5F5F5F5F5DCF528F5F5F5F5F5F5F5F5F5F5F5F5F5F5F5F5F5
310
F5F5F5F5F5F5F5F5F5F5F5F5F5F5F5F5F5F5F5F5F5F5F5F5F5F5F5F5F5F5F5F5F5F5F5F5F5F5F5F5F5F5F5F5F5F5F5F5F5F5F5F5F5F5F5F5F5F5F5F5F5F5F5F5F5F5F5F5F5F5F5F5F5F5F5F5F5F5F5F5F5F5F5F5F5F5F5F5F5F5F5F5F5F5F5F5F5F5F5F5F5F5F5F5F5F5F5F5F5F5F5F5F5F5F5F5F528F5DCF5F5F5F5F5F5F5
310
F5F5F5F5F5F5F5F5F5F5F5F5E2E2F5F5F5F5F5F5F5F5F5F5F5F5F5F5F5F5F5F5F5DCF528F5F5F5F5F5F5F5F5F5F5F5F5F5F5F5F5F5F5F5F5F5F5F5F5F5F5F5F5F5F5F5F5F5F5F5F5F5F5F5F5F5F5F5F5F5F5F5F5F5F5F5F5F5F5F5F5F5F5F5F5F5F5F5F5F5F5F5F5F5F5F5F5F5F5F5F5F5F5F5F5F5F5F5F5F5F5F5F5F5F5F5
310
F5F5F5F5F5F5F5F5F5F5F5F5F5F5F5F5F5F5F5F5F5F5F5F5F5F5F5F5F5F5F5F5F5F5F5F5F5F5F5F5F5F5F528F5DCF5F5F5F5F5F5F5F5F5F5F5F5F5F5F5F5F5F5F5E2E2F5F5F5F5F5F5F5F5F5F5F5F5F5F5F5F5F5F5F5DCF528F5F5F5F5F5F5F5F5F5F5F5F5F5F5F5F5F5F5F5F5F5F5F5F5F5F5F5F5F5F5F5F5F5F5F5F5F5F5
310
F5F5F5F5F5F5F5F5F5F5F5F5F5F5F5F5F5F5F5F5F5F5F5F5F5F5F5F5F5F5F5F5F5F5F5F5F5F5F5F5F5F5F5F5F5F5F5F5F5F5F5F5F5F5F5F5F5F5F5F5F5F5F5F5F5F5F5F5F5F5F5F5F5F5F5F5F5F5F5F5F5F5F5F5F5F5F5F5F5F5F5F5F5F5F5F528F5DCF5F5F5F5F5F5F5F5F5F5F5F5F5F5F5F5F5F5F5E2E2F5F5F5F5F5F5F5
310
F5F5F5F5F5F5F5F5F5F5F5F5DCF528F5F5F5F5F5F5F5F5F5F5F5F5F5F5F5F5F5F5F5F5F5F5F5F5F5F5F5F5F5F5F5F5F5F5F5F5F5F5F5F5F5F5F5F5F5F5F5F5F5F5F5F5F5F5F5F5F5F5F5F5F5F5F5F5F5F5F5F5F5F5F5F5F5F5F5F5F5F5F5F5F5F5F5F5F5F5F5F5F5F5F5F5F5F5F5F5F5F5F5F5F5F5F5F5F5F5F5F5F5F5F5F5
310
F5F5F5F5F5F5F5F5F5F5F5F5F5F5F5F5F5F5F5F5F5F528F5DCF5F5F5F5F5F5F5F5F5F5F5F5F5F5F5F5F5F5F5E2E2F5F5F5F5F5F5F5F5F5F5F5F5F5F5F5F5F5F5F5DCF528F5F5F5F5F5F5F5F5F5F5F5F5F5F5F5F5F5F5F5F5F5F5F5F5F5F5F5F5F5F5F5F5F5F5F5F5F5F5F5F5F5F5F5F5F5F5F5F5F5F5F5F5F5F5F5F5F5F5F5
310
F5F5F5F5F5F5F5F5F5F5F5F5F5F5F5F5F5F5F5F5F5F5F5F5F5F5F5F5F5F5F5F5F5F5F5F5F5F5F5F5F5F5F5F5F5F5F5F5F5F5F5F5F5F5F5F5F5F5F5F5F5F5F5F5F5F5F5F5F5F5F5F5F5F5F528F5DCF5F5F5F5F5F5F5F5F5F5F5F5F5F5F5F5F5F5F5E2E2F5E2F5F5F5F5F5F5F5F5F5F5F5F5F5F5F5F5F5DCF528F5F5F5F5F5F5
310
F5F5F5F5F5F5F5F5F5F5F5F5F5F5F5F5F5F5F5F5F5F5F5F5F5F5F5F5F5F5F5F5F5F5F5F5F5F5F5F5F5F5F5F5F5F5F5F5F5F5F5F5F5F5F5F5F5F5F5F5F5F5F5F5F5F5F5F5F5F5F5F5F5F5F5F5F5F5F5F5F5F5F5F5F5F5F5F5F5F5F5F5F5F5F5F5F5F5F5F5F5F5F5F5F5F5F5F5F5F5F5F5F5F5F5F5F5F5F5F5F5F5F5F5F5F5F5
310
F528F5DCF5F5F5F5F5F5F5F5F5F5F5F5F5F5F5F5F5E2F5E2E2F5E2F5F5F5F5F5F5F5F5F5F5F5F5F5F5F5F5F5DCF528F5F5F5F5F5F5F5F5F5F5F5F5F5F5F5F5F5F5F5F5F5F5F5F5F5F5F5F5F5F5F5F5F5F5F5F5F5F5F5F5F5F5F5F5F5F5F5F5F5F5F5F5F5F5F5F5F5F5F5F5F5F5F5F5F5F5F5F5F5F5F5F5F5F5F5F5F5F5F5F5
310
F5F5F5F5F5F5F5F5F5F5F5F5F5F5F5F5F5F5F5F5F5F5F5F5F5F5F5F5F5F5F5F5F5F5F5F5F5F5F5F5F5F5F5F5F5F5F5F5F5F5F5F5F5F528F5DCF5F5F5F5F5F5F5F5F5F5F5F5F5F5F5F5F5E2F5E2E2F5E2F5F5F5F5F5F5F5F5F5F5F5F5F5F5F5F5F5DCF528F5F5F5F5F5F5F5F5F5F5F5F5F5F5F5F5F5F5F5F5F5F5F5F5F5F5F5
310
F5F5F5F5F5F5F5F5F5F5F5F5F5F5F5F5F5F5F5F5F5F5F5F5F5F5F5F5F5F5F5F5F5F5F5F5F5F5F5F5F5F5F5F5F5F5F5F5F5F5F5F5F5F5F5F5F5F5F5F5F5F5F5F5F5F5F5F5F5F5F5F5F5F5F5F5F5F5F5F5F5F5F5F5F5F5F5F5F5F5F5F5F5F5F5F5F5F5F5F5F5F5F5F5F5F5F528F5DCF5F5F5F5F5F5F5F5F5F5F5F5F5F5F5F5F5
310
E2F5E2E2F5E2F5F5F5F5F5F5F5F5F5F5F5F5F5F5F5F5F5DCF528F5F5F5F5F5F5F5F5F5F5F5F5F5F5F5F5F5F5F5F5F5F5F5F5F5F5F5F5F5F5F5F5F5F5F5F5F5F5F5F5F5F5F5F5F5F5F5F5F5F5F5F5F5F5F5F5F5F5F5F5F5F5F5F5F5F5F5F5F5F5F5F5F5F5F5F5F5F5F5F5F5F5F5F5F5F5F5F5F5F5F5F5F5F5F5F5F5F5F5F5F5
310
F5F5F5F5F5F5F5F5F5F5F5F5F5F5F5F5F5F5F5F5F5F5F5F5F5F5F5F5F5F5F5F5F528F5DCF5F5F5F5F5F5F5F5F5F5F5F5F5F5F5F5F5E2F5E2E2F5E2F5F5F5F5F5F5F5F5F5F5F5F5F5F5F5F5F5DCF528F5F5F5F5F5F5F5F5F5F5F5F5F5F5F5F5F5F5F5F5F5F5F5F5F5F5F5F5F5F5F5F5F5F5F5F5F5F5F5F5F5F5F5F5F5F5F5F5
310
F5F5F5F5F5F5F5F5F5F5F5F5F5F5F5F5F5F5F5F5F5F5F5F5F5F5F5F5F5F5F5F5F5F5F5F5F5F5F5F5F5F5F5F5F5F5F5F5F5F5F5F5F5F5F5F5F5F5F5F5F5F5F5F5F5F5F5F5F5F5F5F5F5F5F5F5F5F5F5F5F5F5F5F5F5F528F5DCF5F5F5F5F5F5F5F5F5F5F5F5F5F5F5F5F5E2F5E2E2F5E2F5F5F5F5F5F5F5F5F5F5F5F5F5F5F5
310
F5F5DCF528F5F5F5F5F5F5F5F5F5F5F5F5F5F5F5F5F5F5F5F5F5F5F5F5F5F5F5F5F5F5F5F5F5F5F5F5F5F5F5F5F5F5F5F5F5F5F5F5F5F5F5F5F5F5F5F5F5F5F5F5F5F5F5F5F5F5F5F5F5F5F5F5F5F5F5F5F5F5F5F5F5F5F5F5F5F5F5F5F5F5F5F5F5F5F5F5F5F5F5F5F5F5F5F5F5F5F5F5F5F5F5F5F5F5F5F5F5F5F5F5F5F5
310
F5F5F5F5F5F5F5F5F5F5F5F528F5DCF5F5F5F5F5F5F5F5F5F5F5F5F5F5F5F5F5E2F5E2E2F5E2F5F5F5F5F5F5F5F5F5F5F5F5F5F5F5F5F5DCF528F5F5F5F5F5F5F5F5F5F5F5F5F5F5F5F5F5F5F5F5F5F5F5F5F5F5F5F5F5F5F5F5F5F5F5F5F5F5F5F5F5F5F5F5F5F5F5F5F5F5F5F5F5F5F5F5F5F5F5F5F5F5F5F5F5F5F5F5F5
310
F5F5F5F5F5F5F5F5F5F5F5F5F5F5F5F5F5F5F5F5F5F5F5F5F5F5F5F5F5F5F5F5F5F5F5F5F5F5F5F5F5F5F5F5F5F5F5F5F5F5F5F5F5F5F5F5F5F5F5F5F5F5F5F5F528F5DCF5F5F5F5F5F5F5F5F5F5F5F5F5F5F5F5F5E2F5E2E2F5E2F5F5F5F5F5F5F5F5F5F5F5F5F5F5F5F5F5DCF528F5F5F5F5F5F5F5F5F5F5F5F5F5F5F5F5
310
F5F5F5F5F5F5F5F5F5F5F5F5F5F5F5F5F5F5F5F5F5F5F5F5F5F5F5F5F5F5F5F5F5F5F5F5F5F5F5F5F5F5F5F5F5F5F5F5F5F5F5F5F5F5F5F5F5F5F5F5F5F5F5F5F5F5F5F5F5F5F5F5F5F5F5F5F5F5F5F5F5F5F5F5F5F5F5F5F5F5F5F5F5F5F5F5F5F5F5F5F5F5F5F5F5F5F5F5F5F5F5F5F5F5F5F5F5F528F5DCF5F5F5F5F5F5
310
F5F5F5F5F5F5F5F5F5F5F5E2F5E2E2F5E2F5F5F5F5F5F5F5F5F5F5F5F5F5F5F5F5F5DCF528282828282828282828282828282828282828282828282828282828282828282828282828282828282828282828282828282828282828282828282828282828282828282828282828282828282828282828282828282828282828
310
282828282828282828282828282828282828282828282828282828282828282828282828282828282828282828F5DCF5F5F5F5F5F5F5F5F5F5F5F5F5F5F5F5F5E2F5E2E2F5E2F5F5F5F5F5F5F5F5F5F5F5F5F5F5F5F5F5DCF528F5F5F5F5F5F5F5F5F5F5F5F5F5F5F5F5F5F5F5F5F5F5F5F5F5F5F5F5F5F5F5F5F5F5F5F5F5
310
F5F5F5F5F5F5F5F5F5F5F5F5F5F5F5F5F5F5F5F5F5F5F5F5F5F5F5F5F528F5F5F5F5F5F5F5F5F5F5F5F5F5F5F5F5F5F5F5F5F5F5F5F5F5F5F5F5F5F5F5F5F5F5F5F5F5F5F5F5F5F5F5F5F5F5F5F5F5F5F5F5F5F5F5F5F5F5F5F5F5F5F5F5F5F5F528F5DCF5F5F5F5F5F5F5F5F5F5F5F5F5F5F5F5F5E2F5E2E2F5E2F5F5F5F5
310
F5F5F5F5F5F5F5F5F5F5F5F5F5DCF528F5F5F5F5F5F5F5F5F5F5F5F5F52D2D2D2D2D2D2D2D2D2D2D2D2D2D2D2D2D2D2D2D2D2D2D2D2D2D2D2D2D2D2D2D2D2D2D2D2D2DF5F5F5F5F5F5F5F5F5F5F5F5F5F5F528F5F5F52D2D2D2DF52D2D2D2D2D2DF5F5F5F5F5F5F5F5F5F5F5F5F5F5F5F5F5F5F5F5F5F5F5F5F5F5F5F5F5F5
310
F5F5F5F5F5F5F5F5F5F5F5F5F5F5F5F5F5F5F5F5F5F5F528F5DCF5F5F5F5F5F5F5F5F5F5F5F5F5F5F5F5F5E2F5E2E2F5E2F5F5F5F5F5F5F5F5F5F5F5F5F5F5F5F5F5DCF528F5F5F5F5F5F5F5F5F5F5F5F5F52D2D2D2D2D2D2D2D2D2D2D2D2D2D2D2D2D2D2D2D2D2D2D2D2D2D2D2D2D2D2D2D2D2D2D2D2D2DF5F5F5F5F5F5F5
310
F5F5F5F5F5F5F5F528F5F5F52D2D2D2DF52D2D2D2DF52DF5F5F5F5F5F5F5F5F5F5F5F5F5F5F5F5F5F5F5F5F5F5F5F5F5F5F5F5F5F5F5F5F5F5F5F5F5F5F5F5F5F5F5F5F5F5F5F5F5F5F5F5F528F5DCF5F5F5F5F5F5F5F5F5F5F5F5F5F5F5F5F5E2F5E2E2F5E2F5F5F5F5F5F5F5F5F5F5F5F5F5F5F5F5F5DCF528F5F5F5F5F5
310
F5F5F5F5F5F5F5F5F5F5F5F5F5F5F5F5F5F5F5F5F5F5F5F5F5F5F5F5F5F5F5F5F5F5F5F5F5F5F5F5F5F5F5F5F5F5F5F5F5F5F5F5F5F5F5F5F5F5F5F5F528F5F5F5F5F5F5F5F5F5F5F5F5F5F5F5F5F5F5F5F5F5F5F5F5F5F5F5F5F5F5F5F5F5F5F5F5F5F5F5F5F5F5F5F5F5F5F5F5F5F5F5F5F5F5F5F5F5F5F5F5F5F5F5F5F5
310
F5F528F5DCF5F5F5F5F5F5F5F5F5F5F5F5F5F5F5F5F5E2F5E2E2F5E2F5F5F5F5F5F5F5F5F5F5F5F5F5F5F5F5F5DCF52828282828282828282828282828282828282828282828282828282D2D2D2D2D2D2D2D2D2D2D2D2D28282828282828282828282828282828282828282828282828282828282828282828282828282828
310
2828282828282828282828282828282828282828282828282828282828282828282828282828282828282828282828282828282828282828F5DCF5F5F5F5F5F5F5F5F5F5F5F5F5F5F5F5F5E2F5E2E2F5E2F5F5F5F5F5F5F5F5F5F5F5F5F5F5F5F5F5DCF528F5F5F5F5F5F5F5F5F5F5F5F5F5F5F5F5F5F5F5F5F5F5F5F5F5F5
310
2D2D2D2D2D2D2D2D2D2D2D2D2DF5F5F5F5F5F5F5F5F5F5F5F5F5F5F5F5F5F5F5F5F5F5F5F5F5F5F528F5F5F52D2D2D2D2D2D2D2D2D2D2DF5F52D2D2D2D2D2D2D2D2D2DF5F5F5F5F5F5F5F5F5F5F5F5F5F5F5F5F5F5F5F5F5F5F5F5F5F5F5F5F5F5F5F5F5F5F5F5F5F5F5F5F528F5DCF5F5F5F5F5F5F5F5F5F5F5F5F5F5F5F5
310
F5E2F5E2E2F5E2F5F5F5F5F5F5F5F5F5F5F5F5F5F5F5F5F5DCF528F5F5F5F5F5F5F5F5F5F5F5F5F5F5F5F5F5F5F5F5F5F5F5F5F5F52D2D2D2D2D2D2D2D2D2D2D2D2DF5F5F5F5F5F5F5F5F5F5F5F5F5F5F5F5F5F5F5F5F5F5F5F5F5F5F528F5F5F52D2D2D2D2D2D2D2D2D2D2DF52D2D2D2D2D2D2D2D2D2D2DF5F5F5F5F5F5F5
310
F5F5F5F5F5F5F5F5F5F5F5F5F5F5F5F5F5F5F5F5F5F5F5F5F5F5F5F5F5F5F5F5F5F528F5DCF5F5F5F5F5F5F5F5F5F5F5F5F5F5F5F5F5E2F5E2E2F5F5F5F5F5F5F5F5F5F5F5F5F5F5F5F5F5F5F5DCF528F5F5F5F5F5F5F5F5F5F5F5F5F5F5F5F5F5F5F5F5F5F5F5F5F5F5F5F5F5F5F5F5F5F5F5F5F5F5F5F5F5F5F5F5F5F5F5
310
F5F5F5F5F5F5F5F5F5F5F5F5F5F5F5F5F5F5F528F5F5F5F5F5F5F5F5F5F5F5F5F5F5F5F5F5F5F5F5F5F5F5F5F5F5F5F5F5F5F5F5F5F5F5F5F5F5F5F5F5F5F5F5F5F5F5F5F5F5F5F5F5F5F5F5F5F5F5F5F5F5F5F5F5F5F528F5DCF5F5F5F5F5F5F5F5F5F5F5F5F5F5F5F5F5F5F5E2E2F5F5F5F5F5F5F5F5F5F5F5F5F5F5F5F5
310
F5F5F5DCF52828282828282828282828282828282828282828282828282828282828282828282828282828282828282828282828282828282828282828282828282828282828282828282828282828282828282828282828282828282828282828282828282828282828282828282828282828282828282828282828282828
310
2828282828282828282828282828F5DCF5F5F5F5F5F5F5F5F5F5F5F5F5F5F5F5F5F5F5E2E2F5F5F5F5F5F5F5F5F5F5F5F5F5F5F5F5F5F5F5DCF5F5F5F5F5F5F5F5F5F5F5F5F5F5F5F5F5F5F5F5F5F5F5F5F5F5F5F5F5F5F5F5F5F5F5F5F5F5F5F5F5F5F5F5F5F5F5F5F5F5F5F5F5F5F5F5F5F5F5F5F5F5F5F5F5F5F5F5F5F5
310
F5F5F5F5F5F5F5F5F5F5F5F5F5F5F5F5F5F5F5F5F5F5F5F5F5F5F5F5F5F5F5F5F5F5F5F5F5F5F5F5F5F5F5F5F5F5F5F5F5F5F5F5F5F5F5F5F5F5F5F5F5F5F5F5F5F5F5F5DCF5F5F5F5F5F5F5F5F5F5F5F5F5F5F5F5F5F5F5E2E2F5F5F5F5F5F5F5F5F5F5F5F5F5F5F5F5F5F5F5DCDCDCDCDCDCDCDCDCDCDCDCDCDCDCDCDCDC
310
DCDCDCDCDCDCDCDCDCDCDCDCDCDCDCDCDCDCDCDCDCDCDCDCDCDCDCDCDCDCDCDCDCDCDCDCDCDCDCDCDCDCDCDCDCDCDCDCDCDCDCDCDCDCDCDCDCDCDCDCDCDCDCDCDCDCDCDCDCDCDCDCDCDCDCDCDCDCDCDCDCDCDCDCDCDCDCDCDCDCDCDCDCDCDCDCDCDCDCDCDCDCDCDCDCDCDCDCDCDCDCDCDCDCDCDCDCDCDCDCDCDCF5F5F5F5F5
310
F5F5F5F5F5F5F5F5F5F5F5F5F5F5E2E2F5F5F5F5F5F5F5F5F5F5F5F5F5F5F5F5F5F5F5DCDCDCDCDCDCDCDCDCDCDCDCDCDCDCDCDCDCDCDCDCDCDCDCDCDCDCDCDCDCDCDCDCDCDCDCDCDCDCDCDCDCDCDCDCDCDCDCDCDCDCDCDCDCDCDCDCDCDCDCDCDCDCDCDCDCDCDCDCDCDCDCDCDCDCDCDCDCDCDCDCDCDCDCDCDCDCDCDCDCDCDC
310
DCDCDCDCDCDCDCDCDCDCDCDCDCDCDCDCDCDCDCDCDCDCDCDCDCDCDCDCDCDCDCDCDCDCDCDCDCDCDCDCDCDCDCDCDCDCDCDCF5F5F5F5F5F5F5F5F5F5F5F5F5F5F5F5F5F5F5E2E2F5F5F5F5F5F5F5F5F5F5F5F5F5F5F5F5F5F5F5F5F5F5F5F5F5F5F5F5F5F5F5F5F5F5F5F5F5F5F5F5F5F5F5F5F5F5F5F5F5F5F5F5F5F5F5F5F5F5
310
F5F5F5F5F5F5F5F5F5F5F5F5F5F5F5F5F5F5F5F5F5F5F5F5F5F5F5F5F5F5F5F5F5F5F5F5F5F5F5F5F5F5F5F5F5F5F5F5F5F5F5F5F5F5F5F5F5F5F5F5F5F5F5F5F5F5F5F5F5F5F5F5F5F5F5F5F5F5F5F5F5F5F5F5F5F5F5F5F5F5F5F5F5F5F5F5F5F5F5F5F5F5F5F5F5F5F5F5F5F5F5F5F5F5F5F5F5F5F5F5E2E2F5F5F5F5F5
310
F5F5F5F5F5F5F5F5F5F5F5F5F5F5F5F5F5F5F5F5F5F5F5F5F5F5F5F5F5F5F5F5F5F5F5F5F5F5F5F5F5F5F5F5F5F5F5F5F5F5F5F5F5F5F5F5F5F5F5F5F5F5F5F5F5F5F5F5F5F5F5F5F5F5F5F5F5F5F5F5F5F5F5F5F5F5F5F5F5F5F5F5F5F5F5F5F5F5F5F5F5F5F5F5F5F5F5F5F5F5F5F5F5F5F5F5F5F5F5F5F5F5F5F5F5F5F5
310
F5F5F5F5F5F5F5F5F5F5F5F5F5F5F5F5F5F5F5F5F5F5F5F5F5F5F5F5F5F5F5F5F5F5F5F5F5F5F5F5F5F5F5F5F5F5E2E2F5F5F5F5F5F5F5F5F5F5F5F5F5F5F5F5F5F5F5F5F5F5F5F5F5F5F5F5F5F5F5F5F5F5F5F5F5F5F5F5F5F5F5F5F5F5F5F5F5F5F5F5F5F5F5F5F5F5F5F5F5F5F5F5F5F5F5F5F5F5F5F5F5F5F5F5F5F5F5
310
F5F5F5F5F5F5F5F5F5F5F5F5F5F5F5F5F5F5F5F5F5F5F5F5F5F5F5F5F5F5F5F5F5F5F5F5F5F5F5F5F5F5F5F5F5F5F5F5F5F5F5F5F5F5F5F5F5F5F5F5F5F5F5F5F5F5F5F5F5F5F5F5F5F5F5F5F5F5F5F5F5F5F5F5F5F5F5F5F5F5F5F5F5F5F5F5F5F5F5E2E2F5F5F5F5F5F5F5F5F5F5F5F5F5F5F5F5F5F5F5F5F5F5F5F5F5F5
310
F5F5F5F5F5F5F5F5F5F5F5F5F5F5F5F5F5F5F5F5F5F5F5F5F5F5F5F5F5F5F5F5F5F5F5F5F5F5F5F5F5F5F5F5F5F5F5F5F5F5F5F5F5F5F5F5F5F5F5F5F5F5F5F5F5F5F5F5F5F5F5F5F5F5F5F5F5F5F5F5F5F5F5F5F5F5F5F5F5F5F5F5F5F5F5F5F5F5F5F5F5F5F5F5F5F5F5F5F5F5F5F5F5F5F5F5F5F5F5F5F5F5F5F5F5F5F5
310
F5F5F5F5F5F5F5F5F5F5F5F5F5F5F5F5F5F5F5F5F5F5F5F5F5E2E2F5E2F5F5F5F5F5F5F5F5F5F5F5F5F5F5F5F5F5F5F5F5F5F5F5F5F5F5F5F5F5F5F5F5F5F5F5F5F5F5F5F5F5F5F5F5F5F5F5F5F5F5F5F5F5F5F5F5F5F5F5F5F5F5F5F5F5F5F5F5F5F5F5F5F5F5F5F5F5F5F5F5F5F5F5F5F5F5F5F5F5F5F5F5F5F5F5F5F5F5
310
F5F5F5F5F5F5F5F5F5F5F5F5F5F5F5F5F5F5F5F5F5F5F5F5F5F5F5F5F5F5F5F5F5F5F5F5F5F5F5F5F5F5F5F5F5F5F5F5F5F5F5F5F5F5F5F5F5F5F5F5F5F5F5F5F5F5F5F5F5F5F5F5F5F5F5F5E2F5E2E2F5E2F5F5F5F5F5F5F5F5F5F5F5F5F5F5F5F5F5F5F5F5F5F5F5F5F5F5F5F5F5F5F5F5F5F5F5F5F5F5F5F5F5F5F5F5F5
310
F5F5F5F5F5F5F5F5F5F5F5F5F5F5F5F5F5F5F5F5F5F5F5F5F5F5F5F5F5F5F5F5F5F5F5F5F5F5F5F5F5F5F5F5F5F5F5F5F5F5F5F5F5F5F5F5F5F5F5F5F5F5F5F5F5F5F5F5F5F5F5F5F5F5F5F5F5F5F5F5F5F5F5F5F5F5F5F5F5F5F5F5F5F5F5F5F5F5F5F5F5F5F5F5F5F5F5F5F5F5F5F5F5F5F5F5F5F5F5F5F5F5F5F5F5F5F5
310
F5F5E2F5E2E2F5E2F5F5F5F5F5F5F5F5F5F5F5F5F5F5F5F5F5F5F5F5F5F5F5F5F5F5F5F5F5F5F5F5F5F5F5F5F5F5F5F5F5F5F5F5F5F5F5F5F5F5F5F5F5F5F5F5F5F5F5F5F5F5F5F5F5F5F5F5F5F5F5F5F5F5F5F5F5F5F5F5F5F5F5F5F5F5F5F5F5F5F5F5F5F5F5F5F5F5F5F5F5F5F5F5F5F5F5F5F5F5F5F5F5F5F5F5F5F5F5
310
F5F5F5F5F5F5F5F5F5F5F5F5F5F5F5F5F5F5F5F5F5F5F5F5F5F5F5F5F5F5F5F5F5F5F5F5F5F5F5F5F5F5F5F5F5F5F5F5F5F5F5F5F5F5F5E2F5E2E2F5E2F5F5F5F5F5F5F5F5F5F5F5F5F5F5F5F5F5F5F5F5F5F5F5F5F5F5F5F5F5F5F5F5F5F5F5F5F5F5F5F5F5F5F5F5F5F5F5F5F5F5F5F5F5F5F5F5F5F5F5F5F5F5F5F5F5F5
310
F5F5F5F5F5F5F5F5F5F5F5F5F5F5F5F5F5F5F5F5F5F5F5F5F5F5F5F5F5F5F5F5F5F5F5F5F5F5F5F5F5F5F5F5F5F5F5F5F5F5F5F5F5F5F5F5F5F5F5F5F5F5F5F5F5F5F5F5F5F5F5F5F5F5F5F5F5F5F5F5F5F5F5F5F5F5F5F5F5F5F5F5F5F5F5F5F5F5F5F5F5F5F5F5F5F5F5F5E2F5E2E2F5E2F5F5F5F5F5F5F5F5F5F5F5F5F5
310
F5F5F5F5F5F5F5F5F5F5F5F5F5F5F5F5F5F5F5F5F5F5F5F5F5F5F5F5F5F5F5F5F5F5F5F5F5F5F5F5F5F5F5F5F5F5F5F5F5F5F5F5F5F5F5F5F5F5F5F5F5F5F5F5F5F5F5F5F5F5F5F5F5F5F5F5F5F5F5F5F5F5F5F5F5F5F5F5F5F5F5F5F5F5F5F5F5F5F5F5F5F5F5F5F5F5F5F5F5F5F5F5F5F5F5F5F5F5F5F5F5F5F5F5F5F5F5
310
F5F5F5F5F5F5F5F5F5F5F5F5F5F5F5F5F5F5F5F5F5F5F5F5F5F5F5F5F5F5F5F5F5F5E2F5E2E2F5E2F5F5F5F5F5F5F5F5F5F5F5F5F5F5F5F5F5F5F5F5F5F5F5F5F5F5F5F5F5F5F5F5F5F5F5F5F5F5F5F5F5F5F5F5F5F5F5F5F5F5F5F5F5F5F5F5F5F5F5F5F5F5F5F5F5F5F5F5F5F5F5F5F5F5F5F5F5F5F5F5F5F5F5F5F5F5F5
310
F5F5F5F5F5F5F5F5F5F5F5F5F5F5F5F5F5F5F5F5F5F5F5F5F5F5F5F5F5F5F5F5F5F5F5F5F5F5F5F5F5F5F5F5F5F5F5F5F5F5F5F5F5F5F5F5F5F5F5F5F5F5F5F5F5F5F5F5F5F5F5F5F5F5F5F5F5F5F5F5F5F5F5F5F5F5F5E2F5E2E2F5E2F5F5F5F5F5F5F5F5F5F5F5F5F5F5F5F5F5F5F5F5F5F5F5F5F5F5F5F5F5F5F5F5F5F5
310
F5F5F5F5F5F5F5F5F5F5F5F5F5F5F5F5F5F5F5F5F5F5F5F5F5F5F5F5F5F5F5F5F5F5F5F5F5F5F5F5F5F5F5F5F5F5F5F5F5F5F5F5F5F5F5F5F5F5F5F5F5F5F5F5F5F5F5F5F5F5F5F5F5F5F5F5F5F5F5F5F5F5F5F5F5F5F5F5F5F5F5F5F5F5F5F5F5F5F5F5F5F5F5F5F5F5F5F5F5F5F5F5F5F5F5F5F5F5F5F5F5F5F5F5F5F5F5
310
F5F5F5F5F5F5F5F5F5F5F5F5F5E2F5E2E2F5E2E2E2E2E2E2E2E2E2F5F5F5F5F5F5F5F5F5E2E2E2E2E2E2E2E2E2E2E2E2E2E2E2E2F5F5F5F5F5F5F5F5F5E2E2E2E2E2E2E2E2E2E2E2E2E2E2E2E2F5F5F5F5F5F5F5F5F5E2E2E2E2E2E2E2E2E2E2E2E2E2E2E2E2F5F5F5F5F5F5F5F5F5E2E2E2E2E2E2E2E2E2E2E2E2E2E2E2E2
310
F5F5F5F5F5F5F5F5F5E2E2E2E2E2E2E2E2E2E2E2E2E2E2E2E2F5F5F5F5F5F5F5F5F5E2E2E2E2E2E2E2E2E2E2E2E2E2E2E2E2F5F5F5F5F5F5F5F5F5E2E2E2E2E2E2E2E2F5E2E2F5F5F5F5F5F5F5F5F5F5F5F5F5F5F5F5F5F5F5F5F5F5F5F5F5F5F5F5F5F5F5F5F5F5F5F5F5F5F5F5F5F5F5F5F5F5F5F5F5F5F5F5F5F5F5F5F5
310
F5F5F5F5F5F5F5F5F5F5F5F5F5F5F5F5F5F5F5F5F5F5F5F5F5F5F5F5F5F5F5F5F5F5F5F5F5F5F5F5F5F5F5F5F5F5F5F5F5F5F5F5F5F5F5F5F5F5F5F5F5F5F5F5F5F5F5F5F5F5F5F5F5F5F5F5F5F5F5F5F5F5F5F5F5F5F5F5F5F5F5F5F5F5F5F5F5F5F5F5F5F5F5F5F5F5F5F5F5F5F5F5F5F5F5F5F5F5F5F5F5E2E2E2E2E2E2
310
E2E2E2E2E2E2E2E2E2E2E2E2E2E2E2E2E2E2E2E2E2E2E2E2E2E2E2E2E2E2E2E2E2E2E2E2E2E2E2E2E2E2E2E2E2E2E2E2E2E2E2E2E2E2E2E2E2E2E2E2E2E2E2E2E2E2E2E2E2E2E2E2E2E2E2E2E2E2E2E2E2E2E2E2E2E2E2E2E2E2E2E2E2E2E2E2E2E2E2E2E2E2E2E2E2E2E2E2E2E2E2E2E2E2E2E2E2E2E2E2E2E2E2E2E2E2E2
310
E2E2E2E2E2E2E2E2E2E2E2E2E2E2E2E2E2E2E2E2E2E2E2E2E2E2E2E2E2E2E2E2E2E2E2E2E2E2E2E2E2E2E2E2E2E2E2E2
  0
XRECORD
  5
3FED
102
{ACAD_REACTORS
330
3FEC
102
}
330
3FEC
100
AcDbXrecord
280
     1
102
SHADEPLOT
 70
     0
102
SHADEPLOTRESLEVEL
 70
     2
102
SHADEPLOTCUSTOMDPI
 70
   300
  0
XRECORD
  5
3FE6
102
{ACAD_REACTORS
330
3FE5
102
}
330
3FE5
100
AcDbXrecord
280
     1
102
SHADEPLOT
 70
     0
102
SHADEPLOTRESLEVEL
 70
     2
102
SHADEPLOTCUSTOMDPI
 70
   300
  0
XRECORD
  5
3FF1
102
{ACAD_REACTORS
330
3FF0
102
}
330
3FF0
100
AcDbXrecord
280
     1
102
MATERIAL
148
0.0
149
0.0
149
0.0
 93
        0
 94
       63
282
     0
 72
     1
 77
     1
171
     1
175
     1
179
     1
273
     0
  0
XRECORD
  5
3FEF
102
{ACAD_REACTORS
330
3FEE
102
}
330
3FEE
100
AcDbXrecord
280
     1
102
MATERIAL
148
0.0
149
0.0
149
0.0
 93
        0
 94
       63
282
     0
 72
     1
 77
     1
171
     1
175
     1
179
     1
273
     0
  0
XRECORD
  5
3FE4
102
{ACAD_REACTORS
330
3FE3
102
}
330
3FE3
100
AcDbXrecord
280
     1
102
MATERIAL
148
0.0
149
0.0
149
0.0
 93
        0
 94
       63
282
     0
 72
     1
 77
     1
171
     1
175
     1
179
     1
273
     0
  0
XRECORD
  5
3FF3
102
{ACAD_REACTORS
330
3FF2
102
}
330
3FF2
100
AcDbXrecord
280
     1
102
ACAD_ROUNDTRIP_PRE2007_TABLESTYLE
 90
        4
 91
        0
  1

 92
        4
 93
        0
  2

 94
        4
 95
        0
  3

  0
ENDSEC
  0
EOF
