  0
SECTION
  2
HEADER
  9
$ACADVER
  1
AC1015
  9
$ACADMAINTVER
 70
    20
  9
$DWGCODEPAGE
  3
ANSI_1252
  9
$INSBASE
 10
0.0
 20
0.0
 30
0.0
  9
$EXTMIN
 10
0.0149999999999999
 20
0.015
 30
0.0
  9
$EXTMAX
 10
0.6898250630802468
 20
0.3394985493483068
 30
0.0
  9
$LIMMIN
 10
0.0
 20
0.0
  9
$LIMMAX
 10
1.0
 20
0.5
  9
$ORTHOMODE
 70
     0
  9
$REGENMODE
 70
     1
  9
$FILLMODE
 70
     1
  9
$QTEXTMODE
 70
     0
  9
$MIRRTEXT
 70
     0
  9
$LTSCALE
 40
1.0
  9
$ATTMODE
 70
     1
  9
$TEXTSIZE
 40
0.008
  9
$TRACEWID
 40
1.0
  9
$TEXTSTYLE
  7
style1
  9
$CLAYER
  8
Sezione
  9
$CELTYPE
  6
ACAD_ISO10W100
  9
$CECOLOR
 62
   256
  9
$CELTSCALE
 40
1.0
  9
$DISPSILH
 70
     0
  9
$DIMSCALE
 40
0.001
  9
$DIMASZ
 40
1.5
  9
$DIMEXO
 40
0.0625
  9
$DIMDLI
 40
0.38
  9
$DIMRND
 40
0.0
  9
$DIMDLE
 40
0.0
  9
$DIMEXE
 40
0.18
  9
$DIMTP
 40
0.0
  9
$DIMTM
 40
0.0
  9
$DIMTXT
 40
3.0
  9
$DIMCEN
 40
0.0
  9
$DIMTSZ
 40
0.0
  9
$DIMTOL
 70
     0
  9
$DIMLIM
 70
     0
  9
$DIMTIH
 70
     1
  9
$DIMTOH
 70
     1
  9
$DIMSE1
 70
     0
  9
$DIMSE2
 70
     0
  9
$DIMTAD
 70
     0
  9
$DIMZIN
 70
     0
  9
$DIMBLK
  1
ArchTick
  9
$DIMASO
 70
     1
  9
$DIMSHO
 70
     1
  9
$DIMPOST
  1

  9
$DIMAPOST
  1

  9
$DIMALT
 70
     0
  9
$DIMALTD
 70
     2
  9
$DIMALTF
 40
25.4
  9
$DIMLFAC
 40
1.0
  9
$DIMTOFL
 70
     0
  9
$DIMTVP
 40
0.0
  9
$DIMTIX
 70
     0
  9
$DIMSOXD
 70
     0
  9
$DIMSAH
 70
     0
  9
$DIMBLK1
  1

  9
$DIMBLK2
  1

  9
$DIMSTYLE
  2
Bovelacci
  9
$DIMCLRD
 70
     5
  9
$DIMCLRE
 70
     5
  9
$DIMCLRT
 70
     4
  9
$DIMTFAC
 40
1.0
  9
$DIMGAP
 40
2.0
  9
$DIMJUST
 70
     0
  9
$DIMSD1
 70
     0
  9
$DIMSD2
 70
     0
  9
$DIMTOLJ
 70
     1
  9
$DIMTZIN
 70
     0
  9
$DIMALTZ
 70
     0
  9
$DIMALTTZ
 70
     0
  9
$DIMUPT
 70
     0
  9
$DIMDEC
 70
     2
  9
$DIMTDEC
 70
     2
  9
$DIMALTU
 70
     2
  9
$DIMALTTD
 70
     2
  9
$DIMTXSTY
  7
ROMANS
  9
$DIMAUNIT
 70
     0
  9
$DIMADEC
 70
     0
  9
$DIMALTRND
 40
0.0
  9
$DIMAZIN
 70
     0
  9
$DIMDSEP
 70
    46
  9
$DIMATFIT
 70
     3
  9
$DIMFRAC
 70
     0
  9
$DIMLDRBLK
  1

  9
$DIMLUNIT
 70
     2
  9
$DIMLWD
 70
    -2
  9
$DIMLWE
 70
    -2
  9
$DIMTMOVE
 70
     2
  9
$LUNITS
 70
     2
  9
$LUPREC
 70
     2
  9
$SKETCHINC
 40
1.0
  9
$FILLETRAD
 40
0.0
  9
$AUNITS
 70
     0
  9
$AUPREC
 70
     0
  9
$MENU
  1
.
  9
$ELEVATION
 40
0.0
  9
$PELEVATION
 40
0.0
  9
$THICKNESS
 40
0.0
  9
$LIMCHECK
 70
     0
  9
$CHAMFERA
 40
0.0
  9
$CHAMFERB
 40
0.0
  9
$CHAMFERC
 40
0.0
  9
$CHAMFERD
 40
0.0
  9
$SKPOLY
 70
     0
  9
$TDCREATE
 40
2454297.625402373
  9
$TDUCREATE
 40
2454297.542069039
  9
$TDUPDATE
 40
2454306.040854120
  9
$TDUUPDATE
 40
2454305.957520787
  9
$TDINDWG
 40
0.0993216435
  9
$TDUSRTIMER
 40
0.0993196412
  9
$USRTIMER
 70
     1
  9
$ANGBASE
 50
0.0
  9
$ANGDIR
 70
     0
  9
$PDMODE
 70
     0
  9
$PDSIZE
 40
0.0
  9
$PLINEWID
 40
0.0
  9
$SPLFRAME
 70
     0
  9
$SPLINETYPE
 70
     6
  9
$SPLINESEGS
 70
     8
  9
$HANDSEED
  5
596
  9
$SURFTAB1
 70
     6
  9
$SURFTAB2
 70
     6
  9
$SURFTYPE
 70
     6
  9
$SURFU
 70
     6
  9
$SURFV
 70
     6
  9
$UCSBASE
  2

  9
$UCSNAME
  2

  9
$UCSORG
 10
0.0
 20
0.0
 30
0.0
  9
$UCSXDIR
 10
1.0
 20
0.0
 30
0.0
  9
$UCSYDIR
 10
0.0
 20
1.0
 30
0.0
  9
$UCSORTHOREF
  2

  9
$UCSORTHOVIEW
 70
     0
  9
$UCSORGTOP
 10
0.0
 20
0.0
 30
0.0
  9
$UCSORGBOTTOM
 10
0.0
 20
0.0
 30
0.0
  9
$UCSORGLEFT
 10
0.0
 20
0.0
 30
0.0
  9
$UCSORGRIGHT
 10
0.0
 20
0.0
 30
0.0
  9
$UCSORGFRONT
 10
0.0
 20
0.0
 30
0.0
  9
$UCSORGBACK
 10
0.0
 20
0.0
 30
0.0
  9
$PUCSBASE
  2

  9
$PUCSNAME
  2

  9
$PUCSORG
 10
0.0
 20
0.0
 30
0.0
  9
$PUCSXDIR
 10
1.0
 20
0.0
 30
0.0
  9
$PUCSYDIR
 10
0.0
 20
1.0
 30
0.0
  9
$PUCSORTHOREF
  2

  9
$PUCSORTHOVIEW
 70
     0
  9
$PUCSORGTOP
 10
0.0
 20
0.0
 30
0.0
  9
$PUCSORGBOTTOM
 10
0.0
 20
0.0
 30
0.0
  9
$PUCSORGLEFT
 10
0.0
 20
0.0
 30
0.0
  9
$PUCSORGRIGHT
 10
0.0
 20
0.0
 30
0.0
  9
$PUCSORGFRONT
 10
0.0
 20
0.0
 30
0.0
  9
$PUCSORGBACK
 10
0.0
 20
0.0
 30
0.0
  9
$USERI1
 70
     0
  9
$USERI2
 70
     0
  9
$USERI3
 70
     0
  9
$USERI4
 70
     0
  9
$USERI5
 70
     0
  9
$USERR1
 40
0.0
  9
$USERR2
 40
0.0
  9
$USERR3
 40
0.0
  9
$USERR4
 40
0.0
  9
$USERR5
 40
0.0
  9
$WORLDVIEW
 70
     1
  9
$SHADEDGE
 70
     3
  9
$SHADEDIF
 70
    70
  9
$TILEMODE
 70
     1
  9
$MAXACTVP
 70
    64
  9
$PINSBASE
 10
0.0
 20
0.0
 30
0.0
  9
$PLIMCHECK
 70
     0
  9
$PEXTMIN
 10
1.000000000000000E+20
 20
1.000000000000000E+20
 30
1.000000000000000E+20
  9
$PEXTMAX
 10
-1.000000000000000E+20
 20
-1.000000000000000E+20
 30
-1.000000000000000E+20
  9
$PLIMMIN
 10
0.0
 20
0.0
  9
$PLIMMAX
 10
420.0
 20
297.0
  9
$UNITMODE
 70
     0
  9
$VISRETAIN
 70
     1
  9
$PLINEGEN
 70
     0
  9
$PSLTSCALE
 70
     1
  9
$TREEDEPTH
 70
  3020
  9
$CMLSTYLE
  2
Standard
  9
$CMLJUST
 70
     0
  9
$CMLSCALE
 40
20.0
  9
$PROXYGRAPHICS
 70
     1
  9
$MEASUREMENT
 70
     1
  9
$CELWEIGHT
370
    -1
  9
$ENDCAPS
280
     0
  9
$JOINSTYLE
280
     0
  9
$LWDISPLAY
290
     0
  9
$INSUNITS
 70
     4
  9
$HYPERLINKBASE
  1

  9
$STYLESHEET
  1

  9
$XEDIT
290
     1
  9
$CEPSNTYPE
380
     0
  9
$PSTYLEMODE
290
     1
  9
$FINGERPRINTGUID
  2
{904A8C64-524F-4709-A9C6-320D2C273A6D}
  9
$VERSIONGUID
  2
{339E81ED-7891-4FE8-8F2B-ED816A9065D1}
  9
$EXTNAMES
290
     1
  9
$PSVPSCALE
 40
0.0
  9
$OLESTARTUP
290
     0
  0
ENDSEC
  0
SECTION
  2
CLASSES
  0
CLASS
  1
ACDBDICTIONARYWDFLT
  2
AcDbDictionaryWithDefault
  3
ObjectDBX Classes
 90
        0
280
     0
281
     0
  0
CLASS
  1
TABLESTYLE
  2
AcDbTableStyle
  3
ObjectDBX Classes
 90
     2047
280
     0
281
     0
  0
CLASS
  1
SORTENTSTABLE
  2
AcDbSortentsTable
  3
ObjectDBX Classes
 90
        0
280
     0
281
     0
  0
CLASS
  1
DICTIONARYVAR
  2
AcDbDictionaryVar
  3
ObjectDBX Classes
 90
        0
280
     0
281
     0
  0
CLASS
  1
ACDBPLACEHOLDER
  2
AcDbPlaceHolder
  3
ObjectDBX Classes
 90
        0
280
     0
281
     0
  0
CLASS
  1
LAYOUT
  2
AcDbLayout
  3
ObjectDBX Classes
 90
        0
280
     0
281
     0
  0
CLASS
  1
DIMASSOC
  2
AcDbDimAssoc
  3
"AcDbDimAssoc|Product Desc:     AcDim ARX App For Dimension|Company:          Autodesk, Inc.|WEB Address:      www.autodesk.com"
 90
        0
280
     0
281
     0
  0
CLASS
  1
MATERIAL
  2
AcDbMaterial
  3
ObjectDBX Classes
 90
        0
280
     0
281
     0
  0
CLASS
  1
VISUALSTYLE
  2
AcDbVisualStyle
  3
ObjectDBX Classes
 90
     4095
280
     0
281
     0
  0
ENDSEC
  0
SECTION
  2
TABLES
  0
TABLE
  2
VPORT
  5
177
330
0
100
AcDbSymbolTable
 70
     3
  0
VPORT
  5
58B
330
177
100
AcDbSymbolTableRecord
100
AcDbViewportTableRecord
  2
*Active
 70
     0
 10
0.0
 20
0.0
 11
1.0
 21
1.0
 12
0.2067652048504349
 22
0.1485656239317115
 13
0.0
 23
0.0
 14
10.0
 24
10.0
 15
10.0
 25
10.0
 16
0.0
 26
0.0
 36
1.0
 17
0.0
 27
0.0
 37
0.0
 40
0.2781099084716965
 41
1.546526867627784
 42
50.0
 43
0.0
 44
0.0
 50
0.0
 51
0.0
 71
     0
 72
  1000
 73
     1
 74
     3
 75
     0
 76
     0
 77
     0
 78
     0
281
     0
 65
     1
110
0.0
120
0.0
130
0.0
111
1.0
121
0.0
131
0.0
112
0.0
122
1.0
132
0.0
 79
     0
146
0.0
  0
ENDTAB
  0
TABLE
  2
LTYPE
  5
172
330
0
100
AcDbSymbolTable
 70
     3
  0
LTYPE
  5
173
330
172
100
AcDbSymbolTableRecord
100
AcDbLinetypeTableRecord
  2
ByBlock
 70
     0
  3

 72
    65
 73
     0
 40
0.0
  0
LTYPE
  5
174
330
172
100
AcDbSymbolTableRecord
100
AcDbLinetypeTableRecord
  2
ByLayer
 70
     0
  3

 72
    65
 73
     0
 40
0.0
  0
LTYPE
  5
C
330
172
100
AcDbSymbolTableRecord
100
AcDbLinetypeTableRecord
  2
Continuous
 70
     0
  3
Solid line
 72
    65
 73
     0
 40
0.0
  0
LTYPE
  5
14E
330
172
100
AcDbSymbolTableRecord
100
AcDbLinetypeTableRecord
  2
ACAD_ISO10W100
 70
     0
  3
ISO dash dot __ . __ . __ . __ . __ . __ . __ .
 72
    65
 73
     4
 40
18.0
 49
12.0
 74
     0
 49
-3.0
 74
     0
 49
0.0
 74
     0
 49
-3.0
 74
     0
  0
ENDTAB
  0
TABLE
  2
LAYER
  5
16D
102
{ACAD_XDICTIONARY
360
16E
102
}
330
0
100
AcDbSymbolTable
 70
     7
  0
LAYER
  5
6
330
16D
100
AcDbSymbolTableRecord
100
AcDbLayerTableRecord
  2
0
 70
     0
 62
     7
  6
Continuous
370
    -3
390
7
  0
LAYER
  5
15F
330
16D
100
AcDbSymbolTableRecord
100
AcDbLayerTableRecord
  2
Defpoints
 70
     0
 62
     7
  6
Continuous
290
     0
370
    -3
390
7
  0
LAYER
  5
28
330
16D
100
AcDbSymbolTableRecord
100
AcDbLayerTableRecord
  2
Profilo
 70
     0
 62
     1
  6
Continuous
370
    -3
390
7
1001
AcAecLayerStandard
1000

1000

  0
LAYER
  5
14D
330
16D
100
AcDbSymbolTableRecord
100
AcDbLayerTableRecord
  2
Sezione
 70
     0
 62
     2
  6
Continuous
370
    -3
390
7
1001
AcAecLayerStandard
1000

1000

  0
LAYER
  5
E
330
16D
100
AcDbSymbolTableRecord
100
AcDbLayerTableRecord
  2
Table
 70
     0
 62
     3
  6
Continuous
370
    -3
390
7
1001
AcAecLayerStandard
1000

1000

  0
LAYER
  5
19
330
16D
100
AcDbSymbolTableRecord
100
AcDbLayerTableRecord
  2
Text
 70
     0
 62
     4
  6
Continuous
370
    -3
390
7
1001
AcAecLayerStandard
1000

1000

  0
LAYER
  5
256
330
16D
100
AcDbSymbolTableRecord
100
AcDbLayerTableRecord
  2
Bovelacci
 70
     0
 62
     9
  6
Continuous
370
    -3
390
7
1001
AcAecLayerStandard
1000

1000

  0
ENDTAB
  0
TABLE
  2
STYLE
  5
170
330
0
100
AcDbSymbolTable
 70
     3
  0
STYLE
  5
1A
330
170
100
AcDbSymbolTableRecord
100
AcDbTextStyleTableRecord
  2
Standard
 70
     0
 40
0.0
 41
1.0
 50
0.0
 71
     0
 42
2.5
  3
txt
  4

  0
STYLE
  5
20
330
170
100
AcDbSymbolTableRecord
100
AcDbTextStyleTableRecord
  2
ROMANS
 70
     0
 40
0.0
 41
1.0
 50
0.0
 71
     0
 42
2.5
  3
romans
  4

  0
STYLE
  5
26
330
170
100
AcDbSymbolTableRecord
100
AcDbTextStyleTableRecord
  2
style1
 70
     0
 40
0.0
 41
1.0
 50
0.0
 71
     0
 42
0.008
  3
TIMES.TTF
  4

1001
ACAD
1000
Times New Roman
1071
       18
  0
ENDTAB
  0
TABLE
  2
VIEW
  5
175
330
0
100
AcDbSymbolTable
 70
     1
  0
ENDTAB
  0
TABLE
  2
UCS
  5
176
330
0
100
AcDbSymbolTable
 70
     0
  0
ENDTAB
  0
TABLE
  2
APPID
  5
17B
330
0
100
AcDbSymbolTable
 70
    10
  0
APPID
  5
1B
330
17B
100
AcDbSymbolTableRecord
100
AcDbRegAppTableRecord
  2
ACAD
 70
     0
  0
APPID
  5
157
330
17B
100
AcDbSymbolTableRecord
100
AcDbRegAppTableRecord
  2
ACAD_DSTYLE_DIMJOGGED_JOGANGLE_SYMBOL
 70
     0
  0
APPID
  5
F
330
17B
100
AcDbSymbolTableRecord
100
AcDbRegAppTableRecord
  2
AcAecLayerStandard
 70
     0
  0
APPID
  5
19C
330
17B
100
AcDbSymbolTableRecord
100
AcDbRegAppTableRecord
  2
ACAD_DSTYLE_DIMFLIPARROW_WHICH_SYMBOL
 70
     0
  0
APPID
  5
1A7
330
17B
100
AcDbSymbolTableRecord
100
AcDbRegAppTableRecord
  2
ACAD_DSTYLE_DIMEXT_LENGTH
 70
     0
  0
APPID
  5
1D2
330
17B
100
AcDbSymbolTableRecord
100
AcDbRegAppTableRecord
  2
ACAD_EXEMPT_FROM_CAD_STANDARDS
 70
     0
  0
APPID
  5
1D3
330
17B
100
AcDbSymbolTableRecord
100
AcDbRegAppTableRecord
  2
ACAD_DSTYLE_DIM_LINETYPE
 70
     0
  0
APPID
  5
1D4
330
17B
100
AcDbSymbolTableRecord
100
AcDbRegAppTableRecord
  2
ACAD_DSTYLE_DIM_EXT1_LINETYPE
 70
     0
  0
APPID
  5
1D5
330
17B
100
AcDbSymbolTableRecord
100
AcDbRegAppTableRecord
  2
ACAD_DSTYLE_DIM_EXT2_LINETYPE
 70
     0
  0
APPID
  5
25C
330
17B
100
AcDbSymbolTableRecord
100
AcDbRegAppTableRecord
  2
ACAD_PSEXT
 70
     0
  0
ENDTAB
  0
TABLE
  2
DIMSTYLE
  5
17C
330
0
100
AcDbSymbolTable
 70
     8
100
AcDbDimStyleTable
 71
     2
340
156
340
17D
  0
DIMSTYLE
105
17D
330
17C
100
AcDbSymbolTableRecord
100
AcDbDimStyleTableRecord
  2
ISO-25
 70
     0
 41
2.5
 42
0.625
 43
3.75
 44
1.25
 73
     0
 74
     0
 77
     1
 78
     8
140
2.5
141
2.5
143
0.03937007874016
147
0.625
171
     3
172
     1
271
     2
272
     2
274
     3
278
    44
283
     0
284
     8
340
1A
  0
DIMSTYLE
105
156
102
{ACAD_REACTORS
330
56B
102
}
330
17C
100
AcDbSymbolTableRecord
100
AcDbDimStyleTableRecord
  2
Bovelacci
 70
     0
 40
0.001
 41
1.5
140
3.0
141
0.0
147
2.0
176
     5
177
     5
178
     4
271
     2
272
     2
279
     2
340
20
342
152
1001
ACAD_DSTYLE_DIMJOGGED_JOGANGLE_SYMBOL
1070
   384
1040
0.7853981633974483
1001
ACAD_DSTYLE_DIMEXT_LENGTH
1070
   378
1040
0.18
  0
DIMSTYLE
105
257
330
17C
100
AcDbSymbolTableRecord
100
AcDbDimStyleTableRecord
  2
Dim 1-100
 70
     0
 40
0.1
 41
1.5
 42
0.0
 43
5.0
 44
1.25
 45
0.005
 46
1.25
 73
     0
 74
     0
 77
     1
 78
     9
140
2.0
141
2.5
147
1.0
172
     1
174
     1
179
     2
279
     2
289
     2
340
20
342
152
  0
DIMSTYLE
105
258
330
17C
100
AcDbSymbolTableRecord
100
AcDbDimStyleTableRecord
  2
Standard
 70
     0
 42
0.0
 73
     0
 74
     0
 77
     1
271
     2
272
     2
340
20
  0
DIMSTYLE
105
259
330
17C
100
AcDbSymbolTableRecord
100
AcDbDimStyleTableRecord
  2
Dim 1-50
 70
     0
 40
0.05
 41
1.5
 42
0.0
 43
5.0
 44
1.25
 45
0.005
 46
1.25
 73
     0
 74
     0
 77
     1
 78
     9
140
2.0
141
2.5
147
1.0
172
     1
174
     1
179
     2
279
     2
289
     2
340
20
342
152
  0
DIMSTYLE
105
25A
330
17C
100
AcDbSymbolTableRecord
100
AcDbDimStyleTableRecord
  2
Dim 1-200
 70
     0
 40
0.2
 41
1.5
 42
0.0
 43
5.0
 44
1.25
 45
0.005
 46
1.25
 73
     0
 74
     0
 77
     1
 78
     9
140
2.0
141
2.5
147
1.0
172
     1
174
     1
179
     2
271
     2
272
     2
279
     2
289
     2
340
20
342
152
  0
DIMSTYLE
105
25B
330
17C
100
AcDbSymbolTableRecord
100
AcDbDimStyleTableRecord
  2
AEC Scale - Italiano
 70
     0
 41
1.0
 42
10.0
 43
10.0
 44
10.0
 73
     0
 74
     0
 75
     1
 76
     1
 77
     1
140
10.0
141
1.0
147
10.0
173
     1
271
     0
272
     0
279
     2
340
1A
343
251
344
24B
  0
ENDTAB
  0
TABLE
  2
BLOCK_RECORD
  5
1
330
0
100
AcDbSymbolTable
 70
    13
  0
BLOCK_RECORD
  5
2
102
{ACAD_XDICTIONARY
360
3
102
}
330
1
100
AcDbSymbolTableRecord
100
AcDbBlockTableRecord
  2
*Model_Space
340
163
  0
BLOCK_RECORD
  5
165
330
1
100
AcDbSymbolTableRecord
100
AcDbBlockTableRecord
  2
*Paper_Space
340
168
  0
BLOCK_RECORD
  5
169
330
1
100
AcDbSymbolTableRecord
100
AcDbBlockTableRecord
  2
*Paper_Space0
340
16C
  0
BLOCK_RECORD
  5
152
330
1
100
AcDbSymbolTableRecord
100
AcDbBlockTableRecord
  2
_ArchTick
340
0
310
2800000020000000200000000100080000000000000400000000000000000000000000000000000000000000000080000080000000808000800000008000800080800000C0C0C000C0DCC000F0CAA6000020400000206000002080000020A0000020C0000020E00000400000004020000040400000406000004080000040A0
310
000040C0000040E00000600000006020000060400000606000006080000060A0000060C0000060E00000800000008020000080400000806000008080000080A0000080C0000080E00000A0000000A0200000A0400000A0600000A0800000A0A00000A0C00000A0E00000C0000000C0200000C0400000C0600000C0800000C0
310
A00000C0C00000C0E00000E0000000E0200000E0400000E0600000E0800000E0A00000E0C00000E0E00040000000400020004000400040006000400080004000A0004000C0004000E00040200000402020004020400040206000402080004020A0004020C0004020E000404000004040200040404000404060004040800040
310
40A0004040C0004040E00040600000406020004060400040606000406080004060A0004060C0004060E00040800000408020004080400040806000408080004080A0004080C0004080E00040A0000040A0200040A0400040A0600040A0800040A0A00040A0C00040A0E00040C0000040C0200040C0400040C0600040C08000
310
40C0A00040C0C00040C0E00040E0000040E0200040E0400040E0600040E0800040E0A00040E0C00040E0E00080000000800020008000400080006000800080008000A0008000C0008000E00080200000802020008020400080206000802080008020A0008020C0008020E00080400000804020008040400080406000804080
310
008040A0008040C0008040E00080600000806020008060400080606000806080008060A0008060C0008060E00080800000808020008080400080806000808080008080A0008080C0008080E00080A0000080A0200080A0400080A0600080A0800080A0A00080A0C00080A0E00080C0000080C0200080C0400080C0600080C0
310
800080C0A00080C0C00080C0E00080E0000080E0200080E0400080E0600080E0800080E0A00080E0C00080E0E000C0000000C0002000C0004000C0006000C0008000C000A000C000C000C000E000C0200000C0202000C0204000C0206000C0208000C020A000C020C000C020E000C0400000C0402000C0404000C0406000C0
310
408000C040A000C040C000C040E000C0600000C0602000C0604000C0606000C0608000C060A000C060C000C060E000C0800000C0802000C0804000C0806000C0808000C080A000C080C000C080E000C0A00000C0A02000C0A04000C0A06000C0A08000C0A0A000C0A0C000C0A0E000C0C00000C0C02000C0C04000C0C06000
310
C0C08000C0C0A000F0FBFF00A4A0A000808080000000FF0000FF000000FFFF00FF000000FF00FF00FFFF0000FFFFFF00000000FF000000000000000000000000000000000000000000000000000000000000FF00FF00000000000000000000000000000000000000000000000000000000FF000000FF000000000000000000
310
0000000000000000000000000000000000FF0000000000FF0000000000000000000000000000000000000000000000000000FF0000000000FF0000000000000000000000000000000000000000000000000000FF0000000000FF0000000000000000000000000000000000000000000000000000FF0000000000FF00000000
310
00000000000000000000000000000000000000000000FF0000000000FF0000000000000000000000000000000000000000000000000000FF0000000000FF0000000000000000000000000000000000000000000000000000FF0000000000FF0000000000000000000000000000000000000000000000000000FF0000000000
310
FF0000000000000000000000000000000000000000000000000000FF0000000000FF0000000000000000000000000000000000000000000000000000FF0000000000FF0000000000000000000000000000000000000000000000000000FF0000000000FF0000000000000000000000000000000000000000000000000000FF
310
0000000000FF0000000000000000000000000000000000000000000000000000FF0000000000FF0000000000000000000000000000000000000000000000000000FF0000000000FF0000000000000000000000000000000000000000000000000000FF0000000000FF00000000000000000000000000000000000000000000
310
00000000FF0000000000FF0000000000000000000000000000000000000000000000000000FF0000000000FF0000000000000000000000000000000000000000000000000000FF0000000000FF0000000000000000000000000000000000000000000000000000FF0000000000FF0000000000000000000000000000000000
310
000000000000000000FF0000000000FF0000000000000000000000000000000000000000000000000000FF0000000000FF0000000000000000000000000000000000000000000000000000FF0000000000FF0000000000000000000000000000000000000000000000000000FF0000000000FF000000000000000000000000
310
0000000000000000000000000000FF0000000000FF0000000000000000000000000000000000000000000000000000FF0000000000FF0000000000000000000000000000000000000000000000000000FF0000000000FF0000000000000000000000000000000000000000000000000000FF000000FF000000000000000000
310
00000000000000000000000000000000000000FF00FF000000000000000000000000000000000000000000000000000000000000FF000000
102
{BLKREFS
331
211
331
318
331
354
331
429
331
50A
331
586
102
}
  0
BLOCK_RECORD
  5
24B
330
1
100
AcDbSymbolTableRecord
100
AcDbBlockTableRecord
  2
_Arrivo
340
0
310
2800000020000000200000000100080000000000000400000000000000000000000000000000000000000000000080000080000000808000800000008000800080800000C0C0C000C0DCC000F0CAA6000020400000206000002080000020A0000020C0000020E00000400000004020000040400000406000004080000040A0
310
000040C0000040E00000600000006020000060400000606000006080000060A0000060C0000060E00000800000008020000080400000806000008080000080A0000080C0000080E00000A0000000A0200000A0400000A0600000A0800000A0A00000A0C00000A0E00000C0000000C0200000C0400000C0600000C0800000C0
310
A00000C0C00000C0E00000E0000000E0200000E0400000E0600000E0800000E0A00000E0C00000E0E00040000000400020004000400040006000400080004000A0004000C0004000E00040200000402020004020400040206000402080004020A0004020C0004020E000404000004040200040404000404060004040800040
310
40A0004040C0004040E00040600000406020004060400040606000406080004060A0004060C0004060E00040800000408020004080400040806000408080004080A0004080C0004080E00040A0000040A0200040A0400040A0600040A0800040A0A00040A0C00040A0E00040C0000040C0200040C0400040C0600040C08000
310
40C0A00040C0C00040C0E00040E0000040E0200040E0400040E0600040E0800040E0A00040E0C00040E0E00080000000800020008000400080006000800080008000A0008000C0008000E00080200000802020008020400080206000802080008020A0008020C0008020E00080400000804020008040400080406000804080
310
008040A0008040C0008040E00080600000806020008060400080606000806080008060A0008060C0008060E00080800000808020008080400080806000808080008080A0008080C0008080E00080A0000080A0200080A0400080A0600080A0800080A0A00080A0C00080A0E00080C0000080C0200080C0400080C0600080C0
310
800080C0A00080C0C00080C0E00080E0000080E0200080E0400080E0600080E0800080E0A00080E0C00080E0E000C0000000C0002000C0004000C0006000C0008000C000A000C000C000C000E000C0200000C0202000C0204000C0206000C0208000C020A000C020C000C020E000C0400000C0402000C0404000C0406000C0
310
408000C040A000C040C000C040E000C0600000C0602000C0604000C0606000C0608000C060A000C060C000C060E000C0800000C0802000C0804000C0806000C0808000C080A000C080C000C080E000C0A00000C0A02000C0A04000C0A06000C0A08000C0A0A000C0A0C000C0A0E000C0C00000C0C02000C0C04000C0C06000
310
C0C08000C0C0A000F0FBFF00A4A0A000808080000000FF0000FF000000FFFF00FF000000FF00FF00FFFF0000FFFFFF00000000000000000000000000000000000000000000000000000000000000000000000000000000000000FF0000000000000000000000000000000000000000000000000000000000000000FF000000
310
00000000000000000000000000000000000000000000000000000000FF0000000000000000000000000000000000000000000000000000000000000000FF00000000000000000000000000000000000000000000000000000000000000FF0000000000000000000000000000000000000000000000000000000000000000FF
310
0000000000000000000000000000000000000000000000000000000000000000FF00000000000000000000000000000000000000000000000000000000000000FF0000000000000000000000000000000000000000000000000000000000000000FF0000000000000000000000000000000000000000000000000000000000
310
0000FF0000000000000000000000000000000000000000000000000000000000000000FF00000000000000000000000000000000000000000000000000000000000000FF0000000000000000000000000000000000000000000000000000000000000000FF0000FF0000000000000000000000000000000000000000000000
310
000000000000FFFF000000000000000000000000000000000000000000000000000000000000FFFF00000000000000000000000000000000000000000000000000000000FFFFFFFFFFFF00000000000000000000000000000000000000000000000000000000FFFF0000000000000000000000000000000000000000000000
310
000000000000FF0000FF000000000000000000000000000000000000000000000000000000FF00000000000000000000000000000000000000000000000000000000000000FF000000000000000000000000000000000000000000000000000000000000FF0000000000000000000000000000000000000000000000000000
310
0000000000FF000000000000000000000000000000000000000000000000000000000000FF00000000000000000000000000000000000000000000000000000000000000FF000000000000000000000000000000000000000000000000000000000000FF000000000000000000000000000000000000000000000000000000
310
000000FF00000000000000000000000000000000000000000000000000000000000000FF000000000000000000000000000000000000000000000000000000000000FF00000000000000000000000000000000000000000000000000000000000000FF00000000000000000000000000000000000000000000000000000000
310
0000FF0000000000000000000000000000000000000000000000000000000000000000000000000000000000000000000000000000000000
  0
BLOCK_RECORD
  5
251
330
1
100
AcDbSymbolTableRecord
100
AcDbBlockTableRecord
  2
_Partenza
340
0
310
2800000020000000200000000100080000000000000400000000000000000000000000000000000000000000000080000080000000808000800000008000800080800000C0C0C000C0DCC000F0CAA6000020400000206000002080000020A0000020C0000020E00000400000004020000040400000406000004080000040A0
310
000040C0000040E00000600000006020000060400000606000006080000060A0000060C0000060E00000800000008020000080400000806000008080000080A0000080C0000080E00000A0000000A0200000A0400000A0600000A0800000A0A00000A0C00000A0E00000C0000000C0200000C0400000C0600000C0800000C0
310
A00000C0C00000C0E00000E0000000E0200000E0400000E0600000E0800000E0A00000E0C00000E0E00040000000400020004000400040006000400080004000A0004000C0004000E00040200000402020004020400040206000402080004020A0004020C0004020E000404000004040200040404000404060004040800040
310
40A0004040C0004040E00040600000406020004060400040606000406080004060A0004060C0004060E00040800000408020004080400040806000408080004080A0004080C0004080E00040A0000040A0200040A0400040A0600040A0800040A0A00040A0C00040A0E00040C0000040C0200040C0400040C0600040C08000
310
40C0A00040C0C00040C0E00040E0000040E0200040E0400040E0600040E0800040E0A00040E0C00040E0E00080000000800020008000400080006000800080008000A0008000C0008000E00080200000802020008020400080206000802080008020A0008020C0008020E00080400000804020008040400080406000804080
310
008040A0008040C0008040E00080600000806020008060400080606000806080008060A0008060C0008060E00080800000808020008080400080806000808080008080A0008080C0008080E00080A0000080A0200080A0400080A0600080A0800080A0A00080A0C00080A0E00080C0000080C0200080C0400080C0600080C0
310
800080C0A00080C0C00080C0E00080E0000080E0200080E0400080E0600080E0800080E0A00080E0C00080E0E000C0000000C0002000C0004000C0006000C0008000C000A000C000C000C000E000C0200000C0202000C0204000C0206000C0208000C020A000C020C000C020E000C0400000C0402000C0404000C0406000C0
310
408000C040A000C040C000C040E000C0600000C0602000C0604000C0606000C0608000C060A000C060C000C060E000C0800000C0802000C0804000C0806000C0808000C080A000C080C000C080E000C0A00000C0A02000C0A04000C0A06000C0A08000C0A0A000C0A0C000C0A0E000C0C00000C0C02000C0C04000C0C06000
310
C0C08000C0C0A000F0FBFF00A4A0A000808080000000FF0000FF000000FFFF00FF000000FF00FF00FFFF0000FFFFFF0000000000000000000000000000000000000000000000000000000000000000000000000000000000000000000000000000000000000000000000000000000000000000000000000000000000000000
310
000000000000000000000000000000000000000000000000000000000000000000000000000000000000000000000000000000000000000000000000000000000000000000000000000000000000000000000000000000000000000000000000000000000000000000000000000000000000FFFFFFFFFFFFFFFFFFFFFFFFFF
310
FFFFFFFFFFFFFFFFFFFFFFFFFFFFFFFFFF0000000000000000000000000000000000000000000000000000000000000000000000000000000000000000000000000000000000000000000000000000000000000000000000000000000000000000000000000000000000000000000000000000000000000000000000000000
310
00000000000000000000000000000000000000000000000000000000000000000000000000000000000000000000000000000000000000000000000000000000000000000000000000000000000000000000000000000000000000000000000000000000000000000000000000000000000000000000000000000000000000
310
00000000000000000000000000000000000000000000000000000000000000000000000000000000000000000000000000000000000000000000000000000000000000000000000000000000000000000000000000000000000000000000000000000000000000000000000000000000000000000000000000000000000000
310
00000000000000000000000000000000000000000000000000000000000000000000000000000000000000000000000000000000000000000000000000000000000000000000000000000000000000000000000000000000000000000000000000000000000000000000000000000000000000000000000000000000000000
310
000000000000000000000000000000000000000000000000000000000000000000000000000000000000000000000000000000000000000000000000000000000000000000000000000000000000000000000000000000FFFFFFFFFFFFFFFFFFFFFFFFFFFFFFFFFFFFFFFFFFFFFFFFFFFFFFFFFFFF00000000000000000000
310
00000000000000000000000000000000000000000000000000000000000000000000000000000000000000000000000000000000000000000000000000000000000000000000000000000000000000000000000000000000000000000000000000000000000000000000000000000000000000000000000000000000000000
310
0000000000000000000000000000000000000000000000000000000000000000000000000000000000000000000000000000000000000000
  0
BLOCK_RECORD
  5
4F0
330
1
100
AcDbSymbolTableRecord
100
AcDbBlockTableRecord
  2
*D8
340
0
  0
BLOCK_RECORD
  5
56C
330
1
100
AcDbSymbolTableRecord
100
AcDbBlockTableRecord
  2
*D12
340
0
  0
ENDTAB
  0
ENDSEC
  0
SECTION
  2
BLOCKS
  0
BLOCK
  5
5
330
2
100
AcDbEntity
  8
0
100
AcDbBlockBegin
  2
*Model_Space
 70
     0
 10
0.0
 20
0.0
 30
0.0
  3
*Model_Space
  1

  0
ENDBLK
  5
162
330
2
100
AcDbEntity
  8
0
100
AcDbBlockEnd
  0
BLOCK
  5
166
330
165
100
AcDbEntity
 67
     1
  8
0
100
AcDbBlockBegin
  2
*Paper_Space
 70
     0
 10
0.0
 20
0.0
 30
0.0
  3
*Paper_Space
  1

  0
ENDBLK
  5
167
330
165
100
AcDbEntity
 67
     1
  8
0
100
AcDbBlockEnd
  0
BLOCK
  5
16A
330
169
100
AcDbEntity
 67
     1
  8
0
100
AcDbBlockBegin
  2
*Paper_Space0
 70
     0
 10
0.0
 20
0.0
 30
0.0
  3
*Paper_Space0
  1

  0
ENDBLK
  5
16B
330
169
100
AcDbEntity
 67
     1
  8
0
100
AcDbBlockEnd
  0
BLOCK
  5
153
330
152
100
AcDbEntity
  8
0
 62
     1
100
AcDbBlockBegin
  2
_ArchTick
 70
     0
 10
0.0
 20
0.0
 30
0.0
  3
_ArchTick
  1

  0
LWPOLYLINE
  5
154
330
152
100
AcDbEntity
  8
0
  6
ByBlock
 62
     0
100
AcDbPolyline
 90
        2
 70
     0
 43
0.15
 10
-0.5
 20
-0.5
 10
0.5
 20
0.5
  0
ENDBLK
  5
155
330
152
100
AcDbEntity
  8
0
 62
     1
100
AcDbBlockEnd
  0
BLOCK
  5
24C
330
24B
100
AcDbEntity
  8
0
100
AcDbBlockBegin
  2
_Arrivo
 70
     0
 10
0.0
 20
0.0
 30
0.0
  3
_Arrivo
  1

  0
LINE
  5
24D
330
24B
100
AcDbEntity
  8
0
  6
ByBlock
 62
     0
370
    -2
100
AcDbLine
 10
0.025
 20
-0.0433012701891858
 30
0.0
 11
-0.15
 21
0.2598076211353328
 31
0.0
  0
LINE
  5
24E
330
24B
100
AcDbEntity
  8
0
  6
ByBlock
 62
     0
370
    -2
100
AcDbLine
 10
0.025
 20
0.0433012701892585
 30
0.0
 11
-0.15
 21
-0.2598076211353328
 31
0.0
  0
LINE
  5
24F
330
24B
100
AcDbEntity
  8
0
  6
ByBlock
 62
     0
370
    -2
100
AcDbLine
 10
-0.05
 20
0.0
 30
0.0
 11
0.05
 21
0.0
 31
0.0
  0
ENDBLK
  5
250
330
24B
100
AcDbEntity
  8
0
100
AcDbBlockEnd
  0
BLOCK
  5
252
330
251
100
AcDbEntity
  8
0
100
AcDbBlockBegin
  2
_Partenza
 70
     0
 10
0.0
 20
0.0
 30
0.0
  3
_Partenza
  1

  0
LINE
  5
253
330
251
100
AcDbEntity
  8
0
  6
ByBlock
 62
     0
370
    -2
100
AcDbLine
 10
-0.05
 20
0.05
 30
0.0
 11
0.1
 21
0.05
 31
0.0
  0
LINE
  5
254
330
251
100
AcDbEntity
  8
0
  6
ByBlock
 62
     0
370
    -2
100
AcDbLine
 10
-0.05
 20
-0.05
 30
0.0
 11
0.1
 21
-0.05
 31
0.0
  0
ENDBLK
  5
255
330
251
100
AcDbEntity
  8
0
100
AcDbBlockEnd
  0
BLOCK
  5
4F7
330
4F0
100
AcDbEntity
  8
0
100
AcDbBlockBegin
  2
*D8
 70
     1
 10
0.0
 20
0.0
 30
0.0
  3
*D8
  1

  0
LINE
  5
507
330
4F0
100
AcDbEntity
  8
Sezione
  6
ACAD_ISO10W100
 62
     5
370
    -2
100
AcDbLine
 10
0.2464146712406719
 20
0.19255037450989
 30
0.0
 11
0.2449146712406719
 21
0.19255037450989
 31
0.0
  0
LINE
  5
508
330
4F0
100
AcDbEntity
  8
Sezione
  6
ACAD_ISO10W100
 62
     5
370
    -2
100
AcDbLine
 10
0.2449146712406719
 20
0.19255037450989
 30
0.0
 11
0.2428631975234567
 21
0.1903614351348558
 31
0.0
  0
MTEXT
  5
509
330
4F0
100
AcDbEntity
  8
Sezione
  6
ACAD_ISO10W100
 62
     4
100
AcDbMText
 10
0.2608432426692433
 20
0.19255037450989
 30
0.0
 40
0.003
 41
0.0
 71
     5
 72
     1
  1
\A1;d 190 mm
  7
ROMANS
 73
     1
 44
1.0
1001
ACAD
1000
MTEXTBEGIN
1070
    73
1070
     1
1070
    44
1040
1.0
1070
    74
1070
     0
1000
MTEXTEND
  0
INSERT
  5
50A
330
4F0
100
AcDbEntity
  8
Sezione
  6
ACAD_ISO10W100
 62
     5
370
    -2
100
AcDbBlockReference
  2
_ArchTick
 10
0.2428631975234567
 20
0.1903614351348558
 30
0.0
 41
0.0015
 42
0.0015
 43
0.0015
 50
226.8567635951091
  0
POINT
  5
50B
330
4F0
100
AcDbEntity
  8
Defpoints
  6
ACAD_ISO10W100
 62
     0
100
AcDbPoint
 10
0.2428631975234567
 20
0.1903614351348558
 30
0.0
  0
POINT
  5
50C
330
4F0
100
AcDbEntity
  8
Defpoints
  6
ACAD_ISO10W100
 62
     0
100
AcDbPoint
 10
0.1778998631449754
 20
0.1210450215921052
 30
0.0
  0
ENDBLK
  5
4F8
330
4F0
100
AcDbEntity
  8
0
100
AcDbBlockEnd
  0
BLOCK
  5
573
330
56C
100
AcDbEntity
  8
0
100
AcDbBlockBegin
  2
*D12
 70
     1
 10
0.0
 20
0.0
 30
0.0
  3
*D12
  1

  0
LINE
  5
583
330
56C
100
AcDbEntity
  8
Sezione
  6
ACAD_ISO10W100
 62
     5
370
    -2
100
AcDbLine
 10
0.2492384199731659
 20
0.2061108107058059
 30
0.0
 11
0.2477384199731659
 21
0.2061108107058059
 31
0.0
  0
LINE
  5
584
330
56C
100
AcDbEntity
  8
Sezione
  6
ACAD_ISO10W100
 62
     5
370
    -2
100
AcDbLine
 10
0.2477384199731659
 20
0.2061108107058059
 30
0.0
 11
0.2456144206604142
 21
0.2039921727189307
 31
0.0
  0
MTEXT
  5
585
330
56C
100
AcDbEntity
  8
Sezione
  6
ACAD_ISO10W100
 62
     4
100
AcDbMText
 10
0.2636669914017373
 20
0.2061108107058059
 30
0.0
 40
0.003
 41
0.0
 71
     5
 72
     1
  1
\A1;d 210 mm
  7
ROMANS
 73
     1
 44
1.0
1001
ACAD
1000
MTEXTBEGIN
1070
    73
1070
     1
1070
    44
1040
1.0
1070
    74
1070
     0
1000
MTEXTEND
  0
INSERT
  5
586
330
56C
100
AcDbEntity
  8
Sezione
  6
ACAD_ISO10W100
 62
     5
370
    -2
100
AcDbBlockReference
  2
_ArchTick
 10
0.2456144206604142
 20
0.2039921727189307
 30
0.0
 41
0.0015
 42
0.0015
 43
0.0015
 50
224.9275966432869
  0
POINT
  5
587
330
56C
100
AcDbEntity
  8
Defpoints
  6
ACAD_ISO10W100
 62
     0
100
AcDbPoint
 10
0.2456144206604142
 20
0.2039921727189307
 30
0.0
  0
POINT
  5
588
330
56C
100
AcDbEntity
  8
Defpoints
  6
ACAD_ISO10W100
 62
     0
100
AcDbPoint
 10
0.1712744447141052
 20
0.1298398431783007
 30
0.0
  0
ENDBLK
  5
574
330
56C
100
AcDbEntity
  8
0
100
AcDbBlockEnd
  0
ENDSEC
  0
SECTION
  2
ENTITIES
  0
LINE
  5
D
330
2
100
AcDbEntity
  8
Table
100
AcDbLine
 10
0.02
 20
0.02
 30
0.0
 11
0.4
 21
0.02
 31
0.0
  0
LINE
  5
10
330
2
100
AcDbEntity
  8
Table
100
AcDbLine
 10
0.4
 20
0.02
 30
0.0
 11
0.4
 21
0.2769999999999999
 31
0.0
  0
LINE
  5
11
330
2
100
AcDbEntity
  8
Table
100
AcDbLine
 10
0.4
 20
0.2769999999999999
 30
0.0
 11
0.02
 21
0.277
 31
0.0
  0
LINE
  5
12
330
2
100
AcDbEntity
  8
Table
100
AcDbLine
 10
0.02
 20
0.277
 30
0.0
 11
0.02
 21
0.02
 31
0.0
  0
LINE
  5
13
330
2
100
AcDbEntity
  8
Table
 62
     2
100
AcDbLine
 10
0.015
 20
0.015
 30
0.0
 11
0.4050000000000001
 21
0.015
 31
0.0
  0
LINE
  5
14
330
2
100
AcDbEntity
  8
Table
 62
     2
100
AcDbLine
 10
0.4050000000000001
 20
0.015
 30
0.0
 11
0.4050000000000001
 21
0.2819999999999998
 31
0.0
  0
LINE
  5
15
330
2
100
AcDbEntity
  8
Table
 62
     2
100
AcDbLine
 10
0.4050000000000001
 20
0.2819999999999998
 30
0.0
 11
0.0149999999999999
 21
0.282
 31
0.0
  0
LINE
  5
16
330
2
100
AcDbEntity
  8
Table
 62
     2
100
AcDbLine
 10
0.0149999999999999
 20
0.282
 30
0.0
 11
0.015
 21
0.015
 31
0.0
  0
LINE
  5
17
330
2
100
AcDbEntity
  8
Table
100
AcDbLine
 10
0.21
 20
0.2769999999999999
 30
0.0
 11
0.21
 21
0.2532994226089223
 31
0.0
  0
MTEXT
  5
18
102
{ACAD_XDICTIONARY
360
58E
102
}
330
2
100
AcDbEntity
  8
Text
100
AcDbMText
 10
0.305
 20
0.0471738284815141
 30
0.0
 40
0.005
 41
0.1900000000000001
 71
     2
 72
     5
  3
{\fTimes New Roman|b0|i0|c238|p18;\H1.6x;\C4;Bovelacci\P\H0.4375x;\T0.95;via del Commercio, 5  47100 Forli - Italy  \fTimes New Roman|b0|i0|c0|p18;\P\fTimes New Roman|b0|i0|c238|p18;tel.+39-0543721386  fax +39-0543721127\fTimes New Roman|b0|i0|c0|p18
  1
; \fTimes New Roman|b0|i0|c238|p18;www.bovelacci.it\fTimes New Roman|b0|i0|c0|p18; \fTimes New Roman|b0|i0|c238|p18;e-mail: bovelacci@bovelacci\fTimes New Roman|b0|i0|c0|p18;.it}
 73
     1
 44
1.0
1001
ACAD
1000
ACAD_MTEXT_DEFINED_HEIGHT_BEGIN
1070
    46
1040
0.0271738284815141
1000
ACAD_MTEXT_DEFINED_HEIGHT_END
1000
MTEXTBEGIN
1070
    73
1070
     1
1070
    44
1040
1.0
1070
    74
1070
     0
1000
MTEXTEND
  0
MTEXT
  5
1C
330
2
100
AcDbEntity
  8
Text
100
AcDbMText
 10
0.0219676065851835
 20
0.0500313976452307
 30
0.0
 40
0.002
 41
0.1863544980601608
 71
     1
 72
     5
  3
{\fArial|b0|i0|c0|p34;\H1.25x;Le caratteristiche tecniche indicate vengono fornite a titolo indicativo e potranno essere modificate senza preavviso. Non devono quindi essere considerate a scopo di specifica.\P\fArial|b0|i1|c0|p34;The given values are
  3
 indicative and can be changed without notice. They cannot be considered like a state.\PThis lealfet and designs embodied within are protected by copyright law and international treaties. Unauthorized repro- duction of the leaflet or any portion of i
  1
t or reproduction of any of the designs embodied therein may result in severe civil penalties and will be prosecuted to the maximum.\PAll right reserved, Bovelacci Forlì Italy.}
 73
     1
 44
1.0
1001
ACAD
1000
MTEXTBEGIN
1070
    73
1070
     1
1070
    44
1040
1.0
1070
    74
1070
     0
1000
MTEXTEND
  0
LINE
  5
1D
330
2
100
AcDbEntity
  8
Table
100
AcDbLine
 10
0.02
 20
0.0528099428524846
 30
0.0
 11
0.4
 21
0.0528099428524846
 31
0.0
  0
MTEXT
  5
1E
330
2
100
AcDbEntity
  8
Text
100
AcDbMText
 10
0.1133313047219695
 20
0.2610796890771976
 30
0.0
 40
0.003
 41
0.1103605678262056
 71
     2
 72
     5
  1
{\fTimes New Roman|b0|i0|c0|p18;Rosoni\fTimes New Roman|b0|i1|c0|p18;   Ceiling centres}
 73
     1
 44
1.0
1001
ACAD
1000
ACAD_MTEXT_DEFINED_HEIGHT_BEGIN
1070
    46
1040
0.0141952763113409
1000
ACAD_MTEXT_DEFINED_HEIGHT_END
1000
MTEXTBEGIN
1070
    73
1070
     1
1070
    44
1040
1.0
1070
    74
1070
     0
1000
MTEXTEND
  0
TEXT
  5
1F
330
2
100
AcDbEntity
  8
Text
100
AcDbText
 10
0.2180556919891047
 20
0.269976982173197
 30
0.0
 40
0.003
  1
Rosone - Ceiling centre : D 210 mm
  7
ROMANS
100
AcDbText
  0
TEXT
  5
21
330
2
100
AcDbEntity
  8
Text
100
AcDbText
 10
0.2184542410678115
 20
0.2576348370183962
 30
0.0
 40
0.003
  1
File : E - R21
  7
ROMANS
100
AcDbText
  0
LINE
  5
22
330
2
100
AcDbEntity
  8
Table
100
AcDbLine
 10
0.4
 20
0.2654452889427402
 30
0.0
 11
0.02
 21
0.2654452889427403
 31
0.0
  0
LINE
  5
23
330
2
100
AcDbEntity
  8
Table
100
AcDbLine
 10
0.4
 20
0.2532994226089223
 30
0.0
 11
0.02
 21
0.2532994226089225
 31
0.0
  0
LINE
  5
24
330
2
100
AcDbEntity
  8
Table
100
AcDbLine
 10
0.21
 20
0.0528099428524846
 30
0.0
 11
0.21
 21
0.02
 31
0.0
  0
TEXT
  5
25
330
2
100
AcDbEntity
  8
Text
100
AcDbText
 10
0.0947789320547719
 20
0.2687784133392506
 30
0.0
 40
0.005
  1
EUROSTYL
  7
style1
 72
     1
 11
0.1140561490699125
 21
0.2687784133392506
 31
0.0
100
AcDbText
  0
TEXT
  5
23F
330
2
100
AcDbEntity
  8
Text
  6
ACAD_ISO10W100
100
AcDbText
 10
0.2727191750033584
 20
0.0899414580955704
 30
0.0
 40
0.005
  1
scala 1 : 2
  7
style1
100
AcDbText
  0
CIRCLE
  5
54A
330
2
100
AcDbEntity
  8
Profilo
  6
Continuous
370
     0
100
AcDbCircle
 10
0.2084444326872598
 20
0.1669160079486157
 30
0.0
 40
0.0072395708172387
  0
CIRCLE
  5
54B
330
2
100
AcDbEntity
  8
Profilo
  6
Continuous
370
     0
100
AcDbCircle
 10
0.2084444326872598
 20
0.1669160079486157
 30
0.0
 40
0.0098368877972262
  0
ARC
  5
54C
330
2
100
AcDbEntity
  8
Profilo
  6
Continuous
370
     0
100
AcDbCircle
 10
0.2084444326872598
 20
0.1669160079486157
 30
0.0
 40
0.0138755807705818
100
AcDbArc
 50
95.31798816418335
 51
178.2442758650156
  0
ARC
  5
54D
330
2
100
AcDbEntity
  8
Profilo
  6
Continuous
370
     0
100
AcDbCircle
 10
0.2084444326872598
 20
0.1669160079486157
 30
0.0
 40
0.0138755807705818
100
AcDbArc
 50
185.3179881641921
 51
268.2016203844863
  0
ARC
  5
54E
330
2
100
AcDbEntity
  8
Profilo
  6
Continuous
370
     0
100
AcDbCircle
 10
0.2084444326872598
 20
0.1669160079486157
 30
0.0
 40
0.0138755807705818
100
AcDbArc
 50
275.3179881641831
 51
358.041747350188
  0
ARC
  5
54F
330
2
100
AcDbEntity
  8
Profilo
  6
Continuous
370
     0
100
AcDbCircle
 10
0.2084444326872598
 20
0.1669160079486157
 30
0.0
 40
0.0138755807705818
100
AcDbArc
 50
5.317988164182326
 51
88.10501671176981
  0
LWPOLYLINE
  5
550
330
2
100
AcDbEntity
  8
Profilo
  6
Continuous
370
     0
100
AcDbPolyline
 90
       88
 70
   128
 43
0.0
 10
0.1961853501885032
 20
0.174027582928174
 10
0.1917210637527157
 20
0.1744389092171136
 10
0.1872488794646289
 20
0.1751161882861024
 10
0.18480950518942
 20
0.1774189356909847
 10
0.1845384642309961
 20
0.1805344172638145
 10
0.1852160694517527
 20
0.1840562641335161
 10
0.1863002332854501
 20
0.1850044534004197
 10
0.1872488794646289
 20
0.1850044534004197
 10
0.1880620023399023
 20
0.183649895262442
 10
0.1896882537398395
 20
0.1817535167286329
 10
0.1906368999190219
 20
0.181211692758602
 10
0.190772423222929
 20
0.1801280483927396
 10
0.1929407565397158
 20
0.178638035155804
 10
0.1952446075110176
 20
0.1795862244227086
 10
0.196328776994107
 20
0.181211692758602
 10
0.1956511717733503
 20
0.1832435299655694
 10
0.1940249203734113
 20
0.1843271743314309
 10
0.1932117974981396
 20
0.1843271743314309
 10
0.1913145051397785
 20
0.1855462737962502
 10
0.1899592946982634
 20
0.1877135661021746
 10
0.190772423222929
 20
0.1894744895370258
 10
0.1922631513189573
 20
0.1901517686060156
 10
0.1949735665525919
 20
0.1904226788039304
 10
0.1968708589109548
 20
0.1902872237049725
 10
0.1984971046614982
 20
0.1885263002701222
 10
0.1998523151030133
 20
0.1860880977662812
 10
0.2006654379782832
 20
0.1832435299655694
 10
0.2013430431990416
 20
0.1831080748666115
 10
0.2014785665029505
 20
0.1854108186972924
 10
0.2012075255445248
 20
0.1883908451711643
 10
0.2008009612821938
 20
0.1900163135070577
 10
0.1984971046614982
 20
0.1927254262088126
 10
0.196328776994107
 20
0.194350894544706
 10
0.1928052332358069
 20
0.1958409042074402
 10
0.1902303356566873
 20
0.1948927149405365
 10
0.188604089906144
 20
0.1938090705746741
 10
0.1879264846853873
 20
0.1935381603767593
 10
0.1872488794646289
 20
0.1948927149405365
 10
0.1860291923270262
 20
0.1954345389105675
 10
0.1854871104101766
 20
0.1954345389105675
 10
0.1838608590102394
 20
0.1965181832764299
 10
0.1827766951765438
 20
0.1978727414144076
 10
0.1831832537894827
 20
0.2001754852450884
 10
0.1841318999686633
 20
0.2012591331851513
 10
0.1857581513686005
 20
0.2012591331851513
 10
0.1863002332854501
 20
0.2023427775510137
 10
0.1869778385062067
 20
0.2031555117189604
 10
0.1900948180021723
 20
0.2022073224520558
 10
0.1910434641813546
 20
0.2022073224520558
 10
0.190501376615113
 20
0.20369733211479
 10
0.1917210637527157
 20
0.2055937142227996
 10
0.1941604436773202
 20
0.2049164351538108
 10
0.1957866894278654
 20
0.2039682458869071
 10
0.1968708589109548
 20
0.2024782326499715
 10
0.1978195050901353
 20
0.201530043383067
 10
0.198632627965407
 20
0.1992272959781848
 10
0.1995812741445876
 20
0.1974663725433336
 10
0.2016140841574655
 20
0.1974663725433336
 10
0.2016140841574655
 20
0.1997691199482158
 10
0.201072002240616
 20
0.2023427775510137
 10
0.1991747098822548
 20
0.2045100662827367
 10
0.1971418998693787
 20
0.2055937142227996
 10
0.1953801308149247
 20
0.2068128136876198
 10
0.1937538794149874
 20
0.2077610029545235
 10
0.1938893970695025
 20
0.2085737371224702
 10
0.1938893970695025
 20
0.2108764845273524
 10
0.1940249203734113
 20
0.2126374079622037
 10
0.1953801308149247
 20
0.2142628762980971
 10
0.1975484641317114
 20
0.2148046966939266
 10
0.200258879365346
 20
0.2145337864960119
 10
0.2017496074613744
 20
0.2143983313970549
 10
0.20283377129507
 20
0.2157528859608312
 10
0.2032403355574027
 20
0.2183265435636282
 10
0.2045955459989178
 20
0.2192747328305328
 10
0.206492838357279
 20
0.2192747328305328
 10
0.2074414788870657
 20
0.2190038226326179
 10
0.2075770021909745
 20
0.2180556333657134
 10
0.2094742945493374
 20
0.2190038226326179
 10
0.2108294993414569
 20
0.2190038226326179
 10
0.2121847097829702
 20
0.2181910884646704
 10
0.2134043969205765
 20
0.2161592548319053
 10
0.212726791699818
 20
0.2138565074270221
 10
0.2104229407285162
 20
0.2125019528632458
 10
0.2079835664533073
 20
0.2114183049231829
 10
0.2060862740949462
 20
0.2103346605573214
 10
0.2062217917494612
 20
0.2053228004506834
 10
0.2067638793157029
 20
0.1916417782687489
 10
0.2071583995520227
 20
0.1807318633508707
  0
LWPOLYLINE
  5
551
330
2
100
AcDbEntity
  8
Profilo
  6
Continuous
370
     0
100
AcDbPolyline
 90
        2
 70
   128
 43
0.0
 10
0.2058152331365205
 20
0.2108764845273524
 10
0.2025627303366461
 20
0.2137210523280651
  0
LWPOLYLINE
  5
552
330
2
100
AcDbEntity
  8
Profilo
  6
Continuous
370
     0
100
AcDbPolyline
 90
       88
 70
   128
 43
0.0
 10
0.2013278967156355
 20
0.1548003522554612
 10
0.2009215314187619
 20
0.1501926390140716
 10
0.2002442523497722
 20
0.1457204547259848
 10
0.1979415049448908
 20
0.1432810804507759
 10
0.1948260233720619
 20
0.1430100394923511
 10
0.1913041765023594
 20
0.1436876447131087
 10
0.1903559872354558
 20
0.1447718085468052
 10
0.1903559872354558
 20
0.1457204547259848
 10
0.1917105453734335
 20
0.1465335776012574
 10
0.1936069239072425
 20
0.1481598290011955
 10
0.1941487478772744
 20
0.149108475180377
 10
0.1952323922431359
 20
0.1492439984842849
 10
0.1967224054800715
 20
0.1514123318010708
 10
0.1957742162131678
 20
0.1537161827723726
 10
0.1941487478772744
 20
0.1548003522554612
 10
0.192116910670307
 20
0.1541227470347054
 10
0.1910332663044455
 20
0.1524964956347673
 10
0.1910332663044455
 20
0.1516833727594947
 10
0.1898141668396261
 20
0.1497860804011336
 10
0.1876468745337009
 20
0.1484308699596194
 10
0.1858859510988496
 20
0.1492439984842849
 10
0.1852086720298599
 20
0.1507347265803133
 10
0.184937761831946
 20
0.1534451418139479
 10
0.1850732169309021
 20
0.1553424341723099
 10
0.1868341403657533
 20
0.1569686799228541
 10
0.1892723428695943
 20
0.1583238903643683
 10
0.192116910670307
 20
0.1591370132396391
 10
0.1922523657692648
 20
0.1598146184603967
 10
0.189949621938584
 20
0.1599501417643056
 10
0.1869695954647111
 20
0.1596791008058808
 10
0.1853441271288177
 20
0.159272536543548
 10
0.1826350144270629
 20
0.1569686799228541
 10
0.1810095460911695
 20
0.1548003522554612
 10
0.1795195364284362
 20
0.151276808497162
 10
0.1804677256953399
 20
0.1487019109180433
 10
0.1815513700612014
 20
0.147075665167499
 10
0.1818222802591171
 20
0.1463980599467424
 10
0.1804677256953399
 20
0.1457204547259848
 10
0.179925901725308
 20
0.1445007675883813
 10
0.179925901725308
 20
0.1439586856715326
 10
0.1788422573594465
 20
0.1423324342715945
 10
0.177487699221467
 20
0.141248270437898
 10
0.1751849553907879
 20
0.1416548290508378
 10
0.1741013074507242
 20
0.1426034752300184
 10
0.1741013074507242
 20
0.1442297266299565
 10
0.1730176630848627
 20
0.1447718085468052
 10
0.1722049289169151
 20
0.1454494137675609
 10
0.1731531181838187
 20
0.1485663932635283
 10
0.1731531181838187
 20
0.1495150394427097
 10
0.1716631085210855
 20
0.1489729518764681
 10
0.1697667264130759
 20
0.1501926390140716
 10
0.1704440054820638
 20
0.1526320189386762
 10
0.1713921947489693
 20
0.1542582646892195
 10
0.1728822079859048
 20
0.1553424341723099
 10
0.1738303972528085
 20
0.1562910803514904
 10
0.1761331446576916
 20
0.157104203226763
 10
0.1778940680925428
 20
0.1580528494059436
 10
0.1778940680925428
 20
0.1600856594188206
 10
0.1755913206876597
 20
0.1600856594188206
 10
0.1730176630848627
 20
0.1595435775019719
 10
0.1708503743531396
 20
0.1576462851436108
 10
0.1697667264130759
 20
0.1556134751307338
 10
0.1685476269482565
 20
0.1538517060762806
 10
0.1675994376813529
 20
0.1522254546763434
 10
0.1667867035134053
 20
0.1523609723308584
 10
0.1644839561085222
 20
0.1523609723308584
 10
0.1627230326736727
 20
0.1524964956347673
 10
0.1610975643377793
 20
0.1538517060762806
 10
0.1605557439419479
 20
0.1560200393930665
 10
0.1608266541398636
 20
0.1587304546267011
 10
0.1609621092388215
 20
0.1602211827227294
 10
0.1596075546750443
 20
0.1613053465564259
 10
0.1570338970722472
 20
0.1617119108187587
 10
0.1560857078053436
 20
0.1630671212602729
 10
0.1560857078053436
 20
0.164964413618634
 10
0.1563566180032575
 20
0.1659130541484216
 10
0.1573048072701629
 20
0.1660485774523305
 10
0.1563566180032575
 20
0.1679458698106925
 10
0.1563566180032575
 20
0.169301074602812
 10
0.1571693521712051
 20
0.1706562850443262
 10
0.1592011858039702
 20
0.1718759721819315
 10
0.1615039332088534
 20
0.171198366961174
 10
0.1628584877726288
 20
0.1688945159898722
 10
0.1639421357126926
 20
0.1664551417146633
 10
0.1650257800785541
 20
0.1645578493563012
 10
0.1700376401851921
 20
0.1646933670108163
 10
0.1837186623671266
 20
0.1652354545770579
 10
0.1946285772850048
 20
0.1656299748133777
  0
LWPOLYLINE
  5
553
330
2
100
AcDbEntity
  8
Profilo
  6
Continuous
370
     0
100
AcDbPolyline
 90
        2
 70
   128
 43
0.0
 10
0.1644839561085222
 20
0.1642868083978765
 10
0.1616393883078112
 20
0.161034305598002
  0
LWPOLYLINE
  5
554
330
2
100
AcDbEntity
  8
Profilo
  6
Continuous
370
     0
100
AcDbPolyline
 90
       88
 70
   128
 43
0.0
 10
0.2205600883804143
 20
0.1597994719769905
 10
0.2251678016218038
 20
0.1593931066801179
 10
0.2296399859098907
 20
0.1587158276111281
 10
0.2320793601850996
 20
0.1564130802062459
 10
0.2323504011435252
 20
0.153297598633417
 10
0.2316727959227668
 20
0.1497757517637145
 10
0.2305886320890712
 20
0.1488275624968108
 10
0.2296399859098907
 20
0.1488275624968108
 10
0.228826863034619
 20
0.1501821206347894
 10
0.22720061163468
 20
0.1520784991685976
 10
0.2262519654554994
 20
0.1526203231386295
 10
0.2261164421515906
 20
0.153703967504491
 10
0.2239481088348056
 20
0.1551939807414274
 10
0.2216442578635037
 20
0.1542457914745229
 10
0.2205600883804143
 20
0.1526203231386295
 10
0.221237693601171
 20
0.1505884859316621
 10
0.2228639450011082
 20
0.1495048415658006
 10
0.2236770678763817
 20
0.1495048415658006
 10
0.2255743602347428
 20
0.1482857421009812
 10
0.2269295706762561
 20
0.1461184497950559
 10
0.2261164421515906
 20
0.1443575263602056
 10
0.2246257140555622
 20
0.1436802472912159
 10
0.2219152988219276
 20
0.1434093370933011
 10
0.2200180064635647
 20
0.143544792192258
 10
0.2183917607130214
 20
0.1453057156271093
 10
0.217036550271508
 20
0.1477439181309493
 10
0.2162234273962364
 20
0.1505884859316621
 10
0.2155458221754779
 20
0.150723941030619
 10
0.2154102988715691
 20
0.1484211971999382
 10
0.2156813398299947
 20
0.1454411707260662
 10
0.2160879040923275
 20
0.1438157023901728
 10
0.2183917607130214
 20
0.1411065896884179
 10
0.2205600883804143
 20
0.1394811213525245
 10
0.2240836321387144
 20
0.1379911116897913
 10
0.2266585297178322
 20
0.1389393009566949
 10
0.2282847754683773
 20
0.1400229453225573
 10
0.2289623806891322
 20
0.1402938555204721
 10
0.2296399859098907
 20
0.1389393009566949
 10
0.2308596730474951
 20
0.1383974769866639
 10
0.2314017549643429
 20
0.1383974769866639
 10
0.2330280063642819
 20
0.1373138326208015
 10
0.2341121701979775
 20
0.135959274482823
 10
0.2337056115850368
 20
0.133656530652143
 10
0.232756965405858
 20
0.1325728827120792
 10
0.231130714005919
 20
0.1325728827120792
 10
0.2305886320890712
 20
0.1314892383462177
 10
0.2299110268683146
 20
0.130676504178271
 10
0.2267940473723472
 20
0.1316246934451747
 10
0.2258454011931667
 20
0.1316246934451747
 10
0.2263874887594083
 20
0.1301346837824414
 10
0.2251678016218038
 20
0.1282383016744309
 10
0.2227284216971993
 20
0.1289155807434198
 10
0.2211021759466559
 20
0.1298637700103243
 10
0.2200180064635647
 20
0.1313537832472599
 10
0.219069360284386
 20
0.1323019725141644
 10
0.2182562374091125
 20
0.1346047199190467
 10
0.2173075912299319
 20
0.1363656433538979
 10
0.2152747812170558
 20
0.1363656433538979
 10
0.2152747812170558
 20
0.1340628959490157
 10
0.2158168631339036
 20
0.1314892383462177
 10
0.2177141554922647
 20
0.1293219496144947
 10
0.2197469655051409
 20
0.1282383016744309
 10
0.2215087345595949
 20
0.1270192022096116
 10
0.2231349859595321
 20
0.1260710129427079
 10
0.2229994683050171
 20
0.1252582787747604
 10
0.2229994683050171
 20
0.1229555313698781
 10
0.2228639450011082
 20
0.1211946079350278
 10
0.2215087345595949
 20
0.1195691395991344
 10
0.2193404012428081
 20
0.1190273192033039
 10
0.2166299860091753
 20
0.1192982294012187
 10
0.2151392579131452
 20
0.1194336845001765
 10
0.2140550940794496
 20
0.1180791299364002
 10
0.2136485298171168
 20
0.1155054723336032
 10
0.2122933193756035
 20
0.1145572830666987
 10
0.2103960270172406
 20
0.1145572830666987
 10
0.2094473864874539
 20
0.1148281932646135
 10
0.209311863183545
 20
0.115776382531518
 10
0.2074145708251839
 20
0.1148281932646135
 10
0.2060593660330644
 20
0.1148281932646135
 10
0.2047041555915493
 20
0.1156409274325602
 10
0.2034844684539449
 20
0.1176727610653253
 10
0.2041620736747015
 20
0.1199755084702084
 10
0.2064659246460033
 20
0.1213300630339847
 10
0.2089052989212123
 20
0.1224137109740485
 10
0.2108025912795734
 20
0.12349735533991
 10
0.2106670736250601
 20
0.1285092154465471
 10
0.2101249860588185
 20
0.1421902376284817
 10
0.2097304658224987
 20
0.1531001525463608
  0
LWPOLYLINE
  5
555
330
2
100
AcDbEntity
  8
Profilo
  6
Continuous
370
     0
100
AcDbPolyline
 90
        2
 70
   128
 43
0.0
 10
0.211073632237999
 20
0.1229555313698781
 10
0.2143261350378735
 20
0.1201109635691663
  0
LWPOLYLINE
  5
556
330
2
100
AcDbEntity
  8
Profilo
  6
Continuous
370
     0
100
AcDbPolyline
 90
       88
 70
   128
 43
0.0
 10
0.2155609686588859
 20
0.1790316636417694
 10
0.2159673339557576
 20
0.1836393768831589
 10
0.2166446130247474
 20
0.1881115611712457
 10
0.2189473604296305
 20
0.1905509354464555
 10
0.2220628420024594
 20
0.1908219764048803
 10
0.2255846888721601
 20
0.1901443711841228
 10
0.2265328781390655
 20
0.1890602073504263
 10
0.2265328781390655
 20
0.1881115611712457
 10
0.2251783200010861
 20
0.187298438295974
 10
0.2232819414672788
 20
0.1856721868960359
 10
0.2227401174972469
 20
0.1847235407168545
 10
0.2216564731313854
 20
0.1845880174129465
 10
0.2201664598944481
 20
0.1824196840961597
 10
0.2211146491613535
 20
0.1801158331248588
 10
0.2227401174972469
 20
0.1790316636417694
 10
0.2247719547042143
 20
0.179709268862526
 10
0.2258555990700758
 20
0.1813355202624641
 10
0.2258555990700758
 20
0.1821486431377358
 10
0.2270746985348952
 20
0.1840459354960978
 10
0.2292419908408204
 20
0.185401145937612
 10
0.2310029142756699
 20
0.1845880174129465
 10
0.2316801933446596
 20
0.1830972893169173
 10
0.2319511035425753
 20
0.1803868740832836
 10
0.2318156484436175
 20
0.1784895817249207
 10
0.2300547250087662
 20
0.1768633359743773
 10
0.227616522504927
 20
0.1755081255328631
 10
0.2247719547042143
 20
0.1746950026575914
 10
0.2246364996052565
 20
0.1740173974368339
 10
0.2269392434359373
 20
0.173881874132925
 10
0.2299192699098084
 20
0.1741529150913498
 10
0.2315447382457018
 20
0.1745594793536826
 10
0.2342538509474567
 20
0.1768633359743773
 10
0.2358793192833501
 20
0.1790316636417694
 10
0.2373693289460851
 20
0.1825552074000686
 10
0.2364211396791815
 20
0.1851301049791881
 10
0.2353374953133182
 20
0.1867563507297315
 10
0.2350665851154043
 20
0.1874339559504882
 10
0.2364211396791815
 20
0.1881115611712457
 10
0.2369629636492116
 20
0.1893312483088502
 10
0.2369629636492116
 20
0.1898733302256989
 10
0.2380466080150748
 20
0.191499581625637
 10
0.2394011661530525
 20
0.1925837454593326
 10
0.2417039099837334
 20
0.1921771868463927
 10
0.2427875579237972
 20
0.1912285406672131
 10
0.2427875579237972
 20
0.189602289267275
 10
0.2438712022896587
 20
0.1890602073504263
 10
0.2446839364576045
 20
0.1883826021296696
 10
0.2437357471907008
 20
0.1852656226337032
 10
0.2437357471907008
 20
0.1843169764545217
 10
0.2452257568534341
 20
0.1848590640207634
 10
0.2471221389614454
 20
0.1836393768831589
 10
0.2464448598924557
 20
0.1811999969585553
 10
0.245496670625552
 20
0.179573751208011
 10
0.2440066573886165
 20
0.1784895817249207
 10
0.2430584681217111
 20
0.177540935545741
 10
0.2407557207168297
 20
0.1767278126704685
 10
0.2389947972819785
 20
0.1757791664912879
 10
0.2389947972819785
 20
0.17374635647841
 10
0.2412975446868598
 20
0.17374635647841
 10
0.2438712022896587
 20
0.1742884383952587
 10
0.2460384910213817
 20
0.1761857307536206
 10
0.2471221389614454
 20
0.1782185407664968
 10
0.2483412384262648
 20
0.1799803098209508
 10
0.2492894276931684
 20
0.1816065612208872
 10
0.2501021618611142
 20
0.181471043566373
 10
0.2524049092659974
 20
0.181471043566373
 10
0.2541658327008486
 20
0.1813355202624633
 10
0.255791301036742
 20
0.1799803098209508
 10
0.2563331214325716
 20
0.177811976504164
 10
0.2560622112346559
 20
0.1751015612705304
 10
0.2559267561356998
 20
0.1736108331745011
 10
0.2572813106994753
 20
0.1725266693408046
 10
0.2598549683022723
 20
0.1721201050784728
 10
0.2608031575691777
 20
0.1707648946369585
 10
0.2608031575691777
 20
0.1688676022785965
 10
0.260532247371262
 20
0.1679189617488098
 10
0.2595840581043584
 20
0.1677834384449001
 10
0.260532247371262
 20
0.165886146086539
 10
0.260532247371262
 20
0.1645309412944186
 10
0.2597195132033162
 20
0.1631757308529044
 10
0.2576876795705493
 20
0.1619560437152999
 10
0.2553849321656679
 20
0.1626336489360575
 10
0.2540303776018907
 20
0.1649374999073584
 10
0.252946729661827
 20
0.1673768741825673
 10
0.2518630852959655
 20
0.1692741665409293
 10
0.2468512251893275
 20
0.1691386488864143
 10
0.2331702030073947
 20
0.1685965613201727
 10
0.2222602880895147
 20
0.1682020410838528
  0
LWPOLYLINE
  5
557
330
2
100
AcDbEntity
  8
Profilo
  6
Continuous
370
     0
100
AcDbPolyline
 90
        2
 70
   128
 43
0.0
 10
0.2524049092659974
 20
0.1695452074993541
 10
0.2552494770667101
 20
0.1727977102992285
  0
LWPOLYLINE
  5
558
330
2
100
AcDbEntity
  8
Profilo
  6
Continuous
370
     0
100
AcDbPolyline
 90
       39
 70
   128
 43
0.0
 10
0.2089032657891176
 20
0.180784000373822
 10
0.2074755729776529
 20
0.2104777001124499
 10
0.210354136763438
 20
0.2118630071083186
 10
0.2126996294152223
 20
0.2117564458565289
 10
0.2141922218111508
 20
0.2132483141041873
 10
0.2164310991062551
 20
0.2144204985964776
 10
0.2190964378280759
 20
0.2139942500151176
 10
0.2196295033126828
 20
0.2122892556896786
 10
0.2193096628920403
 20
0.2090923895423789
 10
0.2210154803519332
 20
0.2117564458565289
 10
0.2220816113211471
 20
0.2119695683601082
 10
0.2235741980676819
 20
0.2114367585269587
 10
0.2251734001708948
 20
0.2120761296118979
 10
0.227518898472073
 20
0.2118630071083186
 10
0.2293313256392503
 20
0.2088792670388005
 10
0.2297577814165711
 20
0.2081333311278703
 10
0.2299710064805355
 20
0.2074939600429318
 10
0.2311437528064276
 20
0.2072808339651503
 10
0.232956179973605
 20
0.2081333311278703
 10
0.2355149033387475
 20
0.2078136437982999
 10
0.236367809243997
 20
0.2058955269692816
 10
0.236367809243997
 20
0.2048299037287819
 10
0.2386066921884952
 20
0.2041905326438425
 10
0.2411654155536359
 20
0.2042970938956322
 10
0.242977842720815
 20
0.2040839678178516
 10
0.2444704294673498
 20
0.2011002277483334
 10
0.245216725665315
 20
0.1982230489306042
 10
0.2455365660859575
 20
0.1949196251057172
 10
0.2478820587377418
 20
0.1952393088610861
 10
0.248521739579027
 20
0.1940671279429981
 10
0.2480952894510983
 20
0.1924686948693487
 10
0.2475622183170975
 20
0.1915096328806377
 10
0.2492680357769904
 20
0.1904440132143394
 10
0.2508672378802052
 20
0.1895915160516194
 10
0.2524664399834181
 20
0.1890587062184698
 10
0.2537457960165947
 20
0.1880996442297597
 10
0.2535325709526321
 20
0.1859684013229607
 10
0.2531061151753095
 20
0.1840502844939424
 10
0.2541722517939172
 20
0.1813862281797923
  0
LWPOLYLINE
  5
559
330
2
100
AcDbEntity
  8
Profilo
  6
Continuous
370
     0
100
AcDbPolyline
 90
       31
 70
   128
 43
0.0
 10
0.2234675883603957
 20
0.1906571357179178
 10
0.2245337193296097
 20
0.1918293202102081
 10
0.2265593772101434
 20
0.1917227589584184
 10
0.227518898472073
 20
0.192255568791568
 10
0.227518898472073
 20
0.1936408793616381
 10
0.2286916447979634
 20
0.1943868116983661
 10
0.2303974622578563
 20
0.1941736891947877
 10
0.2305040719651425
 20
0.1956655574424461
 10
0.231356977870392
 20
0.1963049321015859
 10
0.2328495702663206
 20
0.1971574292643058
 10
0.2328495702663206
 20
0.1990755496675255
 10
0.232423114488998
 20
0.2006739791669735
 10
0.2308239123857851
 20
0.2017396024074741
 10
0.2293313256392503
 20
0.2017396024074741
 10
0.2285850294412851
 20
0.2028052220737725
 10
0.2271990580514286
 20
0.2035511579847019
 10
0.2251734001708948
 20
0.2035511579847019
 10
0.2229345228757888
 20
0.2020592897370444
 10
0.2231477479397531
 20
0.2037642840624835
 10
0.2222948420345036
 20
0.2046167812252026
 10
0.2211220900592176
 20
0.2046167812252026
 10
0.2184567569867907
 20
0.2033380354811235
 10
0.2174972357248629
 20
0.2017396024074741
 10
0.2166443298196134
 20
0.2004608566633942
 10
0.2156848085576856
 20
0.1991821109193152
 10
0.2149385123597204
 20
0.1983296137565961
 10
0.2135525409698639
 20
0.1980099264270257
 10
0.2125930197079361
 20
0.1992886721711048
 10
0.2122731792872935
 20
0.2013133538261142
 10
0.211420273382044
 20
0.2023789734924125
 10
0.2106739771840806
 20
0.2029117868997635
  0
LWPOLYLINE
  5
55A
330
2
100
AcDbEntity
  8
Profilo
  6
Continuous
370
     0
100
AcDbPolyline
 90
        7
 70
   128
 43
0.0
 10
0.2134459256131857
 20
0.181173105676213
 10
0.2134459256131857
 20
0.1846896555788816
 10
0.21365915067715
 20
0.1873537118930316
 10
0.214831902652436
 20
0.1896980773034091
 10
0.2158980336216482
 20
0.1924686948693487
 10
0.2179236915021837
 20
0.1940671279429981
 10
0.2188832127641115
 20
0.1944933765243572
  0
LWPOLYLINE
  5
55B
330
2
100
AcDbEntity
  8
Profilo
  6
Continuous
370
     0
100
AcDbPolyline
 90
       39
 70
   128
 43
0.0
 10
0.194575366017616
 20
0.167341133146529
 10
0.1648827405234255
 20
0.1659471482390079
 10
0.1634974335275577
 20
0.168825712024793
 10
0.1636039947793465
 20
0.1711712046765764
 10
0.1621121265316882
 20
0.1726637970725059
 10
0.1609399420393979
 20
0.1749026743676102
 10
0.1613661906207587
 20
0.1775680130894318
 10
0.1630711849461969
 20
0.1781010785740379
 10
0.1662680510934974
 20
0.1777812381533953
 10
0.1636039947793465
 20
0.1794870556132883
 10
0.1633908722757672
 20
0.1805531865825022
 10
0.1639236821089168
 20
0.1820457733290369
 10
0.1632843110239784
 20
0.183644975432249
 10
0.1634974335275577
 20
0.185990473733428
 10
0.1664811735970749
 20
0.1878029009006054
 10
0.1672271095080061
 20
0.1882293566779271
 10
0.1678664805929445
 20
0.1884425817418906
 10
0.1680796066707243
 20
0.1896153280677836
 10
0.1672271095080061
 20
0.1914277552349609
 10
0.1675467968375747
 20
0.1939864786001017
 10
0.1694649136665939
 20
0.1948393845053521
 10
0.1705305369070936
 20
0.1948393845053521
 10
0.1711699079920338
 20
0.1970782674498511
 10
0.1710633467402433
 20
0.1996369908149919
 10
0.171276472818023
 20
0.2014494179821709
 10
0.174260212887542
 20
0.2029420047287057
 10
0.1771373917052704
 20
0.20368830092667
 10
0.1804408155301592
 20
0.2040081413473117
 10
0.1801211317747894
 20
0.2063536339990969
 10
0.1812933126928774
 20
0.2069933148403821
 10
0.1828917457665268
 20
0.2065668647124533
 10
0.1838508077552378
 20
0.2060337935784534
 10
0.184916427421537
 20
0.2077396110383463
 10
0.1857689245842552
 20
0.2093388131415593
 10
0.1863017344174066
 20
0.2109380152447732
 10
0.1872607964061158
 20
0.2122173712779506
 10
0.1893920393129148
 20
0.2120041462139871
 10
0.191310156141934
 20
0.2115776904366654
 10
0.1939742124560831
 20
0.2126438270552723
  0
LWPOLYLINE
  5
55C
330
2
100
AcDbEntity
  8
Profilo
  6
Continuous
370
     0
100
AcDbPolyline
 90
       31
 70
   128
 43
0.0
 10
0.1847033049179577
 20
0.1819391636217508
 10
0.1835311204256674
 20
0.1830052945909647
 10
0.183637681677458
 20
0.1850309524714994
 10
0.1831048718443083
 20
0.185990473733428
 10
0.1817195612742383
 20
0.185990473733428
 10
0.1809736289375093
 20
0.1871632200593193
 10
0.1811867514410886
 20
0.1888690375192123
 10
0.1796948831934303
 20
0.1889756472264966
 10
0.1790555085342895
 20
0.1898285531317471
 10
0.1782030113715697
 20
0.1913211455276757
 10
0.17628489096835
 20
0.1913211455276757
 10
0.1746864614689029
 20
0.1908946897503531
 10
0.1736208382284013
 20
0.189295487647141
 10
0.1736208382284013
 20
0.1878029009006054
 10
0.1725552185621039
 20
0.1870566047026402
 10
0.1718092826511727
 20
0.1856706333127845
 10
0.1718092826511727
 20
0.183644975432249
 10
0.173301150898831
 20
0.1814060981371447
 10
0.1715961565733929
 20
0.1816193232011082
 10
0.1707436594106729
 20
0.1807664172958586
 10
0.1707436594106729
 20
0.1795936653205726
 10
0.172022405154752
 20
0.1769283322481458
 10
0.1736208382284013
 20
0.175968810986218
 10
0.1748995839724822
 20
0.1751159050809684
 10
0.1761783297165594
 20
0.1741563838190407
 10
0.1770308268792794
 20
0.1734100876210755
 10
0.1773505142088497
 20
0.1720241162312198
 10
0.1760717684647707
 20
0.1710645949692921
 10
0.1740470868097622
 20
0.1707447545486495
 10
0.172981467143463
 20
0.1698918486433999
 10
0.1724486537361111
 20
0.1691455524454356
  0
LWPOLYLINE
  5
55D
330
2
100
AcDbEntity
  8
Profilo
  6
Continuous
370
     0
100
AcDbPolyline
 90
        7
 70
   128
 43
0.0
 10
0.1941873349596624
 20
0.1719175008745416
 10
0.1906707850569939
 20
0.1719175008745416
 10
0.1880067287428447
 20
0.1721307259385051
 10
0.1856623633324664
 20
0.1733034779137911
 10
0.1828917457665268
 20
0.1743696088830041
 10
0.1812933126928774
 20
0.1763952667635397
 10
0.1808670641115183
 20
0.1773547880254675
  0
LWPOLYLINE
  5
55E
330
2
100
AcDbEntity
  8
Profilo
  6
Continuous
370
     0
100
AcDbPolyline
 90
       39
 70
   128
 43
0.0
 10
0.2080089823850647
 20
0.1530472616189985
 10
0.2094132923968685
 20
0.1233543157847815
 10
0.2065347286110834
 20
0.1219690087889128
 10
0.2041892359592991
 20
0.1220755700407016
 10
0.2026966435633705
 20
0.1205837017930441
 10
0.2004577662682644
 20
0.1194115173007538
 10
0.1977924275464437
 20
0.1198377658821138
 10
0.1972593620618367
 20
0.1215427602075528
 10
0.1975792024824793
 20
0.1247396263548516
 10
0.1958733850225881
 20
0.1220755700407016
 10
0.1948072540533742
 20
0.1218624475371223
 10
0.1933146673068394
 20
0.1223952573702719
 10
0.1917154652036265
 20
0.1217558862853335
 10
0.1893699669024466
 20
0.1219690087889128
 10
0.1875575397352692
 20
0.1249527488584309
 10
0.1871310839579484
 20
0.1256986847693612
 10
0.186917858893984
 20
0.1263380558542996
 10
0.1857451125680919
 20
0.1265511819320803
 10
0.1839326854009146
 20
0.1256986847693612
 10
0.1813739620357738
 20
0.1260183720989306
 10
0.1805210561305243
 20
0.1279364889279489
 10
0.1805210561305243
 20
0.1290021121684496
 10
0.1782821731860243
 20
0.129641483253388
 10
0.1757234498208836
 20
0.1295349220015983
 10
0.1739110226537045
 20
0.129748048079379
 10
0.1724184359071698
 20
0.132731788148898
 10
0.1716721397092064
 20
0.1356089669666264
 10
0.1713522992885638
 20
0.1389123907915134
 10
0.1690068066367795
 20
0.1385927070361453
 10
0.1683671257954943
 20
0.1397648879542334
 10
0.168793575923423
 20
0.1413633210278827
 10
0.1693266470574221
 20
0.1423223830165937
 10
0.1676208295975291
 20
0.1433880026828921
 10
0.1660216274943161
 20
0.1442404998456112
 10
0.1644224253911014
 20
0.1447733096787608
 10
0.1631430693579249
 20
0.1457323716674718
 10
0.1633562944218892
 20
0.1478636145742708
 10
0.1637827501992101
 20
0.1497817314032891
 10
0.1627166135806041
 20
0.1524457877174382
  0
LWPOLYLINE
  5
55F
330
2
100
AcDbEntity
  8
Profilo
  6
Continuous
370
     0
100
AcDbPolyline
 90
       31
 70
   128
 43
0.0
 10
0.1934212770141256
 20
0.1431748801793128
 10
0.1923551460449117
 20
0.1420026956870234
 10
0.1903294881643761
 20
0.142109256938813
 10
0.1893699669024483
 20
0.1415764471056634
 10
0.1893699669024483
 20
0.1401911365355933
 10
0.1881972205765562
 20
0.1394452041988644
 10
0.1864914031166632
 20
0.1396583267024437
 10
0.1863847934093788
 20
0.1381664584547854
 10
0.1855318875041293
 20
0.1375270837956447
 10
0.1840392951081988
 20
0.1366745866329256
 10
0.1840392951081988
 20
0.1347564662297059
 10
0.1844657508855215
 20
0.1331580367302579
 10
0.1860649529887345
 20
0.1320924134897573
 10
0.1875575397352692
 20
0.1320924134897573
 10
0.1883038359332344
 20
0.1310267938234589
 10
0.1896898073230909
 20
0.1302808579125286
 10
0.1917154652036265
 20
0.1302808579125286
 10
0.1939543424987308
 20
0.131772726160187
 10
0.1937411174347682
 20
0.130067731834748
 10
0.1945940233400177
 20
0.1292152346720289
 10
0.1957667753153019
 20
0.1292152346720289
 10
0.1984321083877306
 20
0.130493980416107
 10
0.1993916296496584
 20
0.1320924134897573
 10
0.200244535554908
 20
0.1333711592338364
 10
0.2012040568168357
 20
0.1346499049779154
 10
0.2019503530148009
 20
0.1355024021406354
 10
0.2033363244046557
 20
0.1358220894702057
 10
0.2042958456665834
 20
0.1345433437261266
 10
0.204615686087226
 20
0.1325186620711173
 10
0.2054685919924756
 20
0.131453042404818
 10
0.2062148881904408
 20
0.130920228997467
  0
LWPOLYLINE
  5
560
330
2
100
AcDbEntity
  8
Profilo
  6
Continuous
370
     0
100
AcDbPolyline
 90
        7
 70
   128
 43
0.0
 10
0.2034429397613339
 20
0.1526589102210175
 10
0.2034429397613339
 20
0.1491423603183498
 10
0.2032297146973695
 20
0.1464783040041998
 10
0.2020569627220853
 20
0.1441339385938224
 10
0.2009908317528714
 20
0.1413633210278827
 10
0.1989651738723358
 20
0.1397648879542334
 10
0.198005652610408
 20
0.1393386393728734
  0
LWPOLYLINE
  5
561
330
2
100
AcDbEntity
  8
Profilo
  6
Continuous
370
     0
100
AcDbPolyline
 90
       39
 70
   128
 43
0.0
 10
0.2223119099869114
 20
0.1664418612786741
 10
0.252006124851094
 20
0.1678848676582226
 10
0.2533914318469636
 20
0.1650063038724375
 10
0.2532848705951748
 20
0.1626608112206541
 10
0.2547767388428314
 20
0.1611682188247255
 10
0.2559489233351217
 20
0.1589293415296203
 10
0.2555226747537626
 20
0.1562640028077987
 10
0.2538176804283227
 20
0.1557309373231927
 10
0.2506208142810239
 20
0.1560507777438352
 10
0.2532848705951748
 20
0.1543449602839423
 10
0.2534979930987523
 20
0.1532788293147292
 10
0.2529651832656027
 20
0.1517862425681945
 10
0.2536045543505429
 20
0.1501870404649815
 10
0.2533914318469636
 20
0.1478415421638025
 10
0.2504076917774446
 20
0.1460291149966252
 10
0.2496617558665152
 20
0.1456026592193035
 10
0.2490223847815768
 20
0.14538943415534
 10
0.2488092587037952
 20
0.1442166878294479
 10
0.2496617558665152
 20
0.1424042606622705
 10
0.2493420685369449
 20
0.1398455372971289
 10
0.2474239517079257
 20
0.1389926313918793
 10
0.2463583284674259
 20
0.1389926313918793
 10
0.2457189573824875
 20
0.1367537484473803
 10
0.2458255186342763
 20
0.1341950250822387
 10
0.2456123925564965
 20
0.1323825979150605
 10
0.2426286524869775
 20
0.1308900111685257
 10
0.2397514736692491
 20
0.1301437149705614
 10
0.2364480498443621
 20
0.1298238745499188
 10
0.2367677335997302
 20
0.1274783818981345
 10
0.2355955526816421
 20
0.1268387010568494
 10
0.2339971196079928
 20
0.1272651511847772
 10
0.2330380576192818
 20
0.127798222318778
 10
0.2319724379529843
 20
0.1260924048588851
 10
0.2311199407902643
 20
0.1244932027556712
 10
0.2305871309571147
 20
0.1228940006524574
 10
0.2296280689684037
 20
0.1216146446192808
 10
0.2274968260616047
 20
0.1218278696832443
 10
0.2255787092325873
 20
0.1222543254605651
 10
0.2229146529184364
 20
0.1211881888419591
  0
LWPOLYLINE
  5
562
330
2
100
AcDbEntity
  8
Profilo
  6
Continuous
370
     0
100
AcDbPolyline
 90
       31
 70
   128
 43
0.0
 10
0.2321855604565618
 20
0.1518928522754807
 10
0.2333577449488521
 20
0.1508267213062667
 10
0.2332511836970633
 20
0.1488010634257312
 10
0.233783993530213
 20
0.1478415421638025
 10
0.235169304100283
 20
0.1478415421638025
 10
0.2359152364370102
 20
0.1466687958379113
 10
0.2357021139334327
 20
0.1449629783780192
 10
0.237193982181091
 20
0.1448563686707339
 10
0.2378333568402299
 20
0.1440034627654844
 10
0.2386858540029499
 20
0.1425108703695549
 10
0.2406039744061696
 20
0.1425108703695549
 10
0.2422024039056184
 20
0.1429373261468775
 10
0.2432680271461182
 20
0.1445365282500904
 10
0.2432680271461182
 20
0.1460291149966252
 10
0.2443336468124174
 20
0.1467754111945904
 10
0.2450795827233469
 20
0.1481613825844469
 10
0.2450795827233469
 20
0.1501870404649815
 10
0.2435877144756885
 20
0.1524259177600867
 10
0.2452927088011284
 20
0.1522126926961224
 10
0.2461452059638466
 20
0.1530655986013728
 10
0.2461452059638466
 20
0.1542383505766579
 10
0.2448664602197676
 20
0.1569036836490857
 10
0.2432680271461182
 20
0.1578632049110126
 10
0.2419892814020391
 20
0.158716110816263
 10
0.2407105356579601
 20
0.1596756320781908
 10
0.2398580384952401
 20
0.1604219282761551
 10
0.2395383511656698
 20
0.1618078996660116
 10
0.2408170969097489
 20
0.1627674209279394
 10
0.2428417785647591
 20
0.163087261348582
 10
0.2439073982310566
 20
0.1639401672538315
 10
0.2444402116384085
 20
0.1646864634517958
  0
LWPOLYLINE
  5
563
330
2
100
AcDbEntity
  8
Profilo
  6
Continuous
370
     0
100
AcDbPolyline
 90
        7
 70
   128
 43
0.0
 10
0.2227015304148589
 20
0.1619145150226889
 10
0.2262180803175257
 20
0.1619145150226889
 10
0.2288821366316766
 20
0.1617012899587255
 10
0.2312265020420531
 20
0.1605285379834404
 10
0.2339971196079928
 20
0.1594624070142264
 10
0.2355955526816421
 20
0.1574367491336918
 10
0.236021801263003
 20
0.156477227871764
  0
CIRCLE
  5
56A
102
{ACAD_REACTORS
330
57C
102
}
330
2
100
AcDbEntity
  8
Sezione
  6
ACAD_ISO10W100
 62
     3
 48
0.001
100
AcDbCircle
 10
0.2084444326872598
 20
0.1669160079486157
 30
0.0
 40
0.0525
  0
DIMENSION
  5
56B
102
{ACAD_XDICTIONARY
360
575
102
}
102
{ACAD_REACTORS
330
57C
102
}
330
2
100
AcDbEntity
  8
Sezione
  6
ACAD_ISO10W100
100
AcDbDimension
  2
*D12
 10
0.1712744447141052
 20
0.1298398431783007
 30
0.0
 11
0.2636669914017373
 21
0.2061108107058059
 31
0.0
 70
    35
  1
d 210 mm
 71
     5
 42
0.105
  3
Bovelacci
100
AcDbDiametricDimension
 15
0.2456144206604142
 25
0.2039921727189307
 35
0.0
 40
0.0
1001
ACAD
1000
DSTYLE
1002
{
1070
   288
1070
     1
1002
}
  0
ENDSEC
  0
SECTION
  2
OBJECTS
  0
DICTIONARY
  5
9
330
0
100
AcDbDictionary
281
     1
  3
ACAD_2007HEADERVARS_RT
350
208
  3
ACAD_COLOR
350
184
  3
ACAD_GROUP
350
17F
  3
ACAD_LAYOUT
350
164
  3
ACAD_MATERIAL
350
B
  3
ACAD_MLINESTYLE
350
180
  3
ACAD_PLOTSETTINGS
350
181
  3
ACAD_PLOTSTYLENAME
350
8
  3
ACAD_TABLESTYLE
350
185
  3
ACAD_VISUALSTYLE
350
17A
  3
ACDBHEADERROUNDTRIPXREC
350
58D
  3
AcDbVariableDictionary
350
18B
  3
DWGPROPS
350
58C
  0
DICTIONARY
  5
16E
330
16D
100
AcDbDictionary
280
     1
281
     1
  3
ACAD_LAYERSTATES
360
16F
  0
DICTIONARY
  5
3
330
2
100
AcDbDictionary
280
     1
281
     1
  3
ACAD_SORTENTS
360
18A
  0
DICTIONARY
  5
58E
330
18
100
AcDbDictionary
280
     1
281
     1
  3
ACAD_MTEXT_RT
360
58F
  0
DICTIONARY
  5
575
330
56B
100
AcDbDictionary
280
     1
281
     1
  3
ACAD_DIMASSOC
360
57C
  0
DICTIONARY
  5
208
102
{ACAD_REACTORS
330
9
102
}
330
9
100
AcDbDictionary
281
     1
  3
DIMFXL
350
209
  0
DICTIONARY
  5
184
102
{ACAD_REACTORS
330
9
102
}
330
9
100
AcDbDictionary
281
     1
  0
DICTIONARY
  5
17F
102
{ACAD_REACTORS
330
9
102
}
330
9
100
AcDbDictionary
281
     1
  0
DICTIONARY
  5
164
102
{ACAD_REACTORS
330
9
102
}
330
9
100
AcDbDictionary
281
     1
  3
Layout1
350
168
  3
Layout2
350
16C
  3
Model
350
163
  0
DICTIONARY
  5
B
102
{ACAD_REACTORS
330
9
102
}
330
9
100
AcDbDictionary
281
     1
  3
ByBlock
350
183
  3
ByLayer
350
182
  3
Global
350
A
  0
DICTIONARY
  5
180
102
{ACAD_REACTORS
330
9
102
}
330
9
100
AcDbDictionary
281
     1
  3
Standard
350
186
  0
DICTIONARY
  5
181
102
{ACAD_REACTORS
330
9
102
}
330
9
100
AcDbDictionary
281
     1
  0
ACDBDICTIONARYWDFLT
  5
8
102
{ACAD_REACTORS
330
9
102
}
330
9
100
AcDbDictionary
281
     1
  3
Normal
350
7
100
AcDbDictionaryWithDefault
340
7
  0
DICTIONARY
  5
185
102
{ACAD_REACTORS
330
9
102
}
330
9
100
AcDbDictionary
281
     1
  3
Standard
350
187
  0
DICTIONARY
  5
17A
102
{ACAD_REACTORS
330
9
102
}
330
9
100
AcDbDictionary
281
     1
  3
2dWireframe
350
179
  3
3D Hidden
350
1BD
  3
3dWireframe
350
189
  3
Basic
350
1BC
  3
Brighten
350
1C0
  3
ColorChange
350
1C4
  3
Conceptual
350
1BE
  3
Dim
350
1BF
  3
Facepattern
350
1C3
  3
Flat
350
1B8
  3
FlatWithEdges
350
1B9
  3
Gouraud
350
1BA
  3
GouraudWithEdges
350
1BB
  3
Linepattern
350
1C2
  3
Realistic
350
188
  3
Thicken
350
1C1
  0
DICTIONARY
  5
58D
102
{ACAD_REACTORS
330
9
102
}
330
9
100
AcDbDictionary
281
     1
  0
DICTIONARY
  5
18B
102
{ACAD_REACTORS
330
9
102
}
330
9
100
AcDbDictionary
281
     1
  3
CTABLESTYLE
350
18C
  3
DIMASSOC
350
190
  3
HIDETEXT
350
18F
  3
INDEXCTL
350
18E
  3
PROJECTNAME
350
31D
  3
SORTENTS
350
18D
  0
XRECORD
  5
58C
102
{ACAD_REACTORS
330
9
102
}
330
9
100
AcDbXrecord
280
     1
  1
DWGPROPS COOKIE
  2

  3

  4

  6

  7

  8
Mario
  9

300
=
301
=
302
=
303
=
304
=
305
=
306
=
307
=
308
=
309
=
 40
0.0993203819444445
 41
2454297.625402373
 42
2454306.04085412
  1

 90
        0
  0
DICTIONARY
  5
16F
102
{ACAD_REACTORS
330
16E
102
}
330
16E
100
AcDbDictionary
281
     1
  0
SORTENTSTABLE
  5
18A
102
{ACAD_REACTORS
330
3
102
}
330
3
100
AcDbSortentsTable
330
2
331
1D
  5
22
331
55B
  5
55C
331
557
  5
558
331
23
  5
2AC
331
15
  5
14
331
553
  5
554
331
11
  5
18
331
54F
  5
550
331
562
  5
563
331
D
  5
16
331
54B
  5
54C
331
55E
  5
55F
331
1C
  5
21
331
55A
  5
55B
331
18
  5
1F
331
556
  5
557
331
22
  5
23F
331
14
  5
13
331
552
  5
553
331
10
  5
17
331
54E
  5
54F
331
561
  5
562
331
1F
  5
24
331
54A
  5
54B
331
55D
  5
55E
331
559
  5
55A
331
25
  5
3BB
331
17
  5
1D
331
555
  5
556
331
21
  5
25
331
13
  5
12
331
551
  5
552
331
54D
  5
54E
331
560
  5
561
331
1E
  5
23
331
56A
  5
11
331
55C
  5
55D
331
558
  5
559
331
24
  5
1E
331
16
  5
15
331
554
  5
555
331
12
  5
1C
331
23F
  5
54A
331
550
  5
551
331
563
  5
56A
331
54C
  5
54D
331
55F
  5
560
  0
XRECORD
  5
58F
102
{ACAD_REACTORS
330
58E
102
}
330
58E
100
AcDbXrecord
280
     1
 40
7955300.0
  1
{\fTimes New Roman|b0|i0|c238|p18;\H1.6x;\C4;Bovelacci\P\pt0.09;\H0.4375x;\T0.95;via del Commercio, 5  47100 Forli - Italy  \fTimes New Roman|b0|i0|c0|p18;\P\fTimes New Roman|b0|i0|c238|p18;tel.+39-0543721386  fax +39-0543721127\fTimes New Roman|b0|i
  1
0|c0|p18; \fTimes New Roman|b0|i0|c238|p18;www.bovelacci.it\fTimes New Roman|b0|i0|c0|p18; \fTimes New Roman|b0|i0|c238|p18;e-mail: bovelacci@bovelacci\fTimes New Roman|b0|i0|c0|p18;.it}
  0
DIMASSOC
  5
57C
102
{ACAD_REACTORS
330
575
102
}
330
575
100
AcDbDimAssoc
330
56B
 90
        2
 70
     0
 71
     0
  1
AcDbOsnapPointRef
 72
     3
331
56A
 73
     2
 91
        0
 40
0.0
 10
0.0
 20
0.0
 30
0.0
 75
     0
  0
XRECORD
  5
209
102
{ACAD_REACTORS
330
208
102
}
330
208
100
AcDbXrecord
280
     1
 40
0.18
  0
LAYOUT
  5
168
102
{ACAD_XDICTIONARY
360
592
102
}
102
{ACAD_REACTORS
330
164
102
}
330
164
100
AcDbPlotSettings
  1

  2
C:\Documents and Settings\All Users\Dati applicazioni\Autodesk\ADT 2006\enu\Plotters\Default Windows System Printer.pc3
  4

  6

 40
0.0
 41
0.0
 42
0.0
 43
0.0
 44
0.0
 45
0.0
 46
0.0
 47
0.0
 48
0.0
 49
0.0
140
0.0
141
0.0
142
1.0
143
1.0
 70
   688
 72
     0
 73
     0
 74
     5
  7

 75
    16
147
1.0
148
0.0
149
0.0
100
AcDbLayout
  1
Layout1
 70
     1
 71
     1
 10
0.0
 20
0.0
 11
420.0
 21
297.0
 12
0.0
 22
0.0
 32
0.0
 14
1.000000000000000E+20
 24
1.000000000000000E+20
 34
1.000000000000000E+20
 15
-1.000000000000000E+20
 25
-1.000000000000000E+20
 35
-1.000000000000000E+20
146
0.0
 13
0.0
 23
0.0
 33
0.0
 16
1.0
 26
0.0
 36
0.0
 17
0.0
 27
1.0
 37
0.0
 76
     0
330
165
  0
LAYOUT
  5
16C
102
{ACAD_XDICTIONARY
360
594
102
}
102
{ACAD_REACTORS
330
164
102
}
330
164
100
AcDbPlotSettings
  1

  2
C:\Documents and Settings\All Users\Dati applicazioni\Autodesk\ADT 2006\enu\Plotters\Default Windows System Printer.pc3
  4

  6

 40
0.0
 41
0.0
 42
0.0
 43
0.0
 44
0.0
 45
0.0
 46
0.0
 47
0.0
 48
0.0
 49
0.0
140
0.0
141
0.0
142
1.0
143
1.0
 70
   688
 72
     0
 73
     0
 74
     5
  7

 75
    16
147
1.0
148
0.0
149
0.0
100
AcDbLayout
  1
Layout2
 70
     1
 71
     2
 10
0.0
 20
0.0
 11
12.0
 21
9.0
 12
0.0
 22
0.0
 32
0.0
 14
0.0
 24
0.0
 34
0.0
 15
0.0
 25
0.0
 35
0.0
146
0.0
 13
0.0
 23
0.0
 33
0.0
 16
1.0
 26
0.0
 36
0.0
 17
0.0
 27
1.0
 37
0.0
 76
     0
330
169
  0
LAYOUT
  5
163
102
{ACAD_XDICTIONARY
360
590
102
}
102
{ACAD_REACTORS
330
164
102
}
330
164
100
AcDbPlotSettings
  1

  2
C:\Documents and Settings\All Users\Dati applicazioni\Autodesk\ADT 2006\enu\Plotters\Default Windows System Printer.pc3
  4

  6

 40
0.0
 41
0.0
 42
0.0
 43
0.0
 44
0.0
 45
0.0
 46
0.0
 47
0.0
 48
0.0
 49
0.0
140
0.0
141
0.0
142
1.0
143
1.0
 70
  1712
 72
     0
 73
     0
 74
     0
  7

 75
     0
147
1.0
148
0.0
149
0.0
100
AcDbLayout
  1
Model
 70
     1
 71
     0
 10
0.0
 20
0.0
 11
12.0
 21
9.0
 12
0.0
 22
0.0
 32
0.0
 14
0.0
 24
0.0
 34
0.0
 15
0.0
 25
0.0
 35
0.0
146
0.0
 13
0.0
 23
0.0
 33
0.0
 16
1.0
 26
0.0
 36
0.0
 17
0.0
 27
1.0
 37
0.0
 76
     0
330
2
  0
MATERIAL
  5
183
102
{ACAD_XDICTIONARY
360
1B0
102
}
102
{ACAD_REACTORS
330
B
102
}
330
B
100
AcDbMaterial
  1
ByBlock
  0
MATERIAL
  5
182
102
{ACAD_XDICTIONARY
360
1AE
102
}
102
{ACAD_REACTORS
330
B
102
}
330
B
100
AcDbMaterial
  1
ByLayer
  0
MATERIAL
  5
A
102
{ACAD_XDICTIONARY
360
193
102
}
102
{ACAD_REACTORS
330
B
102
}
330
B
100
AcDbMaterial
  1
Global
  0
MLINESTYLE
  5
186
102
{ACAD_REACTORS
330
180
102
}
330
180
100
AcDbMlineStyle
  2
STANDARD
 70
     0
  3

 62
   256
 51
90.0
 52
90.0
 71
     2
 49
0.5
 62
   256
  6
BYLAYER
 49
-0.5
 62
   256
  6
BYLAYER
  0
ACDBPLACEHOLDER
  5
7
102
{ACAD_REACTORS
330
8
102
}
330
8
  0
TABLESTYLE
  5
187
102
{ACAD_XDICTIONARY
360
21A
102
}
102
{ACAD_REACTORS
330
185
102
}
330
185
100
AcDbTableStyle
  3
Standard
 70
     0
 71
     0
 40
1.5
 41
1.5
280
     0
281
     0
  7
Standard
140
4.5
170
     2
 62
     0
 63
     7
283
     0
274
    -2
284
     1
 64
     0
275
    -2
285
     1
 65
     0
276
    -2
286
     1
 66
     0
277
    -2
287
     1
 67
     0
278
    -2
288
     1
 68
     0
279
    -2
289
     1
 69
     0
  7
Standard
140
6.0
170
     5
 62
     0
 63
     7
283
     0
274
    -2
284
     1
 64
     0
275
    -2
285
     1
 65
     0
276
    -2
286
     1
 66
     0
277
    -2
287
     1
 67
     0
278
    -2
288
     1
 68
     0
279
    -2
289
     1
 69
     0
  7
Standard
140
4.5
170
     5
 62
     0
 63
     7
283
     0
274
    -2
284
     1
 64
     0
275
    -2
285
     1
 65
     0
276
    -2
286
     1
 66
     0
277
    -2
287
     1
 67
     0
278
    -2
288
     1
 68
     0
279
    -2
289
     1
 69
     0
  0
VISUALSTYLE
  5
179
102
{ACAD_REACTORS
330
17A
102
}
330
17A
100
AcDbVisualStyle
  2
2dWireframe
 70
     4
 71
     0
 72
     2
 73
     0
 90
        0
 40
-0.6
 41
-30.0
 62
     5
 63
     7
 74
     1
 91
        4
 64
     7
 65
   257
 75
     1
175
     1
 42
1.0
 92
        0
 66
   257
 43
1.0
 76
     1
 77
     6
 78
     2
 67
     7
 79
     5
170
     0
171
     0
290
     0
174
     0
 93
        1
 44
0.0
173
     0
291
     0
 45
0.0
1001
ACAD
1000
AcDbSavedByObjectVersion
1070
     0
1000
AcDbSavedByObjectVersion
1070
     0
1000
AcDbSavedByObjectVersion
1070
     0
1001
ACAD
1000
AcRTDxfName
1000
VISUALSTYLE
  0
VISUALSTYLE
  5
1BD
102
{ACAD_REACTORS
330
17A
102
}
330
17A
100
AcDbVisualStyle
  2
3D Hidden
 70
     6
 71
     1
 72
     2
 73
     2
 90
        0
 40
-0.6
 41
-30.0
 62
     5
 63
     7
 74
     2
 91
        2
 64
     7
 65
   257
 75
     2
175
     1
 42
40.0
 92
        0
 66
   257
 43
1.0
 76
     1
 77
     6
 78
     2
 67
     7
 79
     3
170
     0
171
     0
290
     0
174
     0
 93
        1
 44
0.0
173
     0
291
     0
 45
0.0
1001
ACAD
1000
AcDbSavedByObjectVersion
1070
     0
1000
AcDbSavedByObjectVersion
1070
     0
1001
ACAD
1000
AcRTDxfName
1000
VISUALSTYLE
  0
VISUALSTYLE
  5
189
102
{ACAD_REACTORS
330
17A
102
}
330
17A
100
AcDbVisualStyle
  2
3dWireframe
 70
     5
 71
     0
 72
     2
 73
     0
 90
        0
 40
-0.6
 41
-30.0
 62
     5
 63
     7
 74
     1
 91
        4
 64
     7
 65
   257
 75
     1
175
     1
 42
1.0
 92
        0
 66
   257
 43
1.0
 76
     1
 77
     6
 78
     2
 67
     7
 79
     5
170
     0
171
     0
290
     0
174
     0
 93
        1
 44
0.0
173
     0
291
     0
 45
0.0
1001
ACAD
1000
AcDbSavedByObjectVersion
1070
     0
1000
AcDbSavedByObjectVersion
1070
     0
1000
AcDbSavedByObjectVersion
1070
     0
1001
ACAD
1000
AcRTDxfName
1000
VISUALSTYLE
  0
VISUALSTYLE
  5
1BC
102
{ACAD_REACTORS
330
17A
102
}
330
17A
100
AcDbVisualStyle
  2
Basic
 70
     7
 71
     1
 72
     0
 73
     1
 90
        0
 40
-0.6
 41
-30.0
 62
     5
 63
     7
 74
     0
 91
        4
 64
     7
 65
   257
 75
     1
175
     1
 42
1.0
 92
        8
 66
     7
 43
1.0
 76
     1
 77
     6
 78
     2
 67
     7
 79
     5
170
     0
171
     0
290
     0
174
     0
 93
        1
 44
0.0
173
     0
291
     1
 45
0.0
1001
ACAD
1000
AcDbSavedByObjectVersion
1070
     0
1000
AcDbSavedByObjectVersion
1070
     0
1001
ACAD
1000
AcRTDxfName
1000
VISUALSTYLE
  0
VISUALSTYLE
  5
1C0
102
{ACAD_REACTORS
330
17A
102
}
330
17A
100
AcDbVisualStyle
  2
Brighten
 70
    12
 71
     2
 72
     2
 73
     0
 90
        0
 40
-0.6
 41
-30.0
 62
     5
 63
     7
 74
     1
 91
        4
 64
     7
 65
   257
 75
     1
175
     1
 42
1.0
 92
        8
 66
     7
 43
1.0
 76
     1
 77
     6
 78
     2
 67
     7
 79
     5
170
     0
171
     0
290
     0
174
     0
 93
        1
 44
50.0
173
     0
291
     1
 45
0.0
1001
ACAD
1000
AcDbSavedByObjectVersion
1070
     0
1000
AcDbSavedByObjectVersion
1070
     0
1001
ACAD
1000
AcRTDxfName
1000
VISUALSTYLE
  0
VISUALSTYLE
  5
1C4
102
{ACAD_REACTORS
330
17A
102
}
330
17A
100
AcDbVisualStyle
  2
ColorChange
 70
    16
 71
     2
 72
     2
 73
     3
 90
        0
 40
-0.6
 41
-30.0
 62
     5
 63
     8
 74
     1
 91
        4
 64
     7
 65
   257
 75
     1
175
     1
 42
1.0
 92
        8
 66
     8
 43
1.0
 76
     1
 77
     6
 78
     2
 67
     7
 79
     5
170
     0
171
     0
290
     0
174
     0
 93
        1
 44
0.0
173
     0
291
     1
 45
0.0
1001
ACAD
1000
AcDbSavedByObjectVersion
1070
     0
1000
AcDbSavedByObjectVersion
1070
     0
1001
ACAD
1000
AcRTDxfName
1000
VISUALSTYLE
  0
VISUALSTYLE
  5
1BE
102
{ACAD_REACTORS
330
17A
102
}
330
17A
100
AcDbVisualStyle
  2
Conceptual
 70
     9
 71
     3
 72
     2
 73
     0
 90
        0
 40
-0.6
 41
-30.0
 62
     5
 63
     7
 74
     2
 91
        2
 64
     7
 65
   257
 75
     1
175
     1
 42
40.0
 92
        8
 66
     7
 43
1.0
 76
     1
 77
     6
 78
     2
 67
     7
 79
     3
170
     0
171
     0
290
     0
174
     0
 93
        1
 44
0.0
173
     0
291
     0
 45
0.0
1001
ACAD
1000
AcDbSavedByObjectVersion
1070
     0
1000
AcDbSavedByObjectVersion
1070
     0
1001
ACAD
1000
AcRTDxfName
1000
VISUALSTYLE
  0
VISUALSTYLE
  5
1BF
102
{ACAD_REACTORS
330
17A
102
}
330
17A
100
AcDbVisualStyle
  2
Dim
 70
    11
 71
     2
 72
     2
 73
     0
 90
        0
 40
-0.6
 41
-30.0
 62
     5
 63
     7
 74
     1
 91
        4
 64
     7
 65
   257
 75
     1
175
     1
 42
1.0
 92
        8
 66
     7
 43
1.0
 76
     1
 77
     6
 78
     2
 67
     7
 79
     5
170
     0
171
     0
290
     0
174
     0
 93
        1
 44
-50.0
173
     0
291
     1
 45
0.0
1001
ACAD
1000
AcDbSavedByObjectVersion
1070
     0
1000
AcDbSavedByObjectVersion
1070
     0
1001
ACAD
1000
AcRTDxfName
1000
VISUALSTYLE
  0
VISUALSTYLE
  5
1C3
102
{ACAD_REACTORS
330
17A
102
}
330
17A
100
AcDbVisualStyle
  2
Facepattern
 70
    15
 71
     2
 72
     2
 73
     0
 90
        0
 40
-0.6
 41
-30.0
 62
     5
 63
     7
 74
     1
 91
        4
 64
     7
 65
   257
 75
     1
175
     1
 42
1.0
 92
        8
 66
     7
 43
1.0
 76
     1
 77
     6
 78
     2
 67
     7
 79
     5
170
     0
171
     0
290
     0
174
     0
 93
        1
 44
0.0
173
     0
291
     1
 45
0.0
1001
ACAD
1000
AcDbSavedByObjectVersion
1070
     0
1000
AcDbSavedByObjectVersion
1070
     0
1001
ACAD
1000
AcRTDxfName
1000
VISUALSTYLE
  0
VISUALSTYLE
  5
1B8
102
{ACAD_REACTORS
330
17A
102
}
330
17A
100
AcDbVisualStyle
  2
Flat
 70
     0
 71
     2
 72
     1
 73
     1
 90
        2
 40
-0.6
 41
30.0
 62
     5
 63
     7
 74
     0
 91
        4
 64
     7
 65
   257
 75
     1
175
     1
 42
1.0
 92
        8
 66
     7
 43
1.0
 76
     1
 77
     6
 78
     2
 67
     7
 79
     5
170
     0
171
     0
290
     0
174
     0
 93
       13
 44
0.0
173
     0
291
     1
 45
0.0
1001
ACAD
1000
AcDbSavedByObjectVersion
1070
     0
1000
AcDbSavedByObjectVersion
1070
     0
1001
ACAD
1000
AcRTDxfName
1000
VISUALSTYLE
  0
VISUALSTYLE
  5
1B9
102
{ACAD_REACTORS
330
17A
102
}
330
17A
100
AcDbVisualStyle
  2
FlatWithEdges
 70
     1
 71
     2
 72
     1
 73
     1
 90
        2
 40
-0.6
 41
30.0
 62
     5
 63
     7
 74
     1
 91
        4
 64
     7
 65
   257
 75
     1
175
     1
 42
1.0
 92
        0
 66
   257
 43
1.0
 76
     1
 77
     6
 78
     2
 67
     7
 79
     5
170
     0
171
     0
290
     0
174
     0
 93
       13
 44
0.0
173
     0
291
     1
 45
0.0
1001
ACAD
1000
AcDbSavedByObjectVersion
1070
     0
1000
AcDbSavedByObjectVersion
1070
     0
1001
ACAD
1000
AcRTDxfName
1000
VISUALSTYLE
  0
VISUALSTYLE
  5
1BA
102
{ACAD_REACTORS
330
17A
102
}
330
17A
100
AcDbVisualStyle
  2
Gouraud
 70
     2
 71
     2
 72
     2
 73
     1
 90
        2
 40
-0.6
 41
30.0
 62
     5
 63
     7
 74
     0
 91
        4
 64
     7
 65
   257
 75
     1
175
     1
 42
1.0
 92
        0
 66
     7
 43
1.0
 76
     1
 77
     6
 78
     2
 67
     7
 79
     5
170
     0
171
     0
290
     0
174
     0
 93
       13
 44
0.0
173
     0
291
     1
 45
0.0
1001
ACAD
1000
AcDbSavedByObjectVersion
1070
     0
1000
AcDbSavedByObjectVersion
1070
     0
1001
ACAD
1000
AcRTDxfName
1000
VISUALSTYLE
  0
VISUALSTYLE
  5
1BB
102
{ACAD_REACTORS
330
17A
102
}
330
17A
100
AcDbVisualStyle
  2
GouraudWithEdges
 70
     3
 71
     2
 72
     2
 73
     1
 90
        2
 40
-0.6
 41
30.0
 62
     5
 63
     7
 74
     1
 91
        4
 64
     7
 65
   257
 75
     1
175
     1
 42
1.0
 92
        0
 66
   257
 43
1.0
 76
     1
 77
     6
 78
     2
 67
     7
 79
     5
170
     0
171
     0
290
     0
174
     0
 93
       13
 44
0.0
173
     0
291
     1
 45
0.0
1001
ACAD
1000
AcDbSavedByObjectVersion
1070
     0
1000
AcDbSavedByObjectVersion
1070
     0
1001
ACAD
1000
AcRTDxfName
1000
VISUALSTYLE
  0
VISUALSTYLE
  5
1C2
102
{ACAD_REACTORS
330
17A
102
}
330
17A
100
AcDbVisualStyle
  2
Linepattern
 70
    14
 71
     2
 72
     2
 73
     0
 90
        0
 40
-0.6
 41
-30.0
 62
     5
 63
     7
 74
     1
 91
        4
 64
     7
 65
   257
 75
     7
175
     7
 42
1.0
 92
        8
 66
     7
 43
1.0
 76
     1
 77
     6
 78
     2
 67
     7
 79
     5
170
     0
171
     0
290
     0
174
     0
 93
        1
 44
0.0
173
     0
291
     1
 45
0.0
1001
ACAD
1000
AcDbSavedByObjectVersion
1070
     0
1000
AcDbSavedByObjectVersion
1070
     0
1001
ACAD
1000
AcRTDxfName
1000
VISUALSTYLE
  0
VISUALSTYLE
  5
188
102
{ACAD_REACTORS
330
17A
102
}
330
17A
100
AcDbVisualStyle
  2
Realistic
 70
     8
 71
     2
 72
     2
 73
     0
 90
        0
 40
-0.6
 41
-30.0
 62
     5
 63
     7
 74
     1
 91
        0
 64
     7
 65
   257
 75
     1
175
     1
 42
1.0
 92
        8
 66
     8
 43
1.0
 76
     1
 77
     6
 78
     2
 67
     7
 79
     5
170
     0
171
     0
290
     0
174
     0
 93
       13
 44
0.0
173
     0
291
     0
 45
0.0
1001
ACAD
1000
AcDbSavedByObjectVersion
1070
     0
1000
AcDbSavedByObjectVersion
1070
     0
1000
AcDbSavedByObjectVersion
1070
     0
1001
ACAD
1000
AcRTDxfName
1000
VISUALSTYLE
  0
VISUALSTYLE
  5
1C1
102
{ACAD_REACTORS
330
17A
102
}
330
17A
100
AcDbVisualStyle
  2
Thicken
 70
    13
 71
     2
 72
     2
 73
     0
 90
        0
 40
-0.6
 41
-30.0
 62
     5
 63
     7
 74
     1
 91
        4
 64
     7
 65
   257
 75
     1
175
     1
 42
1.0
 92
       12
 66
     7
 43
1.0
 76
     1
 77
     6
 78
     2
 67
     7
 79
     5
170
     0
171
     0
290
     0
174
     0
 93
        1
 44
0.0
173
     0
291
     1
 45
0.0
1001
ACAD
1000
AcDbSavedByObjectVersion
1070
     0
1000
AcDbSavedByObjectVersion
1070
     0
1001
ACAD
1000
AcRTDxfName
1000
VISUALSTYLE
  0
DICTIONARYVAR
  5
18C
102
{ACAD_REACTORS
330
18B
102
}
330
18B
100
DictionaryVariables
280
     0
  1
STANDARD
  0
DICTIONARYVAR
  5
190
102
{ACAD_REACTORS
330
18B
102
}
330
18B
100
DictionaryVariables
280
     0
  1
2
  0
DICTIONARYVAR
  5
18F
102
{ACAD_REACTORS
330
18B
102
}
330
18B
100
DictionaryVariables
280
     0
  1
1
  0
DICTIONARYVAR
  5
18E
102
{ACAD_REACTORS
330
18B
102
}
330
18B
100
DictionaryVariables
280
     0
  1
0
  0
DICTIONARYVAR
  5
31D
102
{ACAD_REACTORS
330
18B
102
}
330
18B
100
DictionaryVariables
280
     0
  1

  0
DICTIONARYVAR
  5
18D
102
{ACAD_REACTORS
330
18B
102
}
330
18B
100
DictionaryVariables
280
     0
  1
127
  0
DICTIONARY
  5
592
330
168
100
AcDbDictionary
280
     1
281
     1
  3
ACAD_XREC_ROUNDTRIP
360
593
  0
DICTIONARY
  5
594
330
16C
100
AcDbDictionary
280
     1
281
     1
  3
ACAD_XREC_ROUNDTRIP
360
595
  0
DICTIONARY
  5
590
330
163
100
AcDbDictionary
280
     1
281
     1
  3
ACAD_XREC_ROUNDTRIP
360
591
  0
DICTIONARY
  5
1B0
330
183
100
AcDbDictionary
280
     1
281
     1
  3
ACAD_XREC_ROUNDTRIP
360
1B1
  0
DICTIONARY
  5
1AE
330
182
100
AcDbDictionary
280
     1
281
     1
  3
ACAD_XREC_ROUNDTRIP
360
1AF
  0
DICTIONARY
  5
193
330
A
100
AcDbDictionary
280
     1
281
     1
  3
ACAD_XREC_ROUNDTRIP
360
194
  0
DICTIONARY
  5
21A
330
187
100
AcDbDictionary
280
     1
281
     1
  3
ACAD_XREC_ROUNDTRIP
360
21B
  0
XRECORD
  5
593
102
{ACAD_REACTORS
330
592
102
}
330
592
100
AcDbXrecord
280
     1
102
SHADEPLOT
 70
     0
102
SHADEPLOTRESLEVEL
 70
     2
102
SHADEPLOTCUSTOMDPI
 70
   300
  0
XRECORD
  5
595
102
{ACAD_REACTORS
330
594
102
}
330
594
100
AcDbXrecord
280
     1
102
SHADEPLOT
 70
     0
102
SHADEPLOTRESLEVEL
 70
     2
102
SHADEPLOTCUSTOMDPI
 70
   300
  0
XRECORD
  5
591
102
{ACAD_REACTORS
330
590
102
}
330
590
100
AcDbXrecord
280
     1
102
SHADEPLOT
 70
     0
102
SHADEPLOTRESLEVEL
 70
     2
102
SHADEPLOTCUSTOMDPI
 70
   300
  0
XRECORD
  5
1B1
102
{ACAD_REACTORS
330
1B0
102
}
330
1B0
100
AcDbXrecord
280
     1
102
MATERIAL
148
0.0
149
0.0
149
0.0
 93
        0
 94
       63
282
     0
 72
     1
 77
     1
171
     1
175
     1
179
     1
273
     0
  0
XRECORD
  5
1AF
102
{ACAD_REACTORS
330
1AE
102
}
330
1AE
100
AcDbXrecord
280
     1
102
MATERIAL
148
0.0
149
0.0
149
0.0
 93
        0
 94
       63
282
     0
 72
     1
 77
     1
171
     1
175
     1
179
     1
273
     0
  0
XRECORD
  5
194
102
{ACAD_REACTORS
330
193
102
}
330
193
100
AcDbXrecord
280
     1
102
MATERIAL
148
0.0
149
0.0
149
0.0
 93
        0
 94
       63
282
     0
 72
     1
 77
     1
171
     1
175
     1
179
     1
273
     0
  0
XRECORD
  5
21B
102
{ACAD_REACTORS
330
21A
102
}
330
21A
100
AcDbXrecord
280
     1
102
ACAD_ROUNDTRIP_PRE2007_TABLESTYLE
 90
        4
 91
        0
  1

 92
        4
 93
        0
  2

 94
        4
 95
        0
  3

  0
ENDSEC
  0
EOF
