  0
SECTION
  2
HEADER
  9
$ACADVER
  1
AC1015
  9
$ACADMAINTVER
 70
    20
  9
$DWGCODEPAGE
  3
ANSI_1252
  9
$INSBASE
 10
0.0
 20
0.0
 30
0.0
  9
$EXTMIN
 10
0.0149999999999999
 20
0.0045311709285686
 30
0.0
  9
$EXTMAX
 10
0.8340712286622778
 20
0.3845311709285698
 30
0.0
  9
$LIMMIN
 10
0.0
 20
0.0
  9
$LIMMAX
 10
1.0
 20
0.5
  9
$ORTHOMODE
 70
     0
  9
$REGENMODE
 70
     1
  9
$FILLMODE
 70
     1
  9
$QTEXTMODE
 70
     0
  9
$MIRRTEXT
 70
     0
  9
$LTSCALE
 40
1.0
  9
$ATTMODE
 70
     1
  9
$TEXTSIZE
 40
0.008
  9
$TRACEWID
 40
1.0
  9
$TEXTSTYLE
  7
style1
  9
$CLAYER
  8
Sezione
  9
$CELTYPE
  6
ACAD_ISO10W100
  9
$CECOLOR
 62
   256
  9
$CELTSCALE
 40
1.0
  9
$DISPSILH
 70
     0
  9
$DIMSCALE
 40
0.001
  9
$DIMASZ
 40
1.5
  9
$DIMEXO
 40
0.0625
  9
$DIMDLI
 40
0.38
  9
$DIMRND
 40
0.0
  9
$DIMDLE
 40
0.0
  9
$DIMEXE
 40
0.18
  9
$DIMTP
 40
0.0
  9
$DIMTM
 40
0.0
  9
$DIMTXT
 40
3.0
  9
$DIMCEN
 40
0.0
  9
$DIMTSZ
 40
0.0
  9
$DIMTOL
 70
     0
  9
$DIMLIM
 70
     0
  9
$DIMTIH
 70
     1
  9
$DIMTOH
 70
     1
  9
$DIMSE1
 70
     0
  9
$DIMSE2
 70
     0
  9
$DIMTAD
 70
     0
  9
$DIMZIN
 70
     0
  9
$DIMBLK
  1
ArchTick
  9
$DIMASO
 70
     1
  9
$DIMSHO
 70
     1
  9
$DIMPOST
  1

  9
$DIMAPOST
  1

  9
$DIMALT
 70
     0
  9
$DIMALTD
 70
     2
  9
$DIMALTF
 40
25.4
  9
$DIMLFAC
 40
1.0
  9
$DIMTOFL
 70
     0
  9
$DIMTVP
 40
0.0
  9
$DIMTIX
 70
     0
  9
$DIMSOXD
 70
     0
  9
$DIMSAH
 70
     0
  9
$DIMBLK1
  1

  9
$DIMBLK2
  1

  9
$DIMSTYLE
  2
Bovelacci
  9
$DIMCLRD
 70
     5
  9
$DIMCLRE
 70
     5
  9
$DIMCLRT
 70
     4
  9
$DIMTFAC
 40
1.0
  9
$DIMGAP
 40
2.0
  9
$DIMJUST
 70
     0
  9
$DIMSD1
 70
     0
  9
$DIMSD2
 70
     0
  9
$DIMTOLJ
 70
     1
  9
$DIMTZIN
 70
     0
  9
$DIMALTZ
 70
     0
  9
$DIMALTTZ
 70
     0
  9
$DIMUPT
 70
     0
  9
$DIMDEC
 70
     2
  9
$DIMTDEC
 70
     2
  9
$DIMALTU
 70
     2
  9
$DIMALTTD
 70
     2
  9
$DIMTXSTY
  7
ROMANS
  9
$DIMAUNIT
 70
     0
  9
$DIMADEC
 70
     0
  9
$DIMALTRND
 40
0.0
  9
$DIMAZIN
 70
     0
  9
$DIMDSEP
 70
    46
  9
$DIMATFIT
 70
     3
  9
$DIMFRAC
 70
     0
  9
$DIMLDRBLK
  1

  9
$DIMLUNIT
 70
     2
  9
$DIMLWD
 70
    -2
  9
$DIMLWE
 70
    -2
  9
$DIMTMOVE
 70
     2
  9
$LUNITS
 70
     2
  9
$LUPREC
 70
     2
  9
$SKETCHINC
 40
1.0
  9
$FILLETRAD
 40
0.0
  9
$AUNITS
 70
     0
  9
$AUPREC
 70
     0
  9
$MENU
  1
.
  9
$ELEVATION
 40
0.0
  9
$PELEVATION
 40
0.0
  9
$THICKNESS
 40
0.0
  9
$LIMCHECK
 70
     0
  9
$CHAMFERA
 40
0.0
  9
$CHAMFERB
 40
0.0
  9
$CHAMFERC
 40
0.0
  9
$CHAMFERD
 40
0.0
  9
$SKPOLY
 70
     0
  9
$TDCREATE
 40
2454297.625402373
  9
$TDUCREATE
 40
2454297.542069039
  9
$TDUPDATE
 40
2454306.851419271
  9
$TDUUPDATE
 40
2454306.768085938
  9
$TDINDWG
 40
0.1336199884
  9
$TDUSRTIMER
 40
0.1336179861
  9
$USRTIMER
 70
     1
  9
$ANGBASE
 50
0.0
  9
$ANGDIR
 70
     0
  9
$PDMODE
 70
     0
  9
$PDSIZE
 40
0.0
  9
$PLINEWID
 40
0.0
  9
$SPLFRAME
 70
     0
  9
$SPLINETYPE
 70
     6
  9
$SPLINESEGS
 70
     8
  9
$HANDSEED
  5
CCA
  9
$SURFTAB1
 70
     6
  9
$SURFTAB2
 70
     6
  9
$SURFTYPE
 70
     6
  9
$SURFU
 70
     6
  9
$SURFV
 70
     6
  9
$UCSBASE
  2

  9
$UCSNAME
  2

  9
$UCSORG
 10
0.0
 20
0.0
 30
0.0
  9
$UCSXDIR
 10
1.0
 20
0.0
 30
0.0
  9
$UCSYDIR
 10
0.0
 20
1.0
 30
0.0
  9
$UCSORTHOREF
  2

  9
$UCSORTHOVIEW
 70
     0
  9
$UCSORGTOP
 10
0.0
 20
0.0
 30
0.0
  9
$UCSORGBOTTOM
 10
0.0
 20
0.0
 30
0.0
  9
$UCSORGLEFT
 10
0.0
 20
0.0
 30
0.0
  9
$UCSORGRIGHT
 10
0.0
 20
0.0
 30
0.0
  9
$UCSORGFRONT
 10
0.0
 20
0.0
 30
0.0
  9
$UCSORGBACK
 10
0.0
 20
0.0
 30
0.0
  9
$PUCSBASE
  2

  9
$PUCSNAME
  2

  9
$PUCSORG
 10
0.0
 20
0.0
 30
0.0
  9
$PUCSXDIR
 10
1.0
 20
0.0
 30
0.0
  9
$PUCSYDIR
 10
0.0
 20
1.0
 30
0.0
  9
$PUCSORTHOREF
  2

  9
$PUCSORTHOVIEW
 70
     0
  9
$PUCSORGTOP
 10
0.0
 20
0.0
 30
0.0
  9
$PUCSORGBOTTOM
 10
0.0
 20
0.0
 30
0.0
  9
$PUCSORGLEFT
 10
0.0
 20
0.0
 30
0.0
  9
$PUCSORGRIGHT
 10
0.0
 20
0.0
 30
0.0
  9
$PUCSORGFRONT
 10
0.0
 20
0.0
 30
0.0
  9
$PUCSORGBACK
 10
0.0
 20
0.0
 30
0.0
  9
$USERI1
 70
     0
  9
$USERI2
 70
     0
  9
$USERI3
 70
     0
  9
$USERI4
 70
     0
  9
$USERI5
 70
     0
  9
$USERR1
 40
0.0
  9
$USERR2
 40
0.0
  9
$USERR3
 40
0.0
  9
$USERR4
 40
0.0
  9
$USERR5
 40
0.0
  9
$WORLDVIEW
 70
     1
  9
$SHADEDGE
 70
     3
  9
$SHADEDIF
 70
    70
  9
$TILEMODE
 70
     1
  9
$MAXACTVP
 70
    64
  9
$PINSBASE
 10
0.0
 20
0.0
 30
0.0
  9
$PLIMCHECK
 70
     0
  9
$PEXTMIN
 10
1.000000000000000E+20
 20
1.000000000000000E+20
 30
1.000000000000000E+20
  9
$PEXTMAX
 10
-1.000000000000000E+20
 20
-1.000000000000000E+20
 30
-1.000000000000000E+20
  9
$PLIMMIN
 10
0.0
 20
0.0
  9
$PLIMMAX
 10
420.0
 20
297.0
  9
$UNITMODE
 70
     0
  9
$VISRETAIN
 70
     1
  9
$PLINEGEN
 70
     0
  9
$PSLTSCALE
 70
     1
  9
$TREEDEPTH
 70
  3020
  9
$CMLSTYLE
  2
Standard
  9
$CMLJUST
 70
     0
  9
$CMLSCALE
 40
20.0
  9
$PROXYGRAPHICS
 70
     1
  9
$MEASUREMENT
 70
     1
  9
$CELWEIGHT
370
    -1
  9
$ENDCAPS
280
     0
  9
$JOINSTYLE
280
     0
  9
$LWDISPLAY
290
     0
  9
$INSUNITS
 70
     4
  9
$HYPERLINKBASE
  1

  9
$STYLESHEET
  1

  9
$XEDIT
290
     1
  9
$CEPSNTYPE
380
     0
  9
$PSTYLEMODE
290
     1
  9
$FINGERPRINTGUID
  2
{904A8C64-524F-4709-A9C6-320D2C273A6D}
  9
$VERSIONGUID
  2
{E8727B3F-FF87-4D66-B74E-B454A2D822AD}
  9
$EXTNAMES
290
     1
  9
$PSVPSCALE
 40
0.0
  9
$OLESTARTUP
290
     0
  0
ENDSEC
  0
SECTION
  2
CLASSES
  0
CLASS
  1
ACDBDICTIONARYWDFLT
  2
AcDbDictionaryWithDefault
  3
ObjectDBX Classes
 90
        0
280
     0
281
     0
  0
CLASS
  1
TABLESTYLE
  2
AcDbTableStyle
  3
ObjectDBX Classes
 90
     2047
280
     0
281
     0
  0
CLASS
  1
SORTENTSTABLE
  2
AcDbSortentsTable
  3
ObjectDBX Classes
 90
        0
280
     0
281
     0
  0
CLASS
  1
DICTIONARYVAR
  2
AcDbDictionaryVar
  3
ObjectDBX Classes
 90
        0
280
     0
281
     0
  0
CLASS
  1
ACDBPLACEHOLDER
  2
AcDbPlaceHolder
  3
ObjectDBX Classes
 90
        0
280
     0
281
     0
  0
CLASS
  1
LAYOUT
  2
AcDbLayout
  3
ObjectDBX Classes
 90
        0
280
     0
281
     0
  0
CLASS
  1
DIMASSOC
  2
AcDbDimAssoc
  3
"AcDbDimAssoc|Product Desc:     AcDim ARX App For Dimension|Company:          Autodesk, Inc.|WEB Address:      www.autodesk.com"
 90
        0
280
     0
281
     0
  0
CLASS
  1
MATERIAL
  2
AcDbMaterial
  3
ObjectDBX Classes
 90
        0
280
     0
281
     0
  0
CLASS
  1
VISUALSTYLE
  2
AcDbVisualStyle
  3
ObjectDBX Classes
 90
     4095
280
     0
281
     0
  0
ENDSEC
  0
SECTION
  2
TABLES
  0
TABLE
  2
VPORT
  5
177
330
0
100
AcDbSymbolTable
 70
    14
  0
VPORT
  5
CBF
330
177
100
AcDbSymbolTableRecord
100
AcDbViewportTableRecord
  2
*Active
 70
     0
 10
0.0
 20
0.0
 11
1.0
 21
1.0
 12
0.2104361486055503
 22
0.1488950941377882
 13
0.0
 23
0.0
 14
10.0
 24
10.0
 15
10.0
 25
10.0
 16
0.0
 26
0.0
 36
1.0
 17
0.0
 27
0.0
 37
0.0
 40
0.2760871130951692
 41
1.546526867627784
 42
50.0
 43
0.0
 44
0.0
 50
0.0
 51
0.0
 71
     0
 72
  1000
 73
     1
 74
     3
 75
     0
 76
     0
 77
     0
 78
     0
281
     0
 65
     1
110
0.0
120
0.0
130
0.0
111
1.0
121
0.0
131
0.0
112
0.0
122
1.0
132
0.0
 79
     0
146
0.0
  0
ENDTAB
  0
TABLE
  2
LTYPE
  5
172
330
0
100
AcDbSymbolTable
 70
     3
  0
LTYPE
  5
173
330
172
100
AcDbSymbolTableRecord
100
AcDbLinetypeTableRecord
  2
ByBlock
 70
     0
  3

 72
    65
 73
     0
 40
0.0
  0
LTYPE
  5
174
330
172
100
AcDbSymbolTableRecord
100
AcDbLinetypeTableRecord
  2
ByLayer
 70
     0
  3

 72
    65
 73
     0
 40
0.0
  0
LTYPE
  5
C
330
172
100
AcDbSymbolTableRecord
100
AcDbLinetypeTableRecord
  2
Continuous
 70
     0
  3
Solid line
 72
    65
 73
     0
 40
0.0
  0
LTYPE
  5
14E
330
172
100
AcDbSymbolTableRecord
100
AcDbLinetypeTableRecord
  2
ACAD_ISO10W100
 70
     0
  3
ISO dash dot __ . __ . __ . __ . __ . __ . __ .
 72
    65
 73
     4
 40
18.0
 49
12.0
 74
     0
 49
-3.0
 74
     0
 49
0.0
 74
     0
 49
-3.0
 74
     0
  0
ENDTAB
  0
TABLE
  2
LAYER
  5
16D
102
{ACAD_XDICTIONARY
360
16E
102
}
330
0
100
AcDbSymbolTable
 70
     7
  0
LAYER
  5
6
330
16D
100
AcDbSymbolTableRecord
100
AcDbLayerTableRecord
  2
0
 70
     0
 62
     7
  6
Continuous
370
    -3
390
7
  0
LAYER
  5
15F
330
16D
100
AcDbSymbolTableRecord
100
AcDbLayerTableRecord
  2
Defpoints
 70
     0
 62
     7
  6
Continuous
290
     0
370
    -3
390
7
  0
LAYER
  5
28
330
16D
100
AcDbSymbolTableRecord
100
AcDbLayerTableRecord
  2
Profilo
 70
     0
 62
     1
  6
Continuous
370
    -3
390
7
1001
AcAecLayerStandard
1000

1000

  0
LAYER
  5
14D
330
16D
100
AcDbSymbolTableRecord
100
AcDbLayerTableRecord
  2
Sezione
 70
     0
 62
     2
  6
Continuous
370
    -3
390
7
1001
AcAecLayerStandard
1000

1000

  0
LAYER
  5
E
330
16D
100
AcDbSymbolTableRecord
100
AcDbLayerTableRecord
  2
Table
 70
     0
 62
     3
  6
Continuous
370
    -3
390
7
1001
AcAecLayerStandard
1000

1000

  0
LAYER
  5
19
330
16D
100
AcDbSymbolTableRecord
100
AcDbLayerTableRecord
  2
Text
 70
     0
 62
     4
  6
Continuous
370
    -3
390
7
1001
AcAecLayerStandard
1000

1000

  0
LAYER
  5
256
330
16D
100
AcDbSymbolTableRecord
100
AcDbLayerTableRecord
  2
Bovelacci
 70
     0
 62
     9
  6
Continuous
370
    -3
390
7
1001
AcAecLayerStandard
1000

1000

  0
ENDTAB
  0
TABLE
  2
STYLE
  5
170
330
0
100
AcDbSymbolTable
 70
     3
  0
STYLE
  5
1A
330
170
100
AcDbSymbolTableRecord
100
AcDbTextStyleTableRecord
  2
Standard
 70
     0
 40
0.0
 41
1.0
 50
0.0
 71
     0
 42
2.5
  3
txt
  4

  0
STYLE
  5
20
330
170
100
AcDbSymbolTableRecord
100
AcDbTextStyleTableRecord
  2
ROMANS
 70
     0
 40
0.0
 41
1.0
 50
0.0
 71
     0
 42
2.5
  3
romans
  4

  0
STYLE
  5
26
330
170
100
AcDbSymbolTableRecord
100
AcDbTextStyleTableRecord
  2
style1
 70
     0
 40
0.0
 41
1.0
 50
0.0
 71
     0
 42
0.008
  3
TIMES.TTF
  4

1001
ACAD
1000
Times New Roman
1071
       18
  0
ENDTAB
  0
TABLE
  2
VIEW
  5
175
330
0
100
AcDbSymbolTable
 70
     3
  0
ENDTAB
  0
TABLE
  2
UCS
  5
176
330
0
100
AcDbSymbolTable
 70
     0
  0
ENDTAB
  0
TABLE
  2
APPID
  5
17B
330
0
100
AcDbSymbolTable
 70
    10
  0
APPID
  5
1B
330
17B
100
AcDbSymbolTableRecord
100
AcDbRegAppTableRecord
  2
ACAD
 70
     0
  0
APPID
  5
157
330
17B
100
AcDbSymbolTableRecord
100
AcDbRegAppTableRecord
  2
ACAD_DSTYLE_DIMJOGGED_JOGANGLE_SYMBOL
 70
     0
  0
APPID
  5
F
330
17B
100
AcDbSymbolTableRecord
100
AcDbRegAppTableRecord
  2
AcAecLayerStandard
 70
     0
  0
APPID
  5
19C
330
17B
100
AcDbSymbolTableRecord
100
AcDbRegAppTableRecord
  2
ACAD_DSTYLE_DIMFLIPARROW_WHICH_SYMBOL
 70
     0
  0
APPID
  5
1A7
330
17B
100
AcDbSymbolTableRecord
100
AcDbRegAppTableRecord
  2
ACAD_DSTYLE_DIMEXT_LENGTH
 70
     0
  0
APPID
  5
1D2
330
17B
100
AcDbSymbolTableRecord
100
AcDbRegAppTableRecord
  2
ACAD_EXEMPT_FROM_CAD_STANDARDS
 70
     0
  0
APPID
  5
1D3
330
17B
100
AcDbSymbolTableRecord
100
AcDbRegAppTableRecord
  2
ACAD_DSTYLE_DIM_LINETYPE
 70
     0
  0
APPID
  5
1D4
330
17B
100
AcDbSymbolTableRecord
100
AcDbRegAppTableRecord
  2
ACAD_DSTYLE_DIM_EXT1_LINETYPE
 70
     0
  0
APPID
  5
1D5
330
17B
100
AcDbSymbolTableRecord
100
AcDbRegAppTableRecord
  2
ACAD_DSTYLE_DIM_EXT2_LINETYPE
 70
     0
  0
APPID
  5
25C
330
17B
100
AcDbSymbolTableRecord
100
AcDbRegAppTableRecord
  2
ACAD_PSEXT
 70
     0
  0
ENDTAB
  0
TABLE
  2
DIMSTYLE
  5
17C
330
0
100
AcDbSymbolTable
 70
     8
100
AcDbDimStyleTable
 71
     2
340
156
340
17D
  0
DIMSTYLE
105
17D
330
17C
100
AcDbSymbolTableRecord
100
AcDbDimStyleTableRecord
  2
ISO-25
 70
     0
 41
2.5
 42
0.625
 43
3.75
 44
1.25
 73
     0
 74
     0
 77
     1
 78
     8
140
2.5
141
2.5
143
0.03937007874016
147
0.625
171
     3
172
     1
271
     2
272
     2
274
     3
278
    44
283
     0
284
     8
340
1A
  0
DIMSTYLE
105
156
102
{ACAD_REACTORS
330
C9D
102
}
330
17C
100
AcDbSymbolTableRecord
100
AcDbDimStyleTableRecord
  2
Bovelacci
 70
     0
 40
0.001
 41
1.5
140
3.0
141
0.0
147
2.0
176
     5
177
     5
178
     4
271
     2
272
     2
279
     2
340
20
342
152
1001
ACAD_DSTYLE_DIMJOGGED_JOGANGLE_SYMBOL
1070
   384
1040
0.7853981633974483
1001
ACAD_DSTYLE_DIMEXT_LENGTH
1070
   378
1040
0.18
  0
DIMSTYLE
105
257
330
17C
100
AcDbSymbolTableRecord
100
AcDbDimStyleTableRecord
  2
Dim 1-100
 70
     0
 40
0.1
 41
1.5
 42
0.0
 43
5.0
 44
1.25
 45
0.005
 46
1.25
 73
     0
 74
     0
 77
     1
 78
     9
140
2.0
141
2.5
147
1.0
172
     1
174
     1
179
     2
279
     2
289
     2
340
20
342
152
  0
DIMSTYLE
105
258
330
17C
100
AcDbSymbolTableRecord
100
AcDbDimStyleTableRecord
  2
Standard
 70
     0
 42
0.0
 73
     0
 74
     0
 77
     1
271
     2
272
     2
340
20
  0
DIMSTYLE
105
259
330
17C
100
AcDbSymbolTableRecord
100
AcDbDimStyleTableRecord
  2
Dim 1-50
 70
     0
 40
0.05
 41
1.5
 42
0.0
 43
5.0
 44
1.25
 45
0.005
 46
1.25
 73
     0
 74
     0
 77
     1
 78
     9
140
2.0
141
2.5
147
1.0
172
     1
174
     1
179
     2
279
     2
289
     2
340
20
342
152
  0
DIMSTYLE
105
25A
330
17C
100
AcDbSymbolTableRecord
100
AcDbDimStyleTableRecord
  2
Dim 1-200
 70
     0
 40
0.2
 41
1.5
 42
0.0
 43
5.0
 44
1.25
 45
0.005
 46
1.25
 73
     0
 74
     0
 77
     1
 78
     9
140
2.0
141
2.5
147
1.0
172
     1
174
     1
179
     2
271
     2
272
     2
279
     2
289
     2
340
20
342
152
  0
DIMSTYLE
105
25B
330
17C
100
AcDbSymbolTableRecord
100
AcDbDimStyleTableRecord
  2
AEC Scale - Italiano
 70
     0
 41
1.0
 42
10.0
 43
10.0
 44
10.0
 73
     0
 74
     0
 75
     1
 76
     1
 77
     1
140
10.0
141
1.0
147
10.0
173
     1
271
     0
272
     0
279
     2
340
1A
343
251
344
24B
  0
ENDTAB
  0
TABLE
  2
BLOCK_RECORD
  5
1
330
0
100
AcDbSymbolTable
 70
    22
  0
BLOCK_RECORD
  5
2
102
{ACAD_XDICTIONARY
360
3
102
}
330
1
100
AcDbSymbolTableRecord
100
AcDbBlockTableRecord
  2
*Model_Space
340
163
  0
BLOCK_RECORD
  5
165
330
1
100
AcDbSymbolTableRecord
100
AcDbBlockTableRecord
  2
*Paper_Space
340
168
  0
BLOCK_RECORD
  5
169
330
1
100
AcDbSymbolTableRecord
100
AcDbBlockTableRecord
  2
*Paper_Space0
340
16C
  0
BLOCK_RECORD
  5
152
330
1
100
AcDbSymbolTableRecord
100
AcDbBlockTableRecord
  2
_ArchTick
340
0
310
2800000020000000200000000100080000000000000400000000000000000000000000000000000000000000000080000080000000808000800000008000800080800000C0C0C000C0DCC000F0CAA6000020400000206000002080000020A0000020C0000020E00000400000004020000040400000406000004080000040A0
310
000040C0000040E00000600000006020000060400000606000006080000060A0000060C0000060E00000800000008020000080400000806000008080000080A0000080C0000080E00000A0000000A0200000A0400000A0600000A0800000A0A00000A0C00000A0E00000C0000000C0200000C0400000C0600000C0800000C0
310
A00000C0C00000C0E00000E0000000E0200000E0400000E0600000E0800000E0A00000E0C00000E0E00040000000400020004000400040006000400080004000A0004000C0004000E00040200000402020004020400040206000402080004020A0004020C0004020E000404000004040200040404000404060004040800040
310
40A0004040C0004040E00040600000406020004060400040606000406080004060A0004060C0004060E00040800000408020004080400040806000408080004080A0004080C0004080E00040A0000040A0200040A0400040A0600040A0800040A0A00040A0C00040A0E00040C0000040C0200040C0400040C0600040C08000
310
40C0A00040C0C00040C0E00040E0000040E0200040E0400040E0600040E0800040E0A00040E0C00040E0E00080000000800020008000400080006000800080008000A0008000C0008000E00080200000802020008020400080206000802080008020A0008020C0008020E00080400000804020008040400080406000804080
310
008040A0008040C0008040E00080600000806020008060400080606000806080008060A0008060C0008060E00080800000808020008080400080806000808080008080A0008080C0008080E00080A0000080A0200080A0400080A0600080A0800080A0A00080A0C00080A0E00080C0000080C0200080C0400080C0600080C0
310
800080C0A00080C0C00080C0E00080E0000080E0200080E0400080E0600080E0800080E0A00080E0C00080E0E000C0000000C0002000C0004000C0006000C0008000C000A000C000C000C000E000C0200000C0202000C0204000C0206000C0208000C020A000C020C000C020E000C0400000C0402000C0404000C0406000C0
310
408000C040A000C040C000C040E000C0600000C0602000C0604000C0606000C0608000C060A000C060C000C060E000C0800000C0802000C0804000C0806000C0808000C080A000C080C000C080E000C0A00000C0A02000C0A04000C0A06000C0A08000C0A0A000C0A0C000C0A0E000C0C00000C0C02000C0C04000C0C06000
310
C0C08000C0C0A000F0FBFF00A4A0A000808080000000FF0000FF000000FFFF00FF000000FF00FF00FFFF0000FFFFFF00000000FF000000000000000000000000000000000000000000000000000000000000FF00FF00000000000000000000000000000000000000000000000000000000FF000000FF000000000000000000
310
0000000000000000000000000000000000FF0000000000FF0000000000000000000000000000000000000000000000000000FF0000000000FF0000000000000000000000000000000000000000000000000000FF0000000000FF0000000000000000000000000000000000000000000000000000FF0000000000FF00000000
310
00000000000000000000000000000000000000000000FF0000000000FF0000000000000000000000000000000000000000000000000000FF0000000000FF0000000000000000000000000000000000000000000000000000FF0000000000FF0000000000000000000000000000000000000000000000000000FF0000000000
310
FF0000000000000000000000000000000000000000000000000000FF0000000000FF0000000000000000000000000000000000000000000000000000FF0000000000FF0000000000000000000000000000000000000000000000000000FF0000000000FF0000000000000000000000000000000000000000000000000000FF
310
0000000000FF0000000000000000000000000000000000000000000000000000FF0000000000FF0000000000000000000000000000000000000000000000000000FF0000000000FF0000000000000000000000000000000000000000000000000000FF0000000000FF00000000000000000000000000000000000000000000
310
00000000FF0000000000FF0000000000000000000000000000000000000000000000000000FF0000000000FF0000000000000000000000000000000000000000000000000000FF0000000000FF0000000000000000000000000000000000000000000000000000FF0000000000FF0000000000000000000000000000000000
310
000000000000000000FF0000000000FF0000000000000000000000000000000000000000000000000000FF0000000000FF0000000000000000000000000000000000000000000000000000FF0000000000FF0000000000000000000000000000000000000000000000000000FF0000000000FF000000000000000000000000
310
0000000000000000000000000000FF0000000000FF0000000000000000000000000000000000000000000000000000FF0000000000FF0000000000000000000000000000000000000000000000000000FF0000000000FF0000000000000000000000000000000000000000000000000000FF000000FF000000000000000000
310
00000000000000000000000000000000000000FF00FF000000000000000000000000000000000000000000000000000000000000FF000000
102
{BLKREFS
331
211
331
318
331
354
331
429
331
50A
331
5EC
331
6DD
331
847
331
9CD
331
A12
331
BBC
331
CB8
102
}
  0
BLOCK_RECORD
  5
24B
330
1
100
AcDbSymbolTableRecord
100
AcDbBlockTableRecord
  2
_Arrivo
340
0
310
2800000020000000200000000100080000000000000400000000000000000000000000000000000000000000000080000080000000808000800000008000800080800000C0C0C000C0DCC000F0CAA6000020400000206000002080000020A0000020C0000020E00000400000004020000040400000406000004080000040A0
310
000040C0000040E00000600000006020000060400000606000006080000060A0000060C0000060E00000800000008020000080400000806000008080000080A0000080C0000080E00000A0000000A0200000A0400000A0600000A0800000A0A00000A0C00000A0E00000C0000000C0200000C0400000C0600000C0800000C0
310
A00000C0C00000C0E00000E0000000E0200000E0400000E0600000E0800000E0A00000E0C00000E0E00040000000400020004000400040006000400080004000A0004000C0004000E00040200000402020004020400040206000402080004020A0004020C0004020E000404000004040200040404000404060004040800040
310
40A0004040C0004040E00040600000406020004060400040606000406080004060A0004060C0004060E00040800000408020004080400040806000408080004080A0004080C0004080E00040A0000040A0200040A0400040A0600040A0800040A0A00040A0C00040A0E00040C0000040C0200040C0400040C0600040C08000
310
40C0A00040C0C00040C0E00040E0000040E0200040E0400040E0600040E0800040E0A00040E0C00040E0E00080000000800020008000400080006000800080008000A0008000C0008000E00080200000802020008020400080206000802080008020A0008020C0008020E00080400000804020008040400080406000804080
310
008040A0008040C0008040E00080600000806020008060400080606000806080008060A0008060C0008060E00080800000808020008080400080806000808080008080A0008080C0008080E00080A0000080A0200080A0400080A0600080A0800080A0A00080A0C00080A0E00080C0000080C0200080C0400080C0600080C0
310
800080C0A00080C0C00080C0E00080E0000080E0200080E0400080E0600080E0800080E0A00080E0C00080E0E000C0000000C0002000C0004000C0006000C0008000C000A000C000C000C000E000C0200000C0202000C0204000C0206000C0208000C020A000C020C000C020E000C0400000C0402000C0404000C0406000C0
310
408000C040A000C040C000C040E000C0600000C0602000C0604000C0606000C0608000C060A000C060C000C060E000C0800000C0802000C0804000C0806000C0808000C080A000C080C000C080E000C0A00000C0A02000C0A04000C0A06000C0A08000C0A0A000C0A0C000C0A0E000C0C00000C0C02000C0C04000C0C06000
310
C0C08000C0C0A000F0FBFF00A4A0A000808080000000FF0000FF000000FFFF00FF000000FF00FF00FFFF0000FFFFFF00000000000000000000000000000000000000000000000000000000000000000000000000000000000000FF0000000000000000000000000000000000000000000000000000000000000000FF000000
310
00000000000000000000000000000000000000000000000000000000FF0000000000000000000000000000000000000000000000000000000000000000FF00000000000000000000000000000000000000000000000000000000000000FF0000000000000000000000000000000000000000000000000000000000000000FF
310
0000000000000000000000000000000000000000000000000000000000000000FF00000000000000000000000000000000000000000000000000000000000000FF0000000000000000000000000000000000000000000000000000000000000000FF0000000000000000000000000000000000000000000000000000000000
310
0000FF0000000000000000000000000000000000000000000000000000000000000000FF00000000000000000000000000000000000000000000000000000000000000FF0000000000000000000000000000000000000000000000000000000000000000FF0000FF0000000000000000000000000000000000000000000000
310
000000000000FFFF000000000000000000000000000000000000000000000000000000000000FFFF00000000000000000000000000000000000000000000000000000000FFFFFFFFFFFF00000000000000000000000000000000000000000000000000000000FFFF0000000000000000000000000000000000000000000000
310
000000000000FF0000FF000000000000000000000000000000000000000000000000000000FF00000000000000000000000000000000000000000000000000000000000000FF000000000000000000000000000000000000000000000000000000000000FF0000000000000000000000000000000000000000000000000000
310
0000000000FF000000000000000000000000000000000000000000000000000000000000FF00000000000000000000000000000000000000000000000000000000000000FF000000000000000000000000000000000000000000000000000000000000FF000000000000000000000000000000000000000000000000000000
310
000000FF00000000000000000000000000000000000000000000000000000000000000FF000000000000000000000000000000000000000000000000000000000000FF00000000000000000000000000000000000000000000000000000000000000FF00000000000000000000000000000000000000000000000000000000
310
0000FF0000000000000000000000000000000000000000000000000000000000000000000000000000000000000000000000000000000000
  0
BLOCK_RECORD
  5
251
330
1
100
AcDbSymbolTableRecord
100
AcDbBlockTableRecord
  2
_Partenza
340
0
310
2800000020000000200000000100080000000000000400000000000000000000000000000000000000000000000080000080000000808000800000008000800080800000C0C0C000C0DCC000F0CAA6000020400000206000002080000020A0000020C0000020E00000400000004020000040400000406000004080000040A0
310
000040C0000040E00000600000006020000060400000606000006080000060A0000060C0000060E00000800000008020000080400000806000008080000080A0000080C0000080E00000A0000000A0200000A0400000A0600000A0800000A0A00000A0C00000A0E00000C0000000C0200000C0400000C0600000C0800000C0
310
A00000C0C00000C0E00000E0000000E0200000E0400000E0600000E0800000E0A00000E0C00000E0E00040000000400020004000400040006000400080004000A0004000C0004000E00040200000402020004020400040206000402080004020A0004020C0004020E000404000004040200040404000404060004040800040
310
40A0004040C0004040E00040600000406020004060400040606000406080004060A0004060C0004060E00040800000408020004080400040806000408080004080A0004080C0004080E00040A0000040A0200040A0400040A0600040A0800040A0A00040A0C00040A0E00040C0000040C0200040C0400040C0600040C08000
310
40C0A00040C0C00040C0E00040E0000040E0200040E0400040E0600040E0800040E0A00040E0C00040E0E00080000000800020008000400080006000800080008000A0008000C0008000E00080200000802020008020400080206000802080008020A0008020C0008020E00080400000804020008040400080406000804080
310
008040A0008040C0008040E00080600000806020008060400080606000806080008060A0008060C0008060E00080800000808020008080400080806000808080008080A0008080C0008080E00080A0000080A0200080A0400080A0600080A0800080A0A00080A0C00080A0E00080C0000080C0200080C0400080C0600080C0
310
800080C0A00080C0C00080C0E00080E0000080E0200080E0400080E0600080E0800080E0A00080E0C00080E0E000C0000000C0002000C0004000C0006000C0008000C000A000C000C000C000E000C0200000C0202000C0204000C0206000C0208000C020A000C020C000C020E000C0400000C0402000C0404000C0406000C0
310
408000C040A000C040C000C040E000C0600000C0602000C0604000C0606000C0608000C060A000C060C000C060E000C0800000C0802000C0804000C0806000C0808000C080A000C080C000C080E000C0A00000C0A02000C0A04000C0A06000C0A08000C0A0A000C0A0C000C0A0E000C0C00000C0C02000C0C04000C0C06000
310
C0C08000C0C0A000F0FBFF00A4A0A000808080000000FF0000FF000000FFFF00FF000000FF00FF00FFFF0000FFFFFF0000000000000000000000000000000000000000000000000000000000000000000000000000000000000000000000000000000000000000000000000000000000000000000000000000000000000000
310
000000000000000000000000000000000000000000000000000000000000000000000000000000000000000000000000000000000000000000000000000000000000000000000000000000000000000000000000000000000000000000000000000000000000000000000000000000000000FFFFFFFFFFFFFFFFFFFFFFFFFF
310
FFFFFFFFFFFFFFFFFFFFFFFFFFFFFFFFFF0000000000000000000000000000000000000000000000000000000000000000000000000000000000000000000000000000000000000000000000000000000000000000000000000000000000000000000000000000000000000000000000000000000000000000000000000000
310
00000000000000000000000000000000000000000000000000000000000000000000000000000000000000000000000000000000000000000000000000000000000000000000000000000000000000000000000000000000000000000000000000000000000000000000000000000000000000000000000000000000000000
310
00000000000000000000000000000000000000000000000000000000000000000000000000000000000000000000000000000000000000000000000000000000000000000000000000000000000000000000000000000000000000000000000000000000000000000000000000000000000000000000000000000000000000
310
00000000000000000000000000000000000000000000000000000000000000000000000000000000000000000000000000000000000000000000000000000000000000000000000000000000000000000000000000000000000000000000000000000000000000000000000000000000000000000000000000000000000000
310
000000000000000000000000000000000000000000000000000000000000000000000000000000000000000000000000000000000000000000000000000000000000000000000000000000000000000000000000000000FFFFFFFFFFFFFFFFFFFFFFFFFFFFFFFFFFFFFFFFFFFFFFFFFFFFFFFFFFFF00000000000000000000
310
00000000000000000000000000000000000000000000000000000000000000000000000000000000000000000000000000000000000000000000000000000000000000000000000000000000000000000000000000000000000000000000000000000000000000000000000000000000000000000000000000000000000000
310
0000000000000000000000000000000000000000000000000000000000000000000000000000000000000000000000000000000000000000
  0
BLOCK_RECORD
  5
6C3
330
1
100
AcDbSymbolTableRecord
100
AcDbBlockTableRecord
  2
*D10
340
0
  0
BLOCK_RECORD
  5
82D
330
1
100
AcDbSymbolTableRecord
100
AcDbBlockTableRecord
  2
*D12
340
0
  0
BLOCK_RECORD
  5
9B3
330
1
100
AcDbSymbolTableRecord
100
AcDbBlockTableRecord
  2
*D15
340
0
  0
BLOCK_RECORD
  5
9F8
330
1
100
AcDbSymbolTableRecord
100
AcDbBlockTableRecord
  2
*D17
340
0
  0
BLOCK_RECORD
  5
BA2
330
1
100
AcDbSymbolTableRecord
100
AcDbBlockTableRecord
  2
*D19
340
0
  0
BLOCK_RECORD
  5
C9E
330
1
100
AcDbSymbolTableRecord
100
AcDbBlockTableRecord
  2
*D21
340
0
  0
ENDTAB
  0
ENDSEC
  0
SECTION
  2
BLOCKS
  0
BLOCK
  5
5
330
2
100
AcDbEntity
  8
0
100
AcDbBlockBegin
  2
*Model_Space
 70
     0
 10
0.0
 20
0.0
 30
0.0
  3
*Model_Space
  1

  0
ENDBLK
  5
162
330
2
100
AcDbEntity
  8
0
100
AcDbBlockEnd
  0
BLOCK
  5
166
330
165
100
AcDbEntity
 67
     1
  8
0
100
AcDbBlockBegin
  2
*Paper_Space
 70
     0
 10
0.0
 20
0.0
 30
0.0
  3
*Paper_Space
  1

  0
ENDBLK
  5
167
330
165
100
AcDbEntity
 67
     1
  8
0
100
AcDbBlockEnd
  0
BLOCK
  5
16A
330
169
100
AcDbEntity
 67
     1
  8
0
100
AcDbBlockBegin
  2
*Paper_Space0
 70
     0
 10
0.0
 20
0.0
 30
0.0
  3
*Paper_Space0
  1

  0
ENDBLK
  5
16B
330
169
100
AcDbEntity
 67
     1
  8
0
100
AcDbBlockEnd
  0
BLOCK
  5
153
330
152
100
AcDbEntity
  8
0
 62
     1
100
AcDbBlockBegin
  2
_ArchTick
 70
     0
 10
0.0
 20
0.0
 30
0.0
  3
_ArchTick
  1

  0
LWPOLYLINE
  5
154
330
152
100
AcDbEntity
  8
0
  6
ByBlock
 62
     0
100
AcDbPolyline
 90
        2
 70
     0
 43
0.15
 10
-0.5
 20
-0.5
 10
0.5
 20
0.5
  0
ENDBLK
  5
155
330
152
100
AcDbEntity
  8
0
 62
     1
100
AcDbBlockEnd
  0
BLOCK
  5
24C
330
24B
100
AcDbEntity
  8
0
100
AcDbBlockBegin
  2
_Arrivo
 70
     0
 10
0.0
 20
0.0
 30
0.0
  3
_Arrivo
  1

  0
LINE
  5
24D
330
24B
100
AcDbEntity
  8
0
  6
ByBlock
 62
     0
370
    -2
100
AcDbLine
 10
0.025
 20
-0.0433012701891858
 30
0.0
 11
-0.15
 21
0.2598076211353328
 31
0.0
  0
LINE
  5
24E
330
24B
100
AcDbEntity
  8
0
  6
ByBlock
 62
     0
370
    -2
100
AcDbLine
 10
0.025
 20
0.0433012701892585
 30
0.0
 11
-0.15
 21
-0.2598076211353328
 31
0.0
  0
LINE
  5
24F
330
24B
100
AcDbEntity
  8
0
  6
ByBlock
 62
     0
370
    -2
100
AcDbLine
 10
-0.05
 20
0.0
 30
0.0
 11
0.05
 21
0.0
 31
0.0
  0
ENDBLK
  5
250
330
24B
100
AcDbEntity
  8
0
100
AcDbBlockEnd
  0
BLOCK
  5
252
330
251
100
AcDbEntity
  8
0
100
AcDbBlockBegin
  2
_Partenza
 70
     0
 10
0.0
 20
0.0
 30
0.0
  3
_Partenza
  1

  0
LINE
  5
253
330
251
100
AcDbEntity
  8
0
  6
ByBlock
 62
     0
370
    -2
100
AcDbLine
 10
-0.05
 20
0.05
 30
0.0
 11
0.1
 21
0.05
 31
0.0
  0
LINE
  5
254
330
251
100
AcDbEntity
  8
0
  6
ByBlock
 62
     0
370
    -2
100
AcDbLine
 10
-0.05
 20
-0.05
 30
0.0
 11
0.1
 21
-0.05
 31
0.0
  0
ENDBLK
  5
255
330
251
100
AcDbEntity
  8
0
100
AcDbBlockEnd
  0
BLOCK
  5
6CA
330
6C3
100
AcDbEntity
  8
0
100
AcDbBlockBegin
  2
*D10
 70
     1
 10
0.0
 20
0.0
 30
0.0
  3
*D10
  1

  0
LINE
  5
6DA
330
6C3
100
AcDbEntity
  8
Sezione
  6
ACAD_ISO10W100
 62
     5
370
    -2
100
AcDbLine
 10
0.2580272919594555
 20
0.2091457005418985
 30
0.0
 11
0.2565272919594555
 21
0.2091457005418986
 31
0.0
  0
LINE
  5
6DB
330
6C3
100
AcDbEntity
  8
Sezione
  6
ACAD_ISO10W100
 62
     5
370
    -2
100
AcDbLine
 10
0.2565272919594555
 20
0.2091457005418986
 30
0.0
 11
0.2544161538279562
 21
0.2070142466273769
 31
0.0
  0
MTEXT
  5
6DC
330
6C3
100
AcDbEntity
  8
Sezione
  6
ACAD_ISO10W100
 62
     4
100
AcDbMText
 10
0.2724558633880269
 20
0.2091457005418985
 30
0.0
 40
0.003
 41
0.0
 71
     5
 72
     1
  1
\A1;d 250 mm
  7
ROMANS
 73
     1
 44
1.0
1001
ACAD
1000
MTEXTBEGIN
1070
    73
1070
     1
1070
    44
1040
1.0
1070
    74
1070
     0
1000
MTEXTEND
  0
INSERT
  5
6DD
330
6C3
100
AcDbEntity
  8
Sezione
  6
ACAD_ISO10W100
 62
     5
370
    -2
100
AcDbBlockReference
  2
_ArchTick
 10
0.2544161538279562
 20
0.2070142466273769
 30
0.0
 41
0.0015
 42
0.0015
 43
0.0015
 50
225.2743605124572
  0
POINT
  5
6DE
330
6C3
100
AcDbEntity
  8
Defpoints
  6
ACAD_ISO10W100
 62
     0
100
AcDbPoint
 10
0.2544161538279562
 20
0.2070142466273769
 30
0.0
  0
POINT
  5
6DF
330
6C3
100
AcDbEntity
  8
Defpoints
  6
ACAD_ISO10W100
 62
     0
100
AcDbPoint
 10
0.1664520650154866
 20
0.1182036668556404
 30
0.0
  0
ENDBLK
  5
6CB
330
6C3
100
AcDbEntity
  8
0
100
AcDbBlockEnd
  0
BLOCK
  5
834
330
82D
100
AcDbEntity
  8
0
100
AcDbBlockBegin
  2
*D12
 70
     1
 10
0.0
 20
0.0
 30
0.0
  3
*D12
  1

  0
LINE
  5
844
330
82D
100
AcDbEntity
  8
Sezione
  6
ACAD_ISO10W100
 62
     5
370
    -2
100
AcDbLine
 10
0.2668759768663114
 20
0.2106523346372896
 30
0.0
 11
0.2653759768663114
 21
0.2106523346372896
 31
0.0
  0
LINE
  5
845
330
82D
100
AcDbEntity
  8
Sezione
  6
ACAD_ISO10W100
 62
     5
370
    -2
100
AcDbLine
 10
0.2653759768663114
 20
0.2106523346372896
 30
0.0
 11
0.2631789214633089
 21
0.2086095552668882
 31
0.0
  0
MTEXT
  5
846
330
82D
100
AcDbEntity
  8
Sezione
  6
ACAD_ISO10W100
 62
     4
100
AcDbMText
 10
0.2813045482948828
 20
0.2106523346372896
 30
0.0
 40
0.003
 41
0.0
 71
     5
 72
     1
  1
\A1;d 290 mm
  7
ROMANS
 73
     1
 44
1.0
1001
ACAD
1000
MTEXTBEGIN
1070
    73
1070
     1
1070
    44
1040
1.0
1070
    74
1070
     0
1000
MTEXTEND
  0
INSERT
  5
847
330
82D
100
AcDbEntity
  8
Sezione
  6
ACAD_ISO10W100
 62
     5
370
    -2
100
AcDbBlockReference
  2
_ArchTick
 10
0.2631789214633089
 20
0.2086095552668882
 30
0.0
 41
0.0015
 42
0.0015
 43
0.0015
 50
222.916082132817
  0
POINT
  5
848
330
82D
100
AcDbEntity
  8
Defpoints
  6
ACAD_ISO10W100
 62
     0
100
AcDbPoint
 10
0.2631789214633089
 20
0.2086095552668882
 30
0.0
  0
POINT
  5
849
330
82D
100
AcDbEntity
  8
Defpoints
  6
ACAD_ISO10W100
 62
     0
100
AcDbPoint
 10
0.1569879103181878
 20
0.1098752190308209
 30
0.0
  0
ENDBLK
  5
835
330
82D
100
AcDbEntity
  8
0
100
AcDbBlockEnd
  0
BLOCK
  5
9BA
330
9B3
100
AcDbEntity
  8
0
100
AcDbBlockBegin
  2
*D15
 70
     1
 10
0.0
 20
0.0
 30
0.0
  3
*D15
  1

  0
LINE
  5
9CA
330
9B3
100
AcDbEntity
  8
Sezione
  6
ACAD_ISO10W100
 62
     5
370
    -2
100
AcDbLine
 10
0.2720801551691272
 20
0.2106523321067409
 30
0.0
 11
0.2705801551691272
 21
0.2106523321067409
 31
0.0
  0
LINE
  5
9CB
330
9B3
100
AcDbEntity
  8
Sezione
  6
ACAD_ISO10W100
 62
     5
370
    -2
100
AcDbLine
 10
0.2705801551691272
 20
0.2106523321067409
 30
0.0
 11
0.268259040554878
 21
0.2087516935436473
 31
0.0
  0
MTEXT
  5
9CC
330
9B3
100
AcDbEntity
  8
Sezione
  6
ACAD_ISO10W100
 62
     4
100
AcDbMText
 10
0.2865087265976987
 20
0.2106523321067409
 30
0.0
 40
0.003
 41
0.0
 71
     5
 72
     1
  1
\A1;d 310 mm
  7
ROMANS
 73
     1
 44
1.0
1001
ACAD
1000
MTEXTBEGIN
1070
    73
1070
     1
1070
    44
1040
1.0
1070
    74
1070
     0
1000
MTEXTEND
  0
INSERT
  5
9CD
330
9B3
100
AcDbEntity
  8
Sezione
  6
ACAD_ISO10W100
 62
     5
370
    -2
100
AcDbBlockReference
  2
_ArchTick
 10
0.268259040554878
 20
0.2087516935436473
 30
0.0
 41
0.0015
 42
0.0015
 43
0.0015
 50
219.3122411371381
  0
POINT
  5
9CE
330
9B3
100
AcDbEntity
  8
Defpoints
  6
ACAD_ISO10W100
 62
     0
100
AcDbPoint
 10
0.268259040554878
 20
0.2087516935436473
 30
0.0
  0
POINT
  5
9CF
330
9B3
100
AcDbEntity
  8
Defpoints
  6
ACAD_ISO10W100
 62
     0
100
AcDbPoint
 10
0.1483347854853323
 20
0.1105520344504785
 30
0.0
  0
ENDBLK
  5
9BB
330
9B3
100
AcDbEntity
  8
0
100
AcDbBlockEnd
  0
BLOCK
  5
9FF
330
9F8
100
AcDbEntity
  8
0
100
AcDbBlockBegin
  2
*D17
 70
     1
 10
0.0
 20
0.0
 30
0.0
  3
*D17
  1

  0
LINE
  5
A0F
330
9F8
100
AcDbEntity
  8
Sezione
  6
ACAD_ISO10W100
 62
     5
370
    -2
100
AcDbLine
 10
0.270541626019994
 20
0.2147084216870797
 30
0.0
 11
0.2690416260199941
 21
0.2147084216870796
 31
0.0
  0
LINE
  5
A10
330
9F8
100
AcDbEntity
  8
Sezione
  6
ACAD_ISO10W100
 62
     5
370
    -2
100
AcDbLine
 10
0.2690416260199941
 20
0.2147084216870796
 30
0.0
 11
0.266907749695741
 21
0.2125997320862155
 31
0.0
  0
MTEXT
  5
A11
330
9F8
100
AcDbEntity
  8
Sezione
  6
ACAD_ISO10W100
 62
     4
100
AcDbMText
 10
0.2849701974485655
 20
0.2147084216870797
 30
0.0
 40
0.003
 41
0.0
 71
     5
 72
     1
  1
\A1;d 320 mm
  7
ROMANS
 73
     1
 44
1.0
1001
ACAD
1000
MTEXTBEGIN
1070
    73
1070
     1
1070
    44
1040
1.0
1070
    74
1070
     0
1000
MTEXTEND
  0
INSERT
  5
A12
330
9F8
100
AcDbEntity
  8
Sezione
  6
ACAD_ISO10W100
 62
     5
370
    -2
100
AcDbBlockReference
  2
_ArchTick
 10
0.266907749695741
 20
0.2125997320862155
 30
0.0
 41
0.0015
 42
0.0015
 43
0.0015
 50
224.6598577317865
  0
POINT
  5
A13
330
9F8
100
AcDbEntity
  8
Defpoints
  6
ACAD_ISO10W100
 62
     0
100
AcDbPoint
 10
0.266907749695741
 20
0.2125997320862155
 30
0.0
  0
POINT
  5
A14
330
9F8
100
AcDbEntity
  8
Defpoints
  6
ACAD_ISO10W100
 62
     0
100
AcDbPoint
 10
0.1531010124022461
 20
0.1001362867067971
 30
0.0
  0
ENDBLK
  5
A00
330
9F8
100
AcDbEntity
  8
0
100
AcDbBlockEnd
  0
BLOCK
  5
BA9
330
BA2
100
AcDbEntity
  8
0
100
AcDbBlockBegin
  2
*D19
 70
     1
 10
0.0
 20
0.0
 30
0.0
  3
*D19
  1

  0
LINE
  5
BB9
330
BA2
100
AcDbEntity
  8
Sezione
  6
ACAD_ISO10W100
 62
     5
370
    -2
100
AcDbLine
 10
0.2721196718501769
 20
0.2115475428616256
 30
0.0
 11
0.2706196718501769
 21
0.2115475428616256
 31
0.0
  0
LINE
  5
BBA
330
BA2
100
AcDbEntity
  8
Sezione
  6
ACAD_ISO10W100
 62
     5
370
    -2
100
AcDbLine
 10
0.2706196718501769
 20
0.2115475428616256
 30
0.0
 11
0.26845501015967
 21
0.2094704680517903
 31
0.0
  0
MTEXT
  5
BBB
330
BA2
100
AcDbEntity
  8
Sezione
  6
ACAD_ISO10W100
 62
     4
100
AcDbMText
 10
0.2865482432787483
 20
0.2115475428616256
 30
0.0
 40
0.003
 41
0.0
 71
     5
 72
     1
  1
\A1;d 330 mm
  7
ROMANS
 73
     1
 44
1.0
1001
ACAD
1000
MTEXTBEGIN
1070
    73
1070
     1
1070
    44
1040
1.0
1070
    74
1070
     0
1000
MTEXTEND
  0
INSERT
  5
BBC
330
BA2
100
AcDbEntity
  8
Sezione
  6
ACAD_ISO10W100
 62
     5
370
    -2
100
AcDbBlockReference
  2
_ArchTick
 10
0.26845501015967
 20
0.2094704680517903
 30
0.0
 41
0.0015
 42
0.0015
 43
0.0015
 50
223.817077498188
  0
POINT
  5
BBD
330
BA2
100
AcDbEntity
  8
Defpoints
  6
ACAD_ISO10W100
 62
     0
100
AcDbPoint
 10
0.26845501015967
 20
0.2094704680517903
 30
0.0
  0
POINT
  5
BBE
330
BA2
100
AcDbEntity
  8
Defpoints
  6
ACAD_ISO10W100
 62
     0
100
AcDbPoint
 10
0.1493986171817919
 20
0.0952313535108543
 30
0.0
  0
ENDBLK
  5
BAA
330
BA2
100
AcDbEntity
  8
0
100
AcDbBlockEnd
  0
BLOCK
  5
CA5
330
C9E
100
AcDbEntity
  8
0
100
AcDbBlockBegin
  2
*D21
 70
     1
 10
0.0
 20
0.0
 30
0.0
  3
*D21
  1

  0
LINE
  5
CB5
330
C9E
100
AcDbEntity
  8
Sezione
  6
ACAD_ISO10W100
 62
     5
370
    -2
100
AcDbLine
 10
0.2517131923565132
 20
0.1920875998421381
 30
0.0
 11
0.2502131923565132
 21
0.1920875998421381
 31
0.0
  0
LINE
  5
CB6
330
C9E
100
AcDbEntity
  8
Sezione
  6
ACAD_ISO10W100
 62
     5
370
    -2
100
AcDbLine
 10
0.2502131923565132
 20
0.1920875998421381
 30
0.0
 11
0.2477847082184422
 21
0.1903262183414014
 31
0.0
  0
MTEXT
  5
CB7
330
C9E
100
AcDbEntity
  8
Sezione
  6
ACAD_ISO10W100
 62
     4
100
AcDbMText
 10
0.2661417637850846
 20
0.1920875998421381
 30
0.0
 40
0.003
 41
0.0
 71
     5
 72
     1
  1
\A1;d 380 mm
  7
ROMANS
 73
     1
 44
1.0
1001
ACAD
1000
MTEXTBEGIN
1070
    73
1070
     1
1070
    44
1040
1.0
1070
    74
1070
     0
1000
MTEXTEND
  0
INSERT
  5
CB8
330
C9E
100
AcDbEntity
  8
Sezione
  6
ACAD_ISO10W100
 62
     5
370
    -2
100
AcDbBlockReference
  2
_ArchTick
 10
0.2477847082184422
 20
0.1903262183414014
 30
0.0
 41
0.0015
 42
0.0015
 43
0.0015
 50
215.9534071794428
  0
POINT
  5
CB9
330
C9E
100
AcDbEntity
  8
Defpoints
  6
ACAD_ISO10W100
 62
     0
100
AcDbPoint
 10
0.2477847082184422
 20
0.1903262183414014
 30
0.0
  0
POINT
  5
CBA
330
C9E
100
AcDbEntity
  8
Defpoints
  6
ACAD_ISO10W100
 62
     0
100
AcDbPoint
 10
0.1708827105128607
 20
0.1345491374847382
 30
0.0
  0
ENDBLK
  5
CA6
330
C9E
100
AcDbEntity
  8
0
100
AcDbBlockEnd
  0
ENDSEC
  0
SECTION
  2
ENTITIES
  0
LINE
  5
D
330
2
100
AcDbEntity
  8
Table
100
AcDbLine
 10
0.02
 20
0.02
 30
0.0
 11
0.4
 21
0.02
 31
0.0
  0
LINE
  5
10
330
2
100
AcDbEntity
  8
Table
100
AcDbLine
 10
0.4
 20
0.02
 30
0.0
 11
0.4
 21
0.2769999999999999
 31
0.0
  0
LINE
  5
11
330
2
100
AcDbEntity
  8
Table
100
AcDbLine
 10
0.4
 20
0.2769999999999999
 30
0.0
 11
0.02
 21
0.277
 31
0.0
  0
LINE
  5
12
330
2
100
AcDbEntity
  8
Table
100
AcDbLine
 10
0.02
 20
0.277
 30
0.0
 11
0.02
 21
0.02
 31
0.0
  0
LINE
  5
13
330
2
100
AcDbEntity
  8
Table
 62
     2
100
AcDbLine
 10
0.015
 20
0.015
 30
0.0
 11
0.4050000000000001
 21
0.015
 31
0.0
  0
LINE
  5
14
330
2
100
AcDbEntity
  8
Table
 62
     2
100
AcDbLine
 10
0.4050000000000001
 20
0.015
 30
0.0
 11
0.4050000000000001
 21
0.2819999999999998
 31
0.0
  0
LINE
  5
15
330
2
100
AcDbEntity
  8
Table
 62
     2
100
AcDbLine
 10
0.4050000000000001
 20
0.2819999999999998
 30
0.0
 11
0.0149999999999999
 21
0.282
 31
0.0
  0
LINE
  5
16
330
2
100
AcDbEntity
  8
Table
 62
     2
100
AcDbLine
 10
0.0149999999999999
 20
0.282
 30
0.0
 11
0.015
 21
0.015
 31
0.0
  0
LINE
  5
17
330
2
100
AcDbEntity
  8
Table
100
AcDbLine
 10
0.21
 20
0.2769999999999999
 30
0.0
 11
0.21
 21
0.2532994226089223
 31
0.0
  0
MTEXT
  5
18
102
{ACAD_XDICTIONARY
360
CC2
102
}
330
2
100
AcDbEntity
  8
Text
100
AcDbMText
 10
0.305
 20
0.0471738284815141
 30
0.0
 40
0.005
 41
0.1900000000000001
 71
     2
 72
     5
  3
{\fTimes New Roman|b0|i0|c238|p18;\H1.6x;\C4;Bovelacci\P\H0.4375x;\T0.95;via del Commercio, 5  47100 Forli - Italy  \fTimes New Roman|b0|i0|c0|p18;\P\fTimes New Roman|b0|i0|c238|p18;tel.+39-0543721386  fax +39-0543721127\fTimes New Roman|b0|i0|c0|p18
  1
; \fTimes New Roman|b0|i0|c238|p18;www.bovelacci.it\fTimes New Roman|b0|i0|c0|p18; \fTimes New Roman|b0|i0|c238|p18;e-mail: bovelacci@bovelacci\fTimes New Roman|b0|i0|c0|p18;.it}
 73
     1
 44
1.0
1001
ACAD
1000
ACAD_MTEXT_DEFINED_HEIGHT_BEGIN
1070
    46
1040
0.0271738284815141
1000
ACAD_MTEXT_DEFINED_HEIGHT_END
1000
MTEXTBEGIN
1070
    73
1070
     1
1070
    44
1040
1.0
1070
    74
1070
     0
1000
MTEXTEND
  0
MTEXT
  5
1C
330
2
100
AcDbEntity
  8
Text
100
AcDbMText
 10
0.0219676065851835
 20
0.0500313976452307
 30
0.0
 40
0.002
 41
0.1863544980601608
 71
     1
 72
     5
  3
{\fArial|b0|i0|c0|p34;\H1.25x;Le caratteristiche tecniche indicate vengono fornite a titolo indicativo e potranno essere modificate senza preavviso. Non devono quindi essere considerate a scopo di specifica.\P\fArial|b0|i1|c0|p34;The given values are
  3
 indicative and can be changed without notice. They cannot be considered like a state.\PThis lealfet and designs embodied within are protected by copyright law and international treaties. Unauthorized repro- duction of the leaflet or any portion of i
  1
t or reproduction of any of the designs embodied therein may result in severe civil penalties and will be prosecuted to the maximum.\PAll right reserved, Bovelacci Forlì Italy.}
 73
     1
 44
1.0
1001
ACAD
1000
MTEXTBEGIN
1070
    73
1070
     1
1070
    44
1040
1.0
1070
    74
1070
     0
1000
MTEXTEND
  0
LINE
  5
1D
330
2
100
AcDbEntity
  8
Table
100
AcDbLine
 10
0.02
 20
0.0528099428524846
 30
0.0
 11
0.4
 21
0.0528099428524846
 31
0.0
  0
MTEXT
  5
1E
330
2
100
AcDbEntity
  8
Text
100
AcDbMText
 10
0.1133313047219695
 20
0.2610796890771976
 30
0.0
 40
0.003
 41
0.1103605678262056
 71
     2
 72
     5
  1
{\fTimes New Roman|b0|i0|c0|p18;Rosoni\fTimes New Roman|b0|i1|c0|p18;   Ceiling centres}
 73
     1
 44
1.0
1001
ACAD
1000
ACAD_MTEXT_DEFINED_HEIGHT_BEGIN
1070
    46
1040
0.0141952763113409
1000
ACAD_MTEXT_DEFINED_HEIGHT_END
1000
MTEXTBEGIN
1070
    73
1070
     1
1070
    44
1040
1.0
1070
    74
1070
     0
1000
MTEXTEND
  0
TEXT
  5
1F
330
2
100
AcDbEntity
  8
Text
100
AcDbText
 10
0.2180556919891047
 20
0.269976982173197
 30
0.0
 40
0.003
  1
Rosone - Ceiling centre : D 380 mm
  7
ROMANS
100
AcDbText
  0
TEXT
  5
21
330
2
100
AcDbEntity
  8
Text
100
AcDbText
 10
0.2184542410678115
 20
0.2576348370183962
 30
0.0
 40
0.003
  1
File : E - R38
  7
ROMANS
100
AcDbText
  0
LINE
  5
22
330
2
100
AcDbEntity
  8
Table
100
AcDbLine
 10
0.4
 20
0.2654452889427402
 30
0.0
 11
0.02
 21
0.2654452889427403
 31
0.0
  0
LINE
  5
23
330
2
100
AcDbEntity
  8
Table
100
AcDbLine
 10
0.4
 20
0.2532994226089223
 30
0.0
 11
0.02
 21
0.2532994226089225
 31
0.0
  0
LINE
  5
24
330
2
100
AcDbEntity
  8
Table
100
AcDbLine
 10
0.21
 20
0.0528099428524846
 30
0.0
 11
0.21
 21
0.02
 31
0.0
  0
TEXT
  5
25
330
2
100
AcDbEntity
  8
Text
100
AcDbText
 10
0.0947789320547719
 20
0.2687784133392506
 30
0.0
 40
0.005
  1
EUROSTYL
  7
style1
 72
     1
 11
0.1140561490699125
 21
0.2687784133392506
 31
0.0
100
AcDbText
  0
TEXT
  5
23F
330
2
100
AcDbEntity
  8
Text
  6
ACAD_ISO10W100
100
AcDbText
 10
0.2693054777903039
 20
0.0953837817154628
 30
0.0
 40
0.005
  1
scala 1 : 4
  7
style1
100
AcDbText
  0
CIRCLE
  5
C37
330
2
100
AcDbEntity
  8
Profilo
  6
Continuous
370
     0
100
AcDbCircle
 10
0.2093337093656514
 20
0.1624376779130698
 30
0.0
 40
0.0109245105284224
  0
CIRCLE
  5
C38
330
2
100
AcDbEntity
  8
Profilo
  6
Continuous
370
     0
100
AcDbCircle
 10
0.2093337093656514
 20
0.1624376779130698
 30
0.0
 40
0.0416370127903051
  0
CIRCLE
  5
C39
102
{ACAD_REACTORS
330
CAE
102
}
330
2
100
AcDbEntity
  8
Profilo
  6
Continuous
370
     0
100
AcDbCircle
 10
0.2093337093656514
 20
0.1624376779130698
 30
0.0
 40
0.0475
  0
CIRCLE
  5
C3A
330
2
100
AcDbEntity
  8
Profilo
  6
Continuous
370
     0
100
AcDbCircle
 10
0.2093337093656514
 20
0.1624376779130698
 30
0.0
 40
0.0444119399526599
  0
LWPOLYLINE
  5
C3B
330
2
100
AcDbEntity
  8
Profilo
  6
Continuous
370
     0
100
AcDbPolyline
 90
       39
 70
   129
 43
0.0
 10
0.2062809106451428
 20
0.1800660510787461
 10
0.2057522280982757
 20
0.1804528389892818
 10
0.2056937837527214
 20
0.1812122320791691
 10
0.2058106697684198
 20
0.1820008318794692
 10
0.2061321069804415
 20
0.1825265645154527
 10
0.2068626439097016
 20
0.1829938837306106
 10
0.2075931808389607
 20
0.1830522988440868
 10
0.2084990454540624
 20
0.182672601452817
 10
0.2090250311869982
 20
0.1818547949421049
 10
0.2092588032183941
 20
0.1811246085626287
 10
0.2092588032183941
 20
0.1803944238758048
 10
0.2089373686817825
 20
0.1793429569111872
 10
0.2083237177682208
 20
0.1782622832361577
 10
0.2076224016740332
 20
0.1775028901462696
 10
0.2063658790118374
 20
0.1770063642206998
 10
0.2052554632004123
 20
0.1769187423968108
 10
0.2033560687895831
 20
0.177152401158064
 10
0.2011644580018038
 20
0.1781746597196174
 10
0.199381949606673
 20
0.1803944238758048
 10
0.1983884198109454
 20
0.1829062619067225
 10
0.1983884198109454
 20
0.1849799874328934
 10
0.199235842755903
 20
0.1870829213621285
 10
0.2007553582845664
 20
0.188689329365792
 10
0.2022164321430865
 20
0.1897992114438866
 10
0.2031807384283305
 20
0.1896531728138692
 10
0.203589840820979
 20
0.1888353663031572
 10
0.2032976244440289
 20
0.1878131060489516
 10
0.2027716387110931
 20
0.1872289582994928
 10
0.2018949949310639
 20
0.1864111500961285
 10
0.2016027812295239
 20
0.1861482846244633
 10
0.2020118809467614
 20
0.1860898695109871
 10
0.2021287669624598
 20
0.1856225502958284
 10
0.2019826601116898
 20
0.1846879135581631
 10
0.2015735577190413
 20
0.1838701053547997
 10
0.2016612228996672
 20
0.1826141863393409
 10
0.2022164321430865
 20
0.1809201565117874
 10
0.2031515175932589
 20
0.1800147281771873
 10
0.2047879191376206
 20
0.1796350307859166
 10
0.2056353420825782
 20
0.1797810677232818
  0
LWPOLYLINE
  5
C3C
330
2
100
AcDbEntity
  8
Profilo
  6
Continuous
370
     0
100
AcDbPolyline
 90
       22
 70
   128
 43
0.0
 10
0.2092751847577777
 20
0.1771302460359209
 10
0.2090758720154974
 20
0.176939330123194
 10
0.2087270733788022
 20
0.1765242952359362
 10
0.2079713474583133
 20
0.1761590649413853
 10
0.2072859169797087
 20
0.1758957539542467
 10
0.2061520173864667
 20
0.1754492800965716
 10
0.2047374983485922
 20
0.1749780017683648
 10
0.2041612148955182
 20
0.1749780017683648
 10
0.2035849287670341
 20
0.1746114512052474
 10
0.2039516553304653
 20
0.1741401728770397
 10
0.2029038655314332
 20
0.1731976145279738
 10
0.2020656326220437
 20
0.1725692428594807
 10
0.2015941289514965
 20
0.1719408694983353
 10
0.2012274023880644
 20
0.1711554044895557
 10
0.2009654529317481
 20
0.1703175755982306
 10
0.2001796099136221
 20
0.1698986611525685
 10
0.1986038438761336
 20
0.1701508070590622
 10
0.1971369349469957
 20
0.1712504570557622
 10
0.1957748084757956
 20
0.1728737509558668
 10
0.1949889654576687
 20
0.1739210387626743
 10
0.1939935655498991
 20
0.1750206887593752
 10
0.1929981629667202
 20
0.1760156109909867
  0
LWPOLYLINE
  5
C3D
330
2
100
AcDbEntity
  8
Profilo
  6
Continuous
370
     0
100
AcDbPolyline
 90
       28
 70
   129
 43
0.0
 10
0.194392038536053
 20
0.1664454817893799
 10
0.1931545942271721
 20
0.1661262950147732
 10
0.19203690129879
 20
0.165328326385604
 10
0.1919171499182902
 20
0.1642510701749801
 10
0.1922764067351997
 20
0.1632137114648561
 10
0.192994923044428
 20
0.1628546254970975
 10
0.1937134393536571
 20
0.1626950321097937
 10
0.195070637718448
 20
0.1628147279965976
 10
0.1959488252104203
 20
0.163373304852159
 10
0.1967072586464827
 20
0.1651687329983002
 10
0.1970266010119691
 20
0.1678419264672617
 10
0.1961484135199968
 20
0.1693979628397968
 10
0.1951903917743588
 20
0.1706348141303757
 10
0.1934340167904142
 20
0.1718317662278026
 10
0.19203690129879
 20
0.1721908521955612
 10
0.1900809406806799
 20
0.1722307496960611
 10
0.1889632477522979
 20
0.1714726802600439
 10
0.1879253890775824
 20
0.170275728162617
 10
0.1876459665143403
 20
0.1690787760651892
 10
0.1878455548239167
 20
0.1684803000164758
 10
0.1886039882599783
 20
0.1687595892905826
 10
0.1895220928787838
 20
0.1694777595334477
 10
0.1904002803707562
 20
0.1697570488075546
 10
0.1913583021163941
 20
0.1697570488075546
 10
0.192316323862033
 20
0.1695176587265998
 10
0.1931545942271721
 20
0.1687994867910824
 10
0.1938731105364003
 20
0.1680015198545654
 10
0.1940726988459768
 20
0.1673232471122001
  0
LWPOLYLINE
  5
C3E
330
2
100
AcDbEntity
  8
Profilo
  6
Continuous
370
     0
100
AcDbPolyline
 90
      136
 70
   128
 43
0.0
 10
0.188160793109473
 20
0.1709435453935239
 10
0.186998886344761
 20
0.1701902373876076
 10
0.1861510059045831
 20
0.1693113786115891
 10
0.1859625901098621
 20
0.1687150082219743
 10
0.1853031281398153
 20
0.1686208459907239
 10
0.1843610384645718
 20
0.1690288868398819
 10
0.1843924424347304
 20
0.1700646866175055
 10
0.1847378754048331
 20
0.1713829747815327
 10
0.1849576951697117
 20
0.172136282787449
 10
0.1846750701399261
 20
0.172136282787449
 10
0.1838271896997482
 20
0.1716340780143892
 10
0.1832305329946083
 20
0.171853792708394
 10
0.1831677277297013
 20
0.1725757121754587
 10
0.1832305329946083
 20
0.1731093054873702
 10
0.1834817567296455
 20
0.1735801234142306
 10
0.1838585936699067
 20
0.1741451035723415
 10
0.1839213989348137
 20
0.1744589821902491
 10
0.183575965964711
 20
0.174741472269305
 10
0.1826966842297847
 20
0.1744589821902491
 10
0.1819430130246714
 20
0.1739253888783376
 10
0.1812835510546246
 20
0.1732348562574723
 10
0.1806868970248948
 20
0.1725757121754587
 10
0.179839016584716
 20
0.1723873860203055
 10
0.1794307783497072
 20
0.1733917955664261
 10
0.1798076152899685
 20
0.1742706560350959
 10
0.1806240917599878
 20
0.1752122901961654
 10
0.1812207457897185
 20
0.1757144949692253
 10
0.1816289840247273
 20
0.1760597621259845
 10
0.181504125285305
 20
0.1765999347762536
 10
0.1814099160502395
 20
0.1771649166270177
 10
0.181504125285305
 20
0.1777612853239802
 10
0.1821321832851942
 20
0.1780751639418869
 10
0.1829486597552136
 20
0.1780437754030352
 10
0.1835453164603543
 20
0.1778868360940824
 10
0.1836709269901674
 20
0.1782634900970401
 10
0.1835767177551019
 20
0.1787029211777011
 10
0.1837965401953924
 20
0.1791737374119102
 10
0.1841733744602426
 20
0.179330676720864
 10
0.1850212549004205
 20
0.1794876160298168
 10
0.1856493129003097
 20
0.1792365127969612
 10
0.1859633419002539
 20
0.1786087572537993
 10
0.1859947431950023
 20
0.1778868360940824
 10
0.1864657893703291
 20
0.1771649166270177
 10
0.1864971906650766
 20
0.1782321032508407
 10
0.1866542051650491
 20
0.1794248406447658
 10
0.1870624434000588
 20
0.1802723125745848
 10
0.1861300975703867
 20
0.1800185857311151
 10
0.1852264428444784
 20
0.1800687643999165
 10
0.1850256291968265
 20
0.1812228788603049
 10
0.1845235990908119
 20
0.1810723411612484
 10
0.1842223826324502
 20
0.1807712691484399
 10
0.1836199443649046
 20
0.1805203741117815
 10
0.1829673046920036
 20
0.1807210904796385
 10
0.18311791425889
 20
0.1819253836088283
 10
0.1833689293118973
 20
0.1824271719894947
 10
0.1826158841528754
 20
0.1822264556216368
 10
0.1821640581276264
 20
0.1817748459097718
 10
0.1816620280216118
 20
0.1811727001915035
 10
0.1813106074824836
 20
0.1808214478172414
 10
0.1811097938348317
 20
0.1809218051548442
 10
0.1804069527565762
 20
0.1813734148667092
 10
0.1806579678095835
 20
0.1826278866647004
 10
0.1813106074824836
 20
0.1833805700820252
 10
0.1814110129686045
 20
0.1839827174929458
 10
0.1802563431896899
 20
0.1834307487508266
 10
0.1796037035167889
 20
0.183029317707763
 10
0.1794028925445471
 20
0.1823769933206933
 10
0.1796037035167889
 20
0.1816744885721699
 10
0.1796037035167889
 20
0.1807210904796385
 10
0.1786498447101151
 20
0.180118943068718
 10
0.1779972077126243
 20
0.179667333356853
 10
0.1773947694450787
 20
0.1785132188964655
 10
0.1768927393390641
 20
0.1774594617736799
 10
0.1763907092330495
 20
0.1774092831048785
 10
0.1757380695601495
 20
0.1769576733930136
 10
0.175135633968014
 20
0.1763053473132916
 10
0.1737299491360912
 20
0.1763053473132916
 10
0.1733283245161975
 20
0.1768573160554107
 10
0.1739307627837431
 20
0.1781117878534019
 10
0.1750352284818931
 20
0.1803698381053773
 10
0.175788273640915
 20
0.1827282456949546
 10
0.1766919283668232
 20
0.1842336108369528
 10
0.1775453790119651
 20
0.1855382629963977
 10
0.1785996433047597
 20
0.1865418397577296
 10
0.1800053281366826
 20
0.1869934511622459
 10
0.1794028925445471
 20
0.1872945231750544
 10
0.1789510638438879
 20
0.1882479229602371
 10
0.1798547185697962
 20
0.1889002473473069
 10
0.1813106074824836
 20
0.1893518587518241
 10
0.1822644636137473
 20
0.189903825801291
 10
0.1825154786667545
 20
0.190556151881013
 10
0.1825154786667545
 20
0.1916099073111472
 10
0.1829721766147888
 20
0.1924228965342424
 10
0.1838758313406971
 20
0.1925734325406467
 10
0.1846790779050734
 20
0.1923225375039874
 10
0.1848798915527262
 20
0.1921218228287817
 10
0.1855827326309817
 20
0.1925734325406467
 10
0.1863357777900035
 20
0.1926236112094472
 10
0.1873398380020318
 20
0.192372717865441
 10
0.1876410571358055
 20
0.1925232538718453
 10
0.1878418681080464
 20
0.1932257586203687
 10
0.1885949132670682
 20
0.1937275470010342
 10
0.1900508021797566
 20
0.1939784420376935
 10
0.1904022227188847
 20
0.1931253995901136
 10
0.1901010062605221
 20
0.1925734325406467
 10
0.190753643258012
 20
0.1925232538718453
 10
0.191305877444793
 20
0.192272358835186
 10
0.1914564870116794
 20
0.1919712851297252
 10
0.1918079075508076
 20
0.1916200344481162
 10
0.1920087211984595
 20
0.1913691394114569
 10
0.1921091266845795
 20
0.1903655609574728
 10
0.1920087211984595
 20
0.1894121628649423
 10
0.1920087211984595
 20
0.1885089434412132
 10
0.1921593280899348
 20
0.1884085844109582
 10
0.1925609527098285
 20
0.1890609104906801
 10
0.192611156790594
 20
0.1895125202025451
 10
0.1928119677628358
 20
0.189813593908005
 10
0.1930127814104877
 20
0.1908673510307905
 10
0.193163388301964
 20
0.1917705704545196
 10
0.1938662320556305
 20
0.1918709277921224
 10
0.1941172471086377
 20
0.1915698540866626
 10
0.1943180580808786
 20
0.1911182443747976
 10
0.1946694812954178
 20
0.1907669920005354
 10
0.1949706977537796
 20
0.1913691394114569
 10
0.1949706977537796
 20
0.192272358835186
 10
0.195773946993567
 20
0.1928745062461065
 10
0.1971796318254898
 20
0.1936271896634313
 10
0.1980832865513981
 20
0.1939784420376935
 10
0.1983343016044053
 20
0.1931253995901136
 10
0.1981836920375189
 20
0.1917705704545196
 10
0.1980330824706325
 20
0.1909175296995919
 10
0.198735926224299
 20
0.1904659199877278
 10
0.19948897138332
 20
0.1900644889446643
 10
0.2001918124615764
 20
0.1898637725768064
 10
0.20004120289469
 20
0.1888601958154745
 10
0.2005934370814701
 20
0.1887096581164189
  0
LWPOLYLINE
  5
C3F
330
2
100
AcDbEntity
  8
Profilo
  6
Continuous
370
     0
100
AcDbPolyline
 90
       16
 70
   128
 43
0.0
 10
0.2010954671874846
 20
0.1890609104906801
 10
0.2007440466483565
 20
0.1899139512456078
 10
0.2006938425675909
 20
0.1907669920005354
 10
0.2006938425675909
 20
0.191820749123321
 10
0.2007942480537118
 20
0.1924730752030439
 10
0.2009448576205982
 20
0.1928243275773051
 10
0.201898716427272
 20
0.1931755799515673
 10
0.202651761586293
 20
0.1930250422525108
 10
0.2036056177175566
 20
0.192372717865441
 10
0.2039068368513294
 20
0.1923225375039874
 10
0.204408866957344
 20
0.1923225375039874
 10
0.2051117080355994
 20
0.191720391785719
 10
0.2059149572753877
 20
0.1906164559941321
 10
0.2069692215681814
 20
0.1881075123981497
 10
0.2073206421073096
 20
0.1864516078644435
 10
0.2073708461880751
 20
0.1854480311031116
  0
LWPOLYLINE
  5
C40
330
2
100
AcDbEntity
  8
Profilo
  6
Continuous
370
     0
100
AcDbPolyline
 90
        9
 70
   128
 43
0.0
 10
0.2086259214531116
 20
0.1862007145204365
 10
0.2086259214531116
 20
0.1896630579016007
 10
0.2085757173723452
 20
0.1915196754178611
 10
0.2086283667784413
 20
0.1930979109214905
 10
0.209228357045247
 20
0.1932257586203687
 10
0.2096801830704952
 20
0.1926737898782495
 10
0.2095797775843743
 20
0.1912186034050527
 10
0.2094291680174879
 20
0.1880071533678946
 10
0.2094291680174879
 20
0.1863010718580393
  0
LWPOLYLINE
  5
C41
330
2
100
AcDbEntity
  8
Profilo
  6
Continuous
370
     0
100
AcDbPolyline
 90
       33
 70
   128
 43
0.0
 10
0.2072202366211887
 20
0.1950321974678268
 10
0.2062161764091596
 20
0.1957347022163502
 10
0.2053627230886067
 20
0.1967884593391358
 10
0.2048104915772376
 20
0.1978422147692691
 10
0.2048104915772376
 20
0.1988959718920555
 10
0.204961101144124
 20
0.1997991913157837
 10
0.2057643477085004
 20
0.1997991913157837
 10
0.2064671914621669
 20
0.1996988339781808
 10
0.2065173928675223
 20
0.2002508027203009
 10
0.2071198311350678
 20
0.2010034861376257
 10
0.208123891347097
 20
0.2010034861376257
 10
0.2086761228584661
 20
0.2008027697697678
 10
0.2076720626464378
 20
0.2014550958494907
 10
0.2074210475934305
 20
0.2022077792668155
 10
0.2075716571603169
 20
0.2030608200217431
 10
0.2082242968332179
 20
0.2037633247702665
 10
0.2088769365061188
 20
0.2038636821078703
 10
0.2093789666121334
 20
0.2036127870712109
 10
0.2100818076903889
 20
0.2034120723960053
 10
0.2105336363910481
 20
0.2028099249850838
 10
0.210634041877169
 20
0.2019568842301562
 10
0.2103328227433962
 20
0.2011038434752285
 10
0.2103830268241617
 20
0.200953305776172
 10
0.2112364774693044
 20
0.2012543794816328
 10
0.2118389130614399
 20
0.2012543794816328
 10
0.2121401321952127
 20
0.200953305776172
 10
0.2126421623012264
 20
0.2004013387267051
 10
0.2133964113950392
 20
0.2002765767324388
 10
0.2135458170271355
 20
0.1994479406341747
 10
0.2135458170271355
 20
0.1981934671435312
 10
0.2127425677873473
 20
0.1967884593391358
 10
0.2116381020891981
 20
0.1953834498420889
 10
0.2108850569301762
 20
0.1948314827926211
  0
LWPOLYLINE
  5
C42
330
2
100
AcDbEntity
  8
Profilo
  6
Continuous
370
     0
100
AcDbPolyline
 90
        3
 70
   128
 43
0.0
 10
0.2068859226577294
 20
0.1993365675172982
 10
0.2073826313719697
 20
0.1991379805056676
 10
0.2081276931056245
 20
0.1998826847614236
  0
LWPOLYLINE
  5
C43
330
2
100
AcDbEntity
  8
Profilo
  6
Continuous
370
     0
100
AcDbPolyline
 90
        4
 70
   128
 43
0.0
 10
0.2080283497575301
 20
0.1961591651752976
 10
0.2075316437187008
 20
0.1971521036187549
 10
0.2075316437187008
 20
0.1983436290738418
 10
0.2075813127173375
 20
0.1986911576136836
  0
LWPOLYLINE
  5
C44
330
2
100
AcDbEntity
  8
Profilo
  6
Continuous
370
     0
100
AcDbPolyline
 90
        6
 70
   128
 43
0.0
 10
0.2100648536131277
 20
0.1963081050108574
 10
0.2107602436727348
 20
0.1972513979708954
 10
0.2105615623273679
 20
0.1982939818977711
 10
0.2106112313260046
 20
0.1993862146933689
 10
0.2112072807129283
 20
0.199833037585352
 10
0.2108099153467825
 20
0.2000812717730533
  0
LWPOLYLINE
  5
C45
330
2
100
AcDbEntity
  8
Profilo
  6
Continuous
370
     0
100
AcDbPolyline
 90
       32
 70
   128
 43
0.0
 10
0.2075184191638789
 20
0.1865048451554245
 10
0.2073813605519134
 20
0.1884501136279941
 10
0.2067783122907397
 20
0.1901214009831568
 10
0.206065617675076
 20
0.1914639109974305
 10
0.2053255108019369
 20
0.1919844759668305
 10
0.2048047635230449
 20
0.1923498772192338
 10
0.2048047635230449
 20
0.1929252384121151
 10
0.2051336999111068
 20
0.1934184061160997
 10
0.2056271044932004
 20
0.1935553958284779
 10
0.2060108627208023
 20
0.1934732023395819
 10
0.2063397991088641
 20
0.193637591010026
 10
0.2066961450789905
 20
0.1939663683509151
 10
0.2071073155640678
 20
0.1944595360548997
 10
0.2077103638252406
 20
0.1948431096192702
 10
0.2085327047953952
 20
0.1951444896947438
 10
0.2092453994110589
 20
0.1951444896947438
 10
0.210095149963279
 20
0.1950348972477811
 10
0.211164190549069
 20
0.1945691285018624
 10
0.2114931269371309
 20
0.1940211645743956
 10
0.2116850073886382
 20
0.1936101920519592
 10
0.2119865315192245
 20
0.1937471834569888
 10
0.2124799361013173
 20
0.1937745824150556
 10
0.2128362820714437
 20
0.1936923872335074
 10
0.2130007502654746
 20
0.1930348308590779
 10
0.2127814602319037
 20
0.1923498772192338
 10
0.2122058215527955
 20
0.1915279338670123
 10
0.2117124169707018
 20
0.1908703774925828
 10
0.2112190150640209
 20
0.1899662389588123
 10
0.2106981982244517
 20
0.1889251090200123
 10
0.2104240863513408
 20
0.1878017855923173
 10
0.2102870304147854
 20
0.1868428491424132
 10
0.2103692645118008
 20
0.185993506832125
  0
LWPOLYLINE
  5
C46
330
2
100
AcDbEntity
  8
Profilo
  6
Continuous
370
     0
100
AcDbPolyline
 90
       11
 70
   128
 43
0.0
 10
0.2060109911405127
 20
0.1849299407909481
 10
0.2046763999956775
 20
0.1874777798374416
 10
0.2038756469140227
 20
0.1887983886273727
 10
0.2031950063933045
 20
0.1898255271046678
 10
0.2027679386181703
 20
0.1902390521463339
 10
0.2027545909944592
 20
0.190772630224377
 10
0.2031282763009806
 20
0.1909327043248514
 10
0.2035019616075012
 20
0.1908393274841331
 10
0.2038756469140227
 20
0.190292409615608
 10
0.2049166277929614
 20
0.18854493768618
 10
0.2056106132619798
 20
0.1870375769074636
  0
LWPOLYLINE
  5
C47
330
2
100
AcDbEntity
  8
Profilo
  6
Continuous
370
     0
100
AcDbPolyline
 90
        2
 70
   128
 43
0.0
 10
0.2048398756123592
 20
0.1840347885466928
 10
0.2028615619383042
 20
0.1866599073133001
  0
LWPOLYLINE
  5
C48
330
2
100
AcDbEntity
  8
Profilo
  6
Continuous
370
     0
100
AcDbPolyline
 90
        2
 70
   128
 43
0.0
 10
0.2009279302974426
 20
0.176009106129316
 10
0.1962803915271473
 20
0.1805321651256748
  0
LWPOLYLINE
  5
C49
330
2
100
AcDbEntity
  8
Profilo
  6
Continuous
370
     0
100
AcDbPolyline
 90
        3
 70
   128
 43
0.0
 10
0.1967084545550407
 20
0.1865221643707788
 10
0.1973199731663183
 20
0.1889670614000515
 10
0.1981149473609783
 20
0.1898838982091919
  0
LWPOLYLINE
  5
C4A
330
2
100
AcDbEntity
  8
Profilo
  6
Continuous
370
     0
100
AcDbPolyline
 90
        3
 70
   128
 43
0.0
 10
0.1956688729158705
 20
0.1892726731055476
 10
0.1968307582772962
 20
0.1905562449768738
 10
0.1974422768885738
 20
0.1908618566823698
  0
LWPOLYLINE
  5
C4B
330
2
100
AcDbEntity
  8
Profilo
  6
Continuous
370
     0
100
AcDbPolyline
 90
        3
 70
   128
 43
0.0
 10
0.1897371450618922
 20
0.1867055310555465
 10
0.1878414400423435
 20
0.1893949181262759
 10
0.1872910732921936
 20
0.1917175701348194
  0
LWPOLYLINE
  5
C4C
330
2
100
AcDbEntity
  8
Profilo
  6
Continuous
370
     0
100
AcDbPolyline
 90
        4
 70
   128
 43
0.0
 10
0.1901040562286579
 20
0.1893337964622383
 10
0.1895536894785089
 20
0.1906173666409123
 10
0.1897371450618922
 20
0.1914119584293234
 10
0.1898594487841477
 20
0.1920231835329677
  0
LWPOLYLINE
  5
C4D
330
2
100
AcDbEntity
  8
Profilo
  6
Continuous
370
     0
100
AcDbPolyline
 90
       11
 70
   128
 43
0.0
 10
0.2000106550559381
 20
0.176009106129316
 10
0.1977480361942118
 20
0.176803697917728
 10
0.1954854173324864
 20
0.1791874715903092
 10
0.1926724343960221
 20
0.1817546136403112
 10
0.1895536894785089
 20
0.1843217556903122
 10
0.1863126435141503
 20
0.1859720626238252
 10
0.1827046863830261
 20
0.1868277760762748
 10
0.1798917007711508
 20
0.1859720626238252
 10
0.1792190302987454
 20
0.1852997158561424
 10
0.1791578784376185
 20
0.1839550223207777
 10
0.1793413340210018
 20
0.1833437972171334
  0
LWPOLYLINE
  5
C4E
330
2
100
AcDbEntity
  8
Profilo
  6
Continuous
370
     0
100
AcDbPolyline
 90
        5
 70
   128
 43
0.0
 10
0.1884529586536211
 20
0.1827325738061413
 10
0.1860068842085115
 20
0.1848718591299181
 10
0.1838665717444526
 20
0.1853608375201809
 10
0.1817262566049819
 20
0.1852997158561424
 10
0.1802586119379174
 20
0.1849329807939565
  0
LWPOLYLINE
  5
C4F
330
2
100
AcDbEntity
  8
Profilo
  6
Continuous
370
     0
100
AcDbPolyline
 90
        2
 70
   128
 43
0.0
 10
0.1855788211806172
 20
0.1834660422378626
 10
0.1839277209301694
 20
0.1830993071756759
  0
LWPOLYLINE
  5
C50
330
2
100
AcDbEntity
  8
Profilo
  6
Continuous
370
     0
100
AcDbPolyline
 90
        4
 70
   128
 43
0.0
 10
0.2005610218060871
 20
0.1730141073530906
 10
0.1976868843330849
 20
0.1745421675732221
 10
0.195301961749104
 20
0.1764369628555413
 10
0.193467408590683
 20
0.1785762481793171
  0
LWPOLYLINE
  5
C51
330
2
100
AcDbEntity
  8
Profilo
  6
Continuous
370
     0
100
AcDbPolyline
 90
       39
 70
   129
 43
0.0
 10
0.2123865080861601
 20
0.1800660510787461
 10
0.2129151906330263
 20
0.1804528389892818
 10
0.2129736349785806
 20
0.1812122320791691
 10
0.2128567489628831
 20
0.1820008318794692
 10
0.2125353117508605
 20
0.1825265645154527
 10
0.2118047748216004
 20
0.1829938837306106
 10
0.2110742378923413
 20
0.1830522988440868
 10
0.2101683732772396
 20
0.182672601452817
 10
0.2096423875443038
 20
0.1818547949421049
 10
0.2094086155129079
 20
0.1811246085626287
 10
0.2094086155129079
 20
0.1803944238758048
 10
0.2097300500495195
 20
0.1793429569111872
 10
0.2103437009630812
 20
0.1782622832361577
 10
0.2110450170572688
 20
0.1775028901462696
 10
0.2123015397194647
 20
0.1770063642206998
 10
0.2134119555308906
 20
0.1769187423968108
 10
0.2153113499417198
 20
0.177152401158064
 10
0.2175029607294982
 20
0.1781746597196174
 10
0.219285469124629
 20
0.1803944238758048
 10
0.2202789989203565
 20
0.1829062619067225
 10
0.2202789989203565
 20
0.1849799874328934
 10
0.219431575975399
 20
0.1870829213621285
 10
0.2179120604467356
 20
0.188689329365792
 10
0.2164509865882164
 20
0.1897992114438866
 10
0.2154866803029715
 20
0.1896531728138692
 10
0.215077577910323
 20
0.1888353663031572
 10
0.2153697942872731
 20
0.1878131060489516
 10
0.2158957800202089
 20
0.1872289582994928
 10
0.216772423800239
 20
0.1864111500961285
 10
0.2170646375017781
 20
0.1861482846244633
 10
0.2166555377845406
 20
0.1860898695109871
 10
0.2165386517688431
 20
0.1856225502958284
 10
0.2166847586196122
 20
0.1846879135581631
 10
0.2170938610122607
 20
0.1838701053547997
 10
0.2170061958316348
 20
0.1826141863393409
 10
0.2164509865882164
 20
0.1809201565117874
 10
0.2155159011380431
 20
0.1800147281771873
 10
0.2138794995936823
 20
0.1796350307859166
 10
0.2130320766487247
 20
0.1797810677232818
  0
LWPOLYLINE
  5
C52
330
2
100
AcDbEntity
  8
Profilo
  6
Continuous
370
     0
100
AcDbPolyline
 90
       22
 70
   128
 43
0.0
 10
0.2092751847577777
 20
0.1771302460359209
 10
0.209717285665329
 20
0.1768564629587987
 10
0.2100399134350893
 20
0.1765699155928781
 10
0.2107615546239518
 20
0.1761880532996884
 10
0.2115680946188333
 20
0.1759334784375625
 10
0.2125154013448362
 20
0.1754492800965716
 10
0.2139299203827107
 20
0.1749780017683648
 10
0.2145062038357847
 20
0.1749780017683648
 10
0.2150824899642688
 20
0.1746114512052474
 10
0.2147157634008367
 20
0.1741401728770397
 10
0.2157635531998689
 20
0.1731976145279738
 10
0.2166017861092592
 20
0.1725692428594807
 10
0.2170732897798063
 20
0.1719408694983353
 10
0.2174400163432385
 20
0.1711554044895557
 10
0.2177019657995539
 20
0.1703175755982306
 10
0.2184878088176808
 20
0.1698986611525685
 10
0.2200635748551693
 20
0.1701508070590622
 10
0.2215304837843063
 20
0.1712504570557622
 10
0.2228926102555072
 20
0.1728737509558668
 10
0.2236784532736341
 20
0.1739210387626743
 10
0.2246738531814029
 20
0.1750206887593752
 10
0.2256692557645818
 20
0.1760156109909867
  0
LWPOLYLINE
  5
C53
330
2
100
AcDbEntity
  8
Profilo
  6
Continuous
370
     0
100
AcDbPolyline
 90
       28
 70
   129
 43
0.0
 10
0.224275380195249
 20
0.1664454817893799
 10
0.2255128245041308
 20
0.1661262950147732
 10
0.2266305174325129
 20
0.165328326385604
 10
0.2267502688130118
 20
0.1642510701749801
 10
0.2263910119961031
 20
0.1632137114648561
 10
0.225672495686874
 20
0.1628546254970975
 10
0.2249539793776448
 20
0.1626950321097937
 10
0.223596781012854
 20
0.1628147279965976
 10
0.2227185935208825
 20
0.163373304852159
 10
0.2219601600848192
 20
0.1651687329983002
 10
0.2216408177193329
 20
0.1678419264672617
 10
0.2225190052113052
 20
0.1693979628397968
 10
0.2234770269569441
 20
0.1706348141303757
 10
0.2252334019408878
 20
0.1718317662278026
 10
0.2266305174325129
 20
0.1721908521955612
 10
0.2285864780506221
 20
0.1722307496960611
 10
0.2297041709790041
 20
0.1714726802600439
 10
0.2307420296537196
 20
0.170275728162617
 10
0.2310214522169626
 20
0.1690787760651892
 10
0.2308218639073861
 20
0.1684803000164758
 10
0.2300634304713237
 20
0.1687595892905826
 10
0.229145325852519
 20
0.1694777595334477
 10
0.2282671383605467
 20
0.1697570488075546
 10
0.2273091166149087
 20
0.1697570488075546
 10
0.2263510948692699
 20
0.1695176587265998
 10
0.2255128245041308
 20
0.1687994867910824
 10
0.2247943081949026
 20
0.1680015198545654
 10
0.2245947198853261
 20
0.1673232471122001
  0
LWPOLYLINE
  5
C54
330
2
100
AcDbEntity
  8
Profilo
  6
Continuous
370
     0
100
AcDbPolyline
 90
      136
 70
   128
 43
0.0
 10
0.2305066256218299
 20
0.1709435453935239
 10
0.2316685323865419
 20
0.1701902373876076
 10
0.2325164128267198
 20
0.1693113786115891
 10
0.2327048286214398
 20
0.1687150082219743
 10
0.2333642905914876
 20
0.1686208459907239
 10
0.234306380266731
 20
0.1690288868398819
 10
0.2342749762965725
 20
0.1700646866175055
 10
0.2339295433264689
 20
0.1713829747815327
 10
0.2337097235615903
 20
0.172136282787449
 10
0.2339923485913759
 20
0.172136282787449
 10
0.2348402290315538
 20
0.1716340780143892
 10
0.2354368857366945
 20
0.171853792708394
 10
0.2354996910016015
 20
0.1725757121754587
 10
0.2354368857366945
 20
0.1731093054873702
 10
0.2351856620016574
 20
0.1735801234142306
 10
0.2348088250613952
 20
0.1741451035723415
 10
0.2347460197964883
 20
0.1744589821902491
 10
0.2350914527665918
 20
0.174741472269305
 10
0.2359707345015173
 20
0.1744589821902491
 10
0.2367244057066306
 20
0.1739253888783376
 10
0.2373838676766783
 20
0.1732348562574723
 10
0.2379805217064072
 20
0.1725757121754587
 10
0.238828402146586
 20
0.1723873860203055
 10
0.2392366403815957
 20
0.1733917955664261
 10
0.2388598034413335
 20
0.1742706560350959
 10
0.2380433269713142
 20
0.1752122901961654
 10
0.2374466729415844
 20
0.1757144949692253
 10
0.2370384347065747
 20
0.1760597621259845
 10
0.237163293445997
 20
0.1765999347762536
 10
0.2372575026810625
 20
0.1771649166270177
 10
0.237163293445997
 20
0.1777612853239802
 10
0.2365352354461087
 20
0.1780751639418869
 10
0.2357187589760893
 20
0.1780437754030352
 10
0.2351221022709477
 20
0.1778868360940824
 10
0.2349964917411346
 20
0.1782634900970401
 10
0.2350907009762001
 20
0.1787029211777011
 10
0.2348708785359105
 20
0.1791737374119102
 10
0.2344940442710594
 20
0.179330676720864
 10
0.2336461638308815
 20
0.1794876160298168
 10
0.2330181058309932
 20
0.1792365127969612
 10
0.232704076831049
 20
0.1786087572537993
 10
0.2326726755363006
 20
0.1778868360940824
 10
0.2322016293609729
 20
0.1771649166270177
 10
0.2321702280662254
 20
0.1782321032508407
 10
0.2320132135662528
 20
0.1794248406447658
 10
0.2316049753312432
 20
0.1802723125745848
 10
0.2325373211609153
 20
0.1800185857311151
 10
0.2334409758868236
 20
0.1800687643999165
 10
0.2336417895344755
 20
0.1812228788603049
 10
0.23414381964049
 20
0.1810723411612484
 10
0.2344450360988527
 20
0.1807712691484399
 10
0.2350474743663983
 20
0.1805203741117815
 10
0.2357001140392993
 20
0.1807210904796385
 10
0.2355495044724129
 20
0.1819253836088283
 10
0.2352984894194056
 20
0.1824271719894947
 10
0.2360515345784274
 20
0.1822264556216368
 10
0.2365033606036756
 20
0.1817748459097718
 10
0.2370053907096902
 20
0.1811727001915035
 10
0.2373568112488184
 20
0.1808214478172414
 10
0.2375576248964703
 20
0.1809218051548442
 10
0.2382604659747266
 20
0.1813734148667092
 10
0.2380094509217193
 20
0.1826278866647004
 10
0.2373568112488184
 20
0.1833805700820252
 10
0.2372564057626975
 20
0.1839827174929458
 10
0.238411075541613
 20
0.1834307487508266
 10
0.2390637152145131
 20
0.183029317707763
 10
0.2392645261867558
 20
0.1823769933206933
 10
0.2390637152145131
 20
0.1816744885721699
 10
0.2390637152145131
 20
0.1807210904796385
 10
0.2400175740211869
 20
0.180118943068718
 10
0.2406702110186777
 20
0.179667333356853
 10
0.2412726492862233
 20
0.1785132188964655
 10
0.2417746793922379
 20
0.1774594617736799
 10
0.2422767094982524
 20
0.1774092831048785
 10
0.2429293491711534
 20
0.1769576733930136
 10
0.2435317847632889
 20
0.1763053473132916
 10
0.2449374695952108
 20
0.1763053473132916
 10
0.2453390942151045
 20
0.1768573160554107
 10
0.2447366559475589
 20
0.1781117878534019
 10
0.2436321902494089
 20
0.1803698381053773
 10
0.242879145090387
 20
0.1827282456949546
 10
0.2419754903644796
 20
0.1842336108369528
 10
0.2411220397193369
 20
0.1855382629963977
 10
0.2400677754265422
 20
0.1865418397577296
 10
0.2386620905946203
 20
0.1869934511622459
 10
0.2392645261867558
 20
0.1872945231750544
 10
0.239716354887415
 20
0.1882479229602371
 10
0.2388127001615058
 20
0.1889002473473069
 10
0.2373568112488184
 20
0.1893518587518241
 10
0.2364029551175556
 20
0.189903825801291
 10
0.2361519400645483
 20
0.190556151881013
 10
0.2361519400645483
 20
0.1916099073111472
 10
0.2356952421165132
 20
0.1924228965342424
 10
0.2347915873906049
 20
0.1925734325406467
 10
0.2339883408262286
 20
0.1923225375039874
 10
0.2337875271785767
 20
0.1921218228287817
 10
0.2330846861003203
 20
0.1925734325406467
 10
0.2323316409412985
 20
0.1926236112094472
 10
0.2313275807292702
 20
0.192372717865441
 10
0.2310263615954974
 20
0.1925232538718453
 10
0.2308255506232556
 20
0.1932257586203687
 10
0.2300725054642338
 20
0.1937275470010342
 10
0.2286166165515454
 20
0.1939784420376935
 10
0.2282651960124173
 20
0.1931253995901136
 10
0.2285664124707799
 20
0.1925734325406467
 10
0.22791377547329
 20
0.1925232538718453
 10
0.2273615412865099
 20
0.192272358835186
 10
0.2272109317196235
 20
0.1919712851297252
 10
0.2268595111804953
 20
0.1916200344481162
 10
0.2266586975328434
 20
0.1913691394114569
 10
0.2265582920467225
 20
0.1903655609574728
 10
0.2266586975328434
 20
0.1894121628649423
 10
0.2266586975328434
 20
0.1885089434412132
 10
0.2265080906413671
 20
0.1884085844109582
 10
0.2261064660214735
 20
0.1890609104906801
 10
0.226056261940708
 20
0.1895125202025451
 10
0.2258554509684671
 20
0.189813593908005
 10
0.2256546373208143
 20
0.1908673510307905
 10
0.2255040304293389
 20
0.1917705704545196
 10
0.2248011866756724
 20
0.1918709277921224
 10
0.2245501716226651
 20
0.1915698540866626
 10
0.2243493606504233
 20
0.1911182443747976
 10
0.2239979374358842
 20
0.1907669920005354
 10
0.2236967209775224
 20
0.1913691394114569
 10
0.2236967209775224
 20
0.192272358835186
 10
0.222893471737735
 20
0.1928745062461065
 10
0.2214877869058122
 20
0.1936271896634313
 10
0.2205841321799048
 20
0.1939784420376935
 10
0.2203331171268975
 20
0.1931253995901136
 10
0.2204837266937839
 20
0.1917705704545196
 10
0.2206343362606703
 20
0.1909175296995919
 10
0.219931492507003
 20
0.1904659199877278
 10
0.219178447347982
 20
0.1900644889446643
 10
0.2184756062697256
 20
0.1898637725768064
 10
0.2186262158366129
 20
0.1888601958154745
 10
0.218073981649832
 20
0.1887096581164189
  0
LWPOLYLINE
  5
C55
330
2
100
AcDbEntity
  8
Profilo
  6
Continuous
370
     0
100
AcDbPolyline
 90
       16
 70
   128
 43
0.0
 10
0.2175719515438174
 20
0.1890609104906801
 10
0.2179233720829456
 20
0.1899139512456078
 10
0.217973576163712
 20
0.1907669920005354
 10
0.217973576163712
 20
0.191820749123321
 10
0.2178731706775911
 20
0.1924730752030439
 10
0.2177225611107047
 20
0.1928243275773051
 10
0.2167687023040309
 20
0.1931755799515673
 10
0.216015657145009
 20
0.1930250422525108
 10
0.2150618010137463
 20
0.192372717865441
 10
0.2147605818799726
 20
0.1923225375039874
 10
0.214258551773958
 20
0.1923225375039874
 10
0.2135557106957026
 20
0.191720391785719
 10
0.2127524614559152
 20
0.1906164559941321
 10
0.2116981971631206
 20
0.1881075123981497
 10
0.2113467766239924
 20
0.1864516078644435
 10
0.2112965725432269
 20
0.1854480311031116
  0
LWPOLYLINE
  5
C56
330
2
100
AcDbEntity
  8
Profilo
  6
Continuous
370
     0
100
AcDbPolyline
 90
       11
 70
   128
 43
0.0
 10
0.2126564275907893
 20
0.1849299407909481
 10
0.2139910187356246
 20
0.1874777798374416
 10
0.2147917718172802
 20
0.1887983886273727
 10
0.2154724123379984
 20
0.1898255271046678
 10
0.2158994801131326
 20
0.1902390521463339
 10
0.2159128277368429
 20
0.190772630224377
 10
0.2155391424303223
 20
0.1909327043248514
 10
0.2151654571238008
 20
0.1908393274841331
 10
0.2147917718172802
 20
0.190292409615608
 10
0.2137507909383406
 20
0.18854493768618
 10
0.2130568054693222
 20
0.1870375769074636
  0
LWPOLYLINE
  5
C57
330
2
100
AcDbEntity
  8
Profilo
  6
Continuous
370
     0
100
AcDbPolyline
 90
        2
 70
   128
 43
0.0
 10
0.2138275431189437
 20
0.1840347885466928
 10
0.2158058567929978
 20
0.1866599073133001
  0
LWPOLYLINE
  5
C58
330
2
100
AcDbEntity
  8
Profilo
  6
Continuous
370
     0
100
AcDbPolyline
 90
        2
 70
   128
 43
0.0
 10
0.2177394884338594
 20
0.176009106129316
 10
0.2223870272041547
 20
0.1805321651256748
  0
LWPOLYLINE
  5
C59
330
2
100
AcDbEntity
  8
Profilo
  6
Continuous
370
     0
100
AcDbPolyline
 90
        3
 70
   128
 43
0.0
 10
0.2219589641762613
 20
0.1865221643707788
 10
0.2213474455649837
 20
0.1889670614000515
 10
0.2205524713703236
 20
0.1898838982091919
  0
LWPOLYLINE
  5
C5A
330
2
100
AcDbEntity
  8
Profilo
  6
Continuous
370
     0
100
AcDbPolyline
 90
        3
 70
   128
 43
0.0
 10
0.2229985458154323
 20
0.1892726731055476
 10
0.2218366604540058
 20
0.1905562449768738
 10
0.221225141842729
 20
0.1908618566823698
  0
LWPOLYLINE
  5
C5B
330
2
100
AcDbEntity
  8
Profilo
  6
Continuous
370
     0
100
AcDbPolyline
 90
        3
 70
   128
 43
0.0
 10
0.2289302736694107
 20
0.1867055310555465
 10
0.2308259786889585
 20
0.1893949181262759
 10
0.2313763454391084
 20
0.1917175701348194
  0
LWPOLYLINE
  5
C5C
330
2
100
AcDbEntity
  8
Profilo
  6
Continuous
370
     0
100
AcDbPolyline
 90
        4
 70
   128
 43
0.0
 10
0.2285633625026441
 20
0.1893337964622383
 10
0.229113729252794
 20
0.1906173666409123
 10
0.2289302736694107
 20
0.1914119584293234
 10
0.2288079699471551
 20
0.1920231835329677
  0
LWPOLYLINE
  5
C5D
330
2
100
AcDbEntity
  8
Profilo
  6
Continuous
370
     0
100
AcDbPolyline
 90
       11
 70
   128
 43
0.0
 10
0.2186567636753648
 20
0.176009106129316
 10
0.2209193825370902
 20
0.176803697917728
 10
0.2231820013988156
 20
0.1791874715903092
 10
0.2259949843352799
 20
0.1817546136403112
 10
0.229113729252794
 20
0.1843217556903122
 10
0.2323547752171517
 20
0.1859720626238252
 10
0.2359627323482768
 20
0.1868277760762748
 10
0.2387757179601521
 20
0.1859720626238252
 10
0.2394483884325566
 20
0.1852997158561424
 10
0.2395095402936843
 20
0.1839550223207777
 10
0.2393260847103011
 20
0.1833437972171334
  0
LWPOLYLINE
  5
C5E
330
2
100
AcDbEntity
  8
Profilo
  6
Continuous
370
     0
100
AcDbPolyline
 90
        5
 70
   128
 43
0.0
 10
0.2302144600776818
 20
0.1827325738061413
 10
0.2326605345227905
 20
0.1848718591299181
 10
0.2348008469868502
 20
0.1853608375201809
 10
0.2369411621263201
 20
0.1852997158561424
 10
0.2384088067933846
 20
0.1849329807939565
  0
LWPOLYLINE
  5
C5F
330
2
100
AcDbEntity
  8
Profilo
  6
Continuous
370
     0
100
AcDbPolyline
 90
        2
 70
   128
 43
0.0
 10
0.2330885975506848
 20
0.1834660422378626
 10
0.2347396978011335
 20
0.1830993071756759
  0
LWPOLYLINE
  5
C60
330
2
100
AcDbEntity
  8
Profilo
  6
Continuous
370
     0
100
AcDbPolyline
 90
        4
 70
   128
 43
0.0
 10
0.218106396925215
 20
0.1730141073530906
 10
0.220980534398218
 20
0.1745421675732221
 10
0.2233654569821989
 20
0.1764369628555413
 10
0.225200010140619
 20
0.1785762481793171
  0
LWPOLYLINE
  5
C61
330
2
100
AcDbEntity
  8
Profilo
  6
Continuous
370
     0
100
AcDbPolyline
 90
       30
 70
   128
 43
0.0
 10
0.1865299289294969
 20
0.1580199008843554
 10
0.1852789370767568
 20
0.1567935568720995
 10
0.1827966268698632
 20
0.1549486237326562
 10
0.1806962074539412
 20
0.1544396754339927
 10
0.1802506659682991
 20
0.1551394787099105
 10
0.1802506659682991
 20
0.1565390835690938
 10
0.1805052607207499
 20
0.1578114517767743
 10
0.1799960685404381
 20
0.1587021100299454
 10
0.1796778230933159
 20
0.1595291499573661
 10
0.1792959296269333
 20
0.1603561898847867
 10
0.1792959296269333
 20
0.1609287548165494
 10
0.1782138945716375
 20
0.1615649397667158
 10
0.1778956517999263
 20
0.1625828346713897
 10
0.1778956517999263
 20
0.1636007295760646
 10
0.1786594387326897
 20
0.1643005311593301
 10
0.1791049828937429
 20
0.1648094794579937
 10
0.1791049828937429
 20
0.1659546110141705
 10
0.1793595776461937
 20
0.1669088875930939
 10
0.1799324205211769
 20
0.1670997425703482
 10
0.1798051218072459
 20
0.1676723075021109
 10
0.1799324205211769
 20
0.1684993474295315
 10
0.1798687698265063
 20
0.16888105738404
 10
0.1796141750740555
 20
0.1691355323796979
 10
0.1796141750740555
 20
0.1700261889402177
 10
0.1798051218072459
 20
0.1705987555646317
 10
0.1805689087400103
 20
0.1708532288676374
 10
0.1811134591474167
 20
0.1709758564277206
 10
0.1817331752169114
 20
0.1709758564277206
 10
0.1827247225333516
 20
0.170825425365741
 10
0.1842651597732637
 20
0.1703829830571552
  0
LWPOLYLINE
  5
C62
330
2
100
AcDbEntity
  8
Profilo
  6
Continuous
370
     0
100
AcDbPolyline
 90
        7
 70
   128
 43
0.0
 10
0.1847697448964441
 20
0.1588293466814483
 10
0.1831785203362458
 20
0.1576842151252706
 10
0.18222378399488
 20
0.1569844135420059
 10
0.1817782425092379
 20
0.1573661234965144
 10
0.1817782425092379
 20
0.1579386884282771
 10
0.18222378399488
 20
0.1584476367269398
 10
0.1839423072690093
 20
0.1595927682831175
  0
LWPOLYLINE
  5
C63
330
2
100
AcDbEntity
  8
Profilo
  6
Continuous
370
     0
100
AcDbPolyline
 90
        6
 70
   128
 43
0.0
 10
0.1734616964122936
 20
0.1577466130489244
 10
0.1751587414897607
 20
0.1581295450981827
 10
0.1768136167446296
 20
0.159211058328609
 10
0.177577406352804
 20
0.1602925715590353
 10
0.1778320011052549
 20
0.1613740847894606
 10
0.1778956517999263
 20
0.1616285580924672
  0
LWPOLYLINE
  5
C64
330
2
100
AcDbEntity
  8
Profilo
  6
Continuous
370
     0
100
AcDbPolyline
 90
       23
 70
   128
 43
0.0
 10
0.1780865985331167
 20
0.1639824395305731
 10
0.177577406352804
 20
0.1651911894125022
 10
0.1767499687253692
 20
0.1660818476656733
 10
0.1759861791171947
 20
0.1668452692673425
 10
0.1750314454512399
 20
0.1670997425703482
 10
0.1740130610906146
 20
0.1671633608960996
 10
0.1731856234631789
 20
0.1671633608960996
 10
0.1732492714824402
 20
0.1664635576201818
 10
0.1735038689103011
 20
0.1657001360185135
 10
0.1740130610906146
 20
0.1651911894125022
 10
0.1742676558430655
 20
0.1650003344352479
 10
0.1745222532709273
 20
0.1645550044623358
 10
0.1735675169295615
 20
0.1637915845533188
 10
0.1731219727685084
 20
0.1630281629516496
 10
0.1729310260353179
 20
0.1625828346713897
 10
0.1733765701963711
 20
0.1621375046984785
 10
0.1740767091098742
 20
0.1615649397667158
 10
0.1744586025762568
 20
0.1613740847894606
 10
0.1740130610906146
 20
0.1605470448620409
 10
0.1737363754724618
 20
0.1597097305369268
 10
0.1736311649488219
 20
0.1589565833329511
 10
0.1735038689103011
 20
0.1581295450981827
 10
0.1734616964122936
 20
0.1577466130489244
  0
LWPOLYLINE
  5
C65
330
2
100
AcDbEntity
  8
Profilo
  6
Continuous
370
     0
100
AcDbPolyline
 90
        6
 70
   128
 43
0.0
 10
0.1736954657682793
 20
0.1598251220096718
 10
0.1730393079303799
 20
0.1601530428686444
 10
0.1723831474170686
 20
0.160726906064498
 10
0.1722464473101296
 20
0.1611094826568346
 10
0.1725198475240085
 20
0.161683344160036
 10
0.1730666479517672
 20
0.1621752271411467
  0
LWPOLYLINE
  5
C66
330
2
100
AcDbEntity
  8
Profilo
  6
Continuous
370
     0
100
AcDbPolyline
 90
        7
 70
   128
 43
0.0
 10
0.1730939879731553
 20
0.16351424013637
 10
0.1723284673742932
 20
0.1639241429027378
 10
0.1718636896861082
 20
0.1644980060985905
 10
0.1720003897930481
 20
0.1649352350389885
 10
0.1723284673742932
 20
0.1653997901534167
 10
0.1727112276737238
 20
0.1656457307976455
 10
0.1732853654474605
 20
0.1659463271752401
  0
LWPOLYLINE
  5
C67
330
2
100
AcDbEntity
  8
Profilo
  6
Continuous
370
     0
100
AcDbPolyline
 90
       13
 70
   128
 43
0.0
 10
0.1721917699427634
 20
0.1617379982007487
 10
0.1715082694080657
 20
0.1614920575565199
 10
0.1708794515915536
 20
0.1617653243747789
 10
0.1700865936467143
 20
0.1620659207523726
 10
0.1695397932189556
 20
0.1625031496927706
 10
0.1696218132831183
 20
0.163077011195972
 10
0.1700865936467143
 20
0.1633502797068842
 10
0.1702232910782432
 20
0.1636235482177954
 10
0.1703053111424068
 20
0.1640334492915109
 10
0.1707700915060019
 20
0.1644433520578778
 10
0.1711801891514096
 20
0.1644433520578778
 10
0.1715356094294539
 20
0.1644433520578778
 10
0.1717269895791692
 20
0.1644160258838476
  0
LWPOLYLINE
  5
C68
330
2
100
AcDbEntity
  8
Profilo
  6
Continuous
370
     0
100
AcDbPolyline
 90
        6
 70
   128
 43
0.0
 10
0.2452057223190084
 20
0.1577466130489244
 10
0.2435086772415421
 20
0.1581295450981827
 10
0.2418538019866733
 20
0.159211058328609
 10
0.2410900123784979
 20
0.1602925715590353
 10
0.2408354176260471
 20
0.1613740847894606
 10
0.2407717669313766
 20
0.1616285580924672
  0
LWPOLYLINE
  5
C69
330
2
100
AcDbEntity
  8
Profilo
  6
Continuous
370
     0
100
AcDbPolyline
 90
       23
 70
   128
 43
0.0
 10
0.2405808201981853
 20
0.1639824395305731
 10
0.2410900123784979
 20
0.1651911894125022
 10
0.2419174500059328
 20
0.1660818476656733
 10
0.2426812396141073
 20
0.1668452692673425
 10
0.2436359732800629
 20
0.1670997425703482
 10
0.2446543576406882
 20
0.1671633608960996
 10
0.2454817952681231
 20
0.1671633608960996
 10
0.2454181472488627
 20
0.1664635576201818
 10
0.2451635498210009
 20
0.1657001360185135
 10
0.2446543576406882
 20
0.1651911894125022
 10
0.2443997628882374
 20
0.1650003344352479
 10
0.2441451654603747
 20
0.1645550044623358
 10
0.2450999018017414
 20
0.1637915845533188
 10
0.2455454459627936
 20
0.1630281629516496
 10
0.2457363926959849
 20
0.1625828346713897
 10
0.2452908485349318
 20
0.1621375046984785
 10
0.2445907096214278
 20
0.1615649397667158
 10
0.2442088161550461
 20
0.1613740847894606
 10
0.2446543576406882
 20
0.1605470448620409
 10
0.2449310432588402
 20
0.1597097305369268
 10
0.245036253782481
 20
0.1589565833329511
 10
0.2451635498210009
 20
0.1581295450981827
 10
0.2452057223190084
 20
0.1577466130489244
  0
LWPOLYLINE
  5
C6A
330
2
100
AcDbEntity
  8
Profilo
  6
Continuous
370
     0
100
AcDbPolyline
 90
        6
 70
   128
 43
0.0
 10
0.2449719529630227
 20
0.1598251220096718
 10
0.245628110800923
 20
0.1601530428686444
 10
0.2462842713142334
 20
0.160726906064498
 10
0.2464209714211733
 20
0.1611094826568346
 10
0.2461475712072944
 20
0.161683344160036
 10
0.2456007707795357
 20
0.1621752271411467
  0
LWPOLYLINE
  5
C6B
330
2
100
AcDbEntity
  8
Profilo
  6
Continuous
370
     0
100
AcDbPolyline
 90
        7
 70
   128
 43
0.0
 10
0.2455734307581475
 20
0.16351424013637
 10
0.2463389513570097
 20
0.1639241429027378
 10
0.2468037290451938
 20
0.1644980060985905
 10
0.2466670289382539
 20
0.1649352350389885
 10
0.2463389513570097
 20
0.1653997901534167
 10
0.2459561910575782
 20
0.1656457307976455
 10
0.2453820532838423
 20
0.1659463271752401
  0
LWPOLYLINE
  5
C6C
330
2
100
AcDbEntity
  8
Profilo
  6
Continuous
370
     0
100
AcDbPolyline
 90
       13
 70
   128
 43
0.0
 10
0.2464756487885386
 20
0.1617379982007487
 10
0.2471591493232371
 20
0.1614920575565199
 10
0.2477879671397493
 20
0.1617653243747789
 10
0.2485808250845886
 20
0.1620659207523726
 10
0.2491276255123473
 20
0.1625031496927706
 10
0.2490456054481837
 20
0.163077011195972
 10
0.2485808250845886
 20
0.1633502797068842
 10
0.2484441276530597
 20
0.1636235482177954
 10
0.2483621075888961
 20
0.1640334492915109
 10
0.247897327225301
 20
0.1644433520578778
 10
0.2474872295798923
 20
0.1644433520578778
 10
0.247131809301849
 20
0.1644433520578778
 10
0.2469404291521337
 20
0.1644160258838476
  0
LWPOLYLINE
  5
C6D
330
2
100
AcDbEntity
  8
Profilo
  6
Continuous
370
     0
100
AcDbPolyline
 90
       39
 70
   129
 43
0.0
 10
0.2062809106451428
 20
0.1448093047473926
 10
0.2057522280982757
 20
0.1444225168368578
 10
0.2056937837527214
 20
0.1436631237469696
 10
0.2058106697684198
 20
0.1428745239466695
 10
0.2061321069804415
 20
0.1423487913106868
 10
0.2068626439097016
 20
0.1418814720955281
 10
0.2075931808389607
 20
0.1418230569820519
 10
0.2084990454540624
 20
0.1422027543733217
 10
0.2090250311869982
 20
0.1430205608840338
 10
0.2092588032183941
 20
0.14375074726351
 10
0.2092588032183941
 20
0.1444809319503339
 10
0.2089373686817825
 20
0.1455323989149515
 10
0.2083237177682208
 20
0.146613072589981
 10
0.2076224016740332
 20
0.1473724656798691
 10
0.2063658790118374
 20
0.1478689916054398
 10
0.2052554632004123
 20
0.1479566134293279
 10
0.2033560687895831
 20
0.1477229546680747
 10
0.2011644580018038
 20
0.1467006961065213
 10
0.199381949606673
 20
0.1444809319503339
 10
0.1983884198109454
 20
0.1419690939194171
 10
0.1983884198109454
 20
0.1398953683932462
 10
0.199235842755903
 20
0.1377924344640111
 10
0.2007553582845664
 20
0.1361860264603467
 10
0.2022164321430865
 20
0.1350761443822521
 10
0.2031807384283305
 20
0.1352221830122695
 10
0.203589840820979
 20
0.1360399895229815
 10
0.2032976244440289
 20
0.1370622497771871
 10
0.2027716387110931
 20
0.1376463975266459
 10
0.2018949949310639
 20
0.1384642057300102
 10
0.2016027812295239
 20
0.1387270712016754
 10
0.2020118809467614
 20
0.1387854863151516
 10
0.2021287669624598
 20
0.1392528055303103
 10
0.2019826601116898
 20
0.1401874422679756
 10
0.2015735577190413
 20
0.1410052504713399
 10
0.2016612228996672
 20
0.1422611694867979
 10
0.2022164321430865
 20
0.1439551993143513
 10
0.2031515175932589
 20
0.1448606276489514
 10
0.2047879191376206
 20
0.1452403250402221
 10
0.2056353420825782
 20
0.1450942881028569
  0
LWPOLYLINE
  5
C6E
330
2
100
AcDbEntity
  8
Profilo
  6
Continuous
370
     0
100
AcDbPolyline
 90
       22
 70
   128
 43
0.0
 10
0.2092312090329943
 20
0.1475292932737901
 10
0.2090841015786439
 20
0.1480520891585377
 10
0.2087408517436272
 20
0.1485422100889066
 10
0.2081197337589539
 20
0.1487872705540911
 10
0.207204400865577
 20
0.1490813434508431
 10
0.2061520173864667
 20
0.1494260757295671
 10
0.2047374983485922
 20
0.1498973540577739
 10
0.2041612148955182
 20
0.1498973540577739
 10
0.2035849287670341
 20
0.1502639046208913
 10
0.2039516553304653
 20
0.150735182949099
 10
0.2029038655314332
 20
0.1516777412981649
 10
0.2020656326220437
 20
0.152306112966658
 10
0.2015941289514965
 20
0.1529344863278034
 10
0.2012274023880644
 20
0.1537199513365838
 10
0.2009654529317481
 20
0.1545577802279081
 10
0.2001796099136221
 20
0.1549766946735702
 10
0.1986038438761336
 20
0.1547245487670765
 10
0.1971369349469957
 20
0.1536248987703765
 10
0.1957748084757956
 20
0.1520016048702719
 10
0.1949889654576687
 20
0.1509543170634644
 10
0.1939935655498991
 20
0.1498546670667635
 10
0.1929981629667202
 20
0.1488597448351529
  0
LWPOLYLINE
  5
C6F
330
2
100
AcDbEntity
  8
Profilo
  6
Continuous
370
     0
100
AcDbPolyline
 90
       28
 70
   129
 43
0.0
 10
0.194392038536053
 20
0.1584298740367597
 10
0.1931545942271721
 20
0.1587490608113664
 10
0.19203690129879
 20
0.1595470294405347
 10
0.1919171499182902
 20
0.1606242856511594
 10
0.1922764067351997
 20
0.1616616443612826
 10
0.192994923044428
 20
0.1620207303290412
 10
0.1937134393536571
 20
0.162180323716345
 10
0.195070637718448
 20
0.1620606278295411
 10
0.1959488252104203
 20
0.1615020509739797
 10
0.1967072586464827
 20
0.1597066228278385
 10
0.1970266010119691
 20
0.157033429358877
 10
0.1961484135199968
 20
0.1554773929863428
 10
0.1951903917743588
 20
0.1542405416957639
 10
0.1934340167904142
 20
0.1530435895983361
 10
0.19203690129879
 20
0.1526845036305775
 10
0.1900809406806799
 20
0.1526446061300776
 10
0.1889632477522979
 20
0.1534026755660948
 10
0.1879253890775824
 20
0.1545996276635217
 10
0.1876459665143403
 20
0.1557965797609495
 10
0.1878455548239167
 20
0.1563950558096629
 10
0.1886039882599783
 20
0.1561157665355561
 10
0.1895220928787838
 20
0.155397596292691
 10
0.1904002803707562
 20
0.1551183070185842
 10
0.1913583021163941
 20
0.1551183070185842
 10
0.192316323862033
 20
0.1553576970995389
 10
0.1931545942271721
 20
0.1560758690350563
 10
0.1938731105364003
 20
0.1568738359715733
 10
0.1940726988459768
 20
0.1575521087139386
  0
LWPOLYLINE
  5
C70
330
2
100
AcDbEntity
  8
Profilo
  6
Continuous
370
     0
100
AcDbPolyline
 90
      136
 70
   128
 43
0.0
 10
0.188160793109473
 20
0.1539318104326148
 10
0.186998886344761
 20
0.1546851184385311
 10
0.1861510059045831
 20
0.1555639772145496
 10
0.1859625901098621
 20
0.1561603476041644
 10
0.1853031281398153
 20
0.1562545098354148
 10
0.1843610384645718
 20
0.1558464689862577
 10
0.1843924424347304
 20
0.1548106692086332
 10
0.1847378754048331
 20
0.153492381044606
 10
0.1849576951697117
 20
0.1527390730386897
 10
0.1846750701399261
 20
0.1527390730386897
 10
0.1838271896997482
 20
0.1532412778117504
 10
0.1832305329946083
 20
0.1530215631177456
 10
0.1831677277297013
 20
0.1522996436506809
 10
0.1832305329946083
 20
0.1517660503387685
 10
0.1834817567296455
 20
0.1512952324119081
 10
0.1838585936699067
 20
0.1507302522537972
 10
0.1839213989348137
 20
0.1504163736358896
 10
0.183575965964711
 20
0.1501338835568346
 10
0.1826966842297847
 20
0.1504163736358896
 10
0.1819430130246714
 20
0.1509499669478011
 10
0.1812835510546246
 20
0.1516404995686673
 10
0.1806868970248948
 20
0.1522996436506809
 10
0.179839016584716
 20
0.1524879698058332
 10
0.1794307783497072
 20
0.1514835602597135
 10
0.1798076152899685
 20
0.1506046997910428
 10
0.1806240917599878
 20
0.1496630656299733
 10
0.1812207457897185
 20
0.1491608608569134
 10
0.1816289840247273
 20
0.1488155937001551
 10
0.181504125285305
 20
0.1482754210498851
 10
0.1814099160502395
 20
0.1477104391991219
 10
0.181504125285305
 20
0.1471140705021585
 10
0.1821321832851942
 20
0.1468001918842518
 10
0.1829486597552136
 20
0.1468315804231035
 10
0.1835453164603543
 20
0.1469885197320572
 10
0.1836709269901674
 20
0.1466118657290986
 10
0.1835767177551019
 20
0.1461724346484376
 10
0.1837965401953924
 20
0.1457016184142285
 10
0.1841733744602426
 20
0.1455446791052756
 10
0.1850212549004205
 20
0.1453877397963219
 10
0.1856493129003097
 20
0.1456388430291775
 10
0.1859633419002539
 20
0.1462665985723403
 10
0.1859947431950023
 20
0.1469885197320572
 10
0.1864657893703291
 20
0.1477104391991219
 10
0.1864971906650766
 20
0.146643252575298
 10
0.1866542051650491
 20
0.1454505151813729
 10
0.1870624434000588
 20
0.1446030432515539
 10
0.1861300975703867
 20
0.1448567700950236
 10
0.1852264428444784
 20
0.1448065914262222
 10
0.1850256291968265
 20
0.1436524769658338
 10
0.1845235990908119
 20
0.1438030146648903
 10
0.1842223826324502
 20
0.1441040866776988
 10
0.1836199443649046
 20
0.1443549817143572
 10
0.1829673046920036
 20
0.1441542653465002
 10
0.18311791425889
 20
0.1429499722173104
 10
0.1833689293118973
 20
0.1424481838366449
 10
0.1826158841528754
 20
0.1426489002045019
 10
0.1821640581276264
 20
0.1431005099163669
 10
0.1816620280216118
 20
0.1437026556346352
 10
0.1813106074824836
 20
0.1440539080088973
 10
0.1811097938348317
 20
0.1439535506712945
 10
0.1804069527565762
 20
0.1435019409594295
 10
0.1806579678095835
 20
0.1422474691614392
 10
0.1813106074824836
 20
0.1414947857441135
 10
0.1814110129686045
 20
0.1408926383331929
 10
0.1802563431896899
 20
0.1414446070753121
 10
0.1796037035167889
 20
0.1418460381183757
 10
0.1794028925445471
 20
0.1424983625054454
 10
0.1796037035167889
 20
0.1432008672539697
 10
0.1796037035167889
 20
0.1441542653465002
 10
0.1786498447101151
 20
0.1447564127574207
 10
0.1779972077126243
 20
0.1452080224692857
 10
0.1773947694450787
 20
0.1463621369296741
 10
0.1768927393390641
 20
0.1474158940524596
 10
0.1763907092330495
 20
0.1474660727212602
 10
0.1757380695601495
 20
0.1479176824331251
 10
0.175135633968014
 20
0.1485700085128471
 10
0.1737299491360912
 20
0.1485700085128471
 10
0.1733283245161975
 20
0.148018039770728
 10
0.1739307627837431
 20
0.1467635679727368
 10
0.1750352284818931
 20
0.1445055177207623
 10
0.175788273640915
 20
0.1421471101311841
 10
0.1766919283668232
 20
0.1406417449891859
 10
0.1775453790119651
 20
0.1393370928297419
 10
0.1785996433047597
 20
0.1383335160684091
 10
0.1800053281366826
 20
0.1378819046638928
 10
0.1794028925445471
 20
0.1375808326510843
 10
0.1789510638438879
 20
0.1366274328659016
 10
0.1798547185697962
 20
0.1359751084788318
 10
0.1813106074824836
 20
0.1355234970743146
 10
0.1822644636137473
 20
0.1349715300248477
 10
0.1825154786667545
 20
0.1343192039451257
 10
0.1825154786667545
 20
0.1332654485149924
 10
0.1829721766147888
 20
0.1324524592918963
 10
0.1838758313406971
 20
0.1323019232854929
 10
0.1846790779050734
 20
0.1325528183221513
 10
0.1848798915527262
 20
0.132753532997357
 10
0.1855827326309817
 20
0.1323019232854929
 10
0.1863357777900035
 20
0.1322517446166915
 10
0.1873398380020318
 20
0.1325026379606986
 10
0.1876410571358055
 20
0.1323521019542934
 10
0.1878418681080464
 20
0.13164959720577
 10
0.1885949132670682
 20
0.1311478088251045
 10
0.1900508021797566
 20
0.1308969137884452
 10
0.1904022227188847
 20
0.1317499562360251
 10
0.1901010062605221
 20
0.1323019232854929
 10
0.190753643258012
 20
0.1323521019542934
 10
0.191305877444793
 20
0.1326029969909527
 10
0.1914564870116794
 20
0.1329040706964135
 10
0.1918079075508076
 20
0.1332553213780234
 10
0.1920087211984595
 20
0.1335062164146818
 10
0.1921091266845795
 20
0.1345097948686659
 10
0.1920087211984595
 20
0.1354631929611964
 10
0.1920087211984595
 20
0.1363664123849264
 10
0.1921593280899348
 20
0.1364667714151805
 10
0.1925609527098285
 20
0.1358144453354586
 10
0.192611156790594
 20
0.1353628356235945
 10
0.1928119677628358
 20
0.1350617619181337
 10
0.1930127814104877
 20
0.1340080047953482
 10
0.193163388301964
 20
0.1331047853716191
 10
0.1938662320556305
 20
0.1330044280340163
 10
0.1941172471086377
 20
0.133305501739477
 10
0.1943180580808786
 20
0.1337571114513411
 10
0.1946694812954178
 20
0.1341083638256033
 10
0.1949706977537796
 20
0.1335062164146818
 10
0.1949706977537796
 20
0.1326029969909527
 10
0.195773946993567
 20
0.1320008495800322
 10
0.1971796318254898
 20
0.1312481661627074
 10
0.1980832865513981
 20
0.1308969137884452
 10
0.1983343016044053
 20
0.1317499562360251
 10
0.1981836920375189
 20
0.1331047853716191
 10
0.1980330824706325
 20
0.1339578261265468
 10
0.198735926224299
 20
0.1344094358384118
 10
0.19948897138332
 20
0.1348108668814744
 10
0.2001918124615764
 20
0.1350115832493323
 10
0.20004120289469
 20
0.1360151600106642
 10
0.2005934370814701
 20
0.1361656977097207
  0
LWPOLYLINE
  5
C71
330
2
100
AcDbEntity
  8
Profilo
  6
Continuous
370
     0
100
AcDbPolyline
 90
       16
 70
   128
 43
0.0
 10
0.2010954671874846
 20
0.1358144453354586
 10
0.2007440466483565
 20
0.1349614045805309
 10
0.2006938425675909
 20
0.1341083638256033
 10
0.2006938425675909
 20
0.1330546067028177
 10
0.2007942480537118
 20
0.1324022806230957
 10
0.2009448576205982
 20
0.1320510282488336
 10
0.201898716427272
 20
0.1316997758745714
 10
0.202651761586293
 20
0.1318503135736279
 10
0.2036056177175566
 20
0.1325026379606986
 10
0.2039068368513294
 20
0.1325528183221513
 10
0.204408866957344
 20
0.1325528183221513
 10
0.2051117080355994
 20
0.1331549640404205
 10
0.2059149572753877
 20
0.1342588998320075
 10
0.2069692215681814
 20
0.136767843427989
 10
0.2073206421073096
 20
0.1384237479616952
 10
0.2073708461880751
 20
0.1394273247230279
  0
LWPOLYLINE
  5
C72
330
2
100
AcDbEntity
  8
Profilo
  6
Continuous
370
     0
100
AcDbPolyline
 90
        9
 70
   128
 43
0.0
 10
0.2086259214531116
 20
0.1386746413057022
 10
0.2086259214531116
 20
0.135212297924538
 10
0.2085757173723452
 20
0.1333556804082776
 10
0.2086283667784413
 20
0.1317774449046482
 10
0.209228357045247
 20
0.13164959720577
 10
0.2096801830704952
 20
0.1322015659478901
 10
0.2095797775843743
 20
0.1336567524210869
 10
0.2094291680174879
 20
0.1368682024582441
 10
0.2094291680174879
 20
0.1385742839680994
  0
LWPOLYLINE
  5
C73
330
2
100
AcDbEntity
  8
Profilo
  6
Continuous
370
     0
100
AcDbPolyline
 90
       33
 70
   128
 43
0.0
 10
0.2072202366211887
 20
0.1298431583583119
 10
0.2062161764091596
 20
0.1291406536097885
 10
0.2053627230886067
 20
0.1280868964870029
 10
0.2048104915772376
 20
0.1270331410568696
 10
0.2048104915772376
 20
0.1259793839340841
 10
0.204961101144124
 20
0.125076164510355
 10
0.2057643477085004
 20
0.125076164510355
 10
0.2064671914621669
 20
0.1251765218479579
 10
0.2065173928675223
 20
0.1246245531058378
 10
0.2071198311350678
 20
0.123871869688513
 10
0.208123891347097
 20
0.123871869688513
 10
0.2086761228584661
 20
0.1240725860563709
 10
0.2076720626464378
 20
0.123420259976648
 10
0.2074210475934305
 20
0.1226675765593232
 10
0.2075716571603169
 20
0.1218145358043956
 10
0.2082242968332179
 20
0.1211120310558722
 10
0.2088769365061188
 20
0.1210116737182693
 10
0.2093789666121334
 20
0.1212625687549286
 10
0.2100818076903889
 20
0.1214632834301334
 10
0.2105336363910481
 20
0.1220654308410549
 10
0.210634041877169
 20
0.1229184715959825
 10
0.2103328227433962
 20
0.1237715123509102
 10
0.2103830268241617
 20
0.1239220500499667
 10
0.2112364774693044
 20
0.1236209763445059
 10
0.2118389130614399
 20
0.1236209763445059
 10
0.2121401321952127
 20
0.1239220500499667
 10
0.2126421623012264
 20
0.1244740170994336
 10
0.2133964113950392
 20
0.1245987790936999
 10
0.2135458170271355
 20
0.1254274151919649
 10
0.2135458170271355
 20
0.1266818886826075
 10
0.2127425677873473
 20
0.1280868964870029
 10
0.2116381020891981
 20
0.1294919059840498
 10
0.2108850569301762
 20
0.1300438730335176
  0
LWPOLYLINE
  5
C74
330
2
100
AcDbEntity
  8
Profilo
  6
Continuous
370
     0
100
AcDbPolyline
 90
        3
 70
   128
 43
0.0
 10
0.2068859226577294
 20
0.1255387883088405
 10
0.2073826313719697
 20
0.1257373753204711
 10
0.2081276931056245
 20
0.124992671064716
  0
LWPOLYLINE
  5
C75
330
2
100
AcDbEntity
  8
Profilo
  6
Continuous
370
     0
100
AcDbPolyline
 90
        4
 70
   128
 43
0.0
 10
0.2080283497575301
 20
0.1287161906508411
 10
0.2075316437187008
 20
0.1277232522073847
 10
0.2075316437187008
 20
0.1265317267522969
 10
0.2075813127173375
 20
0.1261841982124551
  0
LWPOLYLINE
  5
C76
330
2
100
AcDbEntity
  8
Profilo
  6
Continuous
370
     0
100
AcDbPolyline
 90
        6
 70
   128
 43
0.0
 10
0.2100648536131277
 20
0.1285672508152813
 10
0.2107602436727348
 20
0.1276239578552433
 10
0.2105615623273679
 20
0.1265813739283676
 10
0.2106112313260046
 20
0.1254891411327698
 10
0.2112072807129283
 20
0.1250423182407867
 10
0.2108099153467825
 20
0.1247940840530854
  0
LWPOLYLINE
  5
C77
330
2
100
AcDbEntity
  8
Profilo
  6
Continuous
370
     0
100
AcDbPolyline
 90
       32
 70
   128
 43
0.0
 10
0.2075184191638789
 20
0.1383705106707142
 10
0.2073813605519134
 20
0.1364252421981446
 10
0.2067783122907397
 20
0.1347539548429819
 10
0.206065617675076
 20
0.1334114448287082
 10
0.2053255108019369
 20
0.1328908798593082
 10
0.2048047635230449
 20
0.132525478606905
 10
0.2048047635230449
 20
0.1319501174140245
 10
0.2051336999111068
 20
0.131456949710039
 10
0.2056271044932004
 20
0.1313199599976608
 10
0.2060108627208023
 20
0.1314021534865577
 10
0.2063397991088641
 20
0.1312377648161127
 10
0.2066961450789905
 20
0.1309089874752245
 10
0.2071073155640678
 20
0.130415819771239
 10
0.2077103638252406
 20
0.1300322462068694
 10
0.2085327047953952
 20
0.1297308661313949
 10
0.2092453994110589
 20
0.1297308661313949
 10
0.210095149963279
 20
0.1298404585783576
 10
0.211164190549069
 20
0.1303062273242763
 10
0.2114931269371309
 20
0.1308541912517431
 10
0.2116850073886382
 20
0.1312651637741795
 10
0.2119865315192245
 20
0.1311281723691499
 10
0.2124799361013173
 20
0.1311007734110831
 10
0.2128362820714437
 20
0.1311829685926313
 10
0.2130007502654746
 20
0.1318405249670608
 10
0.2127814602319037
 20
0.132525478606905
 10
0.2122058215527955
 20
0.1333474219591272
 10
0.2117124169707018
 20
0.1340049783335568
 10
0.2112190150640209
 20
0.1349091168673264
 10
0.2106981982244517
 20
0.1359502468061264
 10
0.2104240863513408
 20
0.1370735702338223
 10
0.2102870304147854
 20
0.1380325066837255
 10
0.2103692645118008
 20
0.1388818489940137
  0
LWPOLYLINE
  5
C78
330
2
100
AcDbEntity
  8
Profilo
  6
Continuous
370
     0
100
AcDbPolyline
 90
       11
 70
   128
 43
0.0
 10
0.2060109911405127
 20
0.1399454150351906
 10
0.2046763999956775
 20
0.137397575988698
 10
0.2038756469140227
 20
0.136076967198766
 10
0.2031950063933045
 20
0.1350498287214718
 10
0.2027679386181703
 20
0.1346363036798057
 10
0.2027545909944592
 20
0.1341027256017617
 10
0.2031282763009806
 20
0.1339426515012882
 10
0.2035019616075012
 20
0.1340360283420065
 10
0.2038756469140227
 20
0.1345829462105316
 10
0.2049166277929614
 20
0.1363304181399587
 10
0.2056106132619798
 20
0.1378377789186751
  0
LWPOLYLINE
  5
C79
330
2
100
AcDbEntity
  8
Profilo
  6
Continuous
370
     0
100
AcDbPolyline
 90
        2
 70
   128
 43
0.0
 10
0.2048398756123592
 20
0.1408405672794459
 10
0.2028615619383042
 20
0.1382154485128386
  0
LWPOLYLINE
  5
C7A
330
2
100
AcDbEntity
  8
Profilo
  6
Continuous
370
     0
100
AcDbPolyline
 90
        2
 70
   128
 43
0.0
 10
0.2009279302974426
 20
0.1488662496968227
 10
0.1962803915271473
 20
0.1443431907004639
  0
LWPOLYLINE
  5
C7B
330
2
100
AcDbEntity
  8
Profilo
  6
Continuous
370
     0
100
AcDbPolyline
 90
        3
 70
   128
 43
0.0
 10
0.1967084545550407
 20
0.1383531914553599
 10
0.1973199731663183
 20
0.1359082944260872
 10
0.1981149473609783
 20
0.1349914576169477
  0
LWPOLYLINE
  5
C7C
330
2
100
AcDbEntity
  8
Profilo
  6
Continuous
370
     0
100
AcDbPolyline
 90
        3
 70
   128
 43
0.0
 10
0.1956688729158705
 20
0.1356026827205911
 10
0.1968307582772962
 20
0.1343191108492649
 10
0.1974422768885738
 20
0.1340134991437689
  0
LWPOLYLINE
  5
C7D
330
2
100
AcDbEntity
  8
Profilo
  6
Continuous
370
     0
100
AcDbPolyline
 90
        3
 70
   128
 43
0.0
 10
0.1897371450618922
 20
0.1381698247705931
 10
0.1878414400423435
 20
0.1354804376998628
 10
0.1872910732921936
 20
0.1331577856913193
  0
LWPOLYLINE
  5
C7E
330
2
100
AcDbEntity
  8
Profilo
  6
Continuous
370
     0
100
AcDbPolyline
 90
        4
 70
   128
 43
0.0
 10
0.1901040562286579
 20
0.1355415593639013
 10
0.1895536894785089
 20
0.1342579891852264
 10
0.1897371450618922
 20
0.1334633973968153
 10
0.1898594487841477
 20
0.132852172293171
  0
LWPOLYLINE
  5
C7F
330
2
100
AcDbEntity
  8
Profilo
  6
Continuous
370
     0
100
AcDbPolyline
 90
       11
 70
   128
 43
0.0
 10
0.2000106550559381
 20
0.1488662496968227
 10
0.1977480361942118
 20
0.1480716579084115
 10
0.1954854173324864
 20
0.1456878842358295
 10
0.1926724343960221
 20
0.1431207421858284
 10
0.1895536894785089
 20
0.1405536001358265
 10
0.1863126435141503
 20
0.1389032932023135
 10
0.1827046863830261
 20
0.1380475797498639
 10
0.1798917007711508
 20
0.1389032932023135
 10
0.1792190302987454
 20
0.1395756399699963
 10
0.1791578784376185
 20
0.140920333505361
 10
0.1793413340210018
 20
0.1415315586090053
  0
LWPOLYLINE
  5
C80
330
2
100
AcDbEntity
  8
Profilo
  6
Continuous
370
     0
100
AcDbPolyline
 90
        5
 70
   128
 43
0.0
 10
0.1884529586536211
 20
0.1421427820199974
 10
0.1860068842085115
 20
0.1400034966962206
 10
0.1838665717444526
 20
0.1395145183059578
 10
0.1817262566049819
 20
0.1395756399699963
 10
0.1802586119379174
 20
0.139942375032183
  0
LWPOLYLINE
  5
C81
330
2
100
AcDbEntity
  8
Profilo
  6
Continuous
370
     0
100
AcDbPolyline
 90
        2
 70
   128
 43
0.0
 10
0.1855788211806172
 20
0.141409313588277
 10
0.1839277209301694
 20
0.1417760486504628
  0
LWPOLYLINE
  5
C82
330
2
100
AcDbEntity
  8
Profilo
  6
Continuous
370
     0
100
AcDbPolyline
 90
        4
 70
   128
 43
0.0
 10
0.2005610218060871
 20
0.151861248473049
 10
0.1976868843330849
 20
0.1503331882529166
 10
0.195301961749104
 20
0.1484383929705974
 10
0.193467408590683
 20
0.1462991076468216
  0
LWPOLYLINE
  5
C83
330
2
100
AcDbEntity
  8
Profilo
  6
Continuous
370
     0
100
AcDbPolyline
 90
       39
 70
   129
 43
0.0
 10
0.2123865080861601
 20
0.1448093047473926
 10
0.2129151906330263
 20
0.1444225168368578
 10
0.2129736349785806
 20
0.1436631237469696
 10
0.2128567489628831
 20
0.1428745239466695
 10
0.2125353117508605
 20
0.1423487913106868
 10
0.2118047748216004
 20
0.1418814720955281
 10
0.2110742378923413
 20
0.1418230569820519
 10
0.2101683732772396
 20
0.1422027543733217
 10
0.2096423875443038
 20
0.1430205608840338
 10
0.2094086155129079
 20
0.14375074726351
 10
0.2094086155129079
 20
0.1444809319503339
 10
0.2097300500495195
 20
0.1455323989149515
 10
0.2103437009630812
 20
0.146613072589981
 10
0.2110450170572688
 20
0.1473724656798691
 10
0.2123015397194647
 20
0.1478689916054398
 10
0.2134119555308906
 20
0.1479566134293279
 10
0.2153113499417198
 20
0.1477229546680747
 10
0.2175029607294982
 20
0.1467006961065213
 10
0.219285469124629
 20
0.1444809319503339
 10
0.2202789989203565
 20
0.1419690939194171
 10
0.2202789989203565
 20
0.1398953683932462
 10
0.219431575975399
 20
0.1377924344640111
 10
0.2179120604467356
 20
0.1361860264603467
 10
0.2164509865882164
 20
0.1350761443822521
 10
0.2154866803029715
 20
0.1352221830122695
 10
0.215077577910323
 20
0.1360399895229815
 10
0.2153697942872731
 20
0.1370622497771871
 10
0.2158957800202089
 20
0.1376463975266459
 10
0.216772423800239
 20
0.1384642057300102
 10
0.2170646375017781
 20
0.1387270712016754
 10
0.2166555377845406
 20
0.1387854863151516
 10
0.2165386517688431
 20
0.1392528055303103
 10
0.2166847586196122
 20
0.1401874422679756
 10
0.2170938610122607
 20
0.1410052504713399
 10
0.2170061958316348
 20
0.1422611694867979
 10
0.2164509865882164
 20
0.1439551993143513
 10
0.2155159011380431
 20
0.1448606276489514
 10
0.2138794995936823
 20
0.1452403250402221
 10
0.2130320766487247
 20
0.1450942881028569
  0
LWPOLYLINE
  5
C84
330
2
100
AcDbEntity
  8
Profilo
  6
Continuous
370
     0
100
AcDbPolyline
 90
       22
 70
   128
 43
0.0
 10
0.2092312090329943
 20
0.1475292932737901
 10
0.209499303907564
 20
0.1480507875091423
 10
0.2100472841914173
 20
0.1485120216403292
 10
0.2107022809010973
 20
0.1489179703716039
 10
0.211454162256488
 20
0.1491303558824106
 10
0.2125154013448362
 20
0.1494260757295671
 10
0.2139299203827107
 20
0.1498973540577739
 10
0.2145062038357847
 20
0.1498973540577739
 10
0.2150824899642688
 20
0.1502639046208913
 10
0.2147157634008367
 20
0.150735182949099
 10
0.2157635531998689
 20
0.1516777412981649
 10
0.2166017861092592
 20
0.152306112966658
 10
0.2170732897798063
 20
0.1529344863278034
 10
0.2174400163432385
 20
0.1537199513365838
 10
0.2177019657995539
 20
0.1545577802279081
 10
0.2184878088176808
 20
0.1549766946735702
 10
0.2200635748551693
 20
0.1547245487670765
 10
0.2215304837843063
 20
0.1536248987703765
 10
0.2228926102555072
 20
0.1520016048702719
 10
0.2236784532736341
 20
0.1509543170634644
 10
0.2246738531814029
 20
0.1498546670667635
 10
0.2256692557645818
 20
0.1488597448351529
  0
LWPOLYLINE
  5
C85
330
2
100
AcDbEntity
  8
Profilo
  6
Continuous
370
     0
100
AcDbPolyline
 90
       28
 70
   129
 43
0.0
 10
0.224275380195249
 20
0.1584298740367597
 10
0.2255128245041308
 20
0.1587490608113664
 10
0.2266305174325129
 20
0.1595470294405347
 10
0.2267502688130118
 20
0.1606242856511594
 10
0.2263910119961031
 20
0.1616616443612826
 10
0.225672495686874
 20
0.1620207303290412
 10
0.2249539793776448
 20
0.162180323716345
 10
0.223596781012854
 20
0.1620606278295411
 10
0.2227185935208825
 20
0.1615020509739797
 10
0.2219601600848192
 20
0.1597066228278385
 10
0.2216408177193329
 20
0.157033429358877
 10
0.2225190052113052
 20
0.1554773929863428
 10
0.2234770269569441
 20
0.1542405416957639
 10
0.2252334019408878
 20
0.1530435895983361
 10
0.2266305174325129
 20
0.1526845036305775
 10
0.2285864780506221
 20
0.1526446061300776
 10
0.2297041709790041
 20
0.1534026755660948
 10
0.2307420296537196
 20
0.1545996276635217
 10
0.2310214522169626
 20
0.1557965797609495
 10
0.2308218639073861
 20
0.1563950558096629
 10
0.2300634304713237
 20
0.1561157665355561
 10
0.229145325852519
 20
0.155397596292691
 10
0.2282671383605467
 20
0.1551183070185842
 10
0.2273091166149087
 20
0.1551183070185842
 10
0.2263510948692699
 20
0.1553576970995389
 10
0.2255128245041308
 20
0.1560758690350563
 10
0.2247943081949026
 20
0.1568738359715733
 10
0.2245947198853261
 20
0.1575521087139386
  0
LWPOLYLINE
  5
C86
330
2
100
AcDbEntity
  8
Profilo
  6
Continuous
370
     0
100
AcDbPolyline
 90
      136
 70
   128
 43
0.0
 10
0.2305066256218299
 20
0.1539318104326148
 10
0.2316685323865419
 20
0.1546851184385311
 10
0.2325164128267198
 20
0.1555639772145496
 10
0.2327048286214398
 20
0.1561603476041644
 10
0.2333642905914876
 20
0.1562545098354148
 10
0.234306380266731
 20
0.1558464689862577
 10
0.2342749762965725
 20
0.1548106692086332
 10
0.2339295433264689
 20
0.153492381044606
 10
0.2337097235615903
 20
0.1527390730386897
 10
0.2339923485913759
 20
0.1527390730386897
 10
0.2348402290315538
 20
0.1532412778117504
 10
0.2354368857366945
 20
0.1530215631177456
 10
0.2354996910016015
 20
0.1522996436506809
 10
0.2354368857366945
 20
0.1517660503387685
 10
0.2351856620016574
 20
0.1512952324119081
 10
0.2348088250613952
 20
0.1507302522537972
 10
0.2347460197964883
 20
0.1504163736358896
 10
0.2350914527665918
 20
0.1501338835568346
 10
0.2359707345015173
 20
0.1504163736358896
 10
0.2367244057066306
 20
0.1509499669478011
 10
0.2373838676766783
 20
0.1516404995686673
 10
0.2379805217064072
 20
0.1522996436506809
 10
0.238828402146586
 20
0.1524879698058332
 10
0.2392366403815957
 20
0.1514835602597135
 10
0.2388598034413335
 20
0.1506046997910428
 10
0.2380433269713142
 20
0.1496630656299733
 10
0.2374466729415844
 20
0.1491608608569134
 10
0.2370384347065747
 20
0.1488155937001551
 10
0.237163293445997
 20
0.1482754210498851
 10
0.2372575026810625
 20
0.1477104391991219
 10
0.237163293445997
 20
0.1471140705021585
 10
0.2365352354461087
 20
0.1468001918842518
 10
0.2357187589760893
 20
0.1468315804231035
 10
0.2351221022709477
 20
0.1469885197320572
 10
0.2349964917411346
 20
0.1466118657290986
 10
0.2350907009762001
 20
0.1461724346484376
 10
0.2348708785359105
 20
0.1457016184142285
 10
0.2344940442710594
 20
0.1455446791052756
 10
0.2336461638308815
 20
0.1453877397963219
 10
0.2330181058309932
 20
0.1456388430291775
 10
0.232704076831049
 20
0.1462665985723403
 10
0.2326726755363006
 20
0.1469885197320572
 10
0.2322016293609729
 20
0.1477104391991219
 10
0.2321702280662254
 20
0.146643252575298
 10
0.2320132135662528
 20
0.1454505151813729
 10
0.2316049753312432
 20
0.1446030432515539
 10
0.2325373211609153
 20
0.1448567700950236
 10
0.2334409758868236
 20
0.1448065914262222
 10
0.2336417895344755
 20
0.1436524769658338
 10
0.23414381964049
 20
0.1438030146648903
 10
0.2344450360988527
 20
0.1441040866776988
 10
0.2350474743663983
 20
0.1443549817143572
 10
0.2357001140392993
 20
0.1441542653465002
 10
0.2355495044724129
 20
0.1429499722173104
 10
0.2352984894194056
 20
0.1424481838366449
 10
0.2360515345784274
 20
0.1426489002045019
 10
0.2365033606036756
 20
0.1431005099163669
 10
0.2370053907096902
 20
0.1437026556346352
 10
0.2373568112488184
 20
0.1440539080088973
 10
0.2375576248964703
 20
0.1439535506712945
 10
0.2382604659747266
 20
0.1435019409594295
 10
0.2380094509217193
 20
0.1422474691614392
 10
0.2373568112488184
 20
0.1414947857441135
 10
0.2372564057626975
 20
0.1408926383331929
 10
0.238411075541613
 20
0.1414446070753121
 10
0.2390637152145131
 20
0.1418460381183757
 10
0.2392645261867558
 20
0.1424983625054454
 10
0.2390637152145131
 20
0.1432008672539697
 10
0.2390637152145131
 20
0.1441542653465002
 10
0.2400175740211869
 20
0.1447564127574207
 10
0.2406702110186777
 20
0.1452080224692857
 10
0.2412726492862233
 20
0.1463621369296741
 10
0.2417746793922379
 20
0.1474158940524596
 10
0.2422767094982524
 20
0.1474660727212602
 10
0.2429293491711534
 20
0.1479176824331251
 10
0.2435317847632889
 20
0.1485700085128471
 10
0.2449374695952108
 20
0.1485700085128471
 10
0.2453390942151045
 20
0.148018039770728
 10
0.2447366559475589
 20
0.1467635679727368
 10
0.2436321902494089
 20
0.1445055177207623
 10
0.242879145090387
 20
0.1421471101311841
 10
0.2419754903644796
 20
0.1406417449891859
 10
0.2411220397193369
 20
0.1393370928297419
 10
0.2400677754265422
 20
0.1383335160684091
 10
0.2386620905946203
 20
0.1378819046638928
 10
0.2392645261867558
 20
0.1375808326510843
 10
0.239716354887415
 20
0.1366274328659016
 10
0.2388127001615058
 20
0.1359751084788318
 10
0.2373568112488184
 20
0.1355234970743146
 10
0.2364029551175556
 20
0.1349715300248477
 10
0.2361519400645483
 20
0.1343192039451257
 10
0.2361519400645483
 20
0.1332654485149924
 10
0.2356952421165132
 20
0.1324524592918963
 10
0.2347915873906049
 20
0.1323019232854929
 10
0.2339883408262286
 20
0.1325528183221513
 10
0.2337875271785767
 20
0.132753532997357
 10
0.2330846861003203
 20
0.1323019232854929
 10
0.2323316409412985
 20
0.1322517446166915
 10
0.2313275807292702
 20
0.1325026379606986
 10
0.2310263615954974
 20
0.1323521019542934
 10
0.2308255506232556
 20
0.13164959720577
 10
0.2300725054642338
 20
0.1311478088251045
 10
0.2286166165515454
 20
0.1308969137884452
 10
0.2282651960124173
 20
0.1317499562360251
 10
0.2285664124707799
 20
0.1323019232854929
 10
0.22791377547329
 20
0.1323521019542934
 10
0.2273615412865099
 20
0.1326029969909527
 10
0.2272109317196235
 20
0.1329040706964135
 10
0.2268595111804953
 20
0.1332553213780234
 10
0.2266586975328434
 20
0.1335062164146818
 10
0.2265582920467225
 20
0.1345097948686659
 10
0.2266586975328434
 20
0.1354631929611964
 10
0.2266586975328434
 20
0.1363664123849264
 10
0.2265080906413671
 20
0.1364667714151805
 10
0.2261064660214735
 20
0.1358144453354586
 10
0.226056261940708
 20
0.1353628356235945
 10
0.2258554509684671
 20
0.1350617619181337
 10
0.2256546373208143
 20
0.1340080047953482
 10
0.2255040304293389
 20
0.1331047853716191
 10
0.2248011866756724
 20
0.1330044280340163
 10
0.2245501716226651
 20
0.133305501739477
 10
0.2243493606504233
 20
0.1337571114513411
 10
0.2239979374358842
 20
0.1341083638256033
 10
0.2236967209775224
 20
0.1335062164146818
 10
0.2236967209775224
 20
0.1326029969909527
 10
0.222893471737735
 20
0.1320008495800322
 10
0.2214877869058122
 20
0.1312481661627074
 10
0.2205841321799048
 20
0.1308969137884452
 10
0.2203331171268975
 20
0.1317499562360251
 10
0.2204837266937839
 20
0.1331047853716191
 10
0.2206343362606703
 20
0.1339578261265468
 10
0.219931492507003
 20
0.1344094358384118
 10
0.219178447347982
 20
0.1348108668814744
 10
0.2184756062697256
 20
0.1350115832493323
 10
0.2186262158366129
 20
0.1360151600106642
 10
0.218073981649832
 20
0.1361656977097207
  0
LWPOLYLINE
  5
C87
330
2
100
AcDbEntity
  8
Profilo
  6
Continuous
370
     0
100
AcDbPolyline
 90
       16
 70
   128
 43
0.0
 10
0.2175719515438174
 20
0.1358144453354586
 10
0.2179233720829456
 20
0.1349614045805309
 10
0.217973576163712
 20
0.1341083638256033
 10
0.217973576163712
 20
0.1330546067028177
 10
0.2178731706775911
 20
0.1324022806230957
 10
0.2177225611107047
 20
0.1320510282488336
 10
0.2167687023040309
 20
0.1316997758745714
 10
0.216015657145009
 20
0.1318503135736279
 10
0.2150618010137463
 20
0.1325026379606986
 10
0.2147605818799726
 20
0.1325528183221513
 10
0.214258551773958
 20
0.1325528183221513
 10
0.2135557106957026
 20
0.1331549640404205
 10
0.2127524614559152
 20
0.1342588998320075
 10
0.2116981971631206
 20
0.136767843427989
 10
0.2113467766239924
 20
0.1384237479616952
 10
0.2112965725432269
 20
0.1394273247230279
  0
LWPOLYLINE
  5
C88
330
2
100
AcDbEntity
  8
Profilo
  6
Continuous
370
     0
100
AcDbPolyline
 90
       11
 70
   128
 43
0.0
 10
0.2126564275907893
 20
0.1399454150351906
 10
0.2139910187356246
 20
0.137397575988698
 10
0.2147917718172802
 20
0.136076967198766
 10
0.2154724123379984
 20
0.1350498287214718
 10
0.2158994801131326
 20
0.1346363036798057
 10
0.2159128277368429
 20
0.1341027256017617
 10
0.2155391424303223
 20
0.1339426515012882
 10
0.2151654571238008
 20
0.1340360283420065
 10
0.2147917718172802
 20
0.1345829462105316
 10
0.2137507909383406
 20
0.1363304181399587
 10
0.2130568054693222
 20
0.1378377789186751
  0
LWPOLYLINE
  5
C89
330
2
100
AcDbEntity
  8
Profilo
  6
Continuous
370
     0
100
AcDbPolyline
 90
        2
 70
   128
 43
0.0
 10
0.2138275431189437
 20
0.1408405672794459
 10
0.2158058567929978
 20
0.1382154485128386
  0
LWPOLYLINE
  5
C8A
330
2
100
AcDbEntity
  8
Profilo
  6
Continuous
370
     0
100
AcDbPolyline
 90
        2
 70
   128
 43
0.0
 10
0.2177394884338594
 20
0.1488662496968227
 10
0.2223870272041547
 20
0.1443431907004639
  0
LWPOLYLINE
  5
C8B
330
2
100
AcDbEntity
  8
Profilo
  6
Continuous
370
     0
100
AcDbPolyline
 90
        3
 70
   128
 43
0.0
 10
0.2219589641762613
 20
0.1383531914553599
 10
0.2213474455649837
 20
0.1359082944260872
 10
0.2205524713703236
 20
0.1349914576169477
  0
LWPOLYLINE
  5
C8C
330
2
100
AcDbEntity
  8
Profilo
  6
Continuous
370
     0
100
AcDbPolyline
 90
        3
 70
   128
 43
0.0
 10
0.2229985458154323
 20
0.1356026827205911
 10
0.2218366604540058
 20
0.1343191108492649
 10
0.221225141842729
 20
0.1340134991437689
  0
LWPOLYLINE
  5
C8D
330
2
100
AcDbEntity
  8
Profilo
  6
Continuous
370
     0
100
AcDbPolyline
 90
        3
 70
   128
 43
0.0
 10
0.2289302736694107
 20
0.1381698247705931
 10
0.2308259786889585
 20
0.1354804376998628
 10
0.2313763454391084
 20
0.1331577856913193
  0
LWPOLYLINE
  5
C8E
330
2
100
AcDbEntity
  8
Profilo
  6
Continuous
370
     0
100
AcDbPolyline
 90
        4
 70
   128
 43
0.0
 10
0.2285633625026441
 20
0.1355415593639013
 10
0.229113729252794
 20
0.1342579891852264
 10
0.2289302736694107
 20
0.1334633973968153
 10
0.2288079699471551
 20
0.132852172293171
  0
LWPOLYLINE
  5
C8F
330
2
100
AcDbEntity
  8
Profilo
  6
Continuous
370
     0
100
AcDbPolyline
 90
       11
 70
   128
 43
0.0
 10
0.2186567636753648
 20
0.1488662496968227
 10
0.2209193825370902
 20
0.1480716579084115
 10
0.2231820013988156
 20
0.1456878842358295
 10
0.2259949843352799
 20
0.1431207421858284
 10
0.229113729252794
 20
0.1405536001358265
 10
0.2323547752171517
 20
0.1389032932023135
 10
0.2359627323482768
 20
0.1380475797498639
 10
0.2387757179601521
 20
0.1389032932023135
 10
0.2394483884325566
 20
0.1395756399699963
 10
0.2395095402936843
 20
0.140920333505361
 10
0.2393260847103011
 20
0.1415315586090053
  0
LWPOLYLINE
  5
C90
330
2
100
AcDbEntity
  8
Profilo
  6
Continuous
370
     0
100
AcDbPolyline
 90
        5
 70
   128
 43
0.0
 10
0.2302144600776818
 20
0.1421427820199974
 10
0.2326605345227905
 20
0.1400034966962206
 10
0.2348008469868502
 20
0.1395145183059578
 10
0.2369411621263201
 20
0.1395756399699963
 10
0.2384088067933846
 20
0.139942375032183
  0
LWPOLYLINE
  5
C91
330
2
100
AcDbEntity
  8
Profilo
  6
Continuous
370
     0
100
AcDbPolyline
 90
        2
 70
   128
 43
0.0
 10
0.2330885975506848
 20
0.141409313588277
 10
0.2347396978011335
 20
0.1417760486504628
  0
LWPOLYLINE
  5
C92
330
2
100
AcDbEntity
  8
Profilo
  6
Continuous
370
     0
100
AcDbPolyline
 90
        4
 70
   128
 43
0.0
 10
0.218106396925215
 20
0.151861248473049
 10
0.220980534398218
 20
0.1503331882529166
 10
0.2233654569821989
 20
0.1484383929705974
 10
0.225200010140619
 20
0.1462991076468216
  0
LWPOLYLINE
  5
C93
330
2
100
AcDbEntity
  8
Profilo
  6
Continuous
370
     0
100
AcDbPolyline
 90
        8
 70
   128
 43
0.0
 10
0.1938675537084896
 20
0.1575443665236506
 10
0.1911126191568034
 20
0.1581147851726663
 10
0.1893947620599244
 20
0.160082215537987
 10
0.1890726640214736
 20
0.1629081623874841
 10
0.1894663399963389
 20
0.1651975368575349
 10
0.1908620990547661
 20
0.1668072523032244
 10
0.1927588983172689
 20
0.1672722813602152
 10
0.1939940712025113
 20
0.1673446896278485
  0
LWPOLYLINE
  5
C94
330
2
100
AcDbEntity
  8
Profilo
  6
Continuous
370
     0
100
AcDbPolyline
 90
       10
 70
   128
 43
0.0
 10
0.1851174492901854
 20
0.1618207908884561
 10
0.1828726647158233
 20
0.1617027013284082
 10
0.1812186134874326
 20
0.1617027013284082
 10
0.1803915878732382
 20
0.1617617461084326
 10
0.1800962198625465
 20
0.1625293299413912
 10
0.1805688070744055
 20
0.1632378689943263
 10
0.1813958326886017
 20
0.1632969137743498
 10
0.1831089569840482
 20
0.1632969137743498
 10
0.1845267159442149
 20
0.1632969137743498
 10
0.1852355954242969
 20
0.1632969137743498
  0
LWPOLYLINE
  5
C95
330
2
100
AcDbEntity
  8
Profilo
  6
Continuous
370
     0
100
AcDbPolyline
 90
       10
 70
   128
 43
0.0
 10
0.1842313506089342
 20
0.1648911245276383
 10
0.18293173778288
 20
0.1658358443933196
 10
0.1820456391016288
 20
0.1668396073463731
 10
0.1815730518897699
 20
0.1677843255194022
 10
0.1818684199004598
 20
0.1682566837595911
 10
0.1825182263134869
 20
0.1682566837595911
 10
0.1829908108499357
 20
0.1679024150794492
 10
0.1836406172629629
 20
0.1672529208065376
 10
0.1843494967430458
 20
0.1665443817536025
 10
0.1849993031560729
 20
0.1659539339533666
  0
LWPOLYLINE
  5
C96
330
2
100
AcDbEntity
  8
Profilo
  6
Continuous
370
     0
100
AcDbPolyline
 90
        5
 70
   128
 43
0.0
 10
0.1893939005776967
 20
0.1589200338981249
 10
0.1885788955835331
 20
0.1575189005741779
 10
0.1887744975312467
 20
0.1569975485215935
 10
0.189263498387417
 20
0.156964963277772
 10
0.1901111032602988
 20
0.1581054214217529
  0
LWPOLYLINE
  5
C97
330
2
100
AcDbEntity
  8
Profilo
  6
Continuous
370
     0
100
AcDbPolyline
 90
       30
 70
   128
 43
0.0
 10
0.2315464088096108
 20
0.158599336021322
 10
0.2333884816545461
 20
0.1567935568720995
 10
0.2358707918614388
 20
0.1549486237326562
 10
0.2379712112773608
 20
0.1544396754339927
 10
0.2384167527630029
 20
0.1551394787099105
 10
0.2384167527630029
 20
0.1565390835690938
 10
0.2381621580105521
 20
0.1578114517767743
 10
0.2386713501908647
 20
0.1587021100299454
 10
0.238989595637987
 20
0.1595291499573661
 10
0.2393714891043687
 20
0.1603561898847867
 10
0.2393714891043687
 20
0.1609287548165494
 10
0.2404535241596654
 20
0.1615649397667158
 10
0.2407717669313766
 20
0.1625828346713897
 10
0.2407717669313766
 20
0.1636007295760646
 10
0.2400079799986122
 20
0.1643005311593301
 10
0.23956243583756
 20
0.1648094794579937
 10
0.23956243583756
 20
0.1659546110141705
 10
0.2393078410851083
 20
0.1669088875930939
 10
0.2387349982101251
 20
0.1670997425703482
 10
0.238862296924056
 20
0.1676723075021109
 10
0.2387349982101251
 20
0.1684993474295315
 10
0.2387986489047956
 20
0.16888105738404
 10
0.2390532436572465
 20
0.1691355323796979
 10
0.2390532436572465
 20
0.1700261889402177
 10
0.238862296924056
 20
0.1705987555646317
 10
0.2380985099912917
 20
0.1708532288676374
 10
0.2375539595838862
 20
0.1709758564277206
 10
0.2369342435143905
 20
0.1709758564277206
 10
0.2359426961979513
 20
0.170825425365741
 10
0.2344022589580391
 20
0.1703829830571552
  0
LWPOLYLINE
  5
C98
330
2
100
AcDbEntity
  8
Profilo
  6
Continuous
370
     0
100
AcDbPolyline
 90
        7
 70
   128
 43
0.0
 10
0.2338976738348587
 20
0.1588293466814483
 10
0.2354888983950571
 20
0.1576842151252706
 10
0.2364436347364228
 20
0.1569844135420059
 10
0.236889176222065
 20
0.1573661234965144
 10
0.236889176222065
 20
0.1579386884282771
 10
0.2364436347364228
 20
0.1584476367269398
 10
0.2347251114622927
 20
0.1595927682831175
  0
LWPOLYLINE
  5
C99
330
2
100
AcDbEntity
  8
Profilo
  6
Continuous
370
     0
100
AcDbPolyline
 90
        8
 70
   128
 43
0.0
 10
0.2247998650228133
 20
0.1575443665236506
 10
0.2275547995744986
 20
0.1581147851726663
 10
0.2292726566713775
 20
0.160082215537987
 10
0.2295947547098284
 20
0.1629081623874841
 10
0.229201078734964
 20
0.1651975368575349
 10
0.2278053196765367
 20
0.1668072523032244
 10
0.225908520414034
 20
0.1672722813602152
 10
0.2246733475287907
 20
0.1673446896278485
  0
LWPOLYLINE
  5
C9A
330
2
100
AcDbEntity
  8
Profilo
  6
Continuous
370
     0
100
AcDbPolyline
 90
       10
 70
   128
 43
0.0
 10
0.2335499694411166
 20
0.1618207908884561
 10
0.2357947540154787
 20
0.1617027013284082
 10
0.2374488052438694
 20
0.1617027013284082
 10
0.2382758308580647
 20
0.1617617461084326
 10
0.2385711988687555
 20
0.1625293299413912
 10
0.2380986116568965
 20
0.1632378689943263
 10
0.2372715860427012
 20
0.1632969137743498
 10
0.2355584617472547
 20
0.1632969137743498
 10
0.234140702787088
 20
0.1632969137743498
 10
0.2334318233070051
 20
0.1632969137743498
  0
LWPOLYLINE
  5
C9B
330
2
100
AcDbEntity
  8
Profilo
  6
Continuous
370
     0
100
AcDbPolyline
 90
       10
 70
   128
 43
0.0
 10
0.2344360681223686
 20
0.1648911245276383
 10
0.235735680948422
 20
0.1658358443933196
 10
0.236621779629674
 20
0.1668396073463731
 10
0.237094366841533
 20
0.1677843255194022
 10
0.2367989988308422
 20
0.1682566837595911
 10
0.2361491924178151
 20
0.1682566837595911
 10
0.2356766078813671
 20
0.1679024150794492
 10
0.2350268014683391
 20
0.1672529208065376
 10
0.2343179219882562
 20
0.1665443817536025
 10
0.2336681155752291
 20
0.1659539339533666
  0
LWPOLYLINE
  5
C9C
330
2
100
AcDbEntity
  8
Profilo
  6
Continuous
370
     0
100
AcDbPolyline
 90
        5
 70
   128
 43
0.0
 10
0.2292735181536053
 20
0.1589200338981249
 10
0.2300885231477697
 20
0.1575189005741779
 10
0.2298929212000552
 20
0.1569975485215935
 10
0.229403920343885
 20
0.156964963277772
 10
0.2285563154710041
 20
0.1581054214217529
  0
DIMENSION
  5
C9D
102
{ACAD_XDICTIONARY
360
CA7
102
}
102
{ACAD_REACTORS
330
CAE
102
}
330
2
100
AcDbEntity
  8
Sezione
  6
ACAD_ISO10W100
100
AcDbDimension
  2
*D21
 10
0.1708827105128607
 20
0.1345491374847382
 30
0.0
 11
0.2661417637850846
 21
0.1920875998421381
 31
0.0
 70
    35
  1
d 380 mm
 71
     5
 42
0.095
  3
Bovelacci
100
AcDbDiametricDimension
 15
0.2477847082184422
 25
0.1903262183414014
 35
0.0
 40
0.0
1001
ACAD
1000
DSTYLE
1002
{
1070
   288
1070
     1
1002
}
  0
ENDSEC
  0
SECTION
  2
OBJECTS
  0
DICTIONARY
  5
9
330
0
100
AcDbDictionary
281
     1
  3
ACAD_2007HEADERVARS_RT
350
208
  3
ACAD_COLOR
350
184
  3
ACAD_GROUP
350
17F
  3
ACAD_LAYOUT
350
164
  3
ACAD_MATERIAL
350
B
  3
ACAD_MLINESTYLE
350
180
  3
ACAD_PLOTSETTINGS
350
181
  3
ACAD_PLOTSTYLENAME
350
8
  3
ACAD_TABLESTYLE
350
185
  3
ACAD_VISUALSTYLE
350
17A
  3
ACDBHEADERROUNDTRIPXREC
350
CC1
  3
AcDbVariableDictionary
350
18B
  3
DWGPROPS
350
CC0
  0
DICTIONARY
  5
16E
330
16D
100
AcDbDictionary
280
     1
281
     1
  3
ACAD_LAYERSTATES
360
16F
  0
DICTIONARY
  5
3
330
2
100
AcDbDictionary
280
     1
281
     1
  3
ACAD_SORTENTS
360
18A
  0
DICTIONARY
  5
CC2
330
18
100
AcDbDictionary
280
     1
281
     1
  3
ACAD_MTEXT_RT
360
CC3
  0
DICTIONARY
  5
CA7
330
C9D
100
AcDbDictionary
280
     1
281
     1
  3
ACAD_DIMASSOC
360
CAE
  0
DICTIONARY
  5
208
102
{ACAD_REACTORS
330
9
102
}
330
9
100
AcDbDictionary
281
     1
  3
DIMFXL
350
209
  0
DICTIONARY
  5
184
102
{ACAD_REACTORS
330
9
102
}
330
9
100
AcDbDictionary
281
     1
  0
DICTIONARY
  5
17F
102
{ACAD_REACTORS
330
9
102
}
330
9
100
AcDbDictionary
281
     1
  0
DICTIONARY
  5
164
102
{ACAD_REACTORS
330
9
102
}
330
9
100
AcDbDictionary
281
     1
  3
Layout1
350
168
  3
Layout2
350
16C
  3
Model
350
163
  0
DICTIONARY
  5
B
102
{ACAD_REACTORS
330
9
102
}
330
9
100
AcDbDictionary
281
     1
  3
ByBlock
350
183
  3
ByLayer
350
182
  3
Global
350
A
  0
DICTIONARY
  5
180
102
{ACAD_REACTORS
330
9
102
}
330
9
100
AcDbDictionary
281
     1
  3
Standard
350
186
  0
DICTIONARY
  5
181
102
{ACAD_REACTORS
330
9
102
}
330
9
100
AcDbDictionary
281
     1
  0
ACDBDICTIONARYWDFLT
  5
8
102
{ACAD_REACTORS
330
9
102
}
330
9
100
AcDbDictionary
281
     1
  3
Normal
350
7
100
AcDbDictionaryWithDefault
340
7
  0
DICTIONARY
  5
185
102
{ACAD_REACTORS
330
9
102
}
330
9
100
AcDbDictionary
281
     1
  3
Standard
350
187
  0
DICTIONARY
  5
17A
102
{ACAD_REACTORS
330
9
102
}
330
9
100
AcDbDictionary
281
     1
  3
2dWireframe
350
179
  3
3D Hidden
350
1BD
  3
3dWireframe
350
189
  3
Basic
350
1BC
  3
Brighten
350
1C0
  3
ColorChange
350
1C4
  3
Conceptual
350
1BE
  3
Dim
350
1BF
  3
Facepattern
350
1C3
  3
Flat
350
1B8
  3
FlatWithEdges
350
1B9
  3
Gouraud
350
1BA
  3
GouraudWithEdges
350
1BB
  3
Linepattern
350
1C2
  3
Realistic
350
188
  3
Thicken
350
1C1
  0
DICTIONARY
  5
CC1
102
{ACAD_REACTORS
330
9
102
}
330
9
100
AcDbDictionary
281
     1
  0
DICTIONARY
  5
18B
102
{ACAD_REACTORS
330
9
102
}
330
9
100
AcDbDictionary
281
     1
  3
CTABLESTYLE
350
18C
  3
DIMASSOC
350
190
  3
HIDETEXT
350
18F
  3
INDEXCTL
350
18E
  3
PROJECTNAME
350
31D
  3
SORTENTS
350
18D
  0
XRECORD
  5
CC0
102
{ACAD_REACTORS
330
9
102
}
330
9
100
AcDbXrecord
280
     1
  1
DWGPROPS COOKIE
  2

  3

  4

  6

  7

  8
Mario
  9

300
=
301
=
302
=
303
=
304
=
305
=
306
=
307
=
308
=
309
=
 40
0.1336185416666667
 41
2454297.625402373
 42
2454306.851419271
  1

 90
        0
  0
DICTIONARY
  5
16F
102
{ACAD_REACTORS
330
16E
102
}
330
16E
100
AcDbDictionary
281
     1
  0
SORTENTSTABLE
  5
18A
102
{ACAD_REACTORS
330
3
102
}
330
3
100
AcDbSortentsTable
330
2
331
23F
  5
3BB
331
1E
  5
22
331
24
  5
1D
331
16
  5
14
331
12
  5
18
331
1D
  5
21
331
23
  5
23F
331
15
  5
13
331
11
  5
17
331
D
  5
15
331
1C
  5
1F
331
18
  5
1E
331
22
  5
25
331
14
  5
12
331
10
  5
16
331
1F
  5
23
331
25
  5
2AC
331
17
  5
1C
331
21
  5
24
331
13
  5
11
  0
XRECORD
  5
CC3
102
{ACAD_REACTORS
330
CC2
102
}
330
CC2
100
AcDbXrecord
280
     1
 40
7955300.0
  1
{\fTimes New Roman|b0|i0|c238|p18;\H1.6x;\C4;Bovelacci\P\pt0.09;\H0.4375x;\T0.95;via del Commercio, 5  47100 Forli - Italy  \fTimes New Roman|b0|i0|c0|p18;\P\fTimes New Roman|b0|i0|c238|p18;tel.+39-0543721386  fax +39-0543721127\fTimes New Roman|b0|i
  1
0|c0|p18; \fTimes New Roman|b0|i0|c238|p18;www.bovelacci.it\fTimes New Roman|b0|i0|c0|p18; \fTimes New Roman|b0|i0|c238|p18;e-mail: bovelacci@bovelacci\fTimes New Roman|b0|i0|c0|p18;.it}
  0
DIMASSOC
  5
CAE
102
{ACAD_REACTORS
330
CA7
102
}
330
CA7
100
AcDbDimAssoc
330
C9D
 90
        2
 70
     0
 71
     0
  1
AcDbOsnapPointRef
 72
     3
331
C39
 73
     2
 91
        0
 40
0.0
 10
0.0
 20
0.0
 30
0.0
 75
     0
  0
XRECORD
  5
209
102
{ACAD_REACTORS
330
208
102
}
330
208
100
AcDbXrecord
280
     1
 40
0.18
  0
LAYOUT
  5
168
102
{ACAD_XDICTIONARY
360
CC6
102
}
102
{ACAD_REACTORS
330
164
102
}
330
164
100
AcDbPlotSettings
  1

  2
C:\Documents and Settings\All Users\Dati applicazioni\Autodesk\ADT 2006\enu\Plotters\Default Windows System Printer.pc3
  4

  6

 40
0.0
 41
0.0
 42
0.0
 43
0.0
 44
0.0
 45
0.0
 46
0.0
 47
0.0
 48
0.0
 49
0.0
140
0.0
141
0.0
142
1.0
143
1.0
 70
   688
 72
     0
 73
     0
 74
     5
  7

 75
    16
147
1.0
148
0.0
149
0.0
100
AcDbLayout
  1
Layout1
 70
     1
 71
     1
 10
0.0
 20
0.0
 11
420.0
 21
297.0
 12
0.0
 22
0.0
 32
0.0
 14
1.000000000000000E+20
 24
1.000000000000000E+20
 34
1.000000000000000E+20
 15
-1.000000000000000E+20
 25
-1.000000000000000E+20
 35
-1.000000000000000E+20
146
0.0
 13
0.0
 23
0.0
 33
0.0
 16
1.0
 26
0.0
 36
0.0
 17
0.0
 27
1.0
 37
0.0
 76
     0
330
165
  0
LAYOUT
  5
16C
102
{ACAD_XDICTIONARY
360
CC8
102
}
102
{ACAD_REACTORS
330
164
102
}
330
164
100
AcDbPlotSettings
  1

  2
C:\Documents and Settings\All Users\Dati applicazioni\Autodesk\ADT 2006\enu\Plotters\Default Windows System Printer.pc3
  4

  6

 40
0.0
 41
0.0
 42
0.0
 43
0.0
 44
0.0
 45
0.0
 46
0.0
 47
0.0
 48
0.0
 49
0.0
140
0.0
141
0.0
142
1.0
143
1.0
 70
   688
 72
     0
 73
     0
 74
     5
  7

 75
    16
147
1.0
148
0.0
149
0.0
100
AcDbLayout
  1
Layout2
 70
     1
 71
     2
 10
0.0
 20
0.0
 11
12.0
 21
9.0
 12
0.0
 22
0.0
 32
0.0
 14
0.0
 24
0.0
 34
0.0
 15
0.0
 25
0.0
 35
0.0
146
0.0
 13
0.0
 23
0.0
 33
0.0
 16
1.0
 26
0.0
 36
0.0
 17
0.0
 27
1.0
 37
0.0
 76
     0
330
169
  0
LAYOUT
  5
163
102
{ACAD_XDICTIONARY
360
CC4
102
}
102
{ACAD_REACTORS
330
164
102
}
330
164
100
AcDbPlotSettings
  1

  2
C:\Documents and Settings\All Users\Dati applicazioni\Autodesk\ADT 2006\enu\Plotters\Default Windows System Printer.pc3
  4

  6

 40
0.0
 41
0.0
 42
0.0
 43
0.0
 44
0.0
 45
0.0
 46
0.0
 47
0.0
 48
0.0
 49
0.0
140
0.0
141
0.0
142
1.0
143
1.0
 70
  1712
 72
     0
 73
     0
 74
     0
  7

 75
     0
147
1.0
148
0.0
149
0.0
100
AcDbLayout
  1
Model
 70
     1
 71
     0
 10
0.0
 20
0.0
 11
12.0
 21
9.0
 12
0.0
 22
0.0
 32
0.0
 14
0.0
 24
0.0
 34
0.0
 15
0.0
 25
0.0
 35
0.0
146
0.0
 13
0.0
 23
0.0
 33
0.0
 16
1.0
 26
0.0
 36
0.0
 17
0.0
 27
1.0
 37
0.0
 76
     0
330
2
  0
MATERIAL
  5
183
102
{ACAD_XDICTIONARY
360
1B0
102
}
102
{ACAD_REACTORS
330
B
102
}
330
B
100
AcDbMaterial
  1
ByBlock
  0
MATERIAL
  5
182
102
{ACAD_XDICTIONARY
360
1AE
102
}
102
{ACAD_REACTORS
330
B
102
}
330
B
100
AcDbMaterial
  1
ByLayer
  0
MATERIAL
  5
A
102
{ACAD_XDICTIONARY
360
193
102
}
102
{ACAD_REACTORS
330
B
102
}
330
B
100
AcDbMaterial
  1
Global
  0
MLINESTYLE
  5
186
102
{ACAD_REACTORS
330
180
102
}
330
180
100
AcDbMlineStyle
  2
STANDARD
 70
     0
  3

 62
   256
 51
90.0
 52
90.0
 71
     2
 49
0.5
 62
   256
  6
BYLAYER
 49
-0.5
 62
   256
  6
BYLAYER
  0
ACDBPLACEHOLDER
  5
7
102
{ACAD_REACTORS
330
8
102
}
330
8
  0
TABLESTYLE
  5
187
102
{ACAD_XDICTIONARY
360
21A
102
}
102
{ACAD_REACTORS
330
185
102
}
330
185
100
AcDbTableStyle
  3
Standard
 70
     0
 71
     0
 40
1.5
 41
1.5
280
     0
281
     0
  7
Standard
140
4.5
170
     2
 62
     0
 63
     7
283
     0
274
    -2
284
     1
 64
     0
275
    -2
285
     1
 65
     0
276
    -2
286
     1
 66
     0
277
    -2
287
     1
 67
     0
278
    -2
288
     1
 68
     0
279
    -2
289
     1
 69
     0
  7
Standard
140
6.0
170
     5
 62
     0
 63
     7
283
     0
274
    -2
284
     1
 64
     0
275
    -2
285
     1
 65
     0
276
    -2
286
     1
 66
     0
277
    -2
287
     1
 67
     0
278
    -2
288
     1
 68
     0
279
    -2
289
     1
 69
     0
  7
Standard
140
4.5
170
     5
 62
     0
 63
     7
283
     0
274
    -2
284
     1
 64
     0
275
    -2
285
     1
 65
     0
276
    -2
286
     1
 66
     0
277
    -2
287
     1
 67
     0
278
    -2
288
     1
 68
     0
279
    -2
289
     1
 69
     0
  0
VISUALSTYLE
  5
179
102
{ACAD_REACTORS
330
17A
102
}
330
17A
100
AcDbVisualStyle
  2
2dWireframe
 70
     4
 71
     0
 72
     2
 73
     0
 90
        0
 40
-0.6
 41
-30.0
 62
     5
 63
     7
 74
     1
 91
        4
 64
     7
 65
   257
 75
     1
175
     1
 42
1.0
 92
        0
 66
   257
 43
1.0
 76
     1
 77
     6
 78
     2
 67
     7
 79
     5
170
     0
171
     0
290
     0
174
     0
 93
        1
 44
0.0
173
     0
291
     0
 45
0.0
1001
ACAD
1000
AcDbSavedByObjectVersion
1070
     0
1000
AcDbSavedByObjectVersion
1070
     0
1000
AcDbSavedByObjectVersion
1070
     0
1001
ACAD
1000
AcRTDxfName
1000
VISUALSTYLE
  0
VISUALSTYLE
  5
1BD
102
{ACAD_REACTORS
330
17A
102
}
330
17A
100
AcDbVisualStyle
  2
3D Hidden
 70
     6
 71
     1
 72
     2
 73
     2
 90
        0
 40
-0.6
 41
-30.0
 62
     5
 63
     7
 74
     2
 91
        2
 64
     7
 65
   257
 75
     2
175
     1
 42
40.0
 92
        0
 66
   257
 43
1.0
 76
     1
 77
     6
 78
     2
 67
     7
 79
     3
170
     0
171
     0
290
     0
174
     0
 93
        1
 44
0.0
173
     0
291
     0
 45
0.0
1001
ACAD
1000
AcDbSavedByObjectVersion
1070
     0
1000
AcDbSavedByObjectVersion
1070
     0
1001
ACAD
1000
AcRTDxfName
1000
VISUALSTYLE
  0
VISUALSTYLE
  5
189
102
{ACAD_REACTORS
330
17A
102
}
330
17A
100
AcDbVisualStyle
  2
3dWireframe
 70
     5
 71
     0
 72
     2
 73
     0
 90
        0
 40
-0.6
 41
-30.0
 62
     5
 63
     7
 74
     1
 91
        4
 64
     7
 65
   257
 75
     1
175
     1
 42
1.0
 92
        0
 66
   257
 43
1.0
 76
     1
 77
     6
 78
     2
 67
     7
 79
     5
170
     0
171
     0
290
     0
174
     0
 93
        1
 44
0.0
173
     0
291
     0
 45
0.0
1001
ACAD
1000
AcDbSavedByObjectVersion
1070
     0
1000
AcDbSavedByObjectVersion
1070
     0
1000
AcDbSavedByObjectVersion
1070
     0
1001
ACAD
1000
AcRTDxfName
1000
VISUALSTYLE
  0
VISUALSTYLE
  5
1BC
102
{ACAD_REACTORS
330
17A
102
}
330
17A
100
AcDbVisualStyle
  2
Basic
 70
     7
 71
     1
 72
     0
 73
     1
 90
        0
 40
-0.6
 41
-30.0
 62
     5
 63
     7
 74
     0
 91
        4
 64
     7
 65
   257
 75
     1
175
     1
 42
1.0
 92
        8
 66
     7
 43
1.0
 76
     1
 77
     6
 78
     2
 67
     7
 79
     5
170
     0
171
     0
290
     0
174
     0
 93
        1
 44
0.0
173
     0
291
     1
 45
0.0
1001
ACAD
1000
AcDbSavedByObjectVersion
1070
     0
1000
AcDbSavedByObjectVersion
1070
     0
1001
ACAD
1000
AcRTDxfName
1000
VISUALSTYLE
  0
VISUALSTYLE
  5
1C0
102
{ACAD_REACTORS
330
17A
102
}
330
17A
100
AcDbVisualStyle
  2
Brighten
 70
    12
 71
     2
 72
     2
 73
     0
 90
        0
 40
-0.6
 41
-30.0
 62
     5
 63
     7
 74
     1
 91
        4
 64
     7
 65
   257
 75
     1
175
     1
 42
1.0
 92
        8
 66
     7
 43
1.0
 76
     1
 77
     6
 78
     2
 67
     7
 79
     5
170
     0
171
     0
290
     0
174
     0
 93
        1
 44
50.0
173
     0
291
     1
 45
0.0
1001
ACAD
1000
AcDbSavedByObjectVersion
1070
     0
1000
AcDbSavedByObjectVersion
1070
     0
1001
ACAD
1000
AcRTDxfName
1000
VISUALSTYLE
  0
VISUALSTYLE
  5
1C4
102
{ACAD_REACTORS
330
17A
102
}
330
17A
100
AcDbVisualStyle
  2
ColorChange
 70
    16
 71
     2
 72
     2
 73
     3
 90
        0
 40
-0.6
 41
-30.0
 62
     5
 63
     8
 74
     1
 91
        4
 64
     7
 65
   257
 75
     1
175
     1
 42
1.0
 92
        8
 66
     8
 43
1.0
 76
     1
 77
     6
 78
     2
 67
     7
 79
     5
170
     0
171
     0
290
     0
174
     0
 93
        1
 44
0.0
173
     0
291
     1
 45
0.0
1001
ACAD
1000
AcDbSavedByObjectVersion
1070
     0
1000
AcDbSavedByObjectVersion
1070
     0
1001
ACAD
1000
AcRTDxfName
1000
VISUALSTYLE
  0
VISUALSTYLE
  5
1BE
102
{ACAD_REACTORS
330
17A
102
}
330
17A
100
AcDbVisualStyle
  2
Conceptual
 70
     9
 71
     3
 72
     2
 73
     0
 90
        0
 40
-0.6
 41
-30.0
 62
     5
 63
     7
 74
     2
 91
        2
 64
     7
 65
   257
 75
     1
175
     1
 42
40.0
 92
        8
 66
     7
 43
1.0
 76
     1
 77
     6
 78
     2
 67
     7
 79
     3
170
     0
171
     0
290
     0
174
     0
 93
        1
 44
0.0
173
     0
291
     0
 45
0.0
1001
ACAD
1000
AcDbSavedByObjectVersion
1070
     0
1000
AcDbSavedByObjectVersion
1070
     0
1001
ACAD
1000
AcRTDxfName
1000
VISUALSTYLE
  0
VISUALSTYLE
  5
1BF
102
{ACAD_REACTORS
330
17A
102
}
330
17A
100
AcDbVisualStyle
  2
Dim
 70
    11
 71
     2
 72
     2
 73
     0
 90
        0
 40
-0.6
 41
-30.0
 62
     5
 63
     7
 74
     1
 91
        4
 64
     7
 65
   257
 75
     1
175
     1
 42
1.0
 92
        8
 66
     7
 43
1.0
 76
     1
 77
     6
 78
     2
 67
     7
 79
     5
170
     0
171
     0
290
     0
174
     0
 93
        1
 44
-50.0
173
     0
291
     1
 45
0.0
1001
ACAD
1000
AcDbSavedByObjectVersion
1070
     0
1000
AcDbSavedByObjectVersion
1070
     0
1001
ACAD
1000
AcRTDxfName
1000
VISUALSTYLE
  0
VISUALSTYLE
  5
1C3
102
{ACAD_REACTORS
330
17A
102
}
330
17A
100
AcDbVisualStyle
  2
Facepattern
 70
    15
 71
     2
 72
     2
 73
     0
 90
        0
 40
-0.6
 41
-30.0
 62
     5
 63
     7
 74
     1
 91
        4
 64
     7
 65
   257
 75
     1
175
     1
 42
1.0
 92
        8
 66
     7
 43
1.0
 76
     1
 77
     6
 78
     2
 67
     7
 79
     5
170
     0
171
     0
290
     0
174
     0
 93
        1
 44
0.0
173
     0
291
     1
 45
0.0
1001
ACAD
1000
AcDbSavedByObjectVersion
1070
     0
1000
AcDbSavedByObjectVersion
1070
     0
1001
ACAD
1000
AcRTDxfName
1000
VISUALSTYLE
  0
VISUALSTYLE
  5
1B8
102
{ACAD_REACTORS
330
17A
102
}
330
17A
100
AcDbVisualStyle
  2
Flat
 70
     0
 71
     2
 72
     1
 73
     1
 90
        2
 40
-0.6
 41
30.0
 62
     5
 63
     7
 74
     0
 91
        4
 64
     7
 65
   257
 75
     1
175
     1
 42
1.0
 92
        8
 66
     7
 43
1.0
 76
     1
 77
     6
 78
     2
 67
     7
 79
     5
170
     0
171
     0
290
     0
174
     0
 93
       13
 44
0.0
173
     0
291
     1
 45
0.0
1001
ACAD
1000
AcDbSavedByObjectVersion
1070
     0
1000
AcDbSavedByObjectVersion
1070
     0
1001
ACAD
1000
AcRTDxfName
1000
VISUALSTYLE
  0
VISUALSTYLE
  5
1B9
102
{ACAD_REACTORS
330
17A
102
}
330
17A
100
AcDbVisualStyle
  2
FlatWithEdges
 70
     1
 71
     2
 72
     1
 73
     1
 90
        2
 40
-0.6
 41
30.0
 62
     5
 63
     7
 74
     1
 91
        4
 64
     7
 65
   257
 75
     1
175
     1
 42
1.0
 92
        0
 66
   257
 43
1.0
 76
     1
 77
     6
 78
     2
 67
     7
 79
     5
170
     0
171
     0
290
     0
174
     0
 93
       13
 44
0.0
173
     0
291
     1
 45
0.0
1001
ACAD
1000
AcDbSavedByObjectVersion
1070
     0
1000
AcDbSavedByObjectVersion
1070
     0
1001
ACAD
1000
AcRTDxfName
1000
VISUALSTYLE
  0
VISUALSTYLE
  5
1BA
102
{ACAD_REACTORS
330
17A
102
}
330
17A
100
AcDbVisualStyle
  2
Gouraud
 70
     2
 71
     2
 72
     2
 73
     1
 90
        2
 40
-0.6
 41
30.0
 62
     5
 63
     7
 74
     0
 91
        4
 64
     7
 65
   257
 75
     1
175
     1
 42
1.0
 92
        0
 66
     7
 43
1.0
 76
     1
 77
     6
 78
     2
 67
     7
 79
     5
170
     0
171
     0
290
     0
174
     0
 93
       13
 44
0.0
173
     0
291
     1
 45
0.0
1001
ACAD
1000
AcDbSavedByObjectVersion
1070
     0
1000
AcDbSavedByObjectVersion
1070
     0
1001
ACAD
1000
AcRTDxfName
1000
VISUALSTYLE
  0
VISUALSTYLE
  5
1BB
102
{ACAD_REACTORS
330
17A
102
}
330
17A
100
AcDbVisualStyle
  2
GouraudWithEdges
 70
     3
 71
     2
 72
     2
 73
     1
 90
        2
 40
-0.6
 41
30.0
 62
     5
 63
     7
 74
     1
 91
        4
 64
     7
 65
   257
 75
     1
175
     1
 42
1.0
 92
        0
 66
   257
 43
1.0
 76
     1
 77
     6
 78
     2
 67
     7
 79
     5
170
     0
171
     0
290
     0
174
     0
 93
       13
 44
0.0
173
     0
291
     1
 45
0.0
1001
ACAD
1000
AcDbSavedByObjectVersion
1070
     0
1000
AcDbSavedByObjectVersion
1070
     0
1001
ACAD
1000
AcRTDxfName
1000
VISUALSTYLE
  0
VISUALSTYLE
  5
1C2
102
{ACAD_REACTORS
330
17A
102
}
330
17A
100
AcDbVisualStyle
  2
Linepattern
 70
    14
 71
     2
 72
     2
 73
     0
 90
        0
 40
-0.6
 41
-30.0
 62
     5
 63
     7
 74
     1
 91
        4
 64
     7
 65
   257
 75
     7
175
     7
 42
1.0
 92
        8
 66
     7
 43
1.0
 76
     1
 77
     6
 78
     2
 67
     7
 79
     5
170
     0
171
     0
290
     0
174
     0
 93
        1
 44
0.0
173
     0
291
     1
 45
0.0
1001
ACAD
1000
AcDbSavedByObjectVersion
1070
     0
1000
AcDbSavedByObjectVersion
1070
     0
1001
ACAD
1000
AcRTDxfName
1000
VISUALSTYLE
  0
VISUALSTYLE
  5
188
102
{ACAD_REACTORS
330
17A
102
}
330
17A
100
AcDbVisualStyle
  2
Realistic
 70
     8
 71
     2
 72
     2
 73
     0
 90
        0
 40
-0.6
 41
-30.0
 62
     5
 63
     7
 74
     1
 91
        0
 64
     7
 65
   257
 75
     1
175
     1
 42
1.0
 92
        8
 66
     8
 43
1.0
 76
     1
 77
     6
 78
     2
 67
     7
 79
     5
170
     0
171
     0
290
     0
174
     0
 93
       13
 44
0.0
173
     0
291
     0
 45
0.0
1001
ACAD
1000
AcDbSavedByObjectVersion
1070
     0
1000
AcDbSavedByObjectVersion
1070
     0
1000
AcDbSavedByObjectVersion
1070
     0
1001
ACAD
1000
AcRTDxfName
1000
VISUALSTYLE
  0
VISUALSTYLE
  5
1C1
102
{ACAD_REACTORS
330
17A
102
}
330
17A
100
AcDbVisualStyle
  2
Thicken
 70
    13
 71
     2
 72
     2
 73
     0
 90
        0
 40
-0.6
 41
-30.0
 62
     5
 63
     7
 74
     1
 91
        4
 64
     7
 65
   257
 75
     1
175
     1
 42
1.0
 92
       12
 66
     7
 43
1.0
 76
     1
 77
     6
 78
     2
 67
     7
 79
     5
170
     0
171
     0
290
     0
174
     0
 93
        1
 44
0.0
173
     0
291
     1
 45
0.0
1001
ACAD
1000
AcDbSavedByObjectVersion
1070
     0
1000
AcDbSavedByObjectVersion
1070
     0
1001
ACAD
1000
AcRTDxfName
1000
VISUALSTYLE
  0
DICTIONARYVAR
  5
18C
102
{ACAD_REACTORS
330
18B
102
}
330
18B
100
DictionaryVariables
280
     0
  1
STANDARD
  0
DICTIONARYVAR
  5
190
102
{ACAD_REACTORS
330
18B
102
}
330
18B
100
DictionaryVariables
280
     0
  1
2
  0
DICTIONARYVAR
  5
18F
102
{ACAD_REACTORS
330
18B
102
}
330
18B
100
DictionaryVariables
280
     0
  1
1
  0
DICTIONARYVAR
  5
18E
102
{ACAD_REACTORS
330
18B
102
}
330
18B
100
DictionaryVariables
280
     0
  1
0
  0
DICTIONARYVAR
  5
31D
102
{ACAD_REACTORS
330
18B
102
}
330
18B
100
DictionaryVariables
280
     0
  1

  0
DICTIONARYVAR
  5
18D
102
{ACAD_REACTORS
330
18B
102
}
330
18B
100
DictionaryVariables
280
     0
  1
127
  0
DICTIONARY
  5
CC6
330
168
100
AcDbDictionary
280
     1
281
     1
  3
ACAD_XREC_ROUNDTRIP
360
CC7
  0
DICTIONARY
  5
CC8
330
16C
100
AcDbDictionary
280
     1
281
     1
  3
ACAD_XREC_ROUNDTRIP
360
CC9
  0
DICTIONARY
  5
CC4
330
163
100
AcDbDictionary
280
     1
281
     1
  3
ACAD_XREC_ROUNDTRIP
360
CC5
  0
DICTIONARY
  5
1B0
330
183
100
AcDbDictionary
280
     1
281
     1
  3
ACAD_XREC_ROUNDTRIP
360
1B1
  0
DICTIONARY
  5
1AE
330
182
100
AcDbDictionary
280
     1
281
     1
  3
ACAD_XREC_ROUNDTRIP
360
1AF
  0
DICTIONARY
  5
193
330
A
100
AcDbDictionary
280
     1
281
     1
  3
ACAD_XREC_ROUNDTRIP
360
194
  0
DICTIONARY
  5
21A
330
187
100
AcDbDictionary
280
     1
281
     1
  3
ACAD_XREC_ROUNDTRIP
360
21B
  0
XRECORD
  5
CC7
102
{ACAD_REACTORS
330
CC6
102
}
330
CC6
100
AcDbXrecord
280
     1
102
SHADEPLOT
 70
     0
102
SHADEPLOTRESLEVEL
 70
     2
102
SHADEPLOTCUSTOMDPI
 70
   300
  0
XRECORD
  5
CC9
102
{ACAD_REACTORS
330
CC8
102
}
330
CC8
100
AcDbXrecord
280
     1
102
SHADEPLOT
 70
     0
102
SHADEPLOTRESLEVEL
 70
     2
102
SHADEPLOTCUSTOMDPI
 70
   300
  0
XRECORD
  5
CC5
102
{ACAD_REACTORS
330
CC4
102
}
330
CC4
100
AcDbXrecord
280
     1
102
SHADEPLOT
 70
     0
102
SHADEPLOTRESLEVEL
 70
     2
102
SHADEPLOTCUSTOMDPI
 70
   300
  0
XRECORD
  5
1B1
102
{ACAD_REACTORS
330
1B0
102
}
330
1B0
100
AcDbXrecord
280
     1
102
MATERIAL
148
0.0
149
0.0
149
0.0
 93
        0
 94
       63
282
     0
 72
     1
 77
     1
171
     1
175
     1
179
     1
273
     0
  0
XRECORD
  5
1AF
102
{ACAD_REACTORS
330
1AE
102
}
330
1AE
100
AcDbXrecord
280
     1
102
MATERIAL
148
0.0
149
0.0
149
0.0
 93
        0
 94
       63
282
     0
 72
     1
 77
     1
171
     1
175
     1
179
     1
273
     0
  0
XRECORD
  5
194
102
{ACAD_REACTORS
330
193
102
}
330
193
100
AcDbXrecord
280
     1
102
MATERIAL
148
0.0
149
0.0
149
0.0
 93
        0
 94
       63
282
     0
 72
     1
 77
     1
171
     1
175
     1
179
     1
273
     0
  0
XRECORD
  5
21B
102
{ACAD_REACTORS
330
21A
102
}
330
21A
100
AcDbXrecord
280
     1
102
ACAD_ROUNDTRIP_PRE2007_TABLESTYLE
 90
        4
 91
        0
  1

 92
        4
 93
        0
  2

 94
        4
 95
        0
  3

  0
ENDSEC
  0
EOF
