  0
SECTION
  2
HEADER
  9
$ACADVER
  1
AC1015
  9
$ACADMAINTVER
 70
    20
  9
$DWGCODEPAGE
  3
ANSI_1252
  9
$INSBASE
 10
0.0
 20
0.0
 30
0.0
  9
$EXTMIN
 10
0.0149999999999999
 20
-0.0265737183447023
 30
0.0
  9
$EXTMAX
 10
1.094458303957087
 20
0.5619673965062444
 30
0.0
  9
$LIMMIN
 10
0.0
 20
0.0
  9
$LIMMAX
 10
1.0
 20
0.5
  9
$ORTHOMODE
 70
     0
  9
$REGENMODE
 70
     1
  9
$FILLMODE
 70
     1
  9
$QTEXTMODE
 70
     0
  9
$MIRRTEXT
 70
     0
  9
$LTSCALE
 40
1.0
  9
$ATTMODE
 70
     1
  9
$TEXTSIZE
 40
0.008
  9
$TRACEWID
 40
1.0
  9
$TEXTSTYLE
  7
style1
  9
$CLAYER
  8
Sezione
  9
$CELTYPE
  6
ACAD_ISO10W100
  9
$CECOLOR
 62
   256
  9
$CELTSCALE
 40
1.0
  9
$DISPSILH
 70
     0
  9
$DIMSCALE
 40
0.001
  9
$DIMASZ
 40
1.5
  9
$DIMEXO
 40
0.0625
  9
$DIMDLI
 40
0.38
  9
$DIMRND
 40
0.0
  9
$DIMDLE
 40
0.0
  9
$DIMEXE
 40
0.18
  9
$DIMTP
 40
0.0
  9
$DIMTM
 40
0.0
  9
$DIMTXT
 40
3.0
  9
$DIMCEN
 40
0.0
  9
$DIMTSZ
 40
0.0
  9
$DIMTOL
 70
     0
  9
$DIMLIM
 70
     0
  9
$DIMTIH
 70
     1
  9
$DIMTOH
 70
     1
  9
$DIMSE1
 70
     0
  9
$DIMSE2
 70
     0
  9
$DIMTAD
 70
     0
  9
$DIMZIN
 70
     0
  9
$DIMBLK
  1
ArchTick
  9
$DIMASO
 70
     1
  9
$DIMSHO
 70
     1
  9
$DIMPOST
  1

  9
$DIMAPOST
  1

  9
$DIMALT
 70
     0
  9
$DIMALTD
 70
     2
  9
$DIMALTF
 40
25.4
  9
$DIMLFAC
 40
1.0
  9
$DIMTOFL
 70
     0
  9
$DIMTVP
 40
0.0
  9
$DIMTIX
 70
     0
  9
$DIMSOXD
 70
     0
  9
$DIMSAH
 70
     0
  9
$DIMBLK1
  1

  9
$DIMBLK2
  1

  9
$DIMSTYLE
  2
Bovelacci
  9
$DIMCLRD
 70
     5
  9
$DIMCLRE
 70
     5
  9
$DIMCLRT
 70
     4
  9
$DIMTFAC
 40
1.0
  9
$DIMGAP
 40
2.0
  9
$DIMJUST
 70
     0
  9
$DIMSD1
 70
     0
  9
$DIMSD2
 70
     0
  9
$DIMTOLJ
 70
     1
  9
$DIMTZIN
 70
     0
  9
$DIMALTZ
 70
     0
  9
$DIMALTTZ
 70
     0
  9
$DIMUPT
 70
     0
  9
$DIMDEC
 70
     2
  9
$DIMTDEC
 70
     2
  9
$DIMALTU
 70
     2
  9
$DIMALTTD
 70
     2
  9
$DIMTXSTY
  7
ROMANS
  9
$DIMAUNIT
 70
     0
  9
$DIMADEC
 70
     0
  9
$DIMALTRND
 40
0.0
  9
$DIMAZIN
 70
     0
  9
$DIMDSEP
 70
    46
  9
$DIMATFIT
 70
     3
  9
$DIMFRAC
 70
     0
  9
$DIMLDRBLK
  1

  9
$DIMLUNIT
 70
     2
  9
$DIMLWD
 70
    -2
  9
$DIMLWE
 70
    -2
  9
$DIMTMOVE
 70
     2
  9
$LUNITS
 70
     2
  9
$LUPREC
 70
     2
  9
$SKETCHINC
 40
1.0
  9
$FILLETRAD
 40
0.0
  9
$AUNITS
 70
     0
  9
$AUPREC
 70
     0
  9
$MENU
  1
.
  9
$ELEVATION
 40
0.0
  9
$PELEVATION
 40
0.0
  9
$THICKNESS
 40
0.0
  9
$LIMCHECK
 70
     0
  9
$CHAMFERA
 40
0.0
  9
$CHAMFERB
 40
0.0
  9
$CHAMFERC
 40
0.0
  9
$CHAMFERD
 40
0.0
  9
$SKPOLY
 70
     0
  9
$TDCREATE
 40
2454297.625402373
  9
$TDUCREATE
 40
2454297.542069039
  9
$TDUPDATE
 40
2454306.905442338
  9
$TDUUPDATE
 40
2454306.822109005
  9
$TDINDWG
 40
0.1876435995
  9
$TDUSRTIMER
 40
0.1876415972
  9
$USRTIMER
 70
     1
  9
$ANGBASE
 50
0.0
  9
$ANGDIR
 70
     0
  9
$PDMODE
 70
     0
  9
$PDSIZE
 40
0.0
  9
$PLINEWID
 40
0.0
  9
$SPLFRAME
 70
     0
  9
$SPLINETYPE
 70
     6
  9
$SPLINESEGS
 70
     8
  9
$HANDSEED
  5
21BB
  9
$SURFTAB1
 70
     6
  9
$SURFTAB2
 70
     6
  9
$SURFTYPE
 70
     6
  9
$SURFU
 70
     6
  9
$SURFV
 70
     6
  9
$UCSBASE
  2

  9
$UCSNAME
  2

  9
$UCSORG
 10
0.0
 20
0.0
 30
0.0
  9
$UCSXDIR
 10
1.0
 20
0.0
 30
0.0
  9
$UCSYDIR
 10
0.0
 20
1.0
 30
0.0
  9
$UCSORTHOREF
  2

  9
$UCSORTHOVIEW
 70
     0
  9
$UCSORGTOP
 10
0.0
 20
0.0
 30
0.0
  9
$UCSORGBOTTOM
 10
0.0
 20
0.0
 30
0.0
  9
$UCSORGLEFT
 10
0.0
 20
0.0
 30
0.0
  9
$UCSORGRIGHT
 10
0.0
 20
0.0
 30
0.0
  9
$UCSORGFRONT
 10
0.0
 20
0.0
 30
0.0
  9
$UCSORGBACK
 10
0.0
 20
0.0
 30
0.0
  9
$PUCSBASE
  2

  9
$PUCSNAME
  2

  9
$PUCSORG
 10
0.0
 20
0.0
 30
0.0
  9
$PUCSXDIR
 10
1.0
 20
0.0
 30
0.0
  9
$PUCSYDIR
 10
0.0
 20
1.0
 30
0.0
  9
$PUCSORTHOREF
  2

  9
$PUCSORTHOVIEW
 70
     0
  9
$PUCSORGTOP
 10
0.0
 20
0.0
 30
0.0
  9
$PUCSORGBOTTOM
 10
0.0
 20
0.0
 30
0.0
  9
$PUCSORGLEFT
 10
0.0
 20
0.0
 30
0.0
  9
$PUCSORGRIGHT
 10
0.0
 20
0.0
 30
0.0
  9
$PUCSORGFRONT
 10
0.0
 20
0.0
 30
0.0
  9
$PUCSORGBACK
 10
0.0
 20
0.0
 30
0.0
  9
$USERI1
 70
     0
  9
$USERI2
 70
     0
  9
$USERI3
 70
     0
  9
$USERI4
 70
     0
  9
$USERI5
 70
     0
  9
$USERR1
 40
0.0
  9
$USERR2
 40
0.0
  9
$USERR3
 40
0.0
  9
$USERR4
 40
0.0
  9
$USERR5
 40
0.0
  9
$WORLDVIEW
 70
     1
  9
$SHADEDGE
 70
     3
  9
$SHADEDIF
 70
    70
  9
$TILEMODE
 70
     1
  9
$MAXACTVP
 70
    64
  9
$PINSBASE
 10
0.0
 20
0.0
 30
0.0
  9
$PLIMCHECK
 70
     0
  9
$PEXTMIN
 10
1.000000000000000E+20
 20
1.000000000000000E+20
 30
1.000000000000000E+20
  9
$PEXTMAX
 10
-1.000000000000000E+20
 20
-1.000000000000000E+20
 30
-1.000000000000000E+20
  9
$PLIMMIN
 10
0.0
 20
0.0
  9
$PLIMMAX
 10
420.0
 20
297.0
  9
$UNITMODE
 70
     0
  9
$VISRETAIN
 70
     1
  9
$PLINEGEN
 70
     0
  9
$PSLTSCALE
 70
     1
  9
$TREEDEPTH
 70
  3020
  9
$CMLSTYLE
  2
Standard
  9
$CMLJUST
 70
     0
  9
$CMLSCALE
 40
20.0
  9
$PROXYGRAPHICS
 70
     1
  9
$MEASUREMENT
 70
     1
  9
$CELWEIGHT
370
    -1
  9
$ENDCAPS
280
     0
  9
$JOINSTYLE
280
     0
  9
$LWDISPLAY
290
     0
  9
$INSUNITS
 70
     4
  9
$HYPERLINKBASE
  1

  9
$STYLESHEET
  1

  9
$XEDIT
290
     1
  9
$CEPSNTYPE
380
     0
  9
$PSTYLEMODE
290
     1
  9
$FINGERPRINTGUID
  2
{904A8C64-524F-4709-A9C6-320D2C273A6D}
  9
$VERSIONGUID
  2
{C8757EB7-BDE3-4CD8-838F-15B5A1C1CE87}
  9
$EXTNAMES
290
     1
  9
$PSVPSCALE
 40
0.0
  9
$OLESTARTUP
290
     0
  0
ENDSEC
  0
SECTION
  2
CLASSES
  0
CLASS
  1
ACDBDICTIONARYWDFLT
  2
AcDbDictionaryWithDefault
  3
ObjectDBX Classes
 90
        0
280
     0
281
     0
  0
CLASS
  1
TABLESTYLE
  2
AcDbTableStyle
  3
ObjectDBX Classes
 90
     2047
280
     0
281
     0
  0
CLASS
  1
SORTENTSTABLE
  2
AcDbSortentsTable
  3
ObjectDBX Classes
 90
        0
280
     0
281
     0
  0
CLASS
  1
DICTIONARYVAR
  2
AcDbDictionaryVar
  3
ObjectDBX Classes
 90
        0
280
     0
281
     0
  0
CLASS
  1
ACDBPLACEHOLDER
  2
AcDbPlaceHolder
  3
ObjectDBX Classes
 90
        0
280
     0
281
     0
  0
CLASS
  1
LAYOUT
  2
AcDbLayout
  3
ObjectDBX Classes
 90
        0
280
     0
281
     0
  0
CLASS
  1
DIMASSOC
  2
AcDbDimAssoc
  3
"AcDbDimAssoc|Product Desc:     AcDim ARX App For Dimension|Company:          Autodesk, Inc.|WEB Address:      www.autodesk.com"
 90
        0
280
     0
281
     0
  0
CLASS
  1
MATERIAL
  2
AcDbMaterial
  3
ObjectDBX Classes
 90
        0
280
     0
281
     0
  0
CLASS
  1
VISUALSTYLE
  2
AcDbVisualStyle
  3
ObjectDBX Classes
 90
     4095
280
     0
281
     0
  0
ENDSEC
  0
SECTION
  2
TABLES
  0
TABLE
  2
VPORT
  5
177
330
0
100
AcDbSymbolTable
 70
    33
  0
VPORT
  5
21B0
330
177
100
AcDbSymbolTableRecord
100
AcDbViewportTableRecord
  2
*Active
 70
     0
 10
0.0
 20
0.0
 11
1.0
 21
1.0
 12
0.2116079103929781
 22
0.1483380075560112
 13
0.0
 23
0.0
 14
10.0
 24
10.0
 15
10.0
 25
10.0
 16
0.0
 26
0.0
 36
1.0
 17
0.0
 27
0.0
 37
0.0
 40
0.2760587107029395
 41
1.546526867627784
 42
50.0
 43
0.0
 44
0.0
 50
0.0
 51
0.0
 71
     0
 72
  1000
 73
     1
 74
     3
 75
     0
 76
     0
 77
     0
 78
     0
281
     0
 65
     1
110
0.0
120
0.0
130
0.0
111
1.0
121
0.0
131
0.0
112
0.0
122
1.0
132
0.0
 79
     0
146
0.0
  0
ENDTAB
  0
TABLE
  2
LTYPE
  5
172
330
0
100
AcDbSymbolTable
 70
     3
  0
LTYPE
  5
173
330
172
100
AcDbSymbolTableRecord
100
AcDbLinetypeTableRecord
  2
ByBlock
 70
     0
  3

 72
    65
 73
     0
 40
0.0
  0
LTYPE
  5
174
330
172
100
AcDbSymbolTableRecord
100
AcDbLinetypeTableRecord
  2
ByLayer
 70
     0
  3

 72
    65
 73
     0
 40
0.0
  0
LTYPE
  5
C
330
172
100
AcDbSymbolTableRecord
100
AcDbLinetypeTableRecord
  2
Continuous
 70
     0
  3
Solid line
 72
    65
 73
     0
 40
0.0
  0
LTYPE
  5
14E
330
172
100
AcDbSymbolTableRecord
100
AcDbLinetypeTableRecord
  2
ACAD_ISO10W100
 70
     0
  3
ISO dash dot __ . __ . __ . __ . __ . __ . __ .
 72
    65
 73
     4
 40
18.0
 49
12.0
 74
     0
 49
-3.0
 74
     0
 49
0.0
 74
     0
 49
-3.0
 74
     0
  0
ENDTAB
  0
TABLE
  2
LAYER
  5
16D
102
{ACAD_XDICTIONARY
360
16E
102
}
330
0
100
AcDbSymbolTable
 70
     7
  0
LAYER
  5
6
330
16D
100
AcDbSymbolTableRecord
100
AcDbLayerTableRecord
  2
0
 70
     0
 62
     7
  6
Continuous
370
    -3
390
7
  0
LAYER
  5
15F
330
16D
100
AcDbSymbolTableRecord
100
AcDbLayerTableRecord
  2
Defpoints
 70
     0
 62
     7
  6
Continuous
290
     0
370
    -3
390
7
  0
LAYER
  5
28
330
16D
100
AcDbSymbolTableRecord
100
AcDbLayerTableRecord
  2
Profilo
 70
     0
 62
     1
  6
Continuous
370
    -3
390
7
1001
AcAecLayerStandard
1000

1000

  0
LAYER
  5
14D
330
16D
100
AcDbSymbolTableRecord
100
AcDbLayerTableRecord
  2
Sezione
 70
     0
 62
     2
  6
Continuous
370
    -3
390
7
1001
AcAecLayerStandard
1000

1000

  0
LAYER
  5
E
330
16D
100
AcDbSymbolTableRecord
100
AcDbLayerTableRecord
  2
Table
 70
     0
 62
     3
  6
Continuous
370
    -3
390
7
1001
AcAecLayerStandard
1000

1000

  0
LAYER
  5
19
330
16D
100
AcDbSymbolTableRecord
100
AcDbLayerTableRecord
  2
Text
 70
     0
 62
     4
  6
Continuous
370
    -3
390
7
1001
AcAecLayerStandard
1000

1000

  0
LAYER
  5
256
330
16D
100
AcDbSymbolTableRecord
100
AcDbLayerTableRecord
  2
Bovelacci
 70
     0
 62
     9
  6
Continuous
370
    -3
390
7
1001
AcAecLayerStandard
1000

1000

  0
ENDTAB
  0
TABLE
  2
STYLE
  5
170
330
0
100
AcDbSymbolTable
 70
     3
  0
STYLE
  5
1A
330
170
100
AcDbSymbolTableRecord
100
AcDbTextStyleTableRecord
  2
Standard
 70
     0
 40
0.0
 41
1.0
 50
0.0
 71
     0
 42
2.5
  3
txt
  4

  0
STYLE
  5
20
330
170
100
AcDbSymbolTableRecord
100
AcDbTextStyleTableRecord
  2
ROMANS
 70
     0
 40
0.0
 41
1.0
 50
0.0
 71
     0
 42
2.5
  3
romans
  4

  0
STYLE
  5
26
330
170
100
AcDbSymbolTableRecord
100
AcDbTextStyleTableRecord
  2
style1
 70
     0
 40
0.0
 41
1.0
 50
0.0
 71
     0
 42
0.008
  3
TIMES.TTF
  4

1001
ACAD
1000
Times New Roman
1071
       18
  0
ENDTAB
  0
TABLE
  2
VIEW
  5
175
330
0
100
AcDbSymbolTable
 70
    12
  0
ENDTAB
  0
TABLE
  2
UCS
  5
176
330
0
100
AcDbSymbolTable
 70
     0
  0
ENDTAB
  0
TABLE
  2
APPID
  5
17B
330
0
100
AcDbSymbolTable
 70
    10
  0
APPID
  5
1B
330
17B
100
AcDbSymbolTableRecord
100
AcDbRegAppTableRecord
  2
ACAD
 70
     0
  0
APPID
  5
157
330
17B
100
AcDbSymbolTableRecord
100
AcDbRegAppTableRecord
  2
ACAD_DSTYLE_DIMJOGGED_JOGANGLE_SYMBOL
 70
     0
  0
APPID
  5
F
330
17B
100
AcDbSymbolTableRecord
100
AcDbRegAppTableRecord
  2
AcAecLayerStandard
 70
     0
  0
APPID
  5
19C
330
17B
100
AcDbSymbolTableRecord
100
AcDbRegAppTableRecord
  2
ACAD_DSTYLE_DIMFLIPARROW_WHICH_SYMBOL
 70
     0
  0
APPID
  5
1A7
330
17B
100
AcDbSymbolTableRecord
100
AcDbRegAppTableRecord
  2
ACAD_DSTYLE_DIMEXT_LENGTH
 70
     0
  0
APPID
  5
1D2
330
17B
100
AcDbSymbolTableRecord
100
AcDbRegAppTableRecord
  2
ACAD_EXEMPT_FROM_CAD_STANDARDS
 70
     0
  0
APPID
  5
1D3
330
17B
100
AcDbSymbolTableRecord
100
AcDbRegAppTableRecord
  2
ACAD_DSTYLE_DIM_LINETYPE
 70
     0
  0
APPID
  5
1D4
330
17B
100
AcDbSymbolTableRecord
100
AcDbRegAppTableRecord
  2
ACAD_DSTYLE_DIM_EXT1_LINETYPE
 70
     0
  0
APPID
  5
1D5
330
17B
100
AcDbSymbolTableRecord
100
AcDbRegAppTableRecord
  2
ACAD_DSTYLE_DIM_EXT2_LINETYPE
 70
     0
  0
APPID
  5
25C
330
17B
100
AcDbSymbolTableRecord
100
AcDbRegAppTableRecord
  2
ACAD_PSEXT
 70
     0
  0
ENDTAB
  0
TABLE
  2
DIMSTYLE
  5
17C
330
0
100
AcDbSymbolTable
 70
     8
100
AcDbDimStyleTable
 71
     2
340
156
340
17D
  0
DIMSTYLE
105
17D
330
17C
100
AcDbSymbolTableRecord
100
AcDbDimStyleTableRecord
  2
ISO-25
 70
     0
 41
2.5
 42
0.625
 43
3.75
 44
1.25
 73
     0
 74
     0
 77
     1
 78
     8
140
2.5
141
2.5
143
0.03937007874016
147
0.625
171
     3
172
     1
271
     2
272
     2
274
     3
278
    44
283
     0
284
     8
340
1A
  0
DIMSTYLE
105
156
102
{ACAD_REACTORS
330
2191
102
}
330
17C
100
AcDbSymbolTableRecord
100
AcDbDimStyleTableRecord
  2
Bovelacci
 70
     0
 40
0.001
 41
1.5
140
3.0
141
0.0
147
2.0
176
     5
177
     5
178
     4
271
     2
272
     2
279
     2
340
20
342
152
1001
ACAD_DSTYLE_DIMJOGGED_JOGANGLE_SYMBOL
1070
   384
1040
0.7853981633974483
1001
ACAD_DSTYLE_DIMEXT_LENGTH
1070
   378
1040
0.18
  0
DIMSTYLE
105
257
330
17C
100
AcDbSymbolTableRecord
100
AcDbDimStyleTableRecord
  2
Dim 1-100
 70
     0
 40
0.1
 41
1.5
 42
0.0
 43
5.0
 44
1.25
 45
0.005
 46
1.25
 73
     0
 74
     0
 77
     1
 78
     9
140
2.0
141
2.5
147
1.0
172
     1
174
     1
179
     2
279
     2
289
     2
340
20
342
152
  0
DIMSTYLE
105
258
330
17C
100
AcDbSymbolTableRecord
100
AcDbDimStyleTableRecord
  2
Standard
 70
     0
 42
0.0
 73
     0
 74
     0
 77
     1
271
     2
272
     2
340
20
  0
DIMSTYLE
105
259
330
17C
100
AcDbSymbolTableRecord
100
AcDbDimStyleTableRecord
  2
Dim 1-50
 70
     0
 40
0.05
 41
1.5
 42
0.0
 43
5.0
 44
1.25
 45
0.005
 46
1.25
 73
     0
 74
     0
 77
     1
 78
     9
140
2.0
141
2.5
147
1.0
172
     1
174
     1
179
     2
279
     2
289
     2
340
20
342
152
  0
DIMSTYLE
105
25A
330
17C
100
AcDbSymbolTableRecord
100
AcDbDimStyleTableRecord
  2
Dim 1-200
 70
     0
 40
0.2
 41
1.5
 42
0.0
 43
5.0
 44
1.25
 45
0.005
 46
1.25
 73
     0
 74
     0
 77
     1
 78
     9
140
2.0
141
2.5
147
1.0
172
     1
174
     1
179
     2
271
     2
272
     2
279
     2
289
     2
340
20
342
152
  0
DIMSTYLE
105
25B
330
17C
100
AcDbSymbolTableRecord
100
AcDbDimStyleTableRecord
  2
AEC Scale - Italiano
 70
     0
 41
1.0
 42
10.0
 43
10.0
 44
10.0
 73
     0
 74
     0
 75
     1
 76
     1
 77
     1
140
10.0
141
1.0
147
10.0
173
     1
271
     0
272
     0
279
     2
340
1A
343
251
344
24B
  0
ENDTAB
  0
TABLE
  2
BLOCK_RECORD
  5
1
330
0
100
AcDbSymbolTable
 70
    43
  0
BLOCK_RECORD
  5
2
102
{ACAD_XDICTIONARY
360
3
102
}
330
1
100
AcDbSymbolTableRecord
100
AcDbBlockTableRecord
  2
*Model_Space
340
163
  0
BLOCK_RECORD
  5
165
330
1
100
AcDbSymbolTableRecord
100
AcDbBlockTableRecord
  2
*Paper_Space
340
168
  0
BLOCK_RECORD
  5
169
330
1
100
AcDbSymbolTableRecord
100
AcDbBlockTableRecord
  2
*Paper_Space0
340
16C
  0
BLOCK_RECORD
  5
152
330
1
100
AcDbSymbolTableRecord
100
AcDbBlockTableRecord
  2
_ArchTick
340
0
310
2800000020000000200000000100080000000000000400000000000000000000000000000000000000000000000080000080000000808000800000008000800080800000C0C0C000C0DCC000F0CAA6000020400000206000002080000020A0000020C0000020E00000400000004020000040400000406000004080000040A0
310
000040C0000040E00000600000006020000060400000606000006080000060A0000060C0000060E00000800000008020000080400000806000008080000080A0000080C0000080E00000A0000000A0200000A0400000A0600000A0800000A0A00000A0C00000A0E00000C0000000C0200000C0400000C0600000C0800000C0
310
A00000C0C00000C0E00000E0000000E0200000E0400000E0600000E0800000E0A00000E0C00000E0E00040000000400020004000400040006000400080004000A0004000C0004000E00040200000402020004020400040206000402080004020A0004020C0004020E000404000004040200040404000404060004040800040
310
40A0004040C0004040E00040600000406020004060400040606000406080004060A0004060C0004060E00040800000408020004080400040806000408080004080A0004080C0004080E00040A0000040A0200040A0400040A0600040A0800040A0A00040A0C00040A0E00040C0000040C0200040C0400040C0600040C08000
310
40C0A00040C0C00040C0E00040E0000040E0200040E0400040E0600040E0800040E0A00040E0C00040E0E00080000000800020008000400080006000800080008000A0008000C0008000E00080200000802020008020400080206000802080008020A0008020C0008020E00080400000804020008040400080406000804080
310
008040A0008040C0008040E00080600000806020008060400080606000806080008060A0008060C0008060E00080800000808020008080400080806000808080008080A0008080C0008080E00080A0000080A0200080A0400080A0600080A0800080A0A00080A0C00080A0E00080C0000080C0200080C0400080C0600080C0
310
800080C0A00080C0C00080C0E00080E0000080E0200080E0400080E0600080E0800080E0A00080E0C00080E0E000C0000000C0002000C0004000C0006000C0008000C000A000C000C000C000E000C0200000C0202000C0204000C0206000C0208000C020A000C020C000C020E000C0400000C0402000C0404000C0406000C0
310
408000C040A000C040C000C040E000C0600000C0602000C0604000C0606000C0608000C060A000C060C000C060E000C0800000C0802000C0804000C0806000C0808000C080A000C080C000C080E000C0A00000C0A02000C0A04000C0A06000C0A08000C0A0A000C0A0C000C0A0E000C0C00000C0C02000C0C04000C0C06000
310
C0C08000C0C0A000F0FBFF00A4A0A000808080000000FF0000FF000000FFFF00FF000000FF00FF00FFFF0000FFFFFF00000000FF000000000000000000000000000000000000000000000000000000000000FF00FF00000000000000000000000000000000000000000000000000000000FF000000FF000000000000000000
310
0000000000000000000000000000000000FF0000000000FF0000000000000000000000000000000000000000000000000000FF0000000000FF0000000000000000000000000000000000000000000000000000FF0000000000FF0000000000000000000000000000000000000000000000000000FF0000000000FF00000000
310
00000000000000000000000000000000000000000000FF0000000000FF0000000000000000000000000000000000000000000000000000FF0000000000FF0000000000000000000000000000000000000000000000000000FF0000000000FF0000000000000000000000000000000000000000000000000000FF0000000000
310
FF0000000000000000000000000000000000000000000000000000FF0000000000FF0000000000000000000000000000000000000000000000000000FF0000000000FF0000000000000000000000000000000000000000000000000000FF0000000000FF0000000000000000000000000000000000000000000000000000FF
310
0000000000FF0000000000000000000000000000000000000000000000000000FF0000000000FF0000000000000000000000000000000000000000000000000000FF0000000000FF0000000000000000000000000000000000000000000000000000FF0000000000FF00000000000000000000000000000000000000000000
310
00000000FF0000000000FF0000000000000000000000000000000000000000000000000000FF0000000000FF0000000000000000000000000000000000000000000000000000FF0000000000FF0000000000000000000000000000000000000000000000000000FF0000000000FF0000000000000000000000000000000000
310
000000000000000000FF0000000000FF0000000000000000000000000000000000000000000000000000FF0000000000FF0000000000000000000000000000000000000000000000000000FF0000000000FF0000000000000000000000000000000000000000000000000000FF0000000000FF000000000000000000000000
310
0000000000000000000000000000FF0000000000FF0000000000000000000000000000000000000000000000000000FF0000000000FF0000000000000000000000000000000000000000000000000000FF0000000000FF0000000000000000000000000000000000000000000000000000FF000000FF000000000000000000
310
00000000000000000000000000000000000000FF00FF000000000000000000000000000000000000000000000000000000000000FF000000
102
{BLKREFS
331
211
331
318
331
354
331
429
331
50A
331
5EC
331
6DD
331
847
331
9CD
331
A12
331
BBC
331
CB8
331
F31
331
11A1
331
12E0
331
1533
331
1534
331
153F
331
1540
331
1844
331
1B9F
331
1D11
331
1E8A
331
21AC
102
}
  0
BLOCK_RECORD
  5
24B
330
1
100
AcDbSymbolTableRecord
100
AcDbBlockTableRecord
  2
_Arrivo
340
0
310
2800000020000000200000000100080000000000000400000000000000000000000000000000000000000000000080000080000000808000800000008000800080800000C0C0C000C0DCC000F0CAA6000020400000206000002080000020A0000020C0000020E00000400000004020000040400000406000004080000040A0
310
000040C0000040E00000600000006020000060400000606000006080000060A0000060C0000060E00000800000008020000080400000806000008080000080A0000080C0000080E00000A0000000A0200000A0400000A0600000A0800000A0A00000A0C00000A0E00000C0000000C0200000C0400000C0600000C0800000C0
310
A00000C0C00000C0E00000E0000000E0200000E0400000E0600000E0800000E0A00000E0C00000E0E00040000000400020004000400040006000400080004000A0004000C0004000E00040200000402020004020400040206000402080004020A0004020C0004020E000404000004040200040404000404060004040800040
310
40A0004040C0004040E00040600000406020004060400040606000406080004060A0004060C0004060E00040800000408020004080400040806000408080004080A0004080C0004080E00040A0000040A0200040A0400040A0600040A0800040A0A00040A0C00040A0E00040C0000040C0200040C0400040C0600040C08000
310
40C0A00040C0C00040C0E00040E0000040E0200040E0400040E0600040E0800040E0A00040E0C00040E0E00080000000800020008000400080006000800080008000A0008000C0008000E00080200000802020008020400080206000802080008020A0008020C0008020E00080400000804020008040400080406000804080
310
008040A0008040C0008040E00080600000806020008060400080606000806080008060A0008060C0008060E00080800000808020008080400080806000808080008080A0008080C0008080E00080A0000080A0200080A0400080A0600080A0800080A0A00080A0C00080A0E00080C0000080C0200080C0400080C0600080C0
310
800080C0A00080C0C00080C0E00080E0000080E0200080E0400080E0600080E0800080E0A00080E0C00080E0E000C0000000C0002000C0004000C0006000C0008000C000A000C000C000C000E000C0200000C0202000C0204000C0206000C0208000C020A000C020C000C020E000C0400000C0402000C0404000C0406000C0
310
408000C040A000C040C000C040E000C0600000C0602000C0604000C0606000C0608000C060A000C060C000C060E000C0800000C0802000C0804000C0806000C0808000C080A000C080C000C080E000C0A00000C0A02000C0A04000C0A06000C0A08000C0A0A000C0A0C000C0A0E000C0C00000C0C02000C0C04000C0C06000
310
C0C08000C0C0A000F0FBFF00A4A0A000808080000000FF0000FF000000FFFF00FF000000FF00FF00FFFF0000FFFFFF00000000000000000000000000000000000000000000000000000000000000000000000000000000000000FF0000000000000000000000000000000000000000000000000000000000000000FF000000
310
00000000000000000000000000000000000000000000000000000000FF0000000000000000000000000000000000000000000000000000000000000000FF00000000000000000000000000000000000000000000000000000000000000FF0000000000000000000000000000000000000000000000000000000000000000FF
310
0000000000000000000000000000000000000000000000000000000000000000FF00000000000000000000000000000000000000000000000000000000000000FF0000000000000000000000000000000000000000000000000000000000000000FF0000000000000000000000000000000000000000000000000000000000
310
0000FF0000000000000000000000000000000000000000000000000000000000000000FF00000000000000000000000000000000000000000000000000000000000000FF0000000000000000000000000000000000000000000000000000000000000000FF0000FF0000000000000000000000000000000000000000000000
310
000000000000FFFF000000000000000000000000000000000000000000000000000000000000FFFF00000000000000000000000000000000000000000000000000000000FFFFFFFFFFFF00000000000000000000000000000000000000000000000000000000FFFF0000000000000000000000000000000000000000000000
310
000000000000FF0000FF000000000000000000000000000000000000000000000000000000FF00000000000000000000000000000000000000000000000000000000000000FF000000000000000000000000000000000000000000000000000000000000FF0000000000000000000000000000000000000000000000000000
310
0000000000FF000000000000000000000000000000000000000000000000000000000000FF00000000000000000000000000000000000000000000000000000000000000FF000000000000000000000000000000000000000000000000000000000000FF000000000000000000000000000000000000000000000000000000
310
000000FF00000000000000000000000000000000000000000000000000000000000000FF000000000000000000000000000000000000000000000000000000000000FF00000000000000000000000000000000000000000000000000000000000000FF00000000000000000000000000000000000000000000000000000000
310
0000FF0000000000000000000000000000000000000000000000000000000000000000000000000000000000000000000000000000000000
  0
BLOCK_RECORD
  5
251
330
1
100
AcDbSymbolTableRecord
100
AcDbBlockTableRecord
  2
_Partenza
340
0
310
2800000020000000200000000100080000000000000400000000000000000000000000000000000000000000000080000080000000808000800000008000800080800000C0C0C000C0DCC000F0CAA6000020400000206000002080000020A0000020C0000020E00000400000004020000040400000406000004080000040A0
310
000040C0000040E00000600000006020000060400000606000006080000060A0000060C0000060E00000800000008020000080400000806000008080000080A0000080C0000080E00000A0000000A0200000A0400000A0600000A0800000A0A00000A0C00000A0E00000C0000000C0200000C0400000C0600000C0800000C0
310
A00000C0C00000C0E00000E0000000E0200000E0400000E0600000E0800000E0A00000E0C00000E0E00040000000400020004000400040006000400080004000A0004000C0004000E00040200000402020004020400040206000402080004020A0004020C0004020E000404000004040200040404000404060004040800040
310
40A0004040C0004040E00040600000406020004060400040606000406080004060A0004060C0004060E00040800000408020004080400040806000408080004080A0004080C0004080E00040A0000040A0200040A0400040A0600040A0800040A0A00040A0C00040A0E00040C0000040C0200040C0400040C0600040C08000
310
40C0A00040C0C00040C0E00040E0000040E0200040E0400040E0600040E0800040E0A00040E0C00040E0E00080000000800020008000400080006000800080008000A0008000C0008000E00080200000802020008020400080206000802080008020A0008020C0008020E00080400000804020008040400080406000804080
310
008040A0008040C0008040E00080600000806020008060400080606000806080008060A0008060C0008060E00080800000808020008080400080806000808080008080A0008080C0008080E00080A0000080A0200080A0400080A0600080A0800080A0A00080A0C00080A0E00080C0000080C0200080C0400080C0600080C0
310
800080C0A00080C0C00080C0E00080E0000080E0200080E0400080E0600080E0800080E0A00080E0C00080E0E000C0000000C0002000C0004000C0006000C0008000C000A000C000C000C000E000C0200000C0202000C0204000C0206000C0208000C020A000C020C000C020E000C0400000C0402000C0404000C0406000C0
310
408000C040A000C040C000C040E000C0600000C0602000C0604000C0606000C0608000C060A000C060C000C060E000C0800000C0802000C0804000C0806000C0808000C080A000C080C000C080E000C0A00000C0A02000C0A04000C0A06000C0A08000C0A0A000C0A0C000C0A0E000C0C00000C0C02000C0C04000C0C06000
310
C0C08000C0C0A000F0FBFF00A4A0A000808080000000FF0000FF000000FFFF00FF000000FF00FF00FFFF0000FFFFFF0000000000000000000000000000000000000000000000000000000000000000000000000000000000000000000000000000000000000000000000000000000000000000000000000000000000000000
310
000000000000000000000000000000000000000000000000000000000000000000000000000000000000000000000000000000000000000000000000000000000000000000000000000000000000000000000000000000000000000000000000000000000000000000000000000000000000FFFFFFFFFFFFFFFFFFFFFFFFFF
310
FFFFFFFFFFFFFFFFFFFFFFFFFFFFFFFFFF0000000000000000000000000000000000000000000000000000000000000000000000000000000000000000000000000000000000000000000000000000000000000000000000000000000000000000000000000000000000000000000000000000000000000000000000000000
310
00000000000000000000000000000000000000000000000000000000000000000000000000000000000000000000000000000000000000000000000000000000000000000000000000000000000000000000000000000000000000000000000000000000000000000000000000000000000000000000000000000000000000
310
00000000000000000000000000000000000000000000000000000000000000000000000000000000000000000000000000000000000000000000000000000000000000000000000000000000000000000000000000000000000000000000000000000000000000000000000000000000000000000000000000000000000000
310
00000000000000000000000000000000000000000000000000000000000000000000000000000000000000000000000000000000000000000000000000000000000000000000000000000000000000000000000000000000000000000000000000000000000000000000000000000000000000000000000000000000000000
310
000000000000000000000000000000000000000000000000000000000000000000000000000000000000000000000000000000000000000000000000000000000000000000000000000000000000000000000000000000FFFFFFFFFFFFFFFFFFFFFFFFFFFFFFFFFFFFFFFFFFFFFFFFFFFFFFFFFFFF00000000000000000000
310
00000000000000000000000000000000000000000000000000000000000000000000000000000000000000000000000000000000000000000000000000000000000000000000000000000000000000000000000000000000000000000000000000000000000000000000000000000000000000000000000000000000000000
310
0000000000000000000000000000000000000000000000000000000000000000000000000000000000000000000000000000000000000000
  0
BLOCK_RECORD
  5
6C3
330
1
100
AcDbSymbolTableRecord
100
AcDbBlockTableRecord
  2
*D10
340
0
  0
BLOCK_RECORD
  5
82D
330
1
100
AcDbSymbolTableRecord
100
AcDbBlockTableRecord
  2
*D12
340
0
  0
BLOCK_RECORD
  5
9B3
330
1
100
AcDbSymbolTableRecord
100
AcDbBlockTableRecord
  2
*D15
340
0
  0
BLOCK_RECORD
  5
9F8
330
1
100
AcDbSymbolTableRecord
100
AcDbBlockTableRecord
  2
*D17
340
0
  0
BLOCK_RECORD
  5
BA2
330
1
100
AcDbSymbolTableRecord
100
AcDbBlockTableRecord
  2
*D19
340
0
  0
BLOCK_RECORD
  5
C9E
330
1
100
AcDbSymbolTableRecord
100
AcDbBlockTableRecord
  2
*D21
340
0
  0
BLOCK_RECORD
  5
F17
330
1
100
AcDbSymbolTableRecord
100
AcDbBlockTableRecord
  2
*D23
340
0
  0
BLOCK_RECORD
  5
1187
330
1
100
AcDbSymbolTableRecord
100
AcDbBlockTableRecord
  2
*D25
340
0
  0
BLOCK_RECORD
  5
12C6
330
1
100
AcDbSymbolTableRecord
100
AcDbBlockTableRecord
  2
*D27
340
0
  0
BLOCK_RECORD
  5
12F0
102
{ACAD_XDICTIONARY
360
1378
102
}
330
1
100
AcDbSymbolTableRecord
100
AcDbBlockTableRecord
  2
A$C06B82C3B
340
0
1001
ACAD
1000
DesignCenter Data
1002
{
1070
     1
1070
     4
1002
}
  0
BLOCK_RECORD
  5
1507
330
1
100
AcDbSymbolTableRecord
100
AcDbBlockTableRecord
  2
*D30
340
0
  0
BLOCK_RECORD
  5
1521
330
1
100
AcDbSymbolTableRecord
100
AcDbBlockTableRecord
  2
*D31
340
0
  0
BLOCK_RECORD
  5
182A
330
1
100
AcDbSymbolTableRecord
100
AcDbBlockTableRecord
  2
*D33
340
0
  0
BLOCK_RECORD
  5
1B85
330
1
100
AcDbSymbolTableRecord
100
AcDbBlockTableRecord
  2
*D35
340
0
  0
BLOCK_RECORD
  5
1CF7
330
1
100
AcDbSymbolTableRecord
100
AcDbBlockTableRecord
  2
*D38
340
0
  0
BLOCK_RECORD
  5
1E70
330
1
100
AcDbSymbolTableRecord
100
AcDbBlockTableRecord
  2
*D40
340
0
  0
BLOCK_RECORD
  5
2192
330
1
100
AcDbSymbolTableRecord
100
AcDbBlockTableRecord
  2
*D42
340
0
  0
ENDTAB
  0
ENDSEC
  0
SECTION
  2
BLOCKS
  0
BLOCK
  5
5
330
2
100
AcDbEntity
  8
0
100
AcDbBlockBegin
  2
*Model_Space
 70
     0
 10
0.0
 20
0.0
 30
0.0
  3
*Model_Space
  1

  0
ENDBLK
  5
162
330
2
100
AcDbEntity
  8
0
100
AcDbBlockEnd
  0
BLOCK
  5
166
330
165
100
AcDbEntity
 67
     1
  8
0
100
AcDbBlockBegin
  2
*Paper_Space
 70
     0
 10
0.0
 20
0.0
 30
0.0
  3
*Paper_Space
  1

  0
ENDBLK
  5
167
330
165
100
AcDbEntity
 67
     1
  8
0
100
AcDbBlockEnd
  0
BLOCK
  5
16A
330
169
100
AcDbEntity
 67
     1
  8
0
100
AcDbBlockBegin
  2
*Paper_Space0
 70
     0
 10
0.0
 20
0.0
 30
0.0
  3
*Paper_Space0
  1

  0
ENDBLK
  5
16B
330
169
100
AcDbEntity
 67
     1
  8
0
100
AcDbBlockEnd
  0
BLOCK
  5
153
330
152
100
AcDbEntity
  8
0
 62
     1
100
AcDbBlockBegin
  2
_ArchTick
 70
     0
 10
0.0
 20
0.0
 30
0.0
  3
_ArchTick
  1

  0
LWPOLYLINE
  5
154
330
152
100
AcDbEntity
  8
0
  6
ByBlock
 62
     0
100
AcDbPolyline
 90
        2
 70
     0
 43
0.15
 10
-0.5
 20
-0.5
 10
0.5
 20
0.5
  0
ENDBLK
  5
155
330
152
100
AcDbEntity
  8
0
 62
     1
100
AcDbBlockEnd
  0
BLOCK
  5
24C
330
24B
100
AcDbEntity
  8
0
100
AcDbBlockBegin
  2
_Arrivo
 70
     0
 10
0.0
 20
0.0
 30
0.0
  3
_Arrivo
  1

  0
LINE
  5
24D
330
24B
100
AcDbEntity
  8
0
  6
ByBlock
 62
     0
370
    -2
100
AcDbLine
 10
0.025
 20
-0.0433012701891858
 30
0.0
 11
-0.15
 21
0.2598076211353328
 31
0.0
  0
LINE
  5
24E
330
24B
100
AcDbEntity
  8
0
  6
ByBlock
 62
     0
370
    -2
100
AcDbLine
 10
0.025
 20
0.0433012701892585
 30
0.0
 11
-0.15
 21
-0.2598076211353328
 31
0.0
  0
LINE
  5
24F
330
24B
100
AcDbEntity
  8
0
  6
ByBlock
 62
     0
370
    -2
100
AcDbLine
 10
-0.05
 20
0.0
 30
0.0
 11
0.05
 21
0.0
 31
0.0
  0
ENDBLK
  5
250
330
24B
100
AcDbEntity
  8
0
100
AcDbBlockEnd
  0
BLOCK
  5
252
330
251
100
AcDbEntity
  8
0
100
AcDbBlockBegin
  2
_Partenza
 70
     0
 10
0.0
 20
0.0
 30
0.0
  3
_Partenza
  1

  0
LINE
  5
253
330
251
100
AcDbEntity
  8
0
  6
ByBlock
 62
     0
370
    -2
100
AcDbLine
 10
-0.05
 20
0.05
 30
0.0
 11
0.1
 21
0.05
 31
0.0
  0
LINE
  5
254
330
251
100
AcDbEntity
  8
0
  6
ByBlock
 62
     0
370
    -2
100
AcDbLine
 10
-0.05
 20
-0.05
 30
0.0
 11
0.1
 21
-0.05
 31
0.0
  0
ENDBLK
  5
255
330
251
100
AcDbEntity
  8
0
100
AcDbBlockEnd
  0
BLOCK
  5
6CA
330
6C3
100
AcDbEntity
  8
0
100
AcDbBlockBegin
  2
*D10
 70
     1
 10
0.0
 20
0.0
 30
0.0
  3
*D10
  1

  0
LINE
  5
6DA
330
6C3
100
AcDbEntity
  8
Sezione
  6
ACAD_ISO10W100
 62
     5
370
    -2
100
AcDbLine
 10
0.2580272919594555
 20
0.2091457005418985
 30
0.0
 11
0.2565272919594555
 21
0.2091457005418986
 31
0.0
  0
LINE
  5
6DB
330
6C3
100
AcDbEntity
  8
Sezione
  6
ACAD_ISO10W100
 62
     5
370
    -2
100
AcDbLine
 10
0.2565272919594555
 20
0.2091457005418986
 30
0.0
 11
0.2544161538279562
 21
0.2070142466273769
 31
0.0
  0
MTEXT
  5
6DC
330
6C3
100
AcDbEntity
  8
Sezione
  6
ACAD_ISO10W100
 62
     4
100
AcDbMText
 10
0.2724558633880269
 20
0.2091457005418985
 30
0.0
 40
0.003
 41
0.0
 71
     5
 72
     1
  1
\A1;d 250 mm
  7
ROMANS
 73
     1
 44
1.0
1001
ACAD
1000
MTEXTBEGIN
1070
    73
1070
     1
1070
    44
1040
1.0
1070
    74
1070
     0
1000
MTEXTEND
  0
INSERT
  5
6DD
330
6C3
100
AcDbEntity
  8
Sezione
  6
ACAD_ISO10W100
 62
     5
370
    -2
100
AcDbBlockReference
  2
_ArchTick
 10
0.2544161538279562
 20
0.2070142466273769
 30
0.0
 41
0.0015
 42
0.0015
 43
0.0015
 50
225.2743605124572
  0
POINT
  5
6DE
330
6C3
100
AcDbEntity
  8
Defpoints
  6
ACAD_ISO10W100
 62
     0
100
AcDbPoint
 10
0.2544161538279562
 20
0.2070142466273769
 30
0.0
  0
POINT
  5
6DF
330
6C3
100
AcDbEntity
  8
Defpoints
  6
ACAD_ISO10W100
 62
     0
100
AcDbPoint
 10
0.1664520650154866
 20
0.1182036668556404
 30
0.0
  0
ENDBLK
  5
6CB
330
6C3
100
AcDbEntity
  8
0
100
AcDbBlockEnd
  0
BLOCK
  5
834
330
82D
100
AcDbEntity
  8
0
100
AcDbBlockBegin
  2
*D12
 70
     1
 10
0.0
 20
0.0
 30
0.0
  3
*D12
  1

  0
LINE
  5
844
330
82D
100
AcDbEntity
  8
Sezione
  6
ACAD_ISO10W100
 62
     5
370
    -2
100
AcDbLine
 10
0.2668759768663114
 20
0.2106523346372896
 30
0.0
 11
0.2653759768663114
 21
0.2106523346372896
 31
0.0
  0
LINE
  5
845
330
82D
100
AcDbEntity
  8
Sezione
  6
ACAD_ISO10W100
 62
     5
370
    -2
100
AcDbLine
 10
0.2653759768663114
 20
0.2106523346372896
 30
0.0
 11
0.2631789214633089
 21
0.2086095552668882
 31
0.0
  0
MTEXT
  5
846
330
82D
100
AcDbEntity
  8
Sezione
  6
ACAD_ISO10W100
 62
     4
100
AcDbMText
 10
0.2813045482948828
 20
0.2106523346372896
 30
0.0
 40
0.003
 41
0.0
 71
     5
 72
     1
  1
\A1;d 290 mm
  7
ROMANS
 73
     1
 44
1.0
1001
ACAD
1000
MTEXTBEGIN
1070
    73
1070
     1
1070
    44
1040
1.0
1070
    74
1070
     0
1000
MTEXTEND
  0
INSERT
  5
847
330
82D
100
AcDbEntity
  8
Sezione
  6
ACAD_ISO10W100
 62
     5
370
    -2
100
AcDbBlockReference
  2
_ArchTick
 10
0.2631789214633089
 20
0.2086095552668882
 30
0.0
 41
0.0015
 42
0.0015
 43
0.0015
 50
222.916082132817
  0
POINT
  5
848
330
82D
100
AcDbEntity
  8
Defpoints
  6
ACAD_ISO10W100
 62
     0
100
AcDbPoint
 10
0.2631789214633089
 20
0.2086095552668882
 30
0.0
  0
POINT
  5
849
330
82D
100
AcDbEntity
  8
Defpoints
  6
ACAD_ISO10W100
 62
     0
100
AcDbPoint
 10
0.1569879103181878
 20
0.1098752190308209
 30
0.0
  0
ENDBLK
  5
835
330
82D
100
AcDbEntity
  8
0
100
AcDbBlockEnd
  0
BLOCK
  5
9BA
330
9B3
100
AcDbEntity
  8
0
100
AcDbBlockBegin
  2
*D15
 70
     1
 10
0.0
 20
0.0
 30
0.0
  3
*D15
  1

  0
LINE
  5
9CA
330
9B3
100
AcDbEntity
  8
Sezione
  6
ACAD_ISO10W100
 62
     5
370
    -2
100
AcDbLine
 10
0.2720801551691272
 20
0.2106523321067409
 30
0.0
 11
0.2705801551691272
 21
0.2106523321067409
 31
0.0
  0
LINE
  5
9CB
330
9B3
100
AcDbEntity
  8
Sezione
  6
ACAD_ISO10W100
 62
     5
370
    -2
100
AcDbLine
 10
0.2705801551691272
 20
0.2106523321067409
 30
0.0
 11
0.268259040554878
 21
0.2087516935436473
 31
0.0
  0
MTEXT
  5
9CC
330
9B3
100
AcDbEntity
  8
Sezione
  6
ACAD_ISO10W100
 62
     4
100
AcDbMText
 10
0.2865087265976987
 20
0.2106523321067409
 30
0.0
 40
0.003
 41
0.0
 71
     5
 72
     1
  1
\A1;d 310 mm
  7
ROMANS
 73
     1
 44
1.0
1001
ACAD
1000
MTEXTBEGIN
1070
    73
1070
     1
1070
    44
1040
1.0
1070
    74
1070
     0
1000
MTEXTEND
  0
INSERT
  5
9CD
330
9B3
100
AcDbEntity
  8
Sezione
  6
ACAD_ISO10W100
 62
     5
370
    -2
100
AcDbBlockReference
  2
_ArchTick
 10
0.268259040554878
 20
0.2087516935436473
 30
0.0
 41
0.0015
 42
0.0015
 43
0.0015
 50
219.3122411371381
  0
POINT
  5
9CE
330
9B3
100
AcDbEntity
  8
Defpoints
  6
ACAD_ISO10W100
 62
     0
100
AcDbPoint
 10
0.268259040554878
 20
0.2087516935436473
 30
0.0
  0
POINT
  5
9CF
330
9B3
100
AcDbEntity
  8
Defpoints
  6
ACAD_ISO10W100
 62
     0
100
AcDbPoint
 10
0.1483347854853323
 20
0.1105520344504785
 30
0.0
  0
ENDBLK
  5
9BB
330
9B3
100
AcDbEntity
  8
0
100
AcDbBlockEnd
  0
BLOCK
  5
9FF
330
9F8
100
AcDbEntity
  8
0
100
AcDbBlockBegin
  2
*D17
 70
     1
 10
0.0
 20
0.0
 30
0.0
  3
*D17
  1

  0
LINE
  5
A0F
330
9F8
100
AcDbEntity
  8
Sezione
  6
ACAD_ISO10W100
 62
     5
370
    -2
100
AcDbLine
 10
0.270541626019994
 20
0.2147084216870797
 30
0.0
 11
0.2690416260199941
 21
0.2147084216870796
 31
0.0
  0
LINE
  5
A10
330
9F8
100
AcDbEntity
  8
Sezione
  6
ACAD_ISO10W100
 62
     5
370
    -2
100
AcDbLine
 10
0.2690416260199941
 20
0.2147084216870796
 30
0.0
 11
0.266907749695741
 21
0.2125997320862155
 31
0.0
  0
MTEXT
  5
A11
330
9F8
100
AcDbEntity
  8
Sezione
  6
ACAD_ISO10W100
 62
     4
100
AcDbMText
 10
0.2849701974485655
 20
0.2147084216870797
 30
0.0
 40
0.003
 41
0.0
 71
     5
 72
     1
  1
\A1;d 320 mm
  7
ROMANS
 73
     1
 44
1.0
1001
ACAD
1000
MTEXTBEGIN
1070
    73
1070
     1
1070
    44
1040
1.0
1070
    74
1070
     0
1000
MTEXTEND
  0
INSERT
  5
A12
330
9F8
100
AcDbEntity
  8
Sezione
  6
ACAD_ISO10W100
 62
     5
370
    -2
100
AcDbBlockReference
  2
_ArchTick
 10
0.266907749695741
 20
0.2125997320862155
 30
0.0
 41
0.0015
 42
0.0015
 43
0.0015
 50
224.6598577317865
  0
POINT
  5
A13
330
9F8
100
AcDbEntity
  8
Defpoints
  6
ACAD_ISO10W100
 62
     0
100
AcDbPoint
 10
0.266907749695741
 20
0.2125997320862155
 30
0.0
  0
POINT
  5
A14
330
9F8
100
AcDbEntity
  8
Defpoints
  6
ACAD_ISO10W100
 62
     0
100
AcDbPoint
 10
0.1531010124022461
 20
0.1001362867067971
 30
0.0
  0
ENDBLK
  5
A00
330
9F8
100
AcDbEntity
  8
0
100
AcDbBlockEnd
  0
BLOCK
  5
BA9
330
BA2
100
AcDbEntity
  8
0
100
AcDbBlockBegin
  2
*D19
 70
     1
 10
0.0
 20
0.0
 30
0.0
  3
*D19
  1

  0
LINE
  5
BB9
330
BA2
100
AcDbEntity
  8
Sezione
  6
ACAD_ISO10W100
 62
     5
370
    -2
100
AcDbLine
 10
0.2721196718501769
 20
0.2115475428616256
 30
0.0
 11
0.2706196718501769
 21
0.2115475428616256
 31
0.0
  0
LINE
  5
BBA
330
BA2
100
AcDbEntity
  8
Sezione
  6
ACAD_ISO10W100
 62
     5
370
    -2
100
AcDbLine
 10
0.2706196718501769
 20
0.2115475428616256
 30
0.0
 11
0.26845501015967
 21
0.2094704680517903
 31
0.0
  0
MTEXT
  5
BBB
330
BA2
100
AcDbEntity
  8
Sezione
  6
ACAD_ISO10W100
 62
     4
100
AcDbMText
 10
0.2865482432787483
 20
0.2115475428616256
 30
0.0
 40
0.003
 41
0.0
 71
     5
 72
     1
  1
\A1;d 330 mm
  7
ROMANS
 73
     1
 44
1.0
1001
ACAD
1000
MTEXTBEGIN
1070
    73
1070
     1
1070
    44
1040
1.0
1070
    74
1070
     0
1000
MTEXTEND
  0
INSERT
  5
BBC
330
BA2
100
AcDbEntity
  8
Sezione
  6
ACAD_ISO10W100
 62
     5
370
    -2
100
AcDbBlockReference
  2
_ArchTick
 10
0.26845501015967
 20
0.2094704680517903
 30
0.0
 41
0.0015
 42
0.0015
 43
0.0015
 50
223.817077498188
  0
POINT
  5
BBD
330
BA2
100
AcDbEntity
  8
Defpoints
  6
ACAD_ISO10W100
 62
     0
100
AcDbPoint
 10
0.26845501015967
 20
0.2094704680517903
 30
0.0
  0
POINT
  5
BBE
330
BA2
100
AcDbEntity
  8
Defpoints
  6
ACAD_ISO10W100
 62
     0
100
AcDbPoint
 10
0.1493986171817919
 20
0.0952313535108543
 30
0.0
  0
ENDBLK
  5
BAA
330
BA2
100
AcDbEntity
  8
0
100
AcDbBlockEnd
  0
BLOCK
  5
CA5
330
C9E
100
AcDbEntity
  8
0
100
AcDbBlockBegin
  2
*D21
 70
     1
 10
0.0
 20
0.0
 30
0.0
  3
*D21
  1

  0
LINE
  5
CB5
330
C9E
100
AcDbEntity
  8
Sezione
  6
ACAD_ISO10W100
 62
     5
370
    -2
100
AcDbLine
 10
0.2517131923565132
 20
0.1920875998421381
 30
0.0
 11
0.2502131923565132
 21
0.1920875998421381
 31
0.0
  0
LINE
  5
CB6
330
C9E
100
AcDbEntity
  8
Sezione
  6
ACAD_ISO10W100
 62
     5
370
    -2
100
AcDbLine
 10
0.2502131923565132
 20
0.1920875998421381
 30
0.0
 11
0.2477847082184422
 21
0.1903262183414014
 31
0.0
  0
MTEXT
  5
CB7
330
C9E
100
AcDbEntity
  8
Sezione
  6
ACAD_ISO10W100
 62
     4
100
AcDbMText
 10
0.2661417637850846
 20
0.1920875998421381
 30
0.0
 40
0.003
 41
0.0
 71
     5
 72
     1
  1
\A1;d 380 mm
  7
ROMANS
 73
     1
 44
1.0
1001
ACAD
1000
MTEXTBEGIN
1070
    73
1070
     1
1070
    44
1040
1.0
1070
    74
1070
     0
1000
MTEXTEND
  0
INSERT
  5
CB8
330
C9E
100
AcDbEntity
  8
Sezione
  6
ACAD_ISO10W100
 62
     5
370
    -2
100
AcDbBlockReference
  2
_ArchTick
 10
0.2477847082184422
 20
0.1903262183414014
 30
0.0
 41
0.0015
 42
0.0015
 43
0.0015
 50
215.9534071794428
  0
POINT
  5
CB9
330
C9E
100
AcDbEntity
  8
Defpoints
  6
ACAD_ISO10W100
 62
     0
100
AcDbPoint
 10
0.2477847082184422
 20
0.1903262183414014
 30
0.0
  0
POINT
  5
CBA
330
C9E
100
AcDbEntity
  8
Defpoints
  6
ACAD_ISO10W100
 62
     0
100
AcDbPoint
 10
0.1708827105128607
 20
0.1345491374847382
 30
0.0
  0
ENDBLK
  5
CA6
330
C9E
100
AcDbEntity
  8
0
100
AcDbBlockEnd
  0
BLOCK
  5
F1E
330
F17
100
AcDbEntity
  8
0
100
AcDbBlockBegin
  2
*D23
 70
     1
 10
0.0
 20
0.0
 30
0.0
  3
*D23
  1

  0
LINE
  5
F2E
330
F17
100
AcDbEntity
  8
Sezione
  6
ACAD_ISO10W100
 62
     5
370
    -2
100
AcDbLine
 10
0.2503579376781857
 20
0.1980055183402467
 30
0.0
 11
0.2488579376781857
 21
0.1980055183402467
 31
0.0
  0
LINE
  5
F2F
330
F17
100
AcDbEntity
  8
Sezione
  6
ACAD_ISO10W100
 62
     5
370
    -2
100
AcDbLine
 10
0.2488579376781857
 20
0.1980055183402467
 30
0.0
 11
0.2466795059210188
 21
0.1959428901431722
 31
0.0
  0
MTEXT
  5
F30
330
F17
100
AcDbEntity
  8
Sezione
  6
ACAD_ISO10W100
 62
     4
100
AcDbMText
 10
0.2647865091067571
 20
0.1980055183402467
 30
0.0
 40
0.003
 41
0.0
 71
     5
 72
     1
  1
\A1;d 400 mm
  7
ROMANS
 73
     1
 44
1.0
1001
ACAD
1000
MTEXTBEGIN
1070
    73
1070
     1
1070
    44
1040
1.0
1070
    74
1070
     0
1000
MTEXTEND
  0
INSERT
  5
F31
330
F17
100
AcDbEntity
  8
Sezione
  6
ACAD_ISO10W100
 62
     5
370
    -2
100
AcDbBlockReference
  2
_ArchTick
 10
0.2466795059210188
 20
0.1959428901431722
 30
0.0
 41
0.0015
 42
0.0015
 43
0.0015
 50
223.4359082248928
  0
POINT
  5
F32
330
F17
100
AcDbEntity
  8
Defpoints
  6
ACAD_ISO10W100
 62
     0
100
AcDbPoint
 10
0.2466795059210188
 20
0.1959428901431722
 30
0.0
  0
POINT
  5
F33
330
F17
100
AcDbEntity
  8
Defpoints
  6
ACAD_ISO10W100
 62
     0
100
AcDbPoint
 10
0.1740651140154545
 20
0.127188616907357
 30
0.0
  0
ENDBLK
  5
F1F
330
F17
100
AcDbEntity
  8
0
100
AcDbBlockEnd
  0
BLOCK
  5
118E
330
1187
100
AcDbEntity
  8
0
100
AcDbBlockBegin
  2
*D25
 70
     1
 10
0.0
 20
0.0
 30
0.0
  3
*D25
  1

  0
LINE
  5
119E
330
1187
100
AcDbEntity
  8
Sezione
  6
ACAD_ISO10W100
 62
     5
370
    -2
100
AcDbLine
 10
0.2487233430377668
 20
0.2056018570955785
 30
0.0
 11
0.2472233430377668
 21
0.2056018570955785
 31
0.0
  0
LINE
  5
119F
330
1187
100
AcDbEntity
  8
Sezione
  6
ACAD_ISO10W100
 62
     5
370
    -2
100
AcDbLine
 10
0.2472233430377668
 20
0.2056018570955785
 30
0.0
 11
0.2451694762350893
 21
0.203415162979599
 31
0.0
  0
MTEXT
  5
11A0
330
1187
100
AcDbEntity
  8
Sezione
  6
ACAD_ISO10W100
 62
     4
100
AcDbMText
 10
0.2631519144663382
 20
0.2056018570955785
 30
0.0
 40
0.003
 41
0.0
 71
     5
 72
     1
  1
\A1;d 410 mm
  7
ROMANS
 73
     1
 44
1.0
1001
ACAD
1000
MTEXTBEGIN
1070
    73
1070
     1
1070
    44
1040
1.0
1070
    74
1070
     0
1000
MTEXTEND
  0
INSERT
  5
11A1
330
1187
100
AcDbEntity
  8
Sezione
  6
ACAD_ISO10W100
 62
     5
370
    -2
100
AcDbBlockReference
  2
_ArchTick
 10
0.2451694762350893
 20
0.203415162979599
 30
0.0
 41
0.0015
 42
0.0015
 43
0.0015
 50
226.7940921288566
  0
POINT
  5
11A2
330
1187
100
AcDbEntity
  8
Defpoints
  6
ACAD_ISO10W100
 62
     0
100
AcDbPoint
 10
0.2451694762350893
 20
0.203415162979599
 30
0.0
  0
POINT
  5
11A3
330
1187
100
AcDbEntity
  8
Defpoints
  6
ACAD_ISO10W100
 62
     0
100
AcDbPoint
 10
0.1750322086303928
 20
0.1287419903171205
 30
0.0
  0
ENDBLK
  5
118F
330
1187
100
AcDbEntity
  8
0
100
AcDbBlockEnd
  0
BLOCK
  5
12CD
330
12C6
100
AcDbEntity
  8
0
100
AcDbBlockBegin
  2
*D27
 70
     1
 10
0.0
 20
0.0
 30
0.0
  3
*D27
  1

  0
LINE
  5
12DD
330
12C6
100
AcDbEntity
  8
Sezione
  6
ACAD_ISO10W100
 62
     5
370
    -2
100
AcDbLine
 10
0.2519997129554445
 20
0.1994291125252039
 30
0.0
 11
0.2504997129554445
 21
0.199429112525204
 31
0.0
  0
LINE
  5
12DE
330
12C6
100
AcDbEntity
  8
Sezione
  6
ACAD_ISO10W100
 62
     5
370
    -2
100
AcDbLine
 10
0.2504997129554445
 20
0.199429112525204
 30
0.0
 11
0.2483895355443742
 21
0.1972967074760145
 31
0.0
  0
MTEXT
  5
12DF
330
12C6
100
AcDbEntity
  8
Sezione
  6
ACAD_ISO10W100
 62
     4
100
AcDbMText
 10
0.2664282843840159
 20
0.1994291125252039
 30
0.0
 40
0.003
 41
0.0
 71
     5
 72
     1
  1
\A1;d 420 mm
  7
ROMANS
 73
     1
 44
1.0
1001
ACAD
1000
MTEXTBEGIN
1070
    73
1070
     1
1070
    44
1040
1.0
1070
    74
1070
     0
1000
MTEXTEND
  0
INSERT
  5
12E0
330
12C6
100
AcDbEntity
  8
Sezione
  6
ACAD_ISO10W100
 62
     5
370
    -2
100
AcDbBlockReference
  2
_ArchTick
 10
0.2483895355443742
 20
0.1972967074760145
 30
0.0
 41
0.0015
 42
0.0015
 43
0.0015
 50
225.30017995227
  0
POINT
  5
12E1
330
12C6
100
AcDbEntity
  8
Defpoints
  6
ACAD_ISO10W100
 62
     0
100
AcDbPoint
 10
0.2483895355443742
 20
0.1972967074760145
 30
0.0
  0
POINT
  5
12E2
330
12C6
100
AcDbEntity
  8
Defpoints
  6
ACAD_ISO10W100
 62
     0
100
AcDbPoint
 10
0.1745333261569147
 20
0.1226625307543829
 30
0.0
  0
ENDBLK
  5
12CE
330
12C6
100
AcDbEntity
  8
0
100
AcDbBlockEnd
  0
BLOCK
  5
137A
330
12F0
100
AcDbEntity
  8
0
100
AcDbBlockBegin
  2
A$C06B82C3B
 70
     0
 10
0.0
 20
0.0
 30
0.0
  3
A$C06B82C3B
  1

  0
CIRCLE
  5
12F1
330
12F0
100
AcDbEntity
  8
0
  6
Continuous
370
     0
100
AcDbCircle
 10
0.2100000128891679
 20
0.2099999738693725
 30
0.0
 40
0.190353501069441
  0
CIRCLE
  5
12F2
330
12F0
100
AcDbEntity
  8
0
  6
Continuous
370
     0
100
AcDbCircle
 10
0.2100000128891679
 20
0.2099999738693725
 30
0.0
 40
0.1762215365181566
  0
CIRCLE
  5
12F3
330
12F0
100
AcDbEntity
  8
0
  6
Continuous
370
     0
100
AcDbCircle
 10
0.2100000128891679
 20
0.2099999738693725
 30
0.0
 40
0.21
  0
CIRCLE
  5
12F4
330
12F0
100
AcDbEntity
  8
0
  6
Continuous
370
     0
100
AcDbCircle
 10
0.2100000128891679
 20
0.2099999738693725
 30
0.0
 40
0.0142627512571157
  0
LWPOLYLINE
  5
12F5
330
12F0
100
AcDbEntity
  8
0
  6
Continuous
370
     0
100
AcDbPolyline
 90
        9
 70
   128
 43
0.0
 10
0.1775311812878222
 20
0.3976650651396838
 10
0.1764864628582323
 20
0.4056706834829508
 10
0.1761382233816988
 20
0.4103696324400321
 10
0.1803170857085234
 20
0.4112398089736118
 10
0.1837994576907427
 20
0.4117619192180122
 10
0.1895453862704066
 20
0.4121099855071914
 10
0.1904159735701895
 20
0.4081071763355571
 10
0.1911124525232495
 20
0.4014938375631835
 10
0.1912865722615144
 20
0.3997534917031107
  0
LWPOLYLINE
  5
12F6
330
12F0
100
AcDbEntity
  8
0
  6
Continuous
370
     0
100
AcDbPolyline
 90
        9
 70
   128
 43
0.0
 10
0.1528075761770253
 20
0.3916629494312022
 10
0.1507051347651398
 20
0.3994578902112717
 10
0.1497336938595133
 20
0.4040684969610541
 10
0.1537592870569284
 20
0.4054878971706746
 10
0.1571409970490407
 20
0.4064695036392223
 10
0.16278926481694
 20
0.4075803216289931
 10
0.1641856065386555
 20
0.4037292655001839
 10
0.165757342939834
 20
0.3972677658804766
 10
0.1661618744936568
 20
0.3955661561667387
  0
LWPOLYLINE
  5
12F7
330
12F0
100
AcDbEntity
  8
0
  6
Continuous
370
     0
100
AcDbPolyline
 90
        9
 70
   128
 43
0.0
 10
0.1291045714542669
 20
0.3824190536201452
 10
0.125981925176891
 20
0.3898642159341286
 10
0.1244046182281479
 20
0.3943042040899378
 10
0.1282051054901778
 20
0.3962474987452306
 10
0.1314258067972602
 20
0.3976710846472411
 10
0.1368756202812626
 20
0.3995248317642605
 10
0.1387727986738127
 20
0.3958942508661245
 10
0.1411917448497917
 20
0.3896998960128765
 10
0.1418194693440142
 20
0.3880673877111267
  0
LWPOLYLINE
  5
12F8
330
12F0
100
AcDbEntity
  8
0
  6
Continuous
370
     0
100
AcDbPolyline
 90
        9
 70
   128
 43
0.0
 10
0.1068451478003673
 20
0.3700983352462508
 10
0.1027580203542904
 20
0.377060859996277
 10
0.1006029944423012
 20
0.381250997864285
 10
0.1041105559837199
 20
0.3836835088260901
 10
0.107112775114647
 20
0.3855236702374185
 10
0.1122668822640236
 20
0.3880872663204648
 10
0.114631042134043
 20
0.3847419484551419
 10
0.1178540319330068
 20
0.3789252767774531
 10
0.1186937476091571
 20
0.3773910020370134
  0
LWPOLYLINE
  5
12F9
330
12F0
100
AcDbEntity
  8
0
  6
Continuous
370
     0
100
AcDbPolyline
 90
        9
 70
   128
 43
0.0
 10
0.0864265251577585
 20
0.3549206578207862
 10
0.0814478514290862
 20
0.3612762985877466
 10
0.0787535630423015
 20
0.3651418130584325
 10
0.0819056063443036
 20
0.3680201321110097
 10
0.0846357686275638
 20
0.3702440313076742
 10
0.0894021942781293
 20
0.3734717289239135
 10
0.0921911471367345
 20
0.3704713713679606
 10
0.0961606662293661
 20
0.3651361815097225
 10
0.0971973883413106
 20
0.3637275194996814
  0
LWPOLYLINE
  5
12FA
330
12F0
100
AcDbEntity
  8
0
  6
Continuous
370
     0
100
AcDbPolyline
 90
        9
 70
   128
 43
0.0
 10
0.0682130743312257
 20
0.337156867356974
 10
0.0624316988705971
 20
0.3427922075808123
 10
0.0592462276491048
 20
0.3462641184568724
 10
0.0619865044242971
 20
0.3495368819285396
 10
0.064395890049262
 20
0.3521048333766892
 10
0.0686895772223686
 20
0.3559390341856954
 10
0.0718535541397181
 20
0.353337178390781
 10
0.0764987663637768
 20
0.3485786769414041
 10
0.0777139945808614
 20
0.3473207652687016
  0
LWPOLYLINE
  5
12FB
330
12F0
100
AcDbEntity
  8
0
  6
Continuous
370
     0
100
AcDbPolyline
 90
        9
 70
   128
 43
0.0
 10
0.0525298147822575
 20
0.317123959116472
 10
0.0460489063717269
 20
0.3219384360173922
 10
0.0424290971249412
 20
0.3249547869669911
 10
0.0447087070693506
 20
0.3285635923160619
 10
0.0467543204924645
 20
0.3314297708612716
 10
0.0504986482387864
 20
0.3358020534587726
 10
0.0539811879718392
 20
0.3336451296031946
 10
0.0592191994051312
 20
0.3295482321337743
 10
0.0605912479510415
 20
0.3284635182620121
  0
LWPOLYLINE
  5
12FC
330
12F0
100
AcDbEntity
  8
0
  6
Continuous
370
     0
100
AcDbPolyline
 90
        9
 70
   128
 43
0.0
 10
0.0396566146490436
 20
0.2951794208214213
 10
0.0325918252527302
 20
0.2990871199450691
 10
0.0286022735624165
 20
0.3015940841140523
 10
0.0303805369825838
 20
0.3054745321235792
 10
0.0320258741838479
 20
0.3085877907418073
 10
0.0351540248860473
 20
0.313420131641271
 10
0.038892981430763
 20
0.3117466300823306
 10
0.0446303196351749
 20
0.3083844458252667
 10
0.0461347042711004
 20
0.3074922864991834
  0
LWPOLYLINE
  5
12FD
330
12F0
100
AcDbEntity
  8
0
  6
Continuous
370
     0
100
AcDbPolyline
 90
        9
 70
   128
 43
0.0
 10
0.0298231964929343
 20
0.2717148532775742
 10
0.022300597444989
 20
0.2746460416405103
 10
0.0180124969555706
 20
0.2765988821938929
 10
0.0192576806986295
 20
0.2806817261772174
 10
0.0204733805967159
 20
0.2839865086946673
 10
0.0229295323313998
 20
0.2891926746582598
 10
0.0268581839196642
 20
0.2880324590709211
 10
0.0329924659590155
 20
0.2854649862839338
 10
0.0346023409054901
 20
0.284781302107838
  0
LWPOLYLINE
  5
12FE
330
12F0
100
AcDbEntity
  8
0
  6
Continuous
370
     0
100
AcDbPolyline
 90
        9
 70
   128
 43
0.0
 10
0.0232050378938844
 20
0.2471489822486337
 10
0.0153588701525287
 20
0.2490513527250826
 10
0.0108487421188315
 20
0.2504152211769259
 10
0.0115386258513901
 20
0.2546276026864387
 10
0.0123029942528099
 20
0.2580649351807942
 10
0.0140433169340923
 20
0.2635520220535614
 10
0.0180915566852349
 20
0.2629257965124676
 10
0.0245133161512108
 20
0.2611988518082633
 10
0.026199953151675
 20
0.2607358431424771
  0
LWPOLYLINE
  5
12FF
330
12F0
100
AcDbEntity
  8
0
  6
Continuous
370
     0
100
AcDbPolyline
 90
        9
 70
   128
 43
0.0
 10
0.0199202400488829
 20
0.2219201862850895
 10
0.0118905186633356
 20
0.2227597910288317
 10
0.0072388464269686
 20
0.2235103491142993
 10
0.0073611191574763
 20
0.2277770981021714
 10
0.0076605158899987
 20
0.2312856412936401
 10
0.0086539534183991
 20
0.2369557318803448
 10
0.0127495403981612
 20
0.2368746713951122
 10
0.0193441808409602
 20
0.2360190721428505
 10
0.0210774818181818
 20
0.2357850013879812
  0
LWPOLYLINE
  5
1300
330
12F0
100
AcDbEntity
  8
0
  6
Continuous
370
     0
100
AcDbPolyline
 90
        9
 70
   128
 43
0.0
 10
0.0200274202532853
 20
0.1964786738485902
 10
0.0119574357919063
 20
0.1962405300930818
 10
0.0072472285541245
 20
0.1963643840853599
 10
0.0067997083228093
 20
0.2006093603148233
 10
0.0066287906446511
 20
0.2041265041670321
 10
0.0068576151039394
 20
0.2098784155668287
 10
0.0109274634656415
 20
0.2103439666637374
 10
0.0175773033703273
 20
0.2103749810523432
 10
0.0193263375273069
 20
0.2103740252065567
  0
LWPOLYLINE
  5
1301
330
12F0
100
AcDbEntity
  8
0
  6
Continuous
370
     0
100
AcDbPolyline
 90
        9
 70
   128
 43
0.0
 10
0.0235246658738148
 20
0.1712784493312895
 10
0.0155584274004923
 20
0.1699668067574897
 10
0.0108737389210418
 20
0.1694617464791505
 10
0.0098644117370306
 20
0.1736091982488226
 10
0.0092262296782088
 20
0.1770721792464087
 10
0.0086863576904932
 20
0.1828032684641005
 10
0.0126578408936986
 20
0.1838071233727962
 10
0.0192442137096371
 20
0.1847241979497713
 10
0.0209777694904076
 20
0.1849563740701594
  0
LWPOLYLINE
  5
1302
330
12F0
100
AcDbEntity
  8
0
  6
Continuous
370
     0
100
AcDbPolyline
 90
        9
 70
   128
 43
0.0
 10
0.0303495684795116
 20
0.1467692113367
 10
0.0226292337085319
 20
0.1444074762374114
 10
0.0180536623643093
 20
0.1432825145010863
 10
0.0165005396951159
 20
0.1472584304358832
 10
0.0154064816295865
 20
0.1506054516009047
 10
0.0141075472232721
 20
0.1562134472136325
 10
0.0179097940561377
 20
0.1577376921194879
 10
0.0243151658043921
 20
0.1595244616672797
 10
0.026002307864978
 20
0.1599856265654722
  0
LWPOLYLINE
  5
1303
330
12F0
100
AcDbEntity
  8
0
  6
Continuous
370
     0
100
AcDbPolyline
 90
        9
 70
   128
 43
0.0
 10
0.0403803375216967
 20
0.1233883277974694
 10
0.0330436760099459
 20
0.1200186453914895
 10
0.0286588729799853
 20
0.1182938571660177
 10
0.0265896703364348
 20
0.1220272869518908
 10
0.0250592597562971
 20
0.1251986206123643
 10
0.0230244424466406
 20
0.1305834478055612
 10
0.026589601724357
 20
0.1326008825221212
 10
0.0326996683943328
 20
0.1352254620958213
 10
0.0343102896446936
 20
0.1359073862732849
  0
LWPOLYLINE
  5
1304
330
12F0
100
AcDbEntity
  8
0
  6
Continuous
370
     0
100
AcDbPolyline
 90
        9
 70
   128
 43
0.0
 10
0.0534379736891814
 20
0.1015530311342623
 10
0.0466159083351414
 20
0.0972355334839552
 10
0.0425001205333935
 20
0.0949416976560773
 10
0.0399517628856785
 20
0.0983660181500525
 10
0.0380123100039924
 20
0.1013050717816775
 10
0.0352779211540905
 20
0.1063706381865117
 10
0.0385423725248834
 20
0.1088452615434665
 10
0.0442480998321102
 20
0.1122608154584021
 10
0.0457534586978738
 20
0.1131513299620365
  0
LWPOLYLINE
  5
1305
330
12F0
100
AcDbEntity
  8
0
  6
Continuous
370
     0
100
AcDbPolyline
 90
        9
 70
   128
 43
0.0
 10
0.0692894631552114
 20
0.081652972733318
 10
0.0631037338767477
 20
0.0764647056865364
 10
0.0593304076340395
 20
0.0736427558109441
 10
0.056348370484752
 20
0.0766968599326816
 10
0.0540344848841379
 20
0.0793511860537741
 10
0.0506493197277926
 20
0.0840070965177483
 10
0.0535548089796194
 20
0.086894748802667
 10
0.0587543780851227
 20
0.0910403264183107
 10
0.060127611401672
 20
0.0921235399957024
  0
LWPOLYLINE
  5
1306
330
12F0
100
AcDbEntity
  8
0
  6
Continuous
370
     0
100
AcDbPolyline
 90
        9
 70
   128
 43
0.0
 10
0.0876519357147423
 20
0.0640432696082431
 10
0.0822129269973645
 20
0.0580768179133493
 10
0.0788493974098898
 20
0.0547771117524256
 10
0.0754868952826087
 20
0.057406498941523
 10
0.0728398683064242
 20
0.0597287310395682
 10
0.06886433519605
 20
0.0638919007301499
 10
0.071359013804372
 20
0.0671410517195987
 10
0.0759596382742877
 20
0.0719426751051913
 10
0.077176240660556
 20
0.0731992577843865
  0
LWPOLYLINE
  5
1307
330
12F0
100
AcDbEntity
  8
0
  6
Continuous
370
     0
100
AcDbPolyline
 90
        9
 70
   128
 43
0.0
 10
0.1081977126099254
 20
0.0490381673284865
 10
0.1036024836930558
 20
0.0424000024573239
 10
0.1007087730259819
 20
0.0386814233456825
 10
0.0970258098508303
 20
0.0408391721254553
 10
0.0940928777581753
 20
0.0427878699136528
 10
0.0895979201763062
 20
0.0463840069690864
 10
0.0916372705422645
 20
0.0499366754866841
 10
0.0955568521239343
 20
0.0553086595591541
 10
0.0965951132815128
 20
0.0567161875924782
  0
LWPOLYLINE
  5
1308
330
12F0
100
AcDbEntity
  8
0
  6
Continuous
370
     0
100
AcDbPolyline
 90
        9
 70
   128
 43
0.0
 10
0.1305601539653373
 20
0.036905432299708
 10
0.1268907068178535
 20
0.0297140124616639
 10
0.1245184534065906
 20
0.0256429185316467
 10
0.1205807517486761
 20
0.0272905238240036
 10
0.117414252782229
 20
0.0288309127441533
 10
0.1124800833534003
 20
0.0317958440134926
 10
0.1140277132214002
 20
0.0355886326053785
 10
0.1171963068886441
 20
0.0414351141816898
 10
0.1180376990225795
 20
0.0429684701980388
  0
LWPOLYLINE
  5
1309
330
12F0
100
AcDbEntity
  8
0
  6
Continuous
370
     0
100
AcDbPolyline
 90
        9
 70
   128
 43
0.0
 10
0.1543402014852084
 20
0.0278615734659269
 10
0.1516620174783902
 20
0.0202452297183768
 10
0.1498535542412646
 20
0.015894269737613
 10
0.1457313824799584
 20
0.0170023299870774
 10
0.1423878228887893
 20
0.0181069217624099
 10
0.1371024919833523
 20
0.0203877379769111
 10
0.1381307838617331
 20
0.0243529642408102
 10
0.140491845985494
 20
0.0305696127187289
 10
0.1411213544332241
 20
0.0322014339436673
  0
LWPOLYLINE
  5
130A
330
12F0
100
AcDbEntity
  8
0
  6
Continuous
370
     0
100
AcDbPolyline
 90
        9
 70
   128
 43
0.0
 10
0.1791134996581895
 20
0.0220679787022835
 10
0.1774743710490867
 20
0.0141626248798392
 10
0.1762619700554033
 20
0.009609441832259
 10
0.172028888443446
 20
0.0101581836774311
 10
0.1685679341276653
 20
0.0108072668415461
 10
0.1630257586008419
 20
0.0123632667818274
 10
0.163516362596674
 20
0.0164301711611241
 10
0.165027759967419
 20
0.0229060503012839
 10
0.1654341511357806
 20
0.0246072168463929
  0
LWPOLYLINE
  5
130B
330
12F0
100
AcDbEntity
  8
0
  6
Continuous
370
     0
100
AcDbPolyline
 90
        9
 70
   128
 43
0.0
 10
0.2044379683914918
 20
0.0196280348445885
 10
0.2038671454689655
 20
0.0115747421734937
 10
0.203272442043179
 20
0.0069005877184462
 10
0.1990039900222164
 20
0.0068802188480994
 10
0.1954874017935886
 20
0.0070622104965565
 10
0.1897872818989512
 20
0.0078656273068223
 10
0.189731443172306
 20
0.0119616357965189
 10
0.1903662048681447
 20
0.0185811833822491
 10
0.1905422266971115
 20
0.0203213378902305
  0
LWPOLYLINE
  5
130C
330
12F0
100
AcDbEntity
  8
0
  6
Continuous
370
     0
100
AcDbPolyline
 90
        9
 70
   128
 43
0.0
 10
0.22986169194062
 20
0.0205852827487849
 10
0.2303693610532491
 20
0.0125277624275402
 10
0.2304029676920827
 20
0.007816046962013
 10
0.2261753158895523
 20
0.0072269308591188
 10
0.2226658473483205
 20
0.0069385833466384
 10
0.2169095018604246
 20
0.0069750800348771
 10
0.2163082168547028
 20
0.011027099266439
 10
0.2160550155381386
 20
0.0176721893142524
 10
0.215997526914002
 20
0.0194202786866882
  0
LWPOLYLINE
  5
130D
330
12F0
100
AcDbEntity
  8
0
  6
Continuous
370
     0
100
AcDbPolyline
 90
        9
 70
   128
 43
0.0
 10
0.2549309833565445
 20
0.0249226403033464
 10
0.2565080851369821
 20
0.0170046789729704
 10
0.2571694021291755
 20
0.0123394831710666
 10
0.2530579930916446
 20
0.011192132626439
 10
0.2496182707870709
 20
0.0104385915212131
 10
0.2439084218275198
 20
0.0097075168031573
 10
0.242772420487892
 20
0.013643238397405
 10
0.2416357745424165
 20
0.0201952891179715
 10
0.2413458013510379
 20
0.0219201186585956
  0
LWPOLYLINE
  5
130E
330
12F0
100
AcDbEntity
  8
0
  6
Continuous
370
     0
100
AcDbPolyline
 90
        9
 70
   128
 43
0.0
 10
0.279198480540046
 20
0.0325627072599577
 10
0.2818168715696601
 20
0.0249256011279701
 10
0.2830940976978127
 20
0.0203901755192941
 10
0.2791722996169597
 20
0.0187050650305824
 10
0.2758637054750572
 20
0.0174997772914871
 10
0.270302245433804
 20
0.0160141772127993
 10
0.2686517997310887
 20
0.0197633681246447
 10
0.2666519926305249
 20
0.0261054580176356
 10
0.2661347094503768
 20
0.0277762481024339
  0
LWPOLYLINE
  5
130F
330
12F0
100
AcDbEntity
  8
0
  6
Continuous
370
     0
100
AcDbPolyline
 90
        9
 70
   128
 43
0.0
 10
0.302231129428975
 20
0.0433691464427799
 10
0.3058440844578101
 20
0.0361491798490334
 10
0.3077144275914101
 20
0.0318244592110197
 10
0.3040522250468989
 20
0.0296316596148181
 10
0.3009338010085116
 20
0.0279961336301095
 10
0.2956199742717409
 20
0.0257825187593887
 10
0.2934845364486058
 20
0.0292782745881883
 10
0.2906572547980417
 20
0.0352972289092168
 10
0.2899218925597218
 20
0.0368841642495425
  0
LWPOLYLINE
  5
1310
330
12F0
100
AcDbEntity
  8
0
  6
Continuous
370
     0
100
AcDbPolyline
 90
        9
 70
   128
 43
0.0
 10
0.3236179118582534
 20
0.0571491166885867
 10
0.3281609576182305
 20
0.0504751301079924
 10
0.3305910414397495
 20
0.0464382891828805
 10
0.3272537865227427
 20
0.0437769310399289
 10
0.3243811809387118
 20
0.0417403528095512
 10
0.3194098128704325
 20
0.0388382251566082
 10
0.3168274898654175
 20
0.0420181640567811
 10
0.3132231865728876
 20
0.047606574423396
 10
0.3122828678329625
 20
0.0490813361205084
  0
LWPOLYLINE
  5
1311
330
12F0
100
AcDbEntity
  8
0
  6
Continuous
370
     0
100
AcDbPolyline
 90
        9
 70
   128
 43
0.0
 10
0.3429771801887753
 20
0.0736567141018902
 10
0.3483692459206757
 20
0.0676478049830855
 10
0.3513157055267477
 20
0.0639708812928177
 10
0.3483629516302997
 20
0.0608884566022283
 10
0.3457874262153311
 20
0.0584871689129507
 10
0.341247230996494
 20
0.0549483170145031
 10
0.3382641044248018
 20
0.0577556929010416
 10
0.3339470983679469
 20
0.0628138339978594
 10
0.3328186031366051
 20
0.0641501048943365
  0
LWPOLYLINE
  5
1312
330
12F0
100
AcDbEntity
  8
0
  6
Continuous
370
     0
100
AcDbPolyline
 90
        9
 70
   128
 43
0.0
 10
0.3599634678185417
 20
0.092597360215775
 10
0.3661083319816427
 20
0.0873607576843405
 10
0.3695185877307985
 20
0.0841093660192787
 10
0.3670030268181463
 20
0.080660880722677
 10
0.3647705418842797
 20
0.0779377346102006
 10
0.3607425394061252
 20
0.0738253093622152
 10
0.3574118432320965
 20
0.076210024545917
 10
0.3524591714862737
 20
0.0806476337252348
 10
0.351162637787656
 20
0.0818215680352702
  0
LWPOLYLINE
  5
1313
330
12F0
100
AcDbEntity
  8
0
  6
Continuous
370
     0
100
AcDbPolyline
 90
        9
 70
   128
 43
0.0
 10
0.3742736540423976
 20
0.1136330587516294
 10
0.3810616613901345
 20
0.109262210103795
 10
0.3848748571877358
 20
0.106494371625228
 10
0.3828413795029597
 20
0.1027413640244283
 10
0.3809917737967261
 20
0.0997449540956445
 10
0.3775478438589026
 20
0.0951323418240957
 10
0.3739290144346725
 20
0.0970518410060119
 10
0.3684290575445175
 20
0.1007897290268964
 10
0.3669876220531911
 20
0.101780377864916
  0
LWPOLYLINE
  5
1314
330
12F0
100
AcDbEntity
  8
0
  6
Continuous
370
     0
100
AcDbPolyline
 90
        9
 70
   128
 43
0.0
 10
0.3856523732481598
 20
0.1363884271707327
 10
0.3929623916285969
 20
0.1329613303041679
 10
0.397110480905301
 20
0.1307264371553174
 10
0.3955953739058593
 20
0.1267358797598667
 10
0.394161653684911
 20
0.1235196770209405
 10
0.3913632532987456
 20
0.1184891899010889
 10
0.3875208687211184
 20
0.119909219572845
 10
0.3815717735476305
 20
0.1228806837350102
 10
0.3800111587140868
 20
0.1236703689490319
  0
LWPOLYLINE
  5
1315
330
12F0
100
AcDbEntity
  8
0
  6
Continuous
370
     0
100
AcDbPolyline
 90
        9
 70
   128
 43
0.0
 10
0.3938965719220313
 20
0.1604573953845633
 10
0.4015981538839987
 20
0.1580352069240405
 10
0.4060071138883891
 20
0.1563731408260942
 10
0.4050374146945827
 20
0.1522162452272528
 10
0.4040451647302242
 20
0.1488376428922517
 10
0.4019422314169035
 20
0.1434790500859257
 10
0.3979448591296943
 20
0.1443742697843877
 10
0.3916527874171862
 20
0.1465262842394672
 10
0.390000842450096
 20
0.1471009138781376
  0
LWPOLYLINE
  5
1316
330
12F0
100
AcDbEntity
  8
0
  6
Continuous
370
     0
100
AcDbPolyline
 90
        9
 70
   128
 43
0.0
 10
0.3988591321433716
 20
0.1854104520851418
 10
0.4068148427743025
 20
0.1840363960411206
 10
0.411405995510652
 20
0.1829768166029719
 10
0.4109990084275666
 20
0.1787277627011789
 10
0.4104659354439164
 20
0.1752470520088138
 10
0.409095996098241
 20
0.1696559777315904
 10
0.405014969304613
 20
0.1700104122400301
 10
0.3984922032218527
 20
0.1713045742390893
 10
0.396778407118294
 20
0.171653894022894
  0
LWPOLYLINE
  5
1317
330
12F0
100
AcDbEntity
  8
0
  6
Continuous
370
     0
100
AcDbPolyline
 90
        9
 70
   128
 43
0.0
 10
0.4004514969074649
 20
0.2108023093844959
 10
0.4085193663626754
 20
0.2105009058196359
 10
0.4132107826016415
 20
0.2100627212614583
 10
0.4133737703234104
 20
0.205797333524254
 10
0.4133093870204974
 20
0.2022766278392893
 10
0.4126968882425394
 20
0.1965528449440992
 10
0.4086050329623098
 20
0.1963601693703172
 10
0.4019679714245683
 20
0.1967733845618227
 10
0.4002229069166106
 20
0.1968911608709458
  0
LWPOLYLINE
  5
1318
330
12F0
100
AcDbEntity
  8
0
  6
Continuous
370
     0
100
AcDbPolyline
 90
        9
 70
   128
 43
0.0
 10
0.3986452504273749
 20
0.2361798489875753
 10
0.4066813073853019
 20
0.2369564764556298
 10
0.4113892686929575
 20
0.2371475061912473
 10
0.4121193226998301
 20
0.2329419005638513
 10
0.412524777999213
 20
0.229444026962641
 10
0.4126806498441767
 20
0.2236896764908476
 10
0.4086509853317608
 20
0.2229533291350236
 10
0.4020180668594157
 20
0.2224782236840959
 10
0.4002728746645446
 20
0.2223623547975073
  0
LWPOLYLINE
  5
1319
330
12F0
100
AcDbEntity
  8
0
  6
Continuous
370
     0
100
AcDbPolyline
 90
        9
 70
   128
 43
0.0
 10
0.3934726252143221
 20
0.2610902080989579
 10
0.4013334660481788
 20
0.2629310076643616
 10
0.4059739587434521
 20
0.2637478427636139
 10
0.40725805120438
 20
0.25967706837808
 10
0.4081261097466396
 20
0.2562644464979051
 10
0.4090475706777604
 20
0.2505822149700005
 10
0.4051520063918411
 20
0.249315335968145
 10
0.3986415955721725
 20
0.2479603881428094
 10
0.3969274186864453
 20
0.2476129417435366
  0
LWPOLYLINE
  5
131A
330
12F0
100
AcDbEntity
  8
0
  6
Continuous
370
     0
100
AcDbPolyline
 90
        9
 70
   128
 43
0.0
 10
0.3850259268877849
 20
0.2850888607701627
 10
0.3925712747066612
 20
0.2879609833210619
 10
0.3970614890874699
 20
0.2893890473422544
 10
0.3988767053420652
 20
0.2855257472639288
 10
0.4001918766019515
 20
0.2822592754230868
 10
0.4018624831270828
 20
0.2767505623953035
 10
0.398170535504633
 20
0.2749757592332145
 10
0.3918988107729504
 20
0.2727651481095137
 10
0.3902462387235061
 20
0.2721923243867845
  0
LWPOLYLINE
  5
131B
330
12F0
100
AcDbEntity
  8
0
  6
Continuous
370
     0
100
AcDbPolyline
 90
        9
 70
   128
 43
0.0
 10
0.3734558869794995
 20
0.3077475504757334
 10
0.3805510948728141
 20
0.311599742917167
 10
0.3848109029571631
 20
0.3136135520240071
 10
0.3871248504283606
 20
0.3100266669343128
 10
0.3888636651435817
 20
0.3069646354001883
 10
0.3912536052497017
 20
0.3017277439870085
 10
0.3878311571835091
 20
0.2994766880691611
 10
0.3819100376162261
 20
0.2964498620549669
 10
0.3803485605904377
 20
0.2956618830616833
  0
LWPOLYLINE
  5
131C
330
12F0
100
AcDbEntity
  8
0
  6
Continuous
370
     0
100
AcDbPolyline
 90
        9
 70
   128
 43
0.0
 10
0.3589689731257301
 20
0.3286619323610828
 10
0.3654874269405397
 20
0.3334254522276705
 10
0.3694408123522414
 20
0.3359890699489405
 10
0.3722121985925994
 20
0.332742607897277
 10
0.3743436275733707
 20
0.3299396586951371
 10
0.3774102527226723
 20
0.3250680413478939
 10
0.374318377879554
 20
0.3223809028204698
 10
0.3688535259956254
 20
0.3185918756977148
 10
0.3674110085880073
 20
0.317602802937678
  0
LWPOLYLINE
  5
131D
330
12F0
100
AcDbEntity
  8
0
  6
Continuous
370
     0
100
AcDbPolyline
 90
        9
 70
   128
 43
0.0
 10
0.3418237046473997
 20
0.3474587887859925
 10
0.3476490824209542
 20
0.3530486309528662
 10
0.3512254969036803
 20
0.3561163094695967
 10
0.3544048664600865
 20
0.3532682036481862
 10
0.3568908743057477
 20
0.3507743554729465
 10
0.3605794604997889
 20
0.3463549463186126
 10
0.3578733334595725
 20
0.3432796772322924
 10
0.352962269670332
 20
0.3387960642797445
 10
0.3516644536382003
 20
0.3376235477797902
  0
LWPOLYLINE
  5
131E
330
12F0
100
AcDbEntity
  8
0
  6
Continuous
370
     0
100
AcDbPolyline
 90
        9
 70
   128
 43
0.0
 10
0.3223260392666809
 20
0.3638026894022541
 10
0.3273543869946067
 20
0.3701191030035211
 10
0.3304900093471872
 20
0.3736360995199064
 10
0.3340206262945813
 20
0.3712371744446034
 10
0.3368168501362376
 20
0.3690969300760311
 10
0.3410615744670018
 20
0.3652085935756641
 10
0.3387894861308247
 20
0.3618000721801504
 10
0.3345198484859359
 20
0.3567018835771663
 10
0.3333898933871282
 20
0.3553668469220134
  0
LWPOLYLINE
  5
131F
330
12F0
100
AcDbEntity
  8
0
  6
Continuous
370
     0
100
AcDbPolyline
 90
        9
 70
   128
 43
0.0
 10
0.300823913284205
 20
0.3774019769161789
 10
0.3049654999821705
 20
0.3843322454014846
 10
0.3076043749494417
 20
0.3882357990313689
 10
0.3114232353447583
 20
0.3863288635769777
 10
0.314479776501706
 20
0.3845804157265338
 10
0.3192048917629506
 20
0.381292539337096
 10
0.3174073876010048
 20
0.3776115907774393
 10
0.3138553678853881
 20
0.3719898038204192
 10
0.3129134377954123
 20
0.3705160707708064
  0
LWPOLYLINE
  5
1320
330
12F0
100
AcDbEntity
  8
0
  6
Continuous
370
     0
100
AcDbPolyline
 90
        9
 70
   128
 43
0.0
 10
0.2777010326475207
 20
0.3880139717199053
 10
0.2808819516027867
 20
0.39543442428395
 10
0.2829769883984348
 20
0.3996548760203335
 10
0.287015944587452
 20
0.39827395949521
 10
0.2902782590103357
 20
0.3969485092562052
 10
0.2953994454082896
 20
0.3943197652097616
 10
0.2941086019249219
 20
0.3904320761002129
 10
0.2913375860145564
 20
0.3843870117105847
 10
0.2906004896981784
 20
0.3828008810676948
  0
LWPOLYLINE
  5
1321
330
12F0
100
AcDbEntity
  8
0
  6
Continuous
370
     0
100
AcDbPolyline
 90
        9
 70
   128
 43
0.0
 10
0.2533700257093798
 20
0.3954493025147609
 10
0.2555335133478351
 20
0.4032275210057427
 10
0.2570473259906123
 20
0.4076895567874033
 10
0.2612343027044481
 20
0.4068593016796563
 10
0.2646441743151087
 20
0.4059805017430076
 10
0.2700700441571691
 20
0.4040578000393414
 10
0.2693088964849259
 20
0.4000327462841593
 10
0.2673683332243755
 20
0.3936722787791691
 10
0.2668492241828311
 20
0.3920020550819014
  0
LWPOLYLINE
  5
1322
330
12F0
100
AcDbEntity
  8
0
  6
Continuous
370
     0
100
AcDbPolyline
 90
        9
 70
   128
 43
0.0
 10
0.228265079865011
 20
0.399575285646561
 10
0.2293725286984873
 20
0.4075724675712423
 10
0.2302781031659222
 20
0.4121964622639495
 10
0.234538383705928
 20
0.4119316844956434
 10
0.2380349632646919
 20
0.4115152170670396
 10
0.2436686917749888
 20
0.4103328683636019
 10
0.243450822612111
 20
0.4062422771424056
 10
0.2423753413987342
 20
0.3996799092153597
 10
0.2420834831451621
 20
0.3979553976451608
  0
LWPOLYLINE
  5
1323
330
12F0
100
AcDbEntity
  8
0
  6
Continuous
370
     0
100
AcDbPolyline
 90
        9
 70
   128
 43
0.0
 10
0.2028341934677478
 20
0.400318292848576
 10
0.202865841045579
 20
0.4083917283060519
 10
0.2031470173398482
 20
0.413095166614971
 10
0.2074045768988597
 20
0.4134005911516531
 10
0.2109254678606618
 20
0.4134538881022252
 10
0.2166665210204677
 20
0.4130329914396374
 10
0.2169958182473266
 20
0.4089498594496775
 10
0.2168046110688522
 20
0.4023026967117005
 10
0.2167452118207045
 20
0.4005546712183942
  0
LWPOLYLINE
  5
1324
330
12F0
100
AcDbEntity
  8
0
  6
Continuous
370
     0
100
AcDbPolyline
 90
        7
 70
   128
 43
0.0
 10
0.2204147824743643
 20
0.218646497073113
 10
0.2158801622524784
 20
0.215980357585483
 10
0.2124125195356576
 20
0.2154471340122104
 10
0.2094783541798257
 20
0.2154471340122104
 10
0.2065442002155322
 20
0.2170468119391167
 10
0.2044102679884965
 20
0.2191797206463857
 10
0.2030765574987114
 20
0.2213126293536547
  0
LWPOLYLINE
  5
1325
330
12F0
100
AcDbEntity
  8
0
  6
Continuous
370
     0
100
AcDbPolyline
 90
        7
 70
   128
 43
0.0
 10
0.2013534896854274
 20
0.2204147434545689
 10
0.2040196291730574
 20
0.215880123232683
 10
0.2045528527463318
 20
0.212412480515864
 10
0.2045528527463318
 20
0.2094783151600285
 10
0.2029531748194237
 20
0.2065441611957386
 10
0.2008202661121565
 20
0.2044102289686993
 10
0.1986873574048857
 20
0.2030765184789143
  0
LWPOLYLINE
  5
1326
330
12F0
100
AcDbEntity
  8
0
  6
Continuous
370
     0
100
AcDbPolyline
 90
        7
 70
   128
 43
0.0
 10
0.1995852433039715
 20
0.2013534506656338
 10
0.2041198635258574
 20
0.204019590153262
 10
0.2075875062426782
 20
0.2045528137265364
 10
0.2105216715985136
 20
0.2045528137265364
 10
0.2134558255628036
 20
0.2029531357996283
 10
0.2155897577898429
 20
0.2008202270923593
 10
0.2169234682796244
 20
0.1986873183850903
  0
LWPOLYLINE
  5
1327
330
12F0
100
AcDbEntity
  8
0
  6
Continuous
370
     0
100
AcDbPolyline
 90
        7
 70
   128
 43
0.0
 10
0.2186465360929084
 20
0.1995852042841761
 10
0.2159803966052784
 20
0.204119824506062
 10
0.215447173032004
 20
0.2075874672228828
 10
0.215447173032004
 20
0.2105216325787165
 10
0.2170468509589121
 20
0.2134557865430082
 10
0.2191797596661828
 20
0.2155897187700457
 10
0.2213126683734501
 20
0.2169234292598307
  0
LWPOLYLINE
  5
1328
330
12F0
100
AcDbEntity
  8
0
  6
Continuous
370
     0
100
AcDbPolyline
 90
       15
 70
   128
 43
0.0
 10
0.1964080050497898
 20
0.2173134309328421
 10
0.1905396857296644
 20
0.2162469765792067
 10
0.1873387759975635
 20
0.2167802001524812
 10
0.1841378776570081
 20
0.2199795632133838
 10
0.1841378776570081
 20
0.2245119996216456
 10
0.186005076899324
 20
0.2306441139568154
 10
0.1908064301059298
 20
0.2351765431579888
 10
0.1950742945600048
 20
0.2375760636518951
 10
0.1998756477666106
 20
0.2386425180055287
 10
0.2036100348597003
 20
0.238109294432256
 10
0.2073444219527864
 20
0.235976385724987
 10
0.2086781324425715
 20
0.2327770226640844
 10
0.2086781324425715
 20
0.2301108831764544
 10
0.2073444219527864
 20
0.22691152011555
 10
0.2052104897257507
 20
0.2239787688412846
  0
LWPOLYLINE
  5
1329
330
12F0
100
AcDbEntity
  8
0
  6
Continuous
370
     0
100
AcDbPolyline
 90
       15
 70
   128
 43
0.0
 10
0.1988443404822675
 20
0.1993331887644398
 10
0.198045188446283
 20
0.1934225329163368
 10
0.1965489271875995
 20
0.190543062003492
 10
0.1925170201160355
 20
0.1884874843357025
 10
0.1882064169352659
 20
0.1898880842117787
 10
0.1829514259358937
 20
0.1935588237594228
 10
0.1801245293463118
 20
0.1995257796625651
 10
0.1791612923905958
 20
0.2043262525732459
 10
0.1796307337650766
 20
0.2092221633464195
 10
0.1812918485944195
 20
0.212609001379727
 10
0.1844743543944709
 20
0.2155015095209798
 10
0.1879292686884532
 20
0.2157812860161456
 10
0.1904649180215152
 20
0.2149574036050943
 10
0.1930955539016636
 20
0.2127003119959383
 10
0.195225344788728
 20
0.2097645518620599
  0
LWPOLYLINE
  5
132A
330
12F0
100
AcDbEntity
  8
0
  6
Continuous
370
     0
100
AcDbPolyline
 90
       15
 70
   128
 43
0.0
 10
0.216697436013721
 20
0.1960940810603642
 10
0.2220718522134319
 20
0.1935075492040674
 10
0.2243480216316165
 20
0.1911947147370405
 10
0.225057064362467
 20
0.1867249348109272
 10
0.2223929650847367
 20
0.1830581167307183
 10
0.2172780027942345
 20
0.1791946441998426
 10
0.2107295314125821
 20
0.1783499965561823
 10
0.2058663537806566
 20
0.1789173314831504
 10
0.2013551312992057
 20
0.1808767163932234
 10
0.1986473696298674
 20
0.1835031209854722
 10
0.1968798792906057
 20
0.1874236980367705
 10
0.1976814232627219
 20
0.1907959724809398
 10
0.1992485407341036
 20
0.1929529246358061
 10
0.2022080736098459
 20
0.1947573283665296
 10
0.2056582889940159
 20
0.1958756800952414
  0
LWPOLYLINE
  5
132B
330
12F0
100
AcDbEntity
  8
0
  6
Continuous
370
     0
100
AcDbPolyline
 90
       15
 70
   128
 43
0.0
 10
0.2252949204240835
 20
0.2120724445744262
 10
0.2294156443411737
 20
0.2163845358223533
 10
0.2323186556644501
 20
0.2178345964242218
 10
0.2367887752431557
 20
0.2171276981754424
 10
0.2394528745208859
 20
0.2134608800952353
 10
0.2415466449735497
 20
0.2074023832089064
 10
0.2403263636749173
 20
0.2009134063534645
 10
0.2382839915607739
 20
0.1964635657106566
 10
0.2350264613619437
 20
0.1927786214089515
 10
0.2316918577875135
 20
0.1910149906818627
 10
0.2274169828830139
 20
0.1905455324138252
 10
0.2244574500072751
 20
0.1923499361445486
 10
0.2228903325358935
 20
0.1945068882994149
 10
0.2220887885637737
 20
0.1978791627435843
 10
0.2220913480526363
 20
0.2015061022571842
  0
LWPOLYLINE
  5
132C
330
12F0
100
AcDbEntity
  8
0
  6
Continuous
370
     0
100
AcDbPolyline
 90
       15
 70
   128
 43
0.0
 10
0.2127553624759777
 20
0.225186724014792
 10
0.2099276937152865
 20
0.2304382748249001
 10
0.2094456839646099
 20
0.2336472960296287
 10
0.2114993270671768
 20
0.2376801888114084
 10
0.2158099302479499
 20
0.2390807886874846
 10
0.2222189138428412
 20
0.2391999042218771
 10
0.2280132099061021
 20
0.2360341436166617
 10
0.2316141321538119
 20
0.2327166559279181
 10
0.2341120902530029
 20
0.2284798501927394
 10
0.2347589535743388
 20
0.2247634618675462
 10
0.2338844259249662
 20
0.2205527436503019
 10
0.2312537900448213
 20
0.2182956520411458
 10
0.2287181407117593
 20
0.2174717696300945
 10
0.2252632264177734
 20
0.2177515461252604
 10
0.2218145928847086
 20
0.2188747662910923
  0
LWPOLYLINE
  5
132D
330
12F0
100
AcDbEntity
  8
0
  6
Continuous
370
     0
100
AcDbPolyline
 90
       18
 70
   128
 43
0.0
 10
0.22498831620792
 20
0.2423999114347648
 10
0.2335169823592658
 20
0.2504982489582836
 10
0.2467364126155509
 20
0.2662686896454875
 10
0.2591029694217681
 20
0.2837440389436914
 10
0.2693373710816935
 20
0.3012193954489835
 10
0.2799981923793382
 20
0.3174160632889365
 10
0.2855418299343313
 20
0.3259406207581197
 10
0.2893797205892028
 20
0.3310553610052995
 10
0.2919383181562978
 20
0.3323340424635503
 10
0.2940704846941351
 20
0.3314815881580504
 10
0.2940704846941351
 20
0.3293504523942978
 10
0.2936440536648774
 20
0.3272193094234588
 10
0.2898061630100059
 20
0.322530796329028
 10
0.2761603017244631
 20
0.3046292198780733
 10
0.2608087049303478
 20
0.2824653574854405
 10
0.2522800387789985
 20
0.2701047412273283
 10
0.2411927750605578
 20
0.2513507032637854
 10
0.2343698444177882
 20
0.2360064897293323
  0
LWPOLYLINE
  5
132E
330
12F0
100
AcDbEntity
  8
0
  6
Continuous
370
     0
100
AcDbPolyline
 90
       12
 70
   128
 43
0.0
 10
0.1669934114401492
 20
0.3297766795470487
 10
0.1721106065743392
 20
0.3412848342925709
 10
0.1814921347842038
 20
0.3523667690924324
 10
0.1908736629940683
 20
0.3583339636451122
 10
0.1994023291454212
 20
0.3621700152269529
 10
0.2049459553088688
 20
0.3634486966852055
 10
0.2083574263260246
 20
0.3634486966852055
 10
0.2156067879980554
 20
0.3613175609214529
 10
0.2283997872250758
 20
0.3540716777034341
 10
0.2347962754470423
 20
0.3493831718160915
 10
0.2433249415983916
 20
0.3374487827107302
 10
0.2463099701947478
 20
0.3323340424635503
  0
LWPOLYLINE
  5
132F
330
12F0
100
AcDbEntity
  8
0
  6
Continuous
370
     0
100
AcDbPolyline
 90
       39
 70
   128
 43
0.0
 10
0.1947115650404853
 20
0.2436785928930156
 10
0.1776542327377903
 20
0.2590228064274669
 10
0.166566980410888
 20
0.2760719357800099
 10
0.1631555093937322
 20
0.2858751819145304
 10
0.1644348138730542
 20
0.290989914954622
 10
0.166566980410888
 20
0.2935472850782119
 10
0.166566980410888
 20
0.2969571095073036
 10
0.1635819404229934
 20
0.2990882524781426
 10
0.1605969118266372
 20
0.3012193954489835
 10
0.1605969118266372
 20
0.3054816741835751
 10
0.1593176073473188
 20
0.307186582794575
 10
0.1571854522010234
 20
0.3123013230417566
 10
0.1588911763180576
 20
0.3157111474708465
 10
0.1623026473352169
 20
0.3165636017763482
 10
0.1657141069608272
 20
0.3161373746235973
 10
0.1682727045279257
 20
0.3140062388598448
 10
0.1695520090072442
 20
0.3178422904416873
 10
0.1691255779779865
 20
0.3221045691762789
 10
0.1712577445158203
 20
0.3246619392998688
 10
0.1755220775914949
 20
0.3250881664526179
 10
0.1768013706792715
 20
0.3233832578416163
 10
0.1785071061878511
 20
0.3276455365762078
 10
0.1806392727256884
 20
0.3302029066997978
 10
0.1844771633805599
 20
0.3331865039761386
 10
0.1857564678598784
 20
0.3319078153107995
 10
0.1895943699062954
 20
0.3344651854343894
 10
0.1955644270990042
 20
0.3348914125871402
 10
0.1998287601746788
 20
0.3336127311288894
 10
0.201534495683255
 20
0.3310553610052995
 10
0.201534495683255
 20
0.3267930822707079
 10
0.2023873577417738
 20
0.3250881664526179
 10
0.2019609267125162
 20
0.321678342023528
 10
0.2006816336247397
 20
0.3191209718999381
 10
0.2002551912039365
 20
0.3174160632889365
 10
0.2028137887710315
 20
0.3169898361361856
 10
0.2032402311918346
 20
0.3140062388598448
 10
0.2019609267125162
 20
0.3110226415835058
 10
0.1981230246660992
 20
0.307186582794575
 10
0.196417300549065
 20
0.3033505312127342
  0
LWPOLYLINE
  5
1330
330
12F0
100
AcDbEntity
  8
0
  6
Continuous
370
     0
100
AcDbPolyline
 90
       19
 70
   128
 43
0.0
 10
0.2062252597881908
 20
0.2423999114347648
 10
0.1972701626075839
 20
0.2543343005401244
 10
0.1930058295319057
 20
0.2632850923691468
 10
0.1891679388770342
 20
0.2743670199619199
 10
0.1878886343977157
 20
0.2841702660964405
 10
0.1895943699062954
 20
0.2935472850782119
 10
0.1925793985026516
 20
0.2999407067836444
 10
0.1976965936368415
 20
0.3042029927253242
 10
0.2036666622210923
 20
0.307186582794575
 10
0.2075045642675093
 20
0.3076128171544141
 10
0.2139010524894758
 20
0.306334128489075
 10
0.2177389545358927
 20
0.3016456226017343
 10
0.2228561496700827
 20
0.2935472850782119
 10
0.2258411896579808
 20
0.2816128959728505
 10
0.2258411896579808
 20
0.2730883385036691
 10
0.2241354541494012
 20
0.2620064037038077
 10
0.221150414161503
 20
0.2534818462346244
 10
0.2164596500565707
 20
0.2462359630166055
 10
0.2130481904309604
 20
0.2423999114347648
  0
LWPOLYLINE
  5
1331
330
12F0
100
AcDbEntity
  8
0
  6
Continuous
370
     0
100
AcDbPolyline
 90
       11
 70
   128
 43
0.0
 10
0.2087838573552858
 20
0.2492195602929463
 10
0.2057988287589296
 20
0.2522031575692853
 10
0.2049459553088688
 20
0.2568916706637161
 10
0.205372397729672
 20
0.2598752679400551
 10
0.2066516908174485
 20
0.2624326308565585
 10
0.2087838573552858
 20
0.2637113195218958
 10
0.2109160238931231
 20
0.2628588580093094
 10
0.2134746214602181
 20
0.2598752679400551
 10
0.2130481904309604
 20
0.255612981998377
 10
0.2130481904309604
 20
0.2509244761110345
 10
0.2117688859516384
 20
0.2496457874456954
  0
LWPOLYLINE
  5
1332
330
12F0
100
AcDbEntity
  8
0
  6
Continuous
370
     0
100
AcDbPolyline
 90
       11
 70
   128
 43
0.0
 10
0.2057988287589296
 20
0.2475146516819429
 10
0.2023873577417738
 20
0.2530556118747871
 10
0.2011080646539973
 20
0.2620064037038077
 10
0.2028137887710315
 20
0.2671211439509875
 10
0.2057988287589296
 20
0.2713834226855791
 10
0.2083574263260246
 20
0.2730883385036691
 10
0.2121953283724416
 20
0.2705309683800774
 10
0.2151803569687942
 20
0.2671211439509875
 10
0.2181653855651504
 20
0.2581703521219669
 10
0.2168860924773739
 20
0.2534818462346244
 10
0.2134746214602181
 20
0.2483671059874446
  0
LWPOLYLINE
  5
1333
330
12F0
100
AcDbEntity
  8
0
  6
Continuous
370
     0
100
AcDbPolyline
 90
        8
 70
   128
 43
0.0
 10
0.1968437315783227
 20
0.2632850923691468
 10
0.1981230246660992
 20
0.2701047412273283
 10
0.2023873577417738
 20
0.274793247114669
 10
0.2075045642675093
 20
0.2777768443910098
 10
0.2104895928638619
 20
0.2769243900855098
 10
0.2147539259395366
 20
0.2752194742674199
 10
0.2173125235066315
 20
0.2713834226855791
 10
0.2198711210737265
 20
0.2637113195218958
  0
LWPOLYLINE
  5
1334
330
12F0
100
AcDbEntity
  8
0
  6
Continuous
370
     0
100
AcDbPolyline
 90
       11
 70
   128
 43
0.0
 10
0.1959908581282619
 20
0.2683998254092383
 10
0.1976965936368415
 20
0.2816128959728505
 10
0.2002551912039365
 20
0.2867276362200322
 10
0.2032402311918346
 20
0.2897112334963712
 10
0.2066516908174485
 20
0.291842376467212
 10
0.2079309952967669
 20
0.291842376467212
 10
0.2104895928638619
 20
0.2905636878018729
 10
0.2139010524894758
 20
0.2871538633727812
 10
0.2160332190273131
 20
0.2828915846381896
 10
0.2190182590152112
 20
0.2773506172382589
 10
0.2202975521029877
 20
0.2709571955328283
  0
LWPOLYLINE
  5
1335
330
12F0
100
AcDbEntity
  8
0
  6
Continuous
370
     0
100
AcDbPolyline
 90
       12
 70
   128
 43
0.0
 10
0.1947115650404853
 20
0.2709571955328283
 10
0.1951379960697465
 20
0.2828915846381896
 10
0.1972701626075839
 20
0.2905636878018729
 10
0.2002551912039365
 20
0.2956784280490528
 10
0.2040930932503535
 20
0.2982357981726427
 10
0.2066516908174485
 20
0.2995144796308935
 10
0.2083574263260246
 20
0.2995144796308935
 10
0.2121953283724416
 20
0.2969571095073036
 10
0.2164596500565707
 20
0.290989914954622
 10
0.2185918165944081
 20
0.2863014090672813
 10
0.2207239831322454
 20
0.2799079873618506
 10
0.2207239831322454
 20
0.2752194742674199
  0
LWPOLYLINE
  5
1336
330
12F0
100
AcDbEntity
  8
0
  6
Continuous
370
     0
100
AcDbPolyline
 90
       48
 70
   128
 43
0.0
 10
0.2177389545358927
 20
0.3037767583654851
 10
0.2164596500565707
 20
0.3084652714599159
 10
0.2130481904309604
 20
0.3118750958890057
 10
0.2104895928638619
 20
0.3157111474708465
 10
0.2096367194138011
 20
0.3186947447471873
 10
0.2117688859516384
 20
0.3195471990526872
 10
0.2134746214602181
 20
0.3199734334125263
 10
0.2121953283724416
 20
0.3238094849943671
 10
0.2100631618346043
 20
0.3272193094234588
 10
0.2100631618346043
 20
0.3306291338525486
 10
0.2126217594016992
 20
0.3348914125871402
 10
0.2156067879980554
 20
0.3361701012524793
 10
0.2194446900444689
 20
0.3357438740997285
 10
0.2228561496700827
 20
0.3344651854343894
 10
0.22498831620792
 20
0.3323340424635503
 10
0.2262676206872385
 20
0.3323340424635503
 10
0.2266940517164961
 20
0.3340389582816403
 10
0.2279733448042727
 20
0.3353176397398911
 10
0.2305319537629131
 20
0.3336127311288894
 10
0.2335169823592658
 20
0.3259406207581197
 10
0.2347962754470423
 20
0.3259406207581197
 10
0.235222717867849
 20
0.3284979908817096
 10
0.2373548844056827
 20
0.3297766795470487
 10
0.2390606085227205
 20
0.3280717637289587
 10
0.2411927750605578
 20
0.3229570234817789
 10
0.2407663440312966
 20
0.3191209718999381
 10
0.2420456485106186
 20
0.3161373746235973
 10
0.2437513726276528
 20
0.3161373746235973
 10
0.2454571081362289
 20
0.3178422904416873
 10
0.2475892746740662
 20
0.3203996605652772
 10
0.2501478722411612
 20
0.3203996605652772
 10
0.2531329008375174
 20
0.3195471990526872
 10
0.254838636346097
 20
0.3144324660125956
 10
0.2535593432583205
 20
0.3105964144307549
 10
0.2522800387789985
 20
0.3097439529181667
 10
0.254838636346097
 20
0.308891498612665
 10
0.254838636346097
 20
0.3067603556418259
 10
0.2531329008375174
 20
0.3046292198780733
 10
0.2497214412119035
 20
0.3029243040599852
 10
0.2480157057033274
 20
0.3007931610891443
 10
0.2484421367325851
 20
0.2978095710198918
 10
0.2501478722411612
 20
0.2965308823545527
 10
0.2522800387789985
 20
0.2965308823545527
 10
0.2527064698082597
 20
0.2939735122309628
 10
0.251000745691222
 20
0.2863014090672813
 10
0.2471628436448086
 20
0.2730883385036691
 10
0.2437513726276528
 20
0.2641375466746467
 10
0.2403399130020389
 20
0.258596579274716
  0
LWPOLYLINE
  5
1337
330
12F0
100
AcDbEntity
  8
0
  6
Continuous
370
     0
100
AcDbPolyline
 90
        8
 70
   128
 43
0.0
 10
0.2283997872250758
 20
0.2573178978164652
 10
0.2330905513300117
 20
0.2722358769910791
 10
0.2335169823592658
 20
0.2841702660964405
 10
0.2326641203007504
 20
0.2973833366600544
 10
0.2292526492835947
 20
0.3101701800709158
 10
0.2254147472371777
 20
0.3182685175944364
 10
0.2185918165944081
 20
0.3250881664526179
 10
0.2151803569687942
 20
0.3272193094234588
  0
LWPOLYLINE
  5
1338
330
12F0
100
AcDbEntity
  8
0
  6
Continuous
370
     0
100
AcDbPolyline
 90
        7
 70
   128
 43
0.0
 10
0.1955644270990042
 20
0.2487933331401955
 10
0.1874622033684581
 20
0.2637113195218958
 10
0.1831978702927834
 20
0.2773506172382589
 10
0.1814921347842038
 20
0.291842376467212
 10
0.1831978702927834
 20
0.3050554470308242
 10
0.1878886343977157
 20
0.3148586931653465
 10
0.1938587029819665
 20
0.3229570234817789
  0
LWPOLYLINE
  5
1339
330
12F0
100
AcDbEntity
  8
0
  6
Continuous
370
     0
100
AcDbPolyline
 90
       11
 70
   128
 43
0.0
 10
0.2488685791533882
 20
0.321678342023528
 10
0.2475892746740662
 20
0.3293504523942978
 10
0.2475892746740662
 20
0.3344651854343894
 10
0.2484421367325851
 20
0.3391536985288184
 10
0.251000745691222
 20
0.3429897501106609
 10
0.2578236763339916
 20
0.3455471202342508
 10
0.2646466069767612
 20
0.3438422044161608
 10
0.2689109286608939
 20
0.340432379987071
 10
0.2727488307073074
 20
0.3361701012524793
 10
0.2727488307073074
 20
0.3267930822707079
 10
0.27061666416947
 20
0.3191209718999381
  0
LWPOLYLINE
  5
133A
330
12F0
100
AcDbEntity
  8
0
  6
Continuous
370
     0
100
AcDbPolyline
 90
        9
 70
   128
 43
0.0
 10
0.2727488307073074
 20
0.3319078153107995
 10
0.2787188992915617
 20
0.3374487827107302
 10
0.282130358917172
 20
0.3374487827107302
 10
0.2893797205892028
 20
0.338727464168981
 10
0.2962026512319724
 20
0.3374487827107302
 10
0.3013198577577079
 20
0.3327602768233877
 10
0.3025991508454844
 20
0.326366855117957
 10
0.3038784553248028
 20
0.3212521148707772
 10
0.2940704846941351
 20
0.3101701800709158
  0
LWPOLYLINE
  5
133B
330
12F0
100
AcDbEntity
  8
0
  6
Continuous
370
     0
100
AcDbPolyline
 90
        9
 70
   128
 43
0.0
 10
0.3004669843076471
 20
0.3152849203180974
 10
0.3047313173833217
 20
0.3144324660125956
 10
0.305584179441837
 20
0.3101701800709158
 10
0.309422081488254
 20
0.308891498612665
 10
0.3153921500725047
 20
0.3076128171544141
 10
0.3188036096981221
 20
0.3042029927253242
 10
0.3192300407273762
 20
0.2990882524781426
 10
0.3158185811017659
 20
0.292694830772712
 10
0.3115542480260913
 20
0.2897112334963712
  0
LWPOLYLINE
  5
133C
330
12F0
100
AcDbEntity
  8
0
  6
Continuous
370
     0
100
AcDbPolyline
 90
       18
 70
   128
 43
0.0
 10
0.1838174815823876
 20
0.2342668287332721
 10
0.1787510076896019
 20
0.24488059617277
 10
0.1678374559143378
 20
0.2623263556408446
 10
0.1550388873047694
 20
0.2794878299913179
 10
0.1415814396660089
 20
0.2946215065232671
 10
0.1294718681295208
 20
0.3097655957022418
 10
0.1230776104150699
 20
0.3176721414503998
 10
0.1193991768087414
 20
0.3229027340247352
 10
0.1189737286056029
 20
0.3257312392144893
 10
0.1204433365227224
 20
0.3274956272267993
 10
0.1224701670779495
 20
0.3268370700584793
 10
0.1243652300525539
 20
0.3257729506539206
 10
0.1276382975478362
 20
0.320674069513247
 10
0.1404469054433583
 20
0.3021641928677266
 10
0.1567820868979659
 20
0.2807149465608347
 10
0.1659022287555522
 20
0.2687840625575841
 10
0.1803122258575094
 20
0.2524441317063903
 10
0.192797038606816
 20
0.2412135163108893
  0
LWPOLYLINE
  5
133D
330
12F0
100
AcDbEntity
  8
0
  6
Continuous
370
     0
100
AcDbPolyline
 90
       12
 70
   128
 43
0.0
 10
0.0827958257359924
 20
0.2061113029022223
 10
0.0734322204347251
 20
0.2145342600700122
 10
0.0657917257802154
 20
0.2268811297905238
 10
0.0630156381669451
 20
0.2376474578528409
 10
0.0620028390933101
 20
0.246944106501477
 10
0.0624998154551406
 20
0.252611542589122
 10
0.0635540179752603
 20
0.2558560443301392
 10
0.0678210244855109
 20
0.2620920398189845
 10
0.0786655231064977
 20
0.2720198040431789
 10
0.0851011807472517
 20
0.2766543978506686
 10
0.0990869620540238
 20
0.281077712318174
 10
0.1048737936602286
 20
0.2823361015578722
  0
LWPOLYLINE
  5
133E
330
12F0
100
AcDbEntity
  8
0
  6
Continuous
370
     0
100
AcDbPolyline
 90
       39
 70
   128
 43
0.0
 10
0.1732453526040522
 20
0.2058670615442288
 10
0.1533811327744558
 20
0.1943861972546017
 10
0.133740297816626
 20
0.1891100643905261
 10
0.1233626541794237
 20
0.1888949323051161
 10
0.1188935808176232
 20
0.1916921625975796
 10
0.1171202529920343
 20
0.1945102443063095
 10
0.1138773172493259
 20
0.1955639380027332
 10
0.1109280517546018
 20
0.1933835556662764
 10
0.1079787897800592
 20
0.1912031841638182
 10
0.1039251218152621
 20
0.1925203007275691
 10
0.1019083305459887
 20
0.1918304556008418
 10
0.0963850513299036
 20
0.1913831972133994
 10
0.0936692133270718
 20
0.1940591309463304
 10
0.0939126836251027
 20
0.1975670555546784
 10
0.0953722487360871
 20
0.2006798350280299
 10
0.0981897294213105
 20
0.2024546487484748
 10
0.0949367543926449
 20
0.2048567447399438
 10
0.0907513119928751
 20
0.2057683012945706
 10
0.0889779841672862
 20
0.2085863830033005
 10
0.0898903694463016
 20
0.2127737161962386
 10
0.09190715719539
 20
0.2134635504889637
 10
0.0883805904906509
 20
0.2164029179232241
 10
0.086607262665062
 20
0.2192209996319576
 10
0.0849556664683036
 20
0.2237930328108621
 10
0.0865670984808773
 20
0.2246145871441403
 10
0.08532087191535
 20
0.2290549197233833
 10
0.0867603549342419
 20
0.234864492952827
 10
0.0892942046574347
 20
0.2385249804111069
 10
0.0922535094381125
 20
0.2393569604525201
 10
0.0963071774029132
 20
0.2380398438887674
 10
0.0981921975713824
 20
0.2383241159452556
 10
0.1013033588791181
 20
0.2368648622397043
 10
0.1033402390948304
 20
0.2348579113832265
 10
0.1048299255838607
 20
0.2339254948054439
 10
0.1060259418249032
 20
0.2362271542605416
 10
0.1089952894117196
 20
0.2357107428409115
 10
0.111437532218293
 20
0.233572069716768
 10
0.1138998639713051
 20
0.2287366006094213
 10
0.1170210680851795
 20
0.2259289554428268
  0
LWPOLYLINE
  5
133F
330
12F0
100
AcDbEntity
  8
0
  6
Continuous
370
     0
100
AcDbPolyline
 90
       19
 70
   128
 43
0.0
 10
0.1780193782822756
 20
0.2164221016596759
 10
0.1639018225405308
 20
0.2115932271830427
 10
0.1540713622554825
 20
0.2103035522120482
 10
0.1423458493703542
 20
0.2100780052525035
 10
0.1326270814281827
 20
0.2118906840467289
 10
0.1242361076822078
 20
0.2164105931391837
 10
0.1190780268728026
 20
0.2212251999962582
 10
0.1166056523136518
 20
0.2274090605646464
 10
0.1156129421864555
 20
0.2340089132300775
 10
0.1163935461761482
 20
0.2377906886409988
 10
0.1195862749285403
 20
0.2434789739178047
 10
0.1252312859594724
 20
0.2456802076705333
 10
0.1345145628923738
 20
0.248044425527107
 10
0.1467872695041769
 20
0.2471954382079584
 10
0.1548946054337783
 20
0.2445612050804549
 10
0.1649070504782841
 20
0.2395144480262345
 10
0.1720919583227314
 20
0.2340412731668397
 10
0.1775336769485172
 20
0.2273409903448158
 10
0.1801277798023299
 20
0.2229110943077117
  0
LWPOLYLINE
  5
1340
330
12F0
100
AcDbEntity
  8
0
  6
Continuous
370
     0
100
AcDbPolyline
 90
       11
 70
   128
 43
0.0
 10
0.1723241569268552
 20
0.2209628599412863
 10
0.1685641627302239
 20
0.2190459113061553
 10
0.1638415694099109
 20
0.2196836106784285
 10
0.1611357777333957
 20
0.2210111637843148
 10
0.1590989043720334
 20
0.2230181124136798
 10
0.1585416748795793
 20
0.2254410598214207
 10
0.1600112896510488
 20
0.2272054456066179
 10
0.163639502558361
 20
0.2287168364597338
 10
0.1675614029425389
 20
0.2269941576597425
 10
0.1720204370183857
 20
0.225545329662328
 10
0.1728412153807781
 20
0.223933502272839
  0
LWPOLYLINE
  5
1341
330
12F0
100
AcDbEntity
  8
0
  6
Continuous
370
     0
100
AcDbPolyline
 90
       11
 70
   128
 43
0.0
 10
0.1730231968060671
 20
0.217597083308739
 10
0.1666992279880119
 20
0.2160648324324654
 10
0.1577911957881106
 20
0.2176140991933639
 10
0.1534538864867514
 20
0.2208168808880622
 10
0.1503226466071012
 20
0.2249729391837061
 10
0.1494918254385737
 20
0.2279331580342365
 10
0.1531100059142822
 20
0.2307929489552869
 10
0.1572753662219597
 20
0.2325781861567542
 10
0.1667104996819191
 20
0.2326511702663652
 10
0.1707742104528549
 20
0.2299856622415675
 10
0.1745844149739746
 20
0.2251606188423576
  0
LWPOLYLINE
  5
1342
330
12F0
100
AcDbEntity
  8
0
  6
Continuous
370
     0
100
AcDbPolyline
 90
        8
 70
   128
 43
0.0
 10
0.1552573392105714
 20
0.2139536139621931
 10
0.149166791030062
 20
0.2172776813824235
 10
0.1460255083442767
 20
0.2227821311391125
 10
0.1447692424927886
 20
0.2285708660133991
 10
0.14650239927985
 20
0.2311463740439628
 10
0.1494416219684353
 20
0.2346751478414681
 10
0.1538805739521898
 20
0.2359231136001423
 10
0.1619678277896952
 20
0.2359856742287292
  0
LWPOLYLINE
  5
1343
330
12F0
100
AcDbEntity
  8
0
  6
Continuous
370
     0
100
AcDbPolyline
 90
       11
 70
   128
 43
0.0
 10
0.1501293866335586
 20
0.214723022541019
 10
0.1380901110338293
 20
0.2204283367635593
 10
0.1340163541225898
 20
0.2244422493105151
 10
0.1321012125760745
 20
0.2282031733051681
 10
0.1311285741664392
 20
0.2321062236076159
 10
0.1315239009915281
 20
0.2333229144689994
 10
0.1335306563090093
 20
0.2353611488296572
 10
0.1378277910516594
 20
0.2375519460402522
 10
0.1425403347114873
 20
0.2382626403561367
 10
0.1487325359489197
 20
0.2393893289961717
 10
0.1552083646282014
 20
0.2386303330643695
  0
LWPOLYLINE
  5
1344
330
12F0
100
AcDbEntity
  8
0
  6
Continuous
370
     0
100
AcDbPolyline
 90
       12
 70
   128
 43
0.0
 10
0.1473018598080315
 20
0.2142966133427322
 10
0.1360833557163445
 20
0.2183901024029016
 10
0.1294456277038662
 20
0.2227887235427133
 10
0.1255036452275995
 20
0.227208196098795
 10
0.1242574186620686
 20
0.2316485286780381
 10
0.1238319704589301
 20
0.2344770338677922
 10
0.1243590717189881
 20
0.2360992847383016
 10
0.1279772521946966
 20
0.2389590756593502
 10
0.1349701393279048
 20
0.2411707220591026
 10
0.1400880490987788
 20
0.2417497049413235
 10
0.1468274301681802
 20
0.2418018398617772
 10
0.1512864710983734
 20
0.2403530096372481
  0
LWPOLYLINE
  5
1345
330
12F0
100
AcDbEntity
  8
0
  6
Continuous
370
     0
100
AcDbPolyline
 90
       48
 70
   128
 43
0.0
 10
0.1232044554042488
 20
0.2463387648388533
 10
0.1183500876489667
 20
0.2465709042019988
 10
0.1140529529063201
 20
0.2443801069914055
 10
0.1096140009225621
 20
0.2431321412327296
 10
0.1065128789007801
 20
0.2432429926432338
 10
0.1063610223737186
 20
0.2455342263901983
 10
0.1064827506683841
 20
0.2472881909214841
 10
0.1024391255097221
 20
0.24725691602419
 10
0.0985373140719829
 20
0.2462827988409799
 10
0.0952943783292746
 20
0.2473364925374035
 10
0.0920313604944738
 20
0.2510869799899176
 10
0.091737679871958
 20
0.2543210474159121
 10
0.093329022938093
 20
0.2578393977323952
 10
0.095599327125516
 20
0.2606887521113066
 10
0.0982850402301168
 20
0.2620580035955111
 10
0.0986803670552092
 20
0.2632746944568947
 10
0.0971906701916474
 20
0.2642071024277879
 10
0.0963698951634235
 20
0.265818916756162
 10
0.0987820132577824
 20
0.2677254527442692
 10
0.1070010483846069
 20
0.2681935711548711
 10
0.1073963716895179
 20
0.2694102511822542
 10
0.1050959461240488
 20
0.2706060928544787
 10
0.1045387166315947
 20
0.2730290402622177
 10
0.1066872856700023
 20
0.2741244323369596
 10
0.1122105684062688
 20
0.2745717015584042
 10
0.1157270958250542
 20
0.2729807364191892
 10
0.1189599922818089
 20
0.273275445017811
 10
0.1194870900216855
 20
0.2748976850543183
 10
0.1183927199832162
 20
0.2770467838865969
 10
0.1166193921576272
 20
0.2798648655953286
 10
0.1174100422876272
 20
0.2822982364840918
 10
0.1191432059290349
 20
0.2848737422875409
 10
0.1245347073759823
 20
0.2849154537269722
 10
0.1277876859248294
 20
0.2825133685695036
 10
0.1282030981761757
 20
0.28103325261368
 10
0.1298044805282643
 20
0.2832032006351177
 10
0.1318313179378414
 20
0.282544641239685
 10
0.1333310472330069
 20
0.2802638332008538
 10
0.1338983195315961
 20
0.2764924943320697
 10
0.1353980556811116
 20
0.2742116840661293
 10
0.1383673928933966
 20
0.2736952640396062
 10
0.1401105993409395
 20
0.2749223783820121
 10
0.1407694750359667
 20
0.2769501892616493
 10
0.1433334529915555
 20
0.2765654784416807
 10
0.150102958959188
 20
0.2725724281449953
 10
0.1614833588638902
 20
0.2648393030428178
 10
0.1689418652387608
 20
0.2588288545135207
 10
0.1731574393911046
 20
0.2538721105146457
  0
LWPOLYLINE
  5
1346
330
12F0
100
AcDbEntity
  8
0
  6
Continuous
370
     0
100
AcDbPolyline
 90
        8
 70
   128
 43
0.0
 10
0.1706838359441853
 20
0.2421212417880927
 10
0.157945520465244
 20
0.2511923326431784
 10
0.146727016373557
 20
0.2552858217033442
 10
0.1338970906438241
 20
0.2585577650371231
 10
0.1206818773749596
 20
0.2592646152144731
 10
0.1117939237469691
 20
0.258117077385279
 10
0.1031996507414945
 20
0.2537354721300904
 10
0.1001186143319828
 20
0.2511495406185045
  0
LWPOLYLINE
  5
1347
330
12F0
100
AcDbEntity
  8
0
  6
Continuous
370
     0
100
AcDbPolyline
 90
        7
 70
   128
 43
0.0
 10
0.1686444944327547
 20
0.2082587232206769
 10
0.1519529214494674
 20
0.2051629618590596
 10
0.1376634270885723
 20
0.2053221148854813
 10
0.1233538437812384
 20
0.208178063895108
 10
0.1113145681815055
 20
0.2138833781176483
 10
0.1034406528894536
 20
0.2213739295416559
 10
0.097583535721018
 20
0.229554323865278
  0
LWPOLYLINE
  5
1348
330
12F0
100
AcDbEntity
  8
0
  6
Continuous
370
     0
100
AcDbPolyline
 90
       11
 70
   128
 43
0.0
 10
0.1157986206495813
 20
0.2814766907577049
 10
0.1081066832626369
 20
0.2826308123836085
 10
0.1032422830757476
 20
0.2842113518146885
 10
0.0990467910154926
 20
0.2864713020574694
 10
0.0961891428119195
 20
0.2900900889103219
 10
0.0958653408113577
 20
0.2973693523874541
 10
0.099595213629943
 20
0.3033314970737226
 10
0.1041558972425314
 20
0.3063334143025695
 10
0.1093955421624173
 20
0.3086663594889654
 10
0.1183136171684537
 20
0.30576870126702
 10
0.124951352035282
 20
0.3013700779000956
  0
LWPOLYLINE
  5
1349
330
12F0
100
AcDbEntity
  8
0
  6
Continuous
370
     0
100
AcDbPolyline
 90
        9
 70
   128
 43
0.0
 10
0.1134492169815644
 20
0.3073492406981
 10
0.110024296479402
 20
0.3147393664197384
 10
0.1110784954793402
 20
0.3179838573267552
 10
0.1121025731012288
 20
0.3252735442849115
 10
0.1154270729544251
 20
0.3313674026319546
 10
0.1214674108104461
 20
0.3347853272460685
 10
0.1279432394897313
 20
0.3340263313142646
 10
0.133202973356056
 20
0.3336624805174555
 10
0.140711690055415
 20
0.320910039953814
  0
LWPOLYLINE
  5
134A
330
12F0
100
AcDbEntity
  8
0
  6
Continuous
370
     0
100
AcDbPolyline
 90
        9
 70
   128
 43
0.0
 10
0.1378239100992644
 20
0.3285740142509183
 10
0.1399523937114146
 20
0.3323662131428602
 10
0.1442696174005
 20
0.3318602143702502
 10
0.1466716926887237
 20
0.3351151418194042
 10
0.1497326436719781
 20
0.3403978801481955
 10
0.1540297784146283
 20
0.3425886773587905
 10
0.1590259598908332
 20
0.3414136957097238
 10
0.1640522662652692
 20
0.3361935288435234
 10
0.1655720845068735
 20
0.331215924821489
  0
LWPOLYLINE
  5
134B
330
12F0
100
AcDbEntity
  8
0
  6
Continuous
370
     0
100
AcDbPolyline
 90
       18
 70
   128
 43
0.0
 10
0.1788300153113162
 20
0.1925977774099312
 10
0.167170096091116
 20
0.1910591089127073
 10
0.1472057198997376
 20
0.1860707405363317
 10
0.1269292126854573
 20
0.1792017656837785
 10
0.1083776509829555
 20
0.1710795356499783
 10
0.0902327028865635
 20
0.1642424296512903
 10
0.0807371967312136
 20
0.1606043861880763
 10
0.0746259090822718
 20
0.1587223299331377
 10
0.071804370065184
 20
0.1591917608195103
 10
0.0705804711702633
 20
0.1611346668859603
 10
0.0718331213428307
 20
0.1628587919361557
 10
0.0734307657012145
 20
0.1643322729468916
 10
0.0792915233156464
 20
0.1658695041917877
 10
0.1008535396291883
 20
0.1723313477482442
 10
0.1263008337746498
 20
0.1812388468901495
 10
0.1404660575762051
 20
0.186225771318421
 10
0.1604591892814468
 20
0.1948811766421023
 10
0.1749981585464652
 20
0.2032844881475579
  0
LWPOLYLINE
  5
134C
330
12F0
100
AcDbEntity
  8
0
  6
Continuous
370
     0
100
AcDbPolyline
 90
       12
 70
   128
 43
0.0
 10
0.1743901031662211
 20
0.0878199373629336
 10
0.1634858816986089
 20
0.0815174564328895
 10
0.1493822681013945
 20
0.0780663067749714
 10
0.1382850233907824
 20
0.0787530688988358
 10
0.1291304129881503
 20
0.0806626621633164
 10
0.1238939351079189
 20
0.0828866488362969
 10
0.1211339970792195
 20
0.0848918611888045
 10
0.1165217904607445
 20
0.0908770541183532
 10
0.1104310599724449
 20
0.1042586330592208
 10
0.1080120269124194
 20
0.1118114754436412
 10
0.10812704896788
 20
0.12647962323285
 10
0.1087184789913351
 20
0.1323720908012404
  0
LWPOLYLINE
  5
134D
330
12F0
100
AcDbEntity
  8
0
  6
Continuous
370
     0
100
AcDbPolyline
 90
       39
 70
   128
 43
0.0
 10
0.2025728314366937
 20
0.1737670745562685
 10
0.2073534007246991
 20
0.1513272966706011
 10
0.2063019494802347
 20
0.1310173378789016
 10
0.2032996840064633
 20
0.1210811328035248
 10
0.1992583402913368
 20
0.1176951831585366
 10
0.196030196884088
 20
0.1168794833140154
 10
0.1940259523717635
 20
0.1141208774030459
 10
0.1951882460420719
 20
0.1106421840398059
 10
0.196350530496435
 20
0.1071634973723459
 10
0.19384522591508
 20
0.1037152414412983
 10
0.1938780848417778
 20
0.1015839850950044
 10
0.1925966657031743
 20
0.0961928239626317
 10
0.1892124613924508
 20
0.0944368175321344
 10
0.1859514632947281
 20
0.0957523798645656
 10
0.1834420645164982
 20
0.0981024105313306
 10
0.1826247657755146
 20
0.1013304414980176
 10
0.1793350121639285
 20
0.0989789668831432
 10
0.1771746975321733
 20
0.0952800610819793
 10
0.1739465541249281
 20
0.0944643612374581
 10
0.1702461061625193
 20
0.0966260483201645
 10
0.170213256451774
 20
0.0987572979706766
 10
0.1663279828560711
 20
0.0963116482158828
 10
0.1630998394488223
 20
0.0954959483713633
 10
0.1582412062086682
 20
0.0953380229972787
 10
0.1579578214836772
 20
0.0971244601641867
 10
0.1533497090620805
 20
0.0973113664959229
 10
0.1482693013012763
 20
0.1004756530591013
 10
0.1455709734769215
 20
0.1040166401819622
 10
0.1456941889058711
 20
0.1070882022491055
 10
0.1481994934872261
 20
0.1105364581801531
 10
0.1485116379622972
 20
0.112417063791204
 10
0.150860872424225
 20
0.1149250198320537
 10
0.1533990267163219
 20
0.1162420261125909
 10
0.1547461460199244
 20
0.1173706695868475
 10
0.1529267271408905
 20
0.1192194005133782
 10
0.1543354424531529
 20
0.1218838379802083
 10
0.1571241359957156
 20
0.1235456625750011
 10
0.1624838427570729
 20
0.1243932371040408
 10
0.1661185771023063
 20
0.1264940685445754
  0
LWPOLYLINE
  5
134E
330
12F0
100
AcDbEntity
  8
0
  6
Continuous
370
     0
100
AcDbPolyline
 90
       19
 70
   128
 43
0.0
 10
0.1940096468212964
 20
0.1815691295584827
 10
0.1942396147154355
 20
0.1666503318991559
 10
0.1924283892098941
 20
0.1569024771036211
 10
0.1890195143662296
 20
0.145681153823789
 10
0.1842922899285177
 20
0.1369982047947857
 10
0.1774006474462126
 20
0.1304146432582111
 10
0.1712277495929299
 20
0.1269968122329192
 10
0.1645825429482634
 20
0.1265563623041945
 10
0.1579989457644259
 20
0.1276517055029202
 10
0.1546434835153967
 20
0.1295627368848499
 10
0.1502202101792633
 20
0.1343569791889596
 10
0.1498711168168327
 20
0.1404059223526719
 10
0.1504913023541547
 20
0.1499654268683645
 10
0.1550912121863064
 20
0.1613751129544756
 10
0.1601018213490128
 20
0.1682716248165707
 10
0.167995588205585
 20
0.1762344922239584
 10
0.175421145447391
 20
0.181376441603664
 10
0.1834750766202688
 20
0.1844813223034354
 10
0.1884897799798537
 20
0.185579547567718
  0
LWPOLYLINE
  5
134F
330
12F0
100
AcDbEntity
  8
0
  6
Continuous
370
     0
100
AcDbPolyline
 90
       11
 70
   128
 43
0.0
 10
0.1879312088830964
 20
0.1775558236530336
 10
0.188592433268429
 20
0.1733874869654954
 10
0.1865265835314957
 20
0.1690930937577359
 10
0.1844278698881325
 20
0.1669299694227035
 10
0.1818897198322524
 20
0.1656129689728231
 10
0.1794131665285476
 20
0.1658317441584227
 10
0.1781892718698436
 20
0.1677746560555295
 10
0.1778730331978906
 20
0.1716923370422929
 10
0.180723331965062
 20
0.1748899489338793
 10
0.183479166580927
 20
0.1786830298749659
 10
0.1852657399854393
 20
0.1789655544296042
  0
LWPOLYLINE
  5
1350
330
12F0
100
AcDbEntity
  8
0
  6
Continuous
370
     0
100
AcDbPolyline
 90
       11
 70
   128
 43
0.0
 10
0.1913482678842975
 20
0.1771805679065821
 10
0.1908513112280978
 20
0.1706926245929096
 10
0.1866251376434604
 20
0.1626993322797645
 10
0.1822388089584628
 20
0.1595640199784558
 10
0.1773185562980117
 20
0.1578703265297978
 10
0.1742464830101937
 20
0.1579949265754745
 10
0.1726447394751957
 20
0.1623197446889914
 10
0.1722340451243766
 20
0.1668329063865687
 10
0.1750802496946697
 20
0.1758288048759677
 10
0.1788710541593339
 20
0.1788699362067003
 10
0.1846373610746283
 20
0.1810026356359753
  0
LWPOLYLINE
  5
1351
330
12F0
100
AcDbEntity
  8
0
  6
Continuous
370
     0
100
AcDbPolyline
 90
        8
 70
   128
 43
0.0
 10
0.189323461231595
 20
0.1591583393262468
 10
0.1842800023581468
 20
0.1543930771146637
 10
0.178074249814383
 20
0.1531065082663207
 10
0.1721806282935247
 20
0.1537005458941518
 10
0.1702667494994081
 20
0.1561447517008396
 10
0.1678189559457834
 20
0.1600305696643964
 10
0.1680037815790776
 20
0.1646379065018948
 10
0.1704433817592097
 20
0.1723486742604016
  0
LWPOLYLINE
  5
1352
330
12F0
100
AcDbEntity
  8
0
  6
Continuous
370
     0
100
AcDbPolyline
 90
       11
 70
   128
 43
0.0
 10
0.1870070856963686
 20
0.1545191269391033
 10
0.177860668667229
 20
0.1448321344815202
 10
0.1727843508670794
 20
0.1421981286162292
 10
0.1686156883101688
 20
0.1415389101976885
 10
0.1646031050886378
 20
0.1418199849735621
 10
0.1635681260238897
 20
0.1425719412796979
 10
0.162249771450103
 20
0.1451103280569619
 10
0.1614940871496806
 20
0.149874139624659
 10
0.1622744327670879
 20
0.1545756516020784
 10
0.163116383609104
 20
0.1608129508762878
 10
0.1658393727504439
 20
0.1667372872985417
  0
LWPOLYLINE
  5
1353
330
12F0
100
AcDbEntity
  8
0
  6
Continuous
370
     0
100
AcDbPolyline
 90
       12
 70
   128
 43
0.0
 10
0.1865388711018667
 20
0.1516982214378579
 10
0.1791790232410122
 20
0.1422937477042563
 10
0.172944515183385
 20
0.1373401419086111
 10
0.1675232074336428
 20
0.1349567859134381
 10
0.1629150950120461
 20
0.1351436922451725
 10
0.1600935559949583
 20
0.1356131231315451
 10
0.1587135869806104
 20
0.1366157293077989
 10
0.1571118434456124
 20
0.1409405474213159
 10
0.1571693636892952
 20
0.1482746146201403
 10
0.158200239341216
 20
0.1533209516075988
 10
0.1602332393674039
 20
0.1597465944658704
 10
0.1629890782194891
 20
0.1635396812376139
  0
LWPOLYLINE
  5
1354
330
12F0
100
AcDbEntity
  8
0
  6
Continuous
370
     0
100
AcDbPolyline
 90
       48
 70
   128
 43
0.0
 10
0.1486184666442689
 20
0.1386817973024765
 10
0.1468976068569318
 20
0.1341367542245972
 10
0.1476532911573507
 20
0.1293729426569036
 10
0.1474684655240601
 20
0.1247656058194035
 10
0.1464047401613975
 20
0.1218505184824554
 10
0.1441787211284229
 20
0.1224141245087491
 10
0.1425482178433412
 20
0.123071899844307
 10
0.1413284131452989
 20
0.1192165193129444
 10
0.1410491275969185
 20
0.1152046573556031
 10
0.139044883084594
 20
0.1124460514446354
 10
0.1344696295896952
 20
0.1105017014300777
 10
0.1313030963867874
 20
0.1112217763559115
 10
0.1284486984430053
 20
0.113822463588578
 10
0.1264403639700191
 20
0.116862150106078
 10
0.1259680594148591
 20
0.119839537033302
 10
0.1249330803501074
 20
0.1205914933394378
 10
0.123585966026237
 20
0.1194628373387409
 10
0.1217994060739009
 20
0.1191803119189796
 10
0.120731568082455
 20
0.1220635245714074
 10
0.1228261825492076
 20
0.1300249480306892
 10
0.1217912127004083
 20
0.1307768976410432
 10
0.1199430290915586
 20
0.1289585983160535
 10
0.1174664757878503
 20
0.1291773735016494
 10
0.1170886403637254
 20
0.1315592788529365
 10
0.1183700502863764
 20
0.1369504466810909
 10
0.1209698147828177
 20
0.1398032277319814
 10
0.1216885501958806
 20
0.1429689649390475
 10
0.1203085903974852
 20
0.1439715644195196
 10
0.1179264970088631
 20
0.1435948647249603
 10
0.1146983536016144
 20
0.1427791648804408
 10
0.112628404688067
 20
0.1442830707969307
 10
0.1107145301301706
 20
0.1467272824342735
 10
0.1123409257661975
 20
0.1518677945616549
 10
0.1156306701618348
 20
0.1542192758723093
 10
0.1171667135318337
 20
0.1541569754169067
 10
0.1155978246873097
 20
0.1563505313534765
 10
0.1168504790960973
 20
0.1580746622343287
 10
0.1194830982830126
 20
0.1587961811082685
 10
0.1232451514700301
 20
0.1581702813223557
 10
0.1258777748931656
 20
0.1588918060269541
 10
0.1272864951851602
 20
0.1615562309673457
 10
0.126658120510573
 20
0.1635933180043718
 10
0.1249331615466218
 20
0.1648465740507454
 10
0.1260913560403231
 20
0.1671661798117547
 10
0.1319808649323981
 20
0.1723704421732979
 10
0.1428522409254888
 20
0.1808041785845091
 10
0.1508733223876213
 20
0.1860403089347926
 10
0.1568901501214803
 20
0.1885178400698866
  0
LWPOLYLINE
  5
1355
330
12F0
100
AcDbEntity
  8
0
  6
Continuous
370
     0
100
AcDbPolyline
 90
        8
 70
   128
 43
0.0
 10
0.1673015048935546
 20
0.1825340852577905
 10
0.1547380288632176
 20
0.173222348546659
 10
0.1473781810023666
 20
0.1638178748130556
 10
0.1403017128867745
 20
0.1526269764389791
 10
0.1355457329351921
 20
0.1402769904626737
 10
0.1338905775490779
 20
0.1314694355573369
 10
0.135401955365868
 20
0.1219418057261627
 10
0.1369092297698273
 20
0.1182124691885828
  0
LWPOLYLINE
  5
1356
330
12F0
100
AcDbEntity
  8
0
  6
Continuous
370
     0
100
AcDbPolyline
 90
        7
 70
   128
 43
0.0
 10
0.1988764826508955
 20
0.1701304625147237
 10
0.1966627469520716
 20
0.1532991903904843
 10
0.1920956868306618
 20
0.1397582546538611
 10
0.1849576134904609
 20
0.1270315689829963
 10
0.1758111964613213
 20
0.1173445765254115
 10
0.1662540850813627
 20
0.1121707457654057
 10
0.156664119010923
 20
0.1091281771823489
  0
LWPOLYLINE
  5
1357
330
12F0
100
AcDbEntity
  8
0
  6
Continuous
370
     0
100
AcDbPolyline
 90
       11
 70
   128
 43
0.0
 10
0.1129117844333258
 20
0.1424966461564611
 10
0.1094372101681777
 20
0.1355378221776515
 10
0.1064308455177958
 20
0.1313999162265258
 10
0.1029850267665147
 20
0.1281081291950183
 10
0.0986602940901733
 20
0.1265086108862814
 10
0.091637242805433
 20
0.1284500730046254
 10
0.0871195003382645
 20
0.133839796884672
 10
0.0856738361386462
 20
0.1391049081926052
 10
0.0850742127417021
 20
0.1448090263462784
 10
0.0905858862096558
 20
0.1523951940591086
 10
0.0968203985034996
 20
0.1573488056854088
  0
LWPOLYLINE
  5
1358
330
12F0
100
AcDbEntity
  8
0
  6
Continuous
370
     0
100
AcDbPolyline
 90
        9
 70
   128
 43
0.0
 10
0.0875795215592738
 20
0.1482572881079811
 10
0.0794927356959185
 20
0.1472836695851604
 10
0.0767328068831752
 20
0.1492888752418864
 10
0.0701163599885923
 20
0.1525154680911207
 10
0.0653480832506901
 20
0.1575603611304732
 10
0.0639640108235078
 20
0.164361260600323
 10
0.0666869999648512
 20
0.1702855970225751
 10
0.0686583897867017
 20
0.1751754651104935
 10
0.0831070025494647
 20
0.1783759582025119
  0
LWPOLYLINE
  5
1359
330
12F0
100
AcDbEntity
  8
0
  6
Continuous
370
     0
100
AcDbPolyline
 90
        9
 70
   128
 43
0.0
 10
0.0749257567710231
 20
0.1779978145598466
 10
0.0719768989121547
 20
0.1811939766726684
 10
0.0737922278305305
 20
0.1851435381746071
 10
0.0714388899557719
 20
0.1884338754273518
 10
0.0673605931170691
 20
0.1929774687264682
 10
0.0666049088166467
 20
0.1977412802941636
 10
0.0692662877536492
 20
0.2021298419460624
 10
0.0757841755565316
 20
0.2052970231012363
 10
0.0809878079622416
 20
0.2052042919094212
  0
LWPOLYLINE
  5
135A
330
12F0
100
AcDbEntity
  8
0
  6
Continuous
370
     0
100
AcDbPolyline
 90
       18
 70
   128
 43
0.0
 10
0.2169184262635859
 20
0.1749779701146341
 10
0.2147786737722086
 20
0.1634132532464356
 10
0.2133535624970122
 20
0.1428845125733548
 10
0.2136205604750216
 20
0.1214777782961356
 10
0.2156125124372465
 20
0.1013242875388513
 10
0.2165078893260599
 20
0.0819546344680031
 10
0.2170336014961229
 20
0.0717996542070285
 10
0.2169350516203785
 20
0.065405886898402
 10
0.2156166928103715
 20
0.0628675059517949
 10
0.2133906737773969
 20
0.0623038999255012
 10
0.2121380236048296
 20
0.0640280249756966
 10
0.2112303591456417
 20
0.0660028057266651
 10
0.2115794390559031
 20
0.0720517480252543
 10
0.2120968901081284
 20
0.0945552636186484
 10
0.2114890013571333
 20
0.121509647149999
 10
0.2111234492671592
 20
0.1365226199492486
 10
0.2090698871005898
 20
0.1582118854768843
 10
0.2055706515184567
 20
0.1746360330008087
  0
LWPOLYLINE
  5
135B
330
12F0
100
AcDbEntity
  8
0
  6
Continuous
370
     0
100
AcDbPolyline
 90
       12
 70
   128
 43
0.0
 10
0.3151960654972505
 20
0.1383772295288405
 10
0.3178204913106732
 20
0.1260591249328353
 10
0.316744473397911
 20
0.1115793274234686
 10
0.3126620865985465
 20
0.1012374416958845
 10
0.308017025289594
 20
0.0931209865893869
 10
0.3042837276164398
 20
0.0888280498561702
 10
0.3015237895877441
 20
0.0868228375036626
 10
0.2944062826241343
 20
0.0842858946745046
 10
0.2797975055450621
 20
0.0826284010589067
 10
0.2718668032533067
 20
0.0826617205566578
 10
0.2579521094862649
 20
0.0873038199748919
 10
0.2525308017365191
 20
0.0896871759700649
  0
LWPOLYLINE
  5
135C
330
12F0
100
AcDbEntity
  8
0
  6
Continuous
370
     0
100
AcDbPolyline
 90
       39
 70
   128
 43
0.0
 10
0.2421644225960406
 20
0.1917397229080641
 10
0.2649831967312011
 20
0.1893520417643515
 10
0.2839741990824365
 20
0.1820759297850465
 10
0.2924963406135994
 20
0.1761501494146848
 10
0.2944677261992261
 20
0.1712602871574233
 10
0.2942459516785796
 20
0.167938075220162
 10
0.2962501961909076
 20
0.1651794693091908
 10
0.2999177986787913
 20
0.1652099009107281
 10
0.3035853919507225
 20
0.1652403258164856
 10
0.306090696532074
 20
0.161792069885438
 10
0.3081277957348796
 20
0.1611647261514175
 10
0.3128591143694734
 20
0.1582800637202268
 10
0.313483399083406
 20
0.1545188583287835
 10
0.3112245211237336
 20
0.1518239959561977
 10
0.3082140622764733
 20
0.1501636153095109
 10
0.3048914631903585
 20
0.1503838344432164
 10
0.3061112586724519
 20
0.1465284472160721
 10
0.3089615532034031
 20
0.1433308411551426
 10
0.3087397786827566
 20
0.1400086292178795
 10
0.3055403907893712
 20
0.1371572921150967
 10
0.3035033008025216
 20
0.1377846425448972
 10
0.3046286363695252
 20
0.1333337804375975
 10
0.3044068618488787
 20
0.1300115685003326
 10
0.3030556575643466
 20
0.1253419320725583
 10
0.3012690841598378
 20
0.1256244566271949
 10
0.2996673406248398
 20
0.1212996385136797
 10
0.295087992933059
 20
0.1174457019304231
 10
0.2908864849016268
 20
0.1159736648677967
 10
0.2880033314439778
 20
0.1170400145824341
 10
0.2854980268626264
 20
0.1204882705134817
 10
0.2838059225891527
 20
0.121366276644057
 10
0.282146668026428
 20
0.1243755324251445
 10
0.2816784534319261
 20
0.1271964379263899
 10
0.2810213324594208
 20
0.1288263945324459
 10
0.2787008535113635
 20
0.1276673136259951
 10
0.2766021398679967
 20
0.1298304379610257
 10
0.2758834044549339
 20
0.1329961751680919
 10
0.2767335536501712
 20
0.1383554741423829
 10
0.2758587389017286
 20
0.1424615045438635
  0
LWPOLYLINE
  5
135D
330
12F0
100
AcDbEntity
  8
0
  6
Continuous
370
     0
100
AcDbPolyline
 90
       19
 70
   128
 43
0.0
 10
0.2320980577735625
 20
0.1860066179660826
 10
0.2463577414902041
 20
0.1816151684179701
 10
0.2550688028515395
 20
0.1768803378079244
 10
0.2646875152198902
 20
0.1701707255817837
 10
0.2714846977871055
 20
0.1629916891650502
 10
0.2756164022407042
 20
0.1544029152759662
 10
0.2769594223676997
 20
0.1474759726774586
 10
0.2753248333581801
 20
0.1410198990827744
 10
0.2722486566575277
 20
0.1350970057435034
 10
0.2693942629499624
 20
0.1324963126801819
 10
0.2634678009343112
 20
0.1297710320976186
 10
0.2576070383401507
 20
0.1313082508160796
 10
0.2487070571486463
 20
0.1348521316658129
 10
0.2392772511582954
 20
0.1427526927871429
 10
0.234266641995589
 20
0.1496492046492381
 10
0.2291328131677126
 20
0.1596172844091334
 10
0.2265371520841057
 20
0.1682683587536182
 10
0.2260730366662145
 20
0.1768875633791147
 10
0.2265781909321198
 20
0.1819961999568491
  0
LWPOLYLINE
  5
135E
330
12F0
100
AcDbEntity
  8
0
  6
Continuous
370
     0
100
AcDbPolyline
 90
       11
 70
   128
 43
0.0
 10
0.2340365978846677
 20
0.1789855002276557
 10
0.2382052512256294
 20
0.1783262751133349
 10
0.241651079192863
 20
0.1750344947776092
 10
0.2430597945051254
 20
0.1723700573107791
 10
0.243528004863407
 20
0.1695491576401906
 10
0.24255464023922
 20
0.1672614207330447
 10
0.2403286169700252
 20
0.1666978205374061
 10
0.236504957814887
 20
0.1676076896911897
 10
0.2343446389469115
 20
0.1713066013230104
 10
0.2315888043310466
 20
0.1750996822640971
 10
0.2318721890560376
 20
0.1768861194310087
  0
LWPOLYLINE
  5
135F
330
12F0
100
AcDbEntity
  8
0
  6
Continuous
370
     0
100
AcDbPolyline
 90
       11
 70
   128
 43
0.0
 10
0.2354494166097609
 20
0.1821193560544216
 10
0.2414662493233521
 20
0.1796418374457626
 10
0.247762362605588
 20
0.1731524443533274
 10
0.2493887716937912
 20
0.1680119330910727
 10
0.2494791281960467
 20
0.1628091146776356
 10
0.2484113036567734
 20
0.1599259028903326
 10
0.2438031912351768
 20
0.1597389965585982
 10
0.2393840078597051
 20
0.160743046682958
 10
0.2317079255631178
 20
0.1662298335991412
 10
0.2299870607960521
 20
0.1707748641505819
 10
0.2297406299381492
 20
0.1769179882848721
  0
LWPOLYLINE
  5
1360
330
12F0
100
AcDbEntity
  8
0
  6
Continuous
370
     0
100
AcDbPolyline
 90
        8
 70
   128
 43
0.0
 10
0.251963874873244
 20
0.1746244755852988
 10
0.2549373940490973
 20
0.1683553141530058
 10
0.254243310737067
 20
0.1620557211191737
 10
0.2518571181718343
 20
0.1566341216894819
 10
0.2489411192396638
 20
0.1555692159229522
 10
0.2444890769374943
 20
0.1544420097010199
 10
0.240164353477109
 20
0.1560415347055386
 10
0.2335848554698821
 20
0.1607444906310657
  0
LWPOLYLINE
  5
1361
330
12F0
100
AcDbEntity
  8
0
  6
Continuous
370
     0
100
AcDbPolyline
 90
       11
 70
   128
 43
0.0
 10
0.2556602286387743
 20
0.1709878760701908
 10
0.2620467076392146
 20
0.1592956712600983
 10
0.2629831276122658
 20
0.1536538535618259
 10
0.2623218940109808
 20
0.1494855101785059
 10
0.2608146196070251
 20
0.1457561736409278
 10
0.2597796405422734
 20
0.145004217334792
 10
0.2569580972889689
 20
0.1445347922790745
 10
0.2521939239638975
 20
0.145288192533318
 10
0.2479636604185948
 20
0.147483192417992
 10
0.2422918134183867
 20
0.1502113667274258
 10
0.2374988845794483
 20
0.1546318039289698
  0
LWPOLYLINE
  5
1362
330
12F0
100
AcDbEntity
  8
0
  6
Continuous
370
     0
100
AcDbPolyline
 90
       12
 70
   128
 43
0.0
 10
0.2581983829308712
 20
0.1696708697896536
 10
0.2648682508925226
 20
0.1597650963158141
 10
0.2676528410222545
 20
0.1523049784274253
 10
0.268244271045706
 20
0.1464125108590348
 10
0.266642527510708
 20
0.1420876927455179
 10
0.2653241687007011
 20
0.1395493117989108
 10
0.2639441996863532
 20
0.138546705622657
 10
0.2593360872647601
 20
0.1383597992909226
 10
0.2523787495971881
 20
0.1406808556958196
 10
0.2478979560173755
 20
0.1432206805905345
 10
0.2424150380632888
 20
0.1471398113560607
 10
0.2396591992112
 20
0.1509328981278042
  0
LWPOLYLINE
  5
1363
330
12F0
100
AcDbEntity
  8
0
  6
Continuous
370
     0
100
AcDbPolyline
 90
       48
 70
   128
 43
0.0
 10
0.2588596885127181
 20
0.1295841257658842
 10
0.2626505064295514
 20
0.1265429953002765
 10
0.2674146797546228
 20
0.1257895950460348
 10
0.2717394032150118
 20
0.1241900700415161
 10
0.2741831068079747
 20
0.1222775955766035
 10
0.2729592079130505
 20
0.1203346895101535
 10
0.2718297731694363
 20
0.1189872524932038
 10
0.2751195175650736
 20
0.1166357711825511
 10
0.2788487210413457
 20
0.1151304213179518
 10
0.2808529655536738
 20
0.1123718154069841
 10
0.2812883212214778
 20
0.1074196535594467
 10
0.2796249766980914
 20
0.104630616912063
 10
0.2762695186852824
 20
0.1027195796994764
 10
0.2727579955327783
 20
0.1017488549035246
 10
0.2697803821600431
 20
0.102219729738005
 10
0.2687454030952949
 20
0.1014677734318674
 10
0.2694025375199693
 20
0.099837817690938
 10
0.2691191577747105
 20
0.098051393050465
 10
0.2660470795071603
 20
0.0979267804783514
 10
0.259122587314117
 20
0.1023790923644156
 10
0.2580876174653177
 20
0.1016271427540598
 10
0.2592458027430631
 20
0.0993075302972688
 10
0.2582724381188797
 20
0.0970197933901247
 10
0.2558903539462065
 20
0.0973964997804639
 10
0.2511590260956602
 20
0.1002811555158747
 10
0.249249241498422
 20
0.1036352363070012
 10
0.2464605479558557
 20
0.105297060901794
 10
0.2450805881574602
 20
0.1042944614213219
 10
0.2447027435173865
 20
0.101912549374255
 10
0.2444809689967364
 20
0.0985903374369919
 10
0.2424110200831926
 20
0.097086431520502
 10
0.2394950169147982
 20
0.0960215315846292
 10
0.2351086832500684
 20
0.0991568313594993
 10
0.2338888785520297
 20
0.1030122118908618
 10
0.2344227933115306
 20
0.1044538240477344
 10
0.2318517843289562
 20
0.1036395681513209
 10
0.2305991299201722
 20
0.1053636990321731
 10
0.2307264487619562
 20
0.1080904302586241
 10
0.2324842532004254
 20
0.1114749417861613
 10
0.2326115678059892
 20
0.1142016788432673
 10
0.2305128676147952
 20
0.1163648040434246
 10
0.2283813042606901
 20
0.1163966787279431
 10
0.2266563452967425
 20
0.1151434226815712
 10
0.2248081709038416
 20
0.1169617287023445
 10
0.2216785816085611
 20
0.1241711900248336
 10
0.217017061572065
 20
0.1371166508812979
 10
0.2145158561673241
 20
0.1463632059365966
 10
0.2140188860589553
 20
0.1528511483851442
  0
LWPOLYLINE
  5
1364
330
12F0
100
AcDbEntity
  8
0
  6
Continuous
370
     0
100
AcDbPolyline
 90
        8
 70
   128
 43
0.0
 10
0.2229270606239524
 20
0.1609038532574764
 10
0.2279007208993029
 20
0.1460777926206198
 10
0.2345705888609544
 20
0.1361720191467821
 10
0.2430270167749455
 20
0.1259837202531795
 10
0.2533028727839195
 20
0.1176441589818875
 10
0.2611678841266283
 20
0.1133483285218019
 10
0.27069623999272
 20
0.1118415347090984
 10
0.2747088232142545
 20
0.1121226094849721
  0
LWPOLYLINE
  5
1365
330
12F0
100
AcDbEntity
  8
0
  6
Continuous
370
     0
100
AcDbPolyline
 90
        7
 70
   128
 43
0.0
 10
0.2444808115834398
 20
0.1871005113860455
 10
0.259804220662744
 20
0.1797939745009849
 10
0.2712711166399444
 20
0.1712660629498525
 10
0.2811691280088446
 20
0.1605445896314936
 10
0.2875556070092884
 20
0.1488523848214029
 10
0.2895229026342605
 20
0.1381642301356702
 10
0.2894530948202068
 20
0.1281034250146166
  0
LWPOLYLINE
  5
1366
330
12F0
100
AcDbEntity
  8
0
  6
Continuous
370
     0
100
AcDbPolyline
 90
       11
 70
   128
 43
0.0
 10
0.2441975800355287
 20
0.0968039061007389
 10
0.2497421124301766
 20
0.0913489947342026
 10
0.252748477080555
 20
0.0872110887830769
 10
0.2548143360334443
 20
0.0829167022710973
 10
0.254999152450786
 20
0.0783093587378172
 10
0.2509824700526408
 20
0.0722299848376924
 10
0.2444604788369276
 20
0.0695988726992702
 10
0.2390063256126567
 20
0.0698509732132759
 10
0.2333960930530061
 20
0.0710433669216979
 10
0.227884419585056
 20
0.0786295346345263
 10
0.2250998252191039
 20
0.0860896583535719
  0
LWPOLYLINE
  5
1367
330
12F0
100
AcDbEntity
  8
0
  6
Continuous
370
     0
100
AcDbPolyline
 90
        9
 70
   128
 43
0.0
 10
0.2308907842354344
 20
0.0744916286834005
 10
0.2293177962143034
 20
0.0664997736225814
 10
0.2265578674015565
 20
0.0644945679658555
 10
0.221444600714058
 20
0.0591990250563849
 10
0.2151731437690749
 20
0.0562230820772687
 10
0.2082774021101592
 20
0.0570083444895921
 10
0.2034844732712244
 20
0.0614287816911379
 10
0.1994431253198776
 20
0.0648147371667846
 10
0.200864142398192
 20
0.0795451912420511
  0
LWPOLYLINE
  5
1368
330
12F0
100
AcDbEntity
  8
0
  6
Continuous
370
     0
100
AcDbPolyline
 90
        9
 70
   128
 43
0.0
 10
0.1986956343929478
 20
0.0716475113211512
 10
0.1947446563960255
 20
0.0698306492484875
 10
0.1915493676792579
 20
0.0727776112699541
 10
0.1876928495974184
 20
0.0715562240774457
 10
0.1821113725516348
 20
0.0690815808385654
 10
0.1773471992265634
 20
0.0698349810928054
 10
0.1739958403903649
 20
0.0737222430044717
 10
0.1729978102129727
 20
0.0808998354730957
 10
0.1746940136630535
 20
0.0858201284667715
  0
LWPOLYLINE
  5
1369
330
12F0
100
AcDbEntity
  8
0
  6
Continuous
370
     0
100
AcDbPolyline
 90
       18
 70
   128
 43
0.0
 10
0.2454458250806297
 20
0.2057573816542586
 10
0.2557833045336473
 20
0.2001486620566659
 10
0.2748669135192046
 20
0.1924495709508473
 10
0.2953084345588195
 20
0.1860884564319409
 10
0.3150910902779351
 20
0.1817551441857841
 10
0.3337894117243571
 20
0.1766211462363927
 10
0.3436098258691054
 20
0.1739830667432418
 10
0.3496602063452485
 20
0.1719135574852899
 10
0.3516669548083833
 20
0.1698753208975176
 10
0.3515150982813253
 20
0.1675840871505531
 10
0.3494882677260982
 20
0.1669255299822349
 10
0.3473296558815555
 20
0.1666725305959282
 10
0.3416846415164549
 20
0.1688737512875455
 10
0.3204424275407014
 20
0.1763198452341701
 10
0.2946194374857427
 20
0.1840710712604405
 10
0.2802282900679245
 20
0.1883626742942823
 10
0.2589659871457357
 20
0.1931119722577019
 10
0.2422643713563133
 20
0.1948593421582742
  0
LWPOLYLINE
  5
136A
330
12F0
100
AcDbEntity
  8
0
  6
Continuous
370
     0
100
AcDbPolyline
 90
       12
 70
   128
 43
0.0
 10
0.3106246586062298
 20
0.2879147200058192
 10
0.3231508644274896
 20
0.2866041936185564
 10
0.3365894623821148
 20
0.28110633626547
 10
0.3451636532954971
 20
0.2740279372541909
 10
0.3514474579293676
 20
0.2671020988657311
 10
0.3543766309574714
 20
0.2622249313800697
 10
0.3554308334775911
 20
0.2589804296390508
 10
0.3556441788773945
 20
0.2514273198135672
 10
0.3527061885967555
 20
0.2370213534821239
 10
0.3502237780858195
 20
0.2294891036798035
 10
0.3415090023392793
 20
0.2176899311102183
 10
0.3375670198630125
 20
0.2132704585541347
  0
LWPOLYLINE
  5
136B
330
12F0
100
AcDbEntity
  8
0
  6
Continuous
370
     0
100
AcDbPolyline
 90
       39
 70
   128
 43
0.0
 10
0.2373058927685676
 20
0.2349474174452872
 10
0.2466281014776968
 20
0.2559115272298396
 10
0.2594166376556579
 20
0.2717246015123802
 10
0.2676858762526209
 20
0.2779984729090064
 10
0.2729456032645991
 20
0.2783623214787028
 10
0.276036682480246
 20
0.2771247814281637
 10
0.279279618222958
 20
0.2781784751245873
 10
0.280384027547381
 20
0.2816759762519094
 10
0.2814884403919855
 20
0.285173466545233
 10
0.2855421083567862
 20
0.2864905831089839
 10
0.2867682459758782
 20
0.2882341197050238
 10
0.2909737808422648
 20
0.2918424614088497
 10
0.2947438143248533
 20
0.2912739150687678
 10
0.2966087490670617
 20
0.2882928361950743
 10
0.2972575819559573
 20
0.2849166338543938
 10
0.2960214015307301
 20
0.2818247057973107
 10
0.3000650302095735
 20
0.2817934200660179
 10
0.3039869237394051
 20
0.2835160966388948
 10
0.3070780029550519
 20
0.2822785565883556
 10
0.308801120456156
 20
0.2783546462627466
 10
0.3075749793168825
 20
0.2766111205007089
 10
0.3121557485417412
 20
0.2763059861939521
 10
0.3152468277573916
 20
0.2750684461434112
 10
0.3192703708239612
 20
0.2723403774900266
 10
0.3184495924615689
 20
0.2707285501005394
 10
0.3220677729372774
 20
0.267868759179489
 10
0.3243179881782581
 20
0.2623226088173727
 10
0.3244196412351812
 20
0.2578718527571091
 10
0.3225145389746231
 20
0.2554593310575051
 10
0.3184608710098224
 20
0.2541422144937524
 10
0.3171029485812333
 20
0.2528042465137279
 10
0.3137282384035558
 20
0.2521561128264338
 10
0.3109007115780287
 20
0.2525825220247189
 10
0.3091474691786971
 20
0.2524612471331906
 10
0.3095327531976508
 20
0.2498961648107638
 10
0.3068269615211356
 20
0.248568611704874
 10
0.3035940650643845
 20
0.2488633203034975
 10
0.2987597794011911
 20
0.2513279746964425
 10
0.29458437980756
 20
0.2517648096028626
  0
LWPOLYLINE
  5
136C
330
12F0
100
AcDbEntity
  8
0
  6
Continuous
370
     0
100
AcDbPolyline
 90
       19
 70
   128
 43
0.0
 10
0.2396477217805177
 20
0.2236021087278566
 10
0.2482307230920853
 20
0.2358068413065695
 10
0.2554256805970212
 20
0.2426284098541238
 10
0.2647792466123313
 20
0.2497029647268665
 10
0.2737073609043215
 20
0.2539490252438572
 10
0.2831525371704195
 20
0.2552244325952895
 10
0.2901554671097593
 20
0.2543611776565839
 10
0.2957904421889062
 20
0.250811554669923
 10
0.3004728576163416
 20
0.2460556620757881
 10
0.3020642075368229
 20
0.2425373139864177
 10
0.3028247259142454
 20
0.2360587556534064
 10
0.2995516687934909
 20
0.2309598659058434
 10
0.2934309923805856
 20
0.2235906002073662
 10
0.2830031419390799
 20
0.2170637294244351
 10
0.2748958060094786
 20
0.2144294962969315
 10
0.2638291584448567
 20
0.2126272409837284
 10
0.2547993944301083
 20
0.2128319495881179
 10
0.2464586241542683
 20
0.2150540303028929
 10
0.2417561233005756
 20
0.2171131160798207
  0
LWPOLYLINE
  5
136D
330
12F0
100
AcDbEntity
  8
0
  6
Continuous
370
     0
100
AcDbPolyline
 90
       11
 70
   128
 43
0.0
 10
0.2469242433959344
 20
0.2232761252319424
 10
0.2488393884626312
 20
0.2270370383925915
 10
0.2530348770027011
 20
0.2292969994693763
 10
0.2560042245895175
 20
0.2298134108890082
 10
0.2588317445606982
 20
0.2293869994636104
 10
0.2607067254432103
 20
0.2277543251120786
 10
0.2605548620618023
 20
0.2254630891380014
 10
0.2585079494144828
 20
0.222107738213591
 10
0.2543225001603666
 20
0.2211961794318515
 10
0.2498634660845234
 20
0.219747351434437
 10
0.2482520340719496
 20
0.2205689057677151
  0
LWPOLYLINE
  5
136E
330
12F0
100
AcDbEntity
  8
0
  6
Continuous
370
     0
100
AcDbPolyline
 90
       11
 70
   128
 43
0.0
 10
0.2443803543867844
 20
0.2255882103951769
 10
0.2485959181646038
 20
0.2305449630009377
 10
0.2567133037546831
 20
0.234527589816599
 10
0.2621048085358026
 20
0.2344858914382843
 10
0.2670809045857503
 20
0.232964066270144
 10
0.2694930260142776
 20
0.2310575433431499
 10
0.2682467994487467
 20
0.2266172107639068
 10
0.2659262882710074
 20
0.2227245861695941
 10
0.2583360039409825
 20
0.2171197084834233
 10
0.2534816465602283
 20
0.2168875605133884
 10
0.2475630369988728
 20
0.2185515205962147
  0
LWPOLYLINE
  5
136F
330
12F0
100
AcDbEntity
  8
0
  6
Continuous
370
     0
100
AcDbPolyline
 90
        8
 70
   128
 43
0.0
 10
0.25661165755211
 20
0.2389783481039771
 10
0.2634928523424378
 20
0.2398690554694429
 10
0.269269637808339
 20
0.2372622617075848
 10
0.2736885112201826
 20
0.2333174913588181
 10
0.2738002035630593
 20
0.2302151375935999
 10
0.2734964836545899
 20
0.2256326678725582
 10
0.2706388319308353
 20
0.2220138918537078
 10
0.2641328783533261
 20
0.2172097107047701
  0
LWPOLYLINE
  5
1370
330
12F0
100
AcDbEntity
  8
0
  6
Continuous
370
     0
100
AcDbPolyline
 90
       11
 70
   128
 43
0.0
 10
0.2612125053488796
 20
0.2413700183873129
 10
0.2743059834687287
 20
0.2438308308688359
 10
0.279961040639968
 20
0.2429780016382619
 10
0.2837210383567807
 20
0.2410610421691306
 10
0.2868020747662925
 20
0.2384751106575464
 10
0.2871974015913814
 20
0.2372584197961629
 10
0.2867719465338965
 20
0.2344299123792961
 10
0.2845832097911263
 20
0.2301317277758539
 10
0.2811884175213564
 20
0.2267868003324658
 10
0.2768410724542214
 20
0.22223560550872
 10
0.2711558903847582
 20
0.2190432495221532
  0
LWPOLYLINE
  5
1371
330
12F0
100
AcDbEntity
  8
0
  6
Continuous
370
     0
100
AcDbPolyline
 90
       12
 70
   128
 43
0.0
 10
0.2632493855645883
 20
0.2433769692437906
 10
0.2747314385262136
 20
0.2466593382857027
 10
0.2826869179287534
 20
0.2470023376662418
 10
0.2884737495349583
 20
0.2457439484265418
 10
0.2920919300106668
 20
0.2428841575054932
 10
0.2940986784738016
 20
0.2408459209177227
 10
0.2946257797338596
 20
0.2392236700472132
 10
0.2933795531683288
 20
0.234783337467972
 10
0.2890221617748807
 20
0.2288837620171797
 10
0.2852220033940647
 20
0.2254071231401262
 10
0.2798003737147212
 20
0.2214036363013054
 10
0.275341332784528
 20
0.2199548060767782
  0
LWPOLYLINE
  5
1372
330
12F0
100
AcDbEntity
  8
0
  6
Continuous
370
     0
100
AcDbPolyline
 90
       48
 70
   128
 43
0.0
 10
0.3015784993487181
 20
0.2316184230741633
 10
0.3056422134538188
 20
0.2342839441600759
 10
0.307830950196589
 20
0.2385821287635146
 10
0.3106886019203436
 20
0.2422009047823685
 10
0.3132626191618897
 20
0.2439340178973825
 10
0.3147322270790091
 20
0.2421696298850744
 10
0.3156647013044598
 20
0.2406790926753413
 10
0.3189176798533069
 20
0.2430811778328117
 10
0.3215017399009845
 20
0.2461626824088689
 10
0.3247446756436964
 20
0.2472163761052926
 10
0.3295889937384935
 20
0.2461001217802821
 10
0.3317275234909438
 20
0.2436563274104966
 10
0.33250813433499
 20
0.2398745542266862
 10
0.3323462281474434
 20
0.2362349267915658
 10
0.3309782664329006
 20
0.2335485565164976
 10
0.3313735932579895
 20
0.2323318656551141
 10
0.3331268389914861
 20
0.2324531536077572
 10
0.3347382606295319
 20
0.2316316078813667
 10
0.3339074498355323
 20
0.2286713804239468
 10
0.3275332638386423
 20
0.2234616370387687
 10
0.3279285871435533
 20
0.2222449570113873
 10
0.3304925686193236
 20
0.2226296569973538
 10
0.3323675495018356
 20
0.220996982645822
 10
0.3312731759431848
 20
0.2188478946475456
 10
0.3270676445969762
 20
0.2152395421097157
 10
0.3232875683082525
 20
0.2144596969887562
 10
0.3208453255016792
 20
0.2123210238646127
 10
0.3213724232415558
 20
0.2106987838281053
 10
0.3235209958001448
 20
0.2096033809193649
 10
0.3266120750157917
 20
0.208365840868824
 10
0.3274027251457916
 20
0.2059324699800626
 10
0.327514410634322
 20
0.2028301139877317
 10
0.3231771117074942
 20
0.1996273236861405
 10
0.3191334865488286
 20
0.1996585985834347
 10
0.317927420647301
 20
0.2006118643503765
 10
0.3179073385552087
 20
0.1979150705942842
 10
0.3158805011456351
 20
0.1972565111988515
 10
0.3133265693303499
 20
0.1982202049010428
 10
0.3106508990318843
 20
0.2009378478462924
 10
0.3080969603622528
 20
0.2019015393213692
 10
0.3053911720199025
 20
0.2005739992765942
 10
0.3047021680924793
 20
0.1985566118779829
 10
0.3053610437875101
 20
0.1965288009983456
 10
0.3030606147018595
 20
0.1953329701601216
 10
0.2952369132544703
 20
0.1945843999364544
 10
0.2814845594395905
 20
0.1941513983345686
 10
0.2719176480244805
 20
0.1946299532873077
 10
0.2655936758722603
 20
0.19616219110247
  0
LWPOLYLINE
  5
1373
330
12F0
100
AcDbEntity
  8
0
  6
Continuous
370
     0
100
AcDbPolyline
 90
        8
 70
   128
 43
0.0
 10
0.2606878757590714
 20
0.2071227912270394
 10
0.2763252428880705
 20
0.2072715185453262
 10
0.2878072958496958
 20
0.2105538875872419
 10
0.3001101238395485
 20
0.2154480709575264
 10
0.3112169320681737
 20
0.2226439246169125
 10
0.3177329317859865
 20
0.2287965102880101
 10
0.3221104017513489
 20
0.2373928903288931
 10
0.3230830401609843
 20
0.2412959406313444
  0
LWPOLYLINE
  5
1374
330
12F0
100
AcDbEntity
  8
0
  6
Continuous
370
     0
100
AcDbPolyline
 90
        7
 70
   128
 43
0.0
 10
0.2424338486797453
 20
0.2357168390852227
 10
0.2541179720130984
 20
0.2480324230744397
 10
0.265771963593874
 20
0.2563028196194086
 10
0.2790273443810918
 20
0.2624032703700543
 10
0.2921208225009408
 20
0.2648640828515774
 10
0.3028937894430506
 20
0.2634322707387859
 10
0.3124406119117253
 20
0.2602569198028419
  0
LWPOLYLINE
  5
1375
330
12F0
100
AcDbEntity
  8
0
  6
Continuous
370
     0
100
AcDbPolyline
 90
       11
 70
   128
 43
0.0
 10
0.328223500174019
 20
0.2075442843084332
 10
0.3351247839107856
 20
0.2111317876571039
 10
0.339989184097675
 20
0.2127123270881839
 10
0.3447117738978065
 20
0.2133500372944592
 10
0.3491507294017389
 20
0.2121020607017829
 10
0.3536913344424164
 20
0.2064033388828417
 10
0.3541782646639468
 20
0.1993874982730368
 10
0.3522530767911149
 20
0.1942781936513409
 10
0.3493853857814031
 20
0.1893110153374451
 10
0.3404673107753666
 20
0.1864133571154997
 10
0.3325118245184804
 20
0.1860703555078497
  0
LWPOLYLINE
  5
1376
330
12F0
100
AcDbEntity
  8
0
  6
Continuous
370
     0
100
AcDbPolyline
 90
        9
 70
   128
 43
0.0
 10
0.345331710962256
 20
0.1879938965465797
 10
0.3524463367646575
 20
0.1840282770086538
 10
0.3535005357645957
 20
0.180783786101637
 10
0.3569568100527576
 20
0.1742843677454644
 10
0.3578491132396806
 20
0.1674002407964359
 10
0.3549713829440151
 20
0.1610846601874911
 10
0.3492862008745518
 20
0.1578923042009297
 10
0.3448171206584014
 20
0.1550950716813535
 10
0.3312467447486291
 20
0.1609984998775697
  0
LWPOLYLINE
  5
1377
330
12F0
100
AcDbEntity
  8
0
  6
Continuous
370
     0
100
AcDbPolyline
 90
        9
 70
   128
 43
0.0
 10
0.3380877788749572
 20
0.1564956088968507
 10
0.3385947980429229
 20
0.1521765642702526
 10
0.3348046720937176
 20
0.1500483254611335
 10
0.3347745507156681
 20
0.1460031294099977
 10
0.3354033050326528
 20
0.1399301224792228
 10
0.3332145682898826
 20
0.1356319378757806
 10
0.3284819356836124
 20
0.133645836208462
 10
0.3213472313093035
 20
0.1349146511562953
 10
0.3171919102875797
 20
0.138048290652808
  0
ENDBLK
  5
137B
330
12F0
100
AcDbEntity
  8
0
100
AcDbBlockEnd
  0
BLOCK
  5
1512
330
1507
100
AcDbEntity
  8
0
100
AcDbBlockBegin
  2
*D30
 70
     1
 10
0.0
 20
0.0
 30
0.0
  3
*D30
  1

  0
LINE
  5
153B
330
1507
100
AcDbEntity
  8
Sezione
  6
ACAD_ISO10W100
 62
     5
370
    -2
100
AcDbLine
 10
0.2083322835768352
 20
0.2131304394322044
 30
0.0
 11
0.2643770579637239
 21
0.2131304394322044
 31
0.0
  0
LINE
  5
153C
330
1507
100
AcDbEntity
  8
Sezione
  6
ACAD_ISO10W100
 62
     5
370
    -2
100
AcDbLine
 10
0.2083373947075343
 20
0.1056304395537091
 30
0.0
 11
0.2643770579637238
 21
0.1056304395537091
 31
0.0
  0
LINE
  5
153D
330
1507
100
AcDbEntity
  8
Sezione
  6
ACAD_ISO10W100
 62
     5
370
    -2
100
AcDbLine
 10
0.2641970579637238
 20
0.2131304394322044
 30
0.0
 11
0.2641970579637238
 21
0.1628804394929568
 31
0.0
  0
LINE
  5
153E
330
1507
100
AcDbEntity
  8
Sezione
  6
ACAD_ISO10W100
 62
     5
370
    -2
100
AcDbLine
 10
0.2641970579637238
 20
0.1056304395537091
 30
0.0
 11
0.2641970579637238
 21
0.1558804394929568
 31
0.0
  0
INSERT
  5
153F
330
1507
100
AcDbEntity
  8
Sezione
  6
ACAD_ISO10W100
 62
     5
370
    -2
100
AcDbBlockReference
  2
_ArchTick
 10
0.2641970579637238
 20
0.2131304394322044
 30
0.0
 41
0.0015
 42
0.0015
 43
0.0015
 50
90.0
  0
INSERT
  5
1540
330
1507
100
AcDbEntity
  8
Sezione
  6
ACAD_ISO10W100
 62
     5
370
    -2
100
AcDbBlockReference
  2
_ArchTick
 10
0.2641970579637238
 20
0.1056304395537091
 30
0.0
 41
0.0015
 42
0.0015
 43
0.0015
 50
270.0
  0
MTEXT
  5
1541
330
1507
100
AcDbEntity
  8
Sezione
  6
ACAD_ISO10W100
 62
     4
100
AcDbMText
 10
0.2641970579637238
 20
0.1593804394929568
 30
0.0
 40
0.003
 41
0.0
 71
     5
 72
     1
  1
\A1;430 mm
  7
ROMANS
 73
     1
 44
1.0
1001
ACAD
1000
MTEXTBEGIN
1070
    73
1070
     1
1070
    44
1040
1.0
1070
    74
1070
     0
1000
MTEXTEND
  0
POINT
  5
1542
330
1507
100
AcDbEntity
  8
Defpoints
  6
ACAD_ISO10W100
 62
     0
100
AcDbPoint
 10
0.2082697835768352
 20
0.2131304394322044
 30
0.0
  0
POINT
  5
1543
330
1507
100
AcDbEntity
  8
Defpoints
  6
ACAD_ISO10W100
 62
     0
100
AcDbPoint
 10
0.2082748947075343
 20
0.1056304395537091
 30
0.0
  0
POINT
  5
1544
330
1507
100
AcDbEntity
  8
Defpoints
  6
ACAD_ISO10W100
 62
     0
100
AcDbPoint
 10
0.2641970579637238
 20
0.1056304395537091
 30
0.0
  0
ENDBLK
  5
1513
330
1507
100
AcDbEntity
  8
0
100
AcDbBlockEnd
  0
BLOCK
  5
152C
330
1521
100
AcDbEntity
  8
0
100
AcDbBlockBegin
  2
*D31
 70
     1
 10
0.0
 20
0.0
 30
0.0
  3
*D31
  1

  0
LINE
  5
152F
330
1521
100
AcDbEntity
  8
Sezione
  6
ACAD_ISO10W100
 62
     5
370
    -2
100
AcDbLine
 10
0.1719918684902775
 20
0.1590099531845926
 30
0.0
 11
0.1719918684902775
 21
0.084945782242584
 31
0.0
  0
LINE
  5
1530
330
1521
100
AcDbEntity
  8
Sezione
  6
ACAD_ISO10W100
 62
     5
370
    -2
100
AcDbLine
 10
0.244503588355941
 20
0.1590095376092292
 30
0.0
 11
0.244503588355941
 21
0.084945782242584
 31
0.0
  0
LINE
  5
1531
330
1521
100
AcDbEntity
  8
Sezione
  6
ACAD_ISO10W100
 62
     5
370
    -2
100
AcDbLine
 10
0.1719918684902775
 20
0.085125782242584
 30
0.0
 11
0.1966762998516807
 21
0.085125782242584
 31
0.0
  0
LINE
  5
1532
330
1521
100
AcDbEntity
  8
Sezione
  6
ACAD_ISO10W100
 62
     5
370
    -2
100
AcDbLine
 10
0.244503588355941
 20
0.085125782242584
 30
0.0
 11
0.2198191569945378
 21
0.085125782242584
 31
0.0
  0
INSERT
  5
1533
330
1521
100
AcDbEntity
  8
Sezione
  6
ACAD_ISO10W100
 62
     5
370
    -2
100
AcDbBlockReference
  2
_ArchTick
 10
0.1719918684902775
 20
0.085125782242584
 30
0.0
 41
0.0015
 42
0.0015
 43
0.0015
 50
180.0
  0
INSERT
  5
1534
330
1521
100
AcDbEntity
  8
Sezione
  6
ACAD_ISO10W100
 62
     5
370
    -2
100
AcDbBlockReference
  2
_ArchTick
 10
0.244503588355941
 20
0.085125782242584
 30
0.0
 41
0.0015
 42
0.0015
 43
0.0015
  0
MTEXT
  5
1535
330
1521
100
AcDbEntity
  8
Sezione
  6
ACAD_ISO10W100
 62
     4
100
AcDbMText
 10
0.2082477284231092
 20
0.085125782242584
 30
0.0
 40
0.003
 41
0.0
 71
     5
 72
     1
  1
\A1;300 mm
  7
ROMANS
 73
     1
 44
1.0
1001
ACAD
1000
MTEXTBEGIN
1070
    73
1070
     1
1070
    44
1040
1.0
1070
    74
1070
     0
1000
MTEXTEND
  0
POINT
  5
1536
330
1521
100
AcDbEntity
  8
Defpoints
  6
ACAD_ISO10W100
 62
     0
100
AcDbPoint
 10
0.1719918684902775
 20
0.1590724531845926
 30
0.0
  0
POINT
  5
1537
330
1521
100
AcDbEntity
  8
Defpoints
  6
ACAD_ISO10W100
 62
     0
100
AcDbPoint
 10
0.244503588355941
 20
0.1590720376092292
 30
0.0
  0
POINT
  5
1538
330
1521
100
AcDbEntity
  8
Defpoints
  6
ACAD_ISO10W100
 62
     0
100
AcDbPoint
 10
0.244503588355941
 20
0.085125782242584
 30
0.0
  0
ENDBLK
  5
152D
330
1521
100
AcDbEntity
  8
0
100
AcDbBlockEnd
  0
BLOCK
  5
1831
330
182A
100
AcDbEntity
  8
0
100
AcDbBlockBegin
  2
*D33
 70
     1
 10
0.0
 20
0.0
 30
0.0
  3
*D33
  1

  0
LINE
  5
1841
330
182A
100
AcDbEntity
  8
Sezione
  6
ACAD_ISO10W100
 62
     5
370
    -2
100
AcDbLine
 10
0.2550193233489398
 20
0.1980484165756285
 30
0.0
 11
0.2535193233489398
 21
0.1980484165756285
 31
0.0
  0
LINE
  5
1842
330
182A
100
AcDbEntity
  8
Sezione
  6
ACAD_ISO10W100
 62
     5
370
    -2
100
AcDbLine
 10
0.2535193233489398
 20
0.1980484165756285
 30
0.0
 11
0.2512265566535961
 21
0.1961136760553718
 31
0.0
  0
MTEXT
  5
1843
330
182A
100
AcDbEntity
  8
Sezione
  6
ACAD_ISO10W100
 62
     4
100
AcDbMText
 10
0.2694478947775112
 20
0.1980484165756285
 30
0.0
 40
0.003
 41
0.0
 71
     5
 72
     1
  1
\A1;d 440 mm
  7
ROMANS
 73
     1
 44
1.0
1001
ACAD
1000
MTEXTBEGIN
1070
    73
1070
     1
1070
    44
1040
1.0
1070
    74
1070
     0
1000
MTEXTEND
  0
INSERT
  5
1844
330
182A
100
AcDbEntity
  8
Sezione
  6
ACAD_ISO10W100
 62
     5
370
    -2
100
AcDbBlockReference
  2
_ArchTick
 10
0.2512265566535961
 20
0.1961136760553718
 30
0.0
 41
0.0015
 42
0.0015
 43
0.0015
 50
220.1591908129549
  0
POINT
  5
1845
330
182A
100
AcDbEntity
  8
Defpoints
  6
ACAD_ISO10W100
 62
     0
100
AcDbPoint
 10
0.2512265566535961
 20
0.1961136760553718
 30
0.0
  0
POINT
  5
1846
330
182A
100
AcDbEntity
  8
Defpoints
  6
ACAD_ISO10W100
 62
     0
100
AcDbPoint
 10
0.1671584444909983
 20
0.1251731903126249
 30
0.0
  0
ENDBLK
  5
1832
330
182A
100
AcDbEntity
  8
0
100
AcDbBlockEnd
  0
BLOCK
  5
1B8C
330
1B85
100
AcDbEntity
  8
0
100
AcDbBlockBegin
  2
*D35
 70
     1
 10
0.0
 20
0.0
 30
0.0
  3
*D35
  1

  0
LINE
  5
1B9C
330
1B85
100
AcDbEntity
  8
Sezione
  6
ACAD_ISO10W100
 62
     5
370
    -2
100
AcDbLine
 10
0.2530721361364176
 20
0.2020289508087928
 30
0.0
 11
0.2515721361364176
 21
0.2020289508087928
 31
0.0
  0
LINE
  5
1B9D
330
1B85
100
AcDbEntity
  8
Sezione
  6
ACAD_ISO10W100
 62
     5
370
    -2
100
AcDbLine
 10
0.2515721361364176
 20
0.2020289508087928
 30
0.0
 11
0.2493790719070101
 21
0.1999818872324246
 31
0.0
  0
MTEXT
  5
1B9E
330
1B85
100
AcDbEntity
  8
Sezione
  6
ACAD_ISO10W100
 62
     4
100
AcDbMText
 10
0.2675007075649891
 20
0.2020289508087928
 30
0.0
 40
0.003
 41
0.0
 71
     5
 72
     1
  1
\A1;d 450 mm
  7
ROMANS
 73
     1
 44
1.0
1001
ACAD
1000
MTEXTBEGIN
1070
    73
1070
     1
1070
    44
1040
1.0
1070
    74
1070
     0
1000
MTEXTEND
  0
INSERT
  5
1B9F
330
1B85
100
AcDbEntity
  8
Sezione
  6
ACAD_ISO10W100
 62
     5
370
    -2
100
AcDbBlockReference
  2
_ArchTick
 10
0.2493790719070101
 20
0.1999818872324246
 30
0.0
 41
0.0015
 42
0.0015
 43
0.0015
 50
223.0279090820095
  0
POINT
  5
1BA0
330
1B85
100
AcDbEntity
  8
Defpoints
  6
ACAD_ISO10W100
 62
     0
100
AcDbPoint
 10
0.2493790719070101
 20
0.1999818872324246
 30
0.0
  0
POINT
  5
1BA1
330
1B85
100
AcDbEntity
  8
Defpoints
  6
ACAD_ISO10W100
 62
     0
100
AcDbPoint
 10
0.1671391633042297
 20
0.1232170031186168
 30
0.0
  0
ENDBLK
  5
1B8D
330
1B85
100
AcDbEntity
  8
0
100
AcDbBlockEnd
  0
BLOCK
  5
1CFE
330
1CF7
100
AcDbEntity
  8
0
100
AcDbBlockBegin
  2
*D38
 70
     1
 10
0.0
 20
0.0
 30
0.0
  3
*D38
  1

  0
LINE
  5
1D0E
330
1CF7
100
AcDbEntity
  8
Sezione
  6
ACAD_ISO10W100
 62
     5
370
    -2
100
AcDbLine
 10
0.2562973870742004
 20
0.2029310940913176
 30
0.0
 11
0.2547973870742004
 21
0.2029310940913175
 31
0.0
  0
LINE
  5
1D0F
330
1CF7
100
AcDbEntity
  8
Sezione
  6
ACAD_ISO10W100
 62
     5
370
    -2
100
AcDbLine
 10
0.2547973870742004
 20
0.2029310940913175
 30
0.0
 11
0.2526178576673925
 21
0.2008696257881754
 31
0.0
  0
MTEXT
  5
1D10
330
1CF7
100
AcDbEntity
  8
Sezione
  6
ACAD_ISO10W100
 62
     4
100
AcDbMText
 10
0.2707259585027718
 20
0.2029310940913175
 30
0.0
 40
0.003
 41
0.0
 71
     5
 72
     1
  1
\A1;d 480 mm
  7
ROMANS
 73
     1
 44
1.0
1001
ACAD
1000
MTEXTBEGIN
1070
    73
1070
     1
1070
    44
1040
1.0
1070
    74
1070
     0
1000
MTEXTEND
  0
INSERT
  5
1D11
330
1CF7
100
AcDbEntity
  8
Sezione
  6
ACAD_ISO10W100
 62
     5
370
    -2
100
AcDbBlockReference
  2
_ArchTick
 10
0.2526178576673925
 20
0.2008696257881754
 30
0.0
 41
0.0015
 42
0.0015
 43
0.0015
 50
223.4054090887448
  0
POINT
  5
1D12
330
1CF7
100
AcDbEntity
  8
Defpoints
  6
ACAD_ISO10W100
 62
     0
100
AcDbPoint
 10
0.2526178576673925
 20
0.2008696257881754
 30
0.0
  0
POINT
  5
1D13
330
1CF7
100
AcDbEntity
  8
Defpoints
  6
ACAD_ISO10W100
 62
     0
100
AcDbPoint
 10
0.1663436619896651
 20
0.1192687447846005
 30
0.0
  0
ENDBLK
  5
1CFF
330
1CF7
100
AcDbEntity
  8
0
100
AcDbBlockEnd
  0
BLOCK
  5
1E77
330
1E70
100
AcDbEntity
  8
0
100
AcDbBlockBegin
  2
*D40
 70
     1
 10
0.0
 20
0.0
 30
0.0
  3
*D40
  1

  0
LINE
  5
1E87
330
1E70
100
AcDbEntity
  8
Sezione
  6
ACAD_ISO10W100
 62
     5
370
    -2
100
AcDbLine
 10
0.2603440739363734
 20
0.1960932712526519
 30
0.0
 11
0.2588440739363734
 21
0.1960932712526519
 31
0.0
  0
LINE
  5
1E88
330
1E70
100
AcDbEntity
  8
Sezione
  6
ACAD_ISO10W100
 62
     5
370
    -2
100
AcDbLine
 10
0.2588440739363734
 20
0.1960932712526519
 30
0.0
 11
0.2564654290560628
 21
0.1942651441965171
 31
0.0
  0
MTEXT
  5
1E89
330
1E70
100
AcDbEntity
  8
Sezione
  6
ACAD_ISO10W100
 62
     4
100
AcDbMText
 10
0.2747726453649448
 20
0.1960932712526519
 30
0.0
 40
0.003
 41
0.0
 71
     5
 72
     1
  1
\A1;d 490 mm
  7
ROMANS
 73
     1
 44
1.0
1001
ACAD
1000
MTEXTBEGIN
1070
    73
1070
     1
1070
    44
1040
1.0
1070
    74
1070
     0
1000
MTEXTEND
  0
INSERT
  5
1E8A
330
1E70
100
AcDbEntity
  8
Sezione
  6
ACAD_ISO10W100
 62
     5
370
    -2
100
AcDbBlockReference
  2
_ArchTick
 10
0.2564654290560628
 20
0.1942651441965171
 30
0.0
 41
0.0015
 42
0.0015
 43
0.0015
 50
217.5443746311051
  0
POINT
  5
1E8B
330
1E70
100
AcDbEntity
  8
Defpoints
  6
ACAD_ISO10W100
 62
     0
100
AcDbPoint
 10
0.2564654290560628
 20
0.1942651441965171
 30
0.0
  0
POINT
  5
1E8C
330
1E70
100
AcDbEntity
  8
Defpoints
  6
ACAD_ISO10W100
 62
     0
100
AcDbPoint
 10
0.1593374297767124
 20
0.1196166227376799
 30
0.0
  0
ENDBLK
  5
1E78
330
1E70
100
AcDbEntity
  8
0
100
AcDbBlockEnd
  0
BLOCK
  5
2199
330
2192
100
AcDbEntity
  8
0
100
AcDbBlockBegin
  2
*D42
 70
     1
 10
0.0
 20
0.0
 30
0.0
  3
*D42
  1

  0
LINE
  5
21A9
330
2192
100
AcDbEntity
  8
Sezione
  6
ACAD_ISO10W100
 62
     5
370
    -2
100
AcDbLine
 10
0.2558514754556142
 20
0.211046886970545
 30
0.0
 11
0.2543514754556142
 21
0.211046886970545
 31
0.0
  0
LINE
  5
21AA
330
2192
100
AcDbEntity
  8
Sezione
  6
ACAD_ISO10W100
 62
     5
370
    -2
100
AcDbLine
 10
0.2543514754556142
 20
0.211046886970545
 30
0.0
 11
0.252220121576662
 21
0.2089356478456055
 31
0.0
  0
MTEXT
  5
21AB
330
2192
100
AcDbEntity
  8
Sezione
  6
ACAD_ISO10W100
 62
     4
100
AcDbMText
 10
0.2702800468841856
 20
0.211046886970545
 30
0.0
 40
0.003
 41
0.0
 71
     5
 72
     1
  1
\A1;d 500 mm
  7
ROMANS
 73
     1
 44
1.0
1001
ACAD
1000
MTEXTBEGIN
1070
    73
1070
     1
1070
    44
1040
1.0
1070
    74
1070
     0
1000
MTEXTEND
  0
INSERT
  5
21AC
330
2192
100
AcDbEntity
  8
Sezione
  6
ACAD_ISO10W100
 62
     5
370
    -2
100
AcDbBlockReference
  2
_ArchTick
 10
0.252220121576662
 20
0.2089356478456055
 30
0.0
 41
0.0015
 42
0.0015
 43
0.0015
 50
224.7283543638229
  0
POINT
  5
21AD
330
2192
100
AcDbEntity
  8
Defpoints
  6
ACAD_ISO10W100
 62
     0
100
AcDbPoint
 10
0.252220121576662
 20
0.2089356478456055
 30
0.0
  0
POINT
  5
21AE
330
2192
100
AcDbEntity
  8
Defpoints
  6
ACAD_ISO10W100
 62
     0
100
AcDbPoint
 10
0.1634137099536523
 20
0.1209673509731266
 30
0.0
  0
ENDBLK
  5
219A
330
2192
100
AcDbEntity
  8
0
100
AcDbBlockEnd
  0
ENDSEC
  0
SECTION
  2
ENTITIES
  0
LINE
  5
D
330
2
100
AcDbEntity
  8
Table
100
AcDbLine
 10
0.02
 20
0.02
 30
0.0
 11
0.4
 21
0.02
 31
0.0
  0
LINE
  5
10
330
2
100
AcDbEntity
  8
Table
100
AcDbLine
 10
0.4
 20
0.02
 30
0.0
 11
0.4
 21
0.2769999999999999
 31
0.0
  0
LINE
  5
11
330
2
100
AcDbEntity
  8
Table
100
AcDbLine
 10
0.4
 20
0.2769999999999999
 30
0.0
 11
0.02
 21
0.277
 31
0.0
  0
LINE
  5
12
330
2
100
AcDbEntity
  8
Table
100
AcDbLine
 10
0.02
 20
0.277
 30
0.0
 11
0.02
 21
0.02
 31
0.0
  0
LINE
  5
13
330
2
100
AcDbEntity
  8
Table
 62
     2
100
AcDbLine
 10
0.015
 20
0.015
 30
0.0
 11
0.4050000000000001
 21
0.015
 31
0.0
  0
LINE
  5
14
330
2
100
AcDbEntity
  8
Table
 62
     2
100
AcDbLine
 10
0.4050000000000001
 20
0.015
 30
0.0
 11
0.4050000000000001
 21
0.2819999999999998
 31
0.0
  0
LINE
  5
15
330
2
100
AcDbEntity
  8
Table
 62
     2
100
AcDbLine
 10
0.4050000000000001
 20
0.2819999999999998
 30
0.0
 11
0.0149999999999999
 21
0.282
 31
0.0
  0
LINE
  5
16
330
2
100
AcDbEntity
  8
Table
 62
     2
100
AcDbLine
 10
0.0149999999999999
 20
0.282
 30
0.0
 11
0.015
 21
0.015
 31
0.0
  0
LINE
  5
17
330
2
100
AcDbEntity
  8
Table
100
AcDbLine
 10
0.21
 20
0.2769999999999999
 30
0.0
 11
0.21
 21
0.2532994226089223
 31
0.0
  0
MTEXT
  5
18
102
{ACAD_XDICTIONARY
360
21B3
102
}
330
2
100
AcDbEntity
  8
Text
100
AcDbMText
 10
0.305
 20
0.0471738284815141
 30
0.0
 40
0.005
 41
0.1900000000000001
 71
     2
 72
     5
  3
{\fTimes New Roman|b0|i0|c238|p18;\H1.6x;\C4;Bovelacci\P\H0.4375x;\T0.95;via del Commercio, 5  47100 Forli - Italy  \fTimes New Roman|b0|i0|c0|p18;\P\fTimes New Roman|b0|i0|c238|p18;tel.+39-0543721386  fax +39-0543721127\fTimes New Roman|b0|i0|c0|p18
  1
; \fTimes New Roman|b0|i0|c238|p18;www.bovelacci.it\fTimes New Roman|b0|i0|c0|p18; \fTimes New Roman|b0|i0|c238|p18;e-mail: bovelacci@bovelacci\fTimes New Roman|b0|i0|c0|p18;.it}
 73
     1
 44
1.0
1001
ACAD
1000
ACAD_MTEXT_DEFINED_HEIGHT_BEGIN
1070
    46
1040
0.0271738284815141
1000
ACAD_MTEXT_DEFINED_HEIGHT_END
1000
MTEXTBEGIN
1070
    73
1070
     1
1070
    44
1040
1.0
1070
    74
1070
     0
1000
MTEXTEND
  0
MTEXT
  5
1C
330
2
100
AcDbEntity
  8
Text
100
AcDbMText
 10
0.0219676065851835
 20
0.0500313976452307
 30
0.0
 40
0.002
 41
0.1863544980601608
 71
     1
 72
     5
  3
{\fArial|b0|i0|c0|p34;\H1.25x;Le caratteristiche tecniche indicate vengono fornite a titolo indicativo e potranno essere modificate senza preavviso. Non devono quindi essere considerate a scopo di specifica.\P\fArial|b0|i1|c0|p34;The given values are
  3
 indicative and can be changed without notice. They cannot be considered like a state.\PThis lealfet and designs embodied within are protected by copyright law and international treaties. Unauthorized repro- duction of the leaflet or any portion of i
  1
t or reproduction of any of the designs embodied therein may result in severe civil penalties and will be prosecuted to the maximum.\PAll right reserved, Bovelacci Forlì Italy.}
 73
     1
 44
1.0
1001
ACAD
1000
MTEXTBEGIN
1070
    73
1070
     1
1070
    44
1040
1.0
1070
    74
1070
     0
1000
MTEXTEND
  0
LINE
  5
1D
330
2
100
AcDbEntity
  8
Table
100
AcDbLine
 10
0.02
 20
0.0528099428524846
 30
0.0
 11
0.4
 21
0.0528099428524846
 31
0.0
  0
MTEXT
  5
1E
330
2
100
AcDbEntity
  8
Text
100
AcDbMText
 10
0.1133313047219695
 20
0.2610796890771976
 30
0.0
 40
0.003
 41
0.1103605678262056
 71
     2
 72
     5
  1
{\fTimes New Roman|b0|i0|c0|p18;Rosoni\fTimes New Roman|b0|i1|c0|p18;   Ceiling centres}
 73
     1
 44
1.0
1001
ACAD
1000
ACAD_MTEXT_DEFINED_HEIGHT_BEGIN
1070
    46
1040
0.0141952763113409
1000
ACAD_MTEXT_DEFINED_HEIGHT_END
1000
MTEXTBEGIN
1070
    73
1070
     1
1070
    44
1040
1.0
1070
    74
1070
     0
1000
MTEXTEND
  0
TEXT
  5
1F
330
2
100
AcDbEntity
  8
Text
100
AcDbText
 10
0.2180556919891047
 20
0.269976982173197
 30
0.0
 40
0.003
  1
Rosone - Ceiling centre : D 500 mm
  7
ROMANS
100
AcDbText
  0
TEXT
  5
21
330
2
100
AcDbEntity
  8
Text
100
AcDbText
 10
0.2184542410678115
 20
0.2576348370183962
 30
0.0
 40
0.003
  1
File : E - R50
  7
ROMANS
100
AcDbText
  0
LINE
  5
22
330
2
100
AcDbEntity
  8
Table
100
AcDbLine
 10
0.4
 20
0.2654452889427402
 30
0.0
 11
0.02
 21
0.2654452889427403
 31
0.0
  0
LINE
  5
23
330
2
100
AcDbEntity
  8
Table
100
AcDbLine
 10
0.4
 20
0.2532994226089223
 30
0.0
 11
0.02
 21
0.2532994226089225
 31
0.0
  0
LINE
  5
24
330
2
100
AcDbEntity
  8
Table
100
AcDbLine
 10
0.21
 20
0.0528099428524846
 30
0.0
 11
0.21
 21
0.02
 31
0.0
  0
TEXT
  5
25
330
2
100
AcDbEntity
  8
Text
100
AcDbText
 10
0.0947789320547719
 20
0.2687784133392506
 30
0.0
 40
0.005
  1
EUROSTYL
  7
style1
 72
     1
 11
0.1140561490699125
 21
0.2687784133392506
 31
0.0
100
AcDbText
  0
TEXT
  5
23F
330
2
100
AcDbEntity
  8
Text
  6
ACAD_ISO10W100
100
AcDbText
 10
0.2867708647101614
 20
0.087418603731841
 30
0.0
 40
0.005
  1
scala 1 : 4
  7
style1
100
AcDbText
  0
CIRCLE
  5
2018
102
{ACAD_REACTORS
330
21A2
102
}
330
2
100
AcDbEntity
  8
Profilo
  6
Continuous
370
     0
100
AcDbCircle
 10
0.2078169157651573
 20
0.1649514994093661
 30
0.0
 40
0.0625
  0
CIRCLE
  5
2019
330
2
100
AcDbEntity
  8
Profilo
  6
Continuous
370
     0
100
AcDbCircle
 10
0.2078169157651573
 20
0.1649514994093661
 30
0.0
 40
0.0203490246009585
  0
CIRCLE
  5
201A
330
2
100
AcDbEntity
  8
Profilo
  6
Continuous
370
     0
100
AcDbCircle
 10
0.2078169157651573
 20
0.1649514994093661
 30
0.0
 40
0.010553454711771
  0
CIRCLE
  5
201B
330
2
100
AcDbEntity
  8
Profilo
  6
Continuous
370
     0
100
AcDbCircle
 10
0.2078169157651573
 20
0.1649514994093661
 30
0.0
 40
0.0226630051917664
  0
ARC
  5
201C
330
2
100
AcDbEntity
  8
Profilo
  6
Continuous
370
     0
100
AcDbCircle
 10
0.2078169157651573
 20
0.1649514994093661
 30
0.0
 40
0.0494009056964024
100
AcDbArc
 50
23.71105512232901
 51
27.65776891671631
  0
ARC
  5
201D
330
2
100
AcDbEntity
  8
Profilo
  6
Continuous
370
     0
100
AcDbCircle
 10
0.2078169157651573
 20
0.1649514994093661
 30
0.0
 40
0.0494009056964024
100
AcDbArc
 50
42.69570837611385
 51
83.71105512232364
  0
CIRCLE
  5
201E
330
2
100
AcDbEntity
  8
Profilo
  6
Continuous
370
     0
100
AcDbCircle
 10
0.2078169157651573
 20
0.1649514994093661
 30
0.0
 40
0.05734617786091
  0
ELLIPSE
  5
201F
330
2
100
AcDbEntity
  8
Profilo
  6
Continuous
370
     0
100
AcDbEllipse
 10
0.2377136169331369
 20
0.2085817319496437
 30
0.0
 11
-0.0025137664846028
 21
0.00157567158998
 31
0.0
210
0.0
220
0.0
230
1.0
 40
0.8246019661597953
 41
0.0
 42
6.283185307179585
  0
ELLIPSE
  5
2020
330
2
100
AcDbEntity
  8
Profilo
  6
Continuous
370
     0
100
AcDbEllipse
 10
0.2380118605740495
 20
0.208666903571058
 30
0.0
 11
-0.003578922345009
 21
0.0025125577224448
 31
0.0
210
0.0
220
0.0
230
1.0
 40
0.7893281930750149
 41
0.0
 42
6.283185307179585
  0
ELLIPSE
  5
2021
330
2
100
AcDbEntity
  8
Profilo
  6
Continuous
370
     0
100
AcDbEllipse
 10
0.2317622642420058
 20
0.212083741733267
 30
0.0
 11
-0.0009644433632832
 21
0.0003981658342419
 31
0.0
210
0.0
220
0.0
230
1.0
 40
0.6508041496962198
 41
0.0
 42
6.283185307179585
  0
LWPOLYLINE
  5
2022
330
2
100
AcDbEntity
  8
Profilo
  6
Continuous
370
     0
100
AcDbPolyline
 90
        2
 70
   128
 43
0.0
 10
0.2283334778952337
 20
0.2106154330509846
 10
0.2306797428584133
 20
0.2120225138796083
  0
LWPOLYLINE
  5
2023
330
2
100
AcDbEntity
  8
Profilo
  6
Continuous
370
     0
100
AcDbPolyline
 90
        2
 70
   128
 43
0.0
 10
0.2311202634609888
 20
0.2127933843255336
 10
0.2306343060787128
 20
0.2157077201399495
  0
LWPOLYLINE
  5
2024
330
2
100
AcDbEntity
  8
Profilo
  6
Continuous
370
     0
100
AcDbPolyline
 90
        3
 70
   128
 43
0.0
 10
0.2327401187100015
 20
0.2121688844021206
 10
0.234753364569352
 20
0.2129321624647571
 10
0.2357715586820088
 20
0.2131171999837216
  0
LWPOLYLINE
  5
2025
330
2
100
AcDbEntity
  8
Profilo
  6
Continuous
370
     0
100
AcDbPolyline
 90
        2
 70
   128
 43
0.0
 10
0.2324161471218176
 20
0.2113824749465212
 10
0.2326938366699878
 20
0.2085375282017177
  0
LWPOLYLINE
  5
2026
330
2
100
AcDbEntity
  8
Profilo
  6
Continuous
370
     0
100
AcDbPolyline
 90
        5
 70
   128
 43
0.0
 10
0.2304381868426741
 20
0.216449058973891
 10
0.2322509202658871
 20
0.2145632441467731
 10
0.2335087349096803
 20
0.2149330126281765
 10
0.2336567119946338
 20
0.2135648729937865
 10
0.2365792802847739
 20
0.2134539421087473
  0
LWPOLYLINE
  5
2027
330
2
100
AcDbEntity
  8
Profilo
  6
Continuous
370
     0
100
AcDbPolyline
 90
        5
 70
   128
 43
0.0
 10
0.2280705373319538
 20
0.2102739410029013
 10
0.230179224925072
 20
0.2102739410029013
 10
0.2304011918984585
 20
0.2092016147911608
 10
0.2315480244015138
 20
0.2093864990318623
 10
0.2323619024066232
 20
0.2078334751567707
  0
LWPOLYLINE
  5
2028
330
2
100
AcDbEntity
  8
Profilo
  6
Continuous
370
     0
100
AcDbPolyline
 90
        2
 70
   128
 43
0.0
 10
0.2322574831469168
 20
0.2128636828461721
 10
0.2328489069426016
 20
0.2139277303286251
  0
LWPOLYLINE
  5
2029
330
2
100
AcDbEntity
  8
Profilo
  6
Continuous
370
     0
100
AcDbPolyline
 90
        2
 70
   128
 43
0.0
 10
0.2307789290415307
 20
0.2098488816458892
 10
0.2313703528372155
 20
0.2110902703754176
  0
ELLIPSE
  5
202A
330
2
100
AcDbEntity
  8
Profilo
  6
Continuous
370
     0
100
AcDbEllipse
 10
0.2254025764204783
 20
0.2148329034750298
 30
0.0
 11
-0.0028359257850515
 21
0.0008713712413561
 31
0.0
210
0.0
220
0.0
230
1.0
 40
0.8246019661597953
 41
0.0
 42
6.283185307179585
  0
ELLIPSE
  5
202B
330
2
100
AcDbEntity
  8
Profilo
  6
Continuous
370
     0
100
AcDbEllipse
 10
0.2256686136180406
 20
0.2149923640781699
 30
0.0
 11
-0.0041072713138153
 21
0.0015006511303202
 31
0.0
210
0.0
220
0.0
230
1.0
 40
0.789328193075015
 41
0.0
 42
6.283185307179585
  0
ELLIPSE
  5
202C
330
2
100
AcDbEntity
  8
Profilo
  6
Continuous
370
     0
100
AcDbEllipse
 10
0.2187476243266229
 20
0.2166752617483612
 30
0.0
 11
-0.0010346336535993
 21
0.0001349823520997
 31
0.0
210
0.0
220
0.0
230
1.0
 40
0.6508041496962198
 41
0.0
 42
6.283185307179585
  0
LWPOLYLINE
  5
202D
330
2
100
AcDbEntity
  8
Profilo
  6
Continuous
370
     0
100
AcDbPolyline
 90
        2
 70
   128
 43
0.0
 10
0.2158156972925127
 20
0.2143695492630484
 10
0.2177178358993199
 20
0.2163359430324196
  0
LWPOLYLINE
  5
202E
330
2
100
AcDbEntity
  8
Profilo
  6
Continuous
370
     0
100
AcDbPolyline
 90
        2
 70
   128
 43
0.0
 10
0.2179438301736489
 20
0.2171945618265689
 10
0.2167201457750352
 20
0.2198838190305508
  0
LWPOLYLINE
  5
202F
330
2
100
AcDbEntity
  8
Profilo
  6
Continuous
370
     0
100
AcDbPolyline
 90
        3
 70
   128
 43
0.0
 10
0.2196701226673632
 20
0.2170105906107822
 10
0.2214172179382601
 20
0.2182689269749964
 10
0.2223528266938839
 20
0.2187111875213636
  0
LWPOLYLINE
  5
2030
330
2
100
AcDbEntity
  8
Profilo
  6
Continuous
370
     0
100
AcDbPolyline
 90
        2
 70
   128
 43
0.0
 10
0.2195607278877105
 20
0.2161671273904866
 10
0.2205652817938368
 20
0.2134909911989564
  0
LWPOLYLINE
  5
2031
330
2
100
AcDbEntity
  8
Profilo
  6
Continuous
370
     0
100
AcDbPolyline
 90
        5
 70
   128
 43
0.0
 10
0.2163388365308165
 20
0.2205491379628883
 10
0.2185778873532698
 20
0.2191967506513976
 10
0.2196971398771286
 20
0.2198794659623551
 10
0.2201941753589232
 20
0.2185962438433528
 10
0.2230458705752021
 20
0.2192455091706615
  0
LWPOLYLINE
  5
2032
330
2
100
AcDbEntity
  8
Profilo
  6
Continuous
370
     0
100
AcDbPolyline
 90
        5
 70
   128
 43
0.0
 10
0.2156501008574576
 20
0.2139716392488253
 10
0.2176869366632257
 20
0.214517407758096
 10
0.218178878741563
 20
0.2135390694560648
 10
0.2192387823120612
 20
0.2140144760123661
 10
0.2204268802530169
 20
0.2127250172706838
  0
LWPOLYLINE
  5
2033
330
2
100
AcDbEntity
  8
Profilo
  6
Continuous
370
     0
100
AcDbPolyline
 90
        2
 70
   128
 43
0.0
 10
0.2190241054424664
 20
0.2175567990963869
 10
0.2193199812076472
 20
0.2187376617821362
  0
LWPOLYLINE
  5
2034
330
2
100
AcDbEntity
  8
Profilo
  6
Continuous
370
     0
100
AcDbPolyline
 90
        2
 70
   128
 43
0.0
 10
0.2183762198143402
 20
0.214262046794218
 10
0.2186261962872944
 20
0.2156142079705834
  0
ELLIPSE
  5
2035
330
2
100
AcDbEntity
  8
Profilo
  6
Continuous
370
     0
100
AcDbEllipse
 10
0.211893102195841
 20
0.2176847397462582
 30
0.0
 11
-0.0029648214298379
 21
0.0001076883826428
 31
0.0
210
0.0
220
0.0
230
1.0
 40
0.8246019661597951
 41
0.0
 42
6.283185307179585
  0
ELLIPSE
  5
2036
330
2
100
AcDbEntity
  8
Profilo
  6
Continuous
370
     0
100
AcDbEllipse
 10
0.2121088029546811
 20
0.2179076223545415
 30
0.0
 11
-0.0043557165301719
 21
0.0003864776436075
 31
0.0
210
0.0
220
0.0
230
1.0
 40
0.7893281930750149
 41
1.887603617210134
 42
6.765935049911796
  0
ELLIPSE
  5
2037
330
2
100
AcDbEntity
  8
Profilo
  6
Continuous
370
     0
100
AcDbEllipse
 10
0.2121088029546811
 20
0.2179076223545415
 30
0.0
 11
-0.0043557165301719
 21
0.0003864776436075
 31
0.0
210
0.0
220
0.0
230
1.0
 40
0.7893281930750149
 41
7.413241629267653
 42
7.659928309566637
  0
ELLIPSE
  5
2038
330
2
100
AcDbEntity
  8
Profilo
  6
Continuous
370
     0
100
AcDbEllipse
 10
0.2049880746866286
 20
0.217741892837612
 30
0.0
 11
-0.0010343153702355
 21
-0.0001373999542692
 31
0.0
210
0.0
220
0.0
230
1.0
 40
0.65080414969622
 41
0.0
 42
6.283185307179585
  0
LWPOLYLINE
  5
2039
330
2
100
AcDbEntity
  8
Profilo
  6
Continuous
370
     0
100
AcDbPolyline
 90
        2
 70
   128
 43
0.0
 10
0.2040772644048854
 20
0.2180354609596145
 10
0.2021992450594698
 20
0.2203163711189191
  0
LWPOLYLINE
  5
203A
330
2
100
AcDbEntity
  8
Profilo
  6
Continuous
370
     0
100
AcDbPolyline
 90
        3
 70
   128
 43
0.0
 10
0.2057923501626906
 20
0.2183045557857834
 10
0.2071542331896339
 20
0.2199721969078534
 10
0.2079434963976947
 20
0.2206415411562581
  0
LWPOLYLINE
  5
203B
330
2
100
AcDbEntity
  8
Profilo
  6
Continuous
370
     0
100
AcDbPolyline
 90
        5
 70
   128
 43
0.0
 10
0.2016587314019187
 20
0.2208603297639047
 10
0.2041715120102694
 20
0.220133532928394
 10
0.2050759272043443
 20
0.2210826691487044
 10
0.2058881489362871
 20
0.2199718140118749
 10
0.2084746327623623
 20
0.221337029192437
  0
LWPOLYLINE
  5
203C
330
2
100
AcDbEntity
  8
Profilo
  6
Continuous
370
     0
100
AcDbPolyline
 90
        2
 70
   128
 43
0.0
 10
0.2050269762822641
 20
0.2186649511072995
 10
0.2050071405725014
 20
0.2198821551557786
  0
ELLIPSE
  5
203D
330
2
100
AcDbEntity
  8
Profilo
  6
Continuous
370
     0
100
AcDbEllipse
 10
0.1981058426021676
 20
0.2169428928343278
 30
0.0
 11
-0.00289166939378
 21
-0.0006633332613842
 31
0.0
210
0.0
220
0.0
230
1.0
 40
0.8246019661597951
 41
0.0
 42
6.283185307179585
  0
ELLIPSE
  5
203E
330
2
100
AcDbEntity
  8
Profilo
  6
Continuous
370
     0
100
AcDbEllipse
 10
0.1982565072720366
 20
0.2172140083663305
 30
0.0
 11
-0.0043073268631593
 21
-0.0007540336558325
 31
0.0
210
0.0
220
0.0
230
1.0
 40
0.7893281930750149
 41
2.702219286795263
 42
7.44100580417628
  0
ELLIPSE
  5
203F
330
2
100
AcDbEntity
  8
Profilo
  6
Continuous
370
     0
100
AcDbEllipse
 10
0.1914213058912537
 20
0.2152109458549773
 30
0.0
 11
-0.0009635102036772
 21
-0.0004004186808188
 31
0.0
210
0.0
220
0.0
230
1.0
 40
0.6508041496962198
 41
0.0
 42
6.283185307179585
  0
LWPOLYLINE
  5
2040
330
2
100
AcDbEntity
  8
Profilo
  6
Continuous
370
     0
100
AcDbPolyline
 90
        2
 70
   128
 43
0.0
 10
0.1900350388403282
 20
0.2117481767518181
 10
0.1906991423106561
 20
0.2144021930133406
  0
LWPOLYLINE
  5
2041
330
2
100
AcDbEntity
  8
Profilo
  6
Continuous
370
     0
100
AcDbPolyline
 90
        2
 70
   128
 43
0.0
 10
0.1904655496962597
 20
0.215258775838405
 10
0.188061179318856
 20
0.2169758986950576
  0
LWPOLYLINE
  5
2042
330
2
100
AcDbEntity
  8
Profilo
  6
Continuous
370
     0
100
AcDbPolyline
 90
        3
 70
   128
 43
0.0
 10
0.1920525484580722
 20
0.2159625983388262
 10
0.1929364091633943
 20
0.21792589723219
 10
0.1935255398405839
 20
0.218776710478247
  0
LWPOLYLINE
  5
2043
330
2
100
AcDbEntity
  8
Profilo
  6
Continuous
370
     0
100
AcDbPolyline
 90
        2
 70
   128
 43
0.0
 10
0.1923795414100002
 20
0.2151774403730657
 10
0.1945875787079405
 20
0.2133621154002769
  0
LWPOLYLINE
  5
2044
330
2
100
AcDbEntity
  8
Profilo
  6
Continuous
370
     0
100
AcDbPolyline
 90
        5
 70
   128
 43
0.0
 10
0.1873982963604952
 20
0.2173614271699704
 10
0.190013564908849
 20
0.2173097508136905
 10
0.1906415083722823
 20
0.2184606258784614
 10
0.1917135647855996
 20
0.2175978406656052
 10
0.1938585726230926
 20
0.21958596854099
  0
LWPOLYLINE
  5
2045
330
2
100
AcDbEntity
  8
Profilo
  6
Continuous
370
     0
100
AcDbPolyline
 90
        5
 70
   128
 43
0.0
 10
0.1900905831279047
 20
0.2113207783535529
 10
0.1915816504244034
 20
0.2128118456500516
 10
0.1924968539124503
 20
0.2122105508661662
 10
0.1931770540519118
 20
0.2131522168062969
 10
0.1948507064218052
 20
0.2126295617493468
  0
LWPOLYLINE
  5
2046
330
2
100
AcDbEntity
  8
Profilo
  6
Continuous
370
     0
100
AcDbPolyline
 90
        2
 70
   128
 43
0.0
 10
0.1912199768872273
 20
0.2161126201506742
 10
0.190885781473364
 20
0.2172832151175039
  0
LWPOLYLINE
  5
2047
330
2
100
AcDbEntity
  8
Profilo
  6
Continuous
370
     0
100
AcDbPolyline
 90
        2
 70
   128
 43
0.0
 10
0.1923062676256073
 20
0.2129353381437551
 10
0.1918466730133517
 20
0.2142313323089762
  0
ELLIPSE
  5
2048
330
2
100
AcDbEntity
  8
Profilo
  6
Continuous
370
     0
100
AcDbEllipse
 10
0.1849803765962434
 20
0.2126579183803261
 30
0.0
 11
-0.0026214548672455
 21
-0.0013891498398579
 31
0.0
210
0.0
220
0.0
230
1.0
 40
0.8246019661597953
 41
0.0
 42
6.283185307179585
  0
ELLIPSE
  5
2049
330
2
100
AcDbEntity
  8
Profilo
  6
Continuous
370
     0
100
AcDbEllipse
 10
0.1850557376288755
 20
0.2129587907605819
 30
0.0
 11
-0.0039653999886165
 21
-0.0018431588077271
 31
0.0
210
0.0
220
0.0
230
1.0
 40
0.789328193075015
 41
0.0
 42
6.283185307179585
  0
ELLIPSE
  5
204A
330
2
100
AcDbEntity
  8
Profilo
  6
Continuous
370
     0
100
AcDbEllipse
 10
0.1789718708137595
 20
0.2092549006547371
 30
0.0
 11
-0.0008270434090141
 21
-0.0006361495359937
 31
0.0
210
0.0
220
0.0
230
1.0
 40
0.6508041496962198
 41
0.0
 42
6.283185307179585
  0
LWPOLYLINE
  5
204B
330
2
100
AcDbEntity
  8
Profilo
  6
Continuous
370
     0
100
AcDbPolyline
 90
        2
 70
   128
 43
0.0
 10
0.1785290702598274
 20
0.205551330233142
 10
0.1784836349986509
 20
0.2082867957095771
  0
LWPOLYLINE
  5
204C
330
2
100
AcDbEntity
  8
Profilo
  6
Continuous
370
     0
100
AcDbPolyline
 90
        2
 70
   128
 43
0.0
 10
0.1780363019107405
 20
0.2090537329652617
 10
0.1752694343691594
 20
0.2100900494342608
  0
LWPOLYLINE
  5
204D
330
2
100
AcDbEntity
  8
Profilo
  6
Continuous
370
     0
100
AcDbPolyline
 90
        3
 70
   128
 43
0.0
 10
0.1793870623335838
 20
0.210144318799653
 10
0.1797326670708657
 20
0.2122694798892328
 10
0.1800815169351164
 20
0.213243780616259
  0
LWPOLYLINE
  5
204E
330
2
100
AcDbEntity
  8
Profilo
  6
Continuous
370
     0
100
AcDbPolyline
 90
        2
 70
   128
 43
0.0
 10
0.1799061271058182
 20
0.2094705464463815
 10
0.1825087680333173
 20
0.2082885592770611
  0
LWPOLYLINE
  5
204F
330
2
100
AcDbEntity
  8
Profilo
  6
Continuous
370
     0
100
AcDbPolyline
 90
        5
 70
   128
 43
0.0
 10
0.1745293564881347
 20
0.2102908746106515
 10
0.1770688867468593
 20
0.2109178403918843
 10
0.1773775651703406
 20
0.2121920240673623
 10
0.1786363973921237
 20
0.211636106164915
 10
0.1801937505017026
 20
0.214111659105952
  0
LWPOLYLINE
  5
2050
330
2
100
AcDbEntity
  8
Profilo
  6
Continuous
370
     0
100
AcDbPolyline
 90
        5
 70
   128
 43
0.0
 10
0.1786933407670173
 20
0.2051528710016144
 10
0.1797476845635764
 20
0.2069790480259006
 10
0.1807873297907818
 20
0.2066351139577836
 10
0.1812006315931018
 20
0.2077207421596667
 10
0.1829525287241704
 20
0.2076490692501274
  0
LWPOLYLINE
  5
2051
330
2
100
AcDbEntity
  8
Profilo
  6
Continuous
370
     0
100
AcDbPolyline
 90
        2
 70
   128
 43
0.0
 10
0.1785440314489843
 20
0.210073743363278
 10
0.1779182511961892
 20
0.2111179551359692
  0
LWPOLYLINE
  5
2052
330
2
100
AcDbEntity
  8
Profilo
  6
Continuous
370
     0
100
AcDbPolyline
 90
        2
 70
   128
 43
0.0
 10
0.1804156488230948
 20
0.2072858773470023
 10
0.179636286545195
 20
0.208418759743231
  0
ELLIPSE
  5
2053
330
2
100
AcDbEntity
  8
Profilo
  6
Continuous
370
     0
100
AcDbEllipse
 10
0.1734111829955172
 20
0.2051218303120383
 30
0.0
 11
-0.0021725925236673
 21
-0.0020202981524239
 31
0.0
210
0.0
220
0.0
230
1.0
 40
0.8246019661597955
 41
0.0
 42
6.283185307179585
  0
ELLIPSE
  5
2054
330
2
100
AcDbEntity
  8
Profilo
  6
Continuous
370
     0
100
AcDbEllipse
 10
0.1734061046610762
 20
0.2054319555850479
 30
0.0
 11
-0.0033532376579828
 21
-0.0028066757328391
 31
0.0
210
0.0
220
0.0
230
1.0
 40
0.7893281930750149
 41
0.0
 42
6.283185307179585
  0
ELLIPSE
  5
2055
330
2
100
AcDbEntity
  8
Profilo
  6
Continuous
370
     0
100
AcDbEllipse
 10
0.1684881778810112
 20
0.2002796518744567
 30
0.0
 11
-0.0006342149727806
 21
-0.0008285278515775
 31
0.0
210
0.0
220
0.0
230
1.0
 40
0.6508041496962198
 41
0.0
 42
6.283185307179585
  0
LWPOLYLINE
  5
2056
330
2
100
AcDbEntity
  8
Profilo
  6
Continuous
370
     0
100
AcDbPolyline
 90
        2
 70
   128
 43
0.0
 10
0.1690190199500616
 20
0.196587672338218
 10
0.1682671422953454
 20
0.1992181695779176
  0
LWPOLYLINE
  5
2057
330
2
100
AcDbEntity
  8
Profilo
  6
Continuous
370
     0
100
AcDbPolyline
 90
        2
 70
   128
 43
0.0
 10
0.1676365537446092
 20
0.1998431957576709
 10
0.164695746489345
 20
0.2001280825842486
  0
LWPOLYLINE
  5
2058
330
2
100
AcDbEntity
  8
Profilo
  6
Continuous
370
     0
100
AcDbPolyline
 90
        3
 70
   128
 43
0.0
 10
0.168659023737904
 20
0.2012462233036971
 10
0.1684428201154358
 20
0.2033884203732326
 10
0.1685276156250026
 20
0.2044198115967895
  0
LWPOLYLINE
  5
2059
330
2
100
AcDbEntity
  8
Profilo
  6
Continuous
370
     0
100
AcDbPolyline
 90
        2
 70
   128
 43
0.0
 10
0.1693347869240096
 20
0.2007297530353282
 10
0.1721546658029265
 20
0.2002616541417392
  0
LWPOLYLINE
  5
205A
330
2
100
AcDbEntity
  8
Profilo
  6
Continuous
370
     0
100
AcDbPolyline
 90
        5
 70
   128
 43
0.0
 10
0.1639289087702114
 20
0.2001305185582249
 10
0.1662196359489449
 20
0.201393399795089
 10
0.166188013408032
 20
0.2027040585694788
 10
0.1675478341026846
 20
0.2024928928637948
 10
0.1684114014435778
 20
0.2052871660285969
  0
LWPOLYLINE
  5
205B
330
2
100
AcDbEntity
  8
Profilo
  6
Continuous
370
     0
100
AcDbPolyline
 90
        5
 70
   128
 43
0.0
 10
0.1692808219132704
 20
0.1962453066115719
 10
0.1698265904225416
 20
0.1982821424173413
 10
0.170919827284763
 20
0.1982190076033565
 10
0.1710380649151304
 20
0.1993746142991193
 10
0.1727488179130372
 20
0.1997588079273309
  0
LWPOLYLINE
  5
205C
330
2
100
AcDbEntity
  8
Profilo
  6
Continuous
370
     0
100
AcDbPolyline
 90
        2
 70
   128
 43
0.0
 10
0.1678629847011592
 20
0.2009598602184566
 10
0.1669882654995085
 20
0.2018065274903416
  0
LWPOLYLINE
  5
205D
330
2
100
AcDbEntity
  8
Profilo
  6
Continuous
370
     0
100
AcDbPolyline
 90
        2
 70
   128
 43
0.0
 10
0.1703923810799512
 20
0.1987513986546672
 10
0.1693463633876853
 20
0.1996439652187774
  0
LWPOLYLINE
  5
205E
330
2
100
AcDbEntity
  8
Profilo
  6
Continuous
370
     0
100
AcDbPolyline
 90
        5
 70
   128
 43
0.0
 10
0.1624944741716234
 20
0.1852051209761609
 10
0.1624944741716234
 20
0.18731380856928
 10
0.1635668003833626
 20
0.1875357755426661
 10
0.1633819161426615
 20
0.1886826080457218
 10
0.1649349400177531
 20
0.1894964860508317
  0
ELLIPSE
  5
205F
330
2
100
AcDbEntity
  8
Profilo
  6
Continuous
370
     0
100
AcDbEllipse
 10
0.1560931534261627
 20
0.1758822079708313
 30
0.0
 11
-0.0001349823520997
 21
-0.0010346336535993
 31
0.0
210
0.0
220
0.0
230
1.0
 40
0.6508041496962198
 41
0.0
 42
6.283185307179585
  0
LWPOLYLINE
  5
2060
330
2
100
AcDbEntity
  8
Profilo
  6
Continuous
370
     0
100
AcDbPolyline
 90
        2
 70
   128
 43
0.0
 10
0.1583988659114759
 20
0.1729502809367207
 10
0.1564324721421038
 20
0.1748524195435275
  0
LWPOLYLINE
  5
2061
330
2
100
AcDbEntity
  8
Profilo
  6
Continuous
370
     0
100
AcDbPolyline
 90
        2
 70
   128
 43
0.0
 10
0.1555738533479545
 20
0.175078413817856
 10
0.1528845961439735
 20
0.1738547294192436
  0
LWPOLYLINE
  5
2062
330
2
100
AcDbEntity
  8
Profilo
  6
Continuous
370
     0
100
AcDbPolyline
 90
        3
 70
   128
 43
0.0
 10
0.1557578245637412
 20
0.1768047063115712
 10
0.1544994881995283
 20
0.1785518015824685
 10
0.1540572276531602
 20
0.1794874103380919
  0
LWPOLYLINE
  5
2063
330
2
100
AcDbEntity
  8
Profilo
  6
Continuous
370
     0
100
AcDbPolyline
 90
        2
 70
   128
 43
0.0
 10
0.1566012877840368
 20
0.1766953115319181
 10
0.159277423975567
 20
0.1776998654380444
  0
LWPOLYLINE
  5
2064
330
2
100
AcDbEntity
  8
Profilo
  6
Continuous
370
     0
100
AcDbPolyline
 90
        5
 70
   128
 43
0.0
 10
0.1522192772116355
 20
0.1734734201750241
 10
0.1535716645231258
 20
0.1757124709974778
 10
0.1528889492121692
 20
0.1768317235213361
 10
0.1541721713311706
 20
0.1773287590031312
 10
0.1535229060038628
 20
0.1801804542194096
  0
LWPOLYLINE
  5
2065
330
2
100
AcDbEntity
  8
Profilo
  6
Continuous
370
     0
100
AcDbPolyline
 90
        5
 70
   128
 43
0.0
 10
0.1587967759256994
 20
0.1727846845016647
 10
0.1582510074164283
 20
0.1748215203074341
 10
0.1592293457184599
 20
0.1753134623857719
 10
0.1587539391621586
 20
0.1763733659562683
 10
0.1600433979038396
 20
0.1775614638972254
  0
LWPOLYLINE
  5
2066
330
2
100
AcDbEntity
  8
Profilo
  6
Continuous
370
     0
100
AcDbPolyline
 90
        2
 70
   128
 43
0.0
 10
0.1552116160781374
 20
0.1761586890866744
 10
0.1540307533923872
 20
0.1764545648518552
  0
LWPOLYLINE
  5
2067
330
2
100
AcDbEntity
  8
Profilo
  6
Continuous
370
     0
100
AcDbPolyline
 90
        2
 70
   128
 43
0.0
 10
0.1585063683803067
 20
0.1755108034585477
 10
0.1571542072039413
 20
0.1757607799315028
  0
ELLIPSE
  5
2068
330
2
100
AcDbEntity
  8
Profilo
  6
Continuous
370
     0
100
AcDbEllipse
 10
0.1550836754282656
 20
0.1690276858400481
 30
0.0
 11
-0.0001076883826428
 21
-0.0029648214298379
 31
0.0
210
0.0
220
0.0
230
1.0
 40
0.8246019661597951
 41
0.0
 42
6.283185307179585
  0
ELLIPSE
  5
2069
330
2
100
AcDbEntity
  8
Profilo
  6
Continuous
370
     0
100
AcDbEllipse
 10
0.1548607928199832
 20
0.1692433865988896
 30
0.0
 11
-0.0003864776436075
 21
-0.0043557165301719
 31
0.0
210
0.0
220
0.0
230
1.0
 40
0.7893281930750149
 41
0.0
 42
6.283185307179585
  0
ELLIPSE
  5
206A
330
2
100
AcDbEntity
  8
Profilo
  6
Continuous
370
     0
100
AcDbEllipse
 10
0.1550265223369127
 20
0.1621226583308357
 30
0.0
 11
0.0001373999542692
 21
-0.0010343153702355
 31
0.0
210
0.0
220
0.0
230
1.0
 40
0.65080414969622
 41
0.0
 42
6.283185307179585
  0
LWPOLYLINE
  5
206B
330
2
100
AcDbEntity
  8
Profilo
  6
Continuous
370
     0
100
AcDbPolyline
 90
        2
 70
   128
 43
0.0
 10
0.1580125081297528
 20
0.1598873965915231
 10
0.1556208079053967
 20
0.1612157812393349
  0
LWPOLYLINE
  5
206C
330
2
100
AcDbEntity
  8
Profilo
  6
Continuous
370
     0
100
AcDbPolyline
 90
        2
 70
   128
 43
0.0
 10
0.154732954214909
 20
0.1612118480490938
 10
0.1524520440556056
 20
0.1593338287036774
  0
LWPOLYLINE
  5
206D
330
2
100
AcDbEntity
  8
Profilo
  6
Continuous
370
     0
100
AcDbPolyline
 90
        3
 70
   128
 43
0.0
 10
0.1544638593887413
 20
0.1629269338068986
 10
0.1527962182666709
 20
0.1642888168338414
 10
0.1521268740182666
 20
0.1650780800419032
  0
LWPOLYLINE
  5
206E
330
2
100
AcDbEntity
  8
Profilo
  6
Continuous
370
     0
100
AcDbPolyline
 90
        2
 70
   128
 43
0.0
 10
0.1553068957491579
 20
0.163039570909226
 10
0.1576318471284868
 20
0.1647025304847096
  0
LWPOLYLINE
  5
206F
330
2
100
AcDbEntity
  8
Profilo
  6
Continuous
370
     0
100
AcDbPolyline
 90
        5
 70
   128
 43
0.0
 10
0.1519080854106196
 20
0.1587933150461267
 10
0.1526348822461294
 20
0.1613060956544769
 10
0.1516857460258194
 20
0.1622105108485519
 10
0.1527966011626489
 20
0.1630227325804947
 10
0.1514313859820877
 20
0.1656092164065708
  0
LWPOLYLINE
  5
2070
330
2
100
AcDbEntity
  8
Profilo
  6
Continuous
370
     0
100
AcDbPolyline
 90
        5
 70
   128
 43
0.0
 10
0.1584397192002225
 20
0.1598304294080792
 10
0.1573853754036634
 20
0.1616566064323655
 10
0.1582030536574805
 20
0.1623849985759889
 10
0.1574695229567471
 20
0.1632857425371705
 10
0.1584075420827045
 20
0.1647670935027228
  0
LWPOLYLINE
  5
2071
330
2
100
AcDbEntity
  8
Profilo
  6
Continuous
370
     0
100
AcDbPolyline
 90
        2
 70
   128
 43
0.0
 10
0.1541034640672247
 20
0.1621615599264716
 10
0.1528862600187448
 20
0.1621417242167098
  0
LWPOLYLINE
  5
2072
330
2
100
AcDbEntity
  8
Profilo
  6
Continuous
370
     0
100
AcDbPolyline
 90
        2
 70
   128
 43
0.0
 10
0.1574536355467213
 20
0.1623884951104793
 10
0.1560828494731368
 20
0.1622799887771795
  0
ELLIPSE
  5
2073
330
2
100
AcDbEntity
  8
Profilo
  6
Continuous
370
     0
100
AcDbEllipse
 10
0.1558255223401961
 20
0.1552404262463747
 30
0.0
 11
0.0006633332613842
 21
-0.00289166939378
 31
0.0
210
0.0
220
0.0
230
1.0
 40
0.8246019661597951
 41
0.0
 42
6.283185307179585
  0
ELLIPSE
  5
2074
330
2
100
AcDbEntity
  8
Profilo
  6
Continuous
370
     0
100
AcDbEllipse
 10
0.1555544068081947
 20
0.1553910909162441
 30
0.0
 11
0.0007540336558325
 21
-0.0043073268631593
 31
0.0
210
0.0
220
0.0
230
1.0
 40
0.7893281930750149
 41
0.0
 42
6.283185307179585
  0
ELLIPSE
  5
2075
330
2
100
AcDbEntity
  8
Profilo
  6
Continuous
370
     0
100
AcDbEllipse
 10
0.1575574693195474
 20
0.1485558895354613
 30
0.0
 11
0.0004004186808188
 21
-0.0009635102036772
 31
0.0
210
0.0
220
0.0
230
1.0
 40
0.6508041496962198
 41
0.0
 42
6.283185307179585
  0
LWPOLYLINE
  5
2076
330
2
100
AcDbEntity
  8
Profilo
  6
Continuous
370
     0
100
AcDbPolyline
 90
        2
 70
   128
 43
0.0
 10
0.1610202384227062
 20
0.1471696224845358
 10
0.1583662221611828
 20
0.1478337259548637
  0
LWPOLYLINE
  5
2077
330
2
100
AcDbEntity
  8
Profilo
  6
Continuous
370
     0
100
AcDbPolyline
 90
        2
 70
   128
 43
0.0
 10
0.1575096393361193
 20
0.1476001333404677
 10
0.1557925164794671
 20
0.1451957629630636
  0
LWPOLYLINE
  5
2078
330
2
100
AcDbEntity
  8
Profilo
  6
Continuous
370
     0
100
AcDbPolyline
 90
        3
 70
   128
 43
0.0
 10
0.156805816835698
 20
0.1491871321022806
 10
0.1548425179423347
 20
0.1500709928076018
 10
0.1539917046962778
 20
0.1506601234847915
  0
LWPOLYLINE
  5
2079
330
2
100
AcDbEntity
  8
Profilo
  6
Continuous
370
     0
100
AcDbPolyline
 90
        2
 70
   128
 43
0.0
 10
0.1575909748014581
 20
0.1495141250542074
 10
0.1594062997742469
 20
0.151722162352149
  0
LWPOLYLINE
  5
207A
330
2
100
AcDbEntity
  8
Profilo
  6
Continuous
370
     0
100
AcDbPolyline
 90
        5
 70
   128
 43
0.0
 10
0.1554069880045539
 20
0.1445328800047028
 10
0.1554586643608342
 20
0.1471481485530575
 10
0.1543077892960625
 20
0.1477760920164899
 10
0.1551705745089187
 20
0.1488481484298081
 10
0.1531824466335347
 20
0.150993156267301
  0
LWPOLYLINE
  5
207B
330
2
100
AcDbEntity
  8
Profilo
  6
Continuous
370
     0
100
AcDbPolyline
 90
        5
 70
   128
 43
0.0
 10
0.1614476368209718
 20
0.1472251667721127
 10
0.1599565695244731
 20
0.1487162340686114
 10
0.1605578643083572
 20
0.1496314375566579
 10
0.1596161983682265
 20
0.1503116376961189
 10
0.1601388534251775
 20
0.1519852900660128
  0
LWPOLYLINE
  5
207C
330
2
100
AcDbEntity
  8
Profilo
  6
Continuous
370
     0
100
AcDbPolyline
 90
        2
 70
   128
 43
0.0
 10
0.1566557950238501
 20
0.1483545605314354
 10
0.1554852000570204
 20
0.1480203651175715
  0
LWPOLYLINE
  5
207D
330
2
100
AcDbEntity
  8
Profilo
  6
Continuous
370
     0
100
AcDbPolyline
 90
        2
 70
   128
 43
0.0
 10
0.1598330770307683
 20
0.1494408512698149
 10
0.1585370828655481
 20
0.1489812566575601
  0
ELLIPSE
  5
207E
330
2
100
AcDbEntity
  8
Profilo
  6
Continuous
370
     0
100
AcDbEllipse
 10
0.172488763300068
 20
0.1256227615252197
 30
0.0
 11
0.0008285278515775
 21
-0.0006342149727806
 31
0.0
210
0.0
220
0.0
230
1.0
 40
0.6508041496962198
 41
0.0
 42
6.283185307179585
  0
LWPOLYLINE
  5
207F
330
2
100
AcDbEntity
  8
Profilo
  6
Continuous
370
     0
100
AcDbPolyline
 90
        2
 70
   128
 43
0.0
 10
0.1761807428363067
 20
0.1261536035942687
 10
0.1735502455966067
 20
0.1254017259395526
  0
LWPOLYLINE
  5
2080
330
2
100
AcDbEntity
  8
Profilo
  6
Continuous
370
     0
100
AcDbPolyline
 90
        2
 70
   128
 43
0.0
 10
0.1729252194168538
 20
0.1247711373888172
 10
0.1726403325902748
 20
0.1218303301335526
  0
LWPOLYLINE
  5
2081
330
2
100
AcDbEntity
  8
Profilo
  6
Continuous
370
     0
100
AcDbPolyline
 90
        3
 70
   128
 43
0.0
 10
0.1715221918708263
 20
0.1257936073821115
 10
0.1693799948012913
 20
0.1255774037596442
 10
0.1683486035777353
 20
0.1256621992692106
  0
LWPOLYLINE
  5
2082
330
2
100
AcDbEntity
  8
Profilo
  6
Continuous
370
     0
100
AcDbPolyline
 90
        2
 70
   128
 43
0.0
 10
0.1720386621391956
 20
0.1264693705682185
 10
0.1725067610327855
 20
0.129289249447134
  0
LWPOLYLINE
  5
2083
330
2
100
AcDbEntity
  8
Profilo
  6
Continuous
370
     0
100
AcDbPolyline
 90
        5
 70
   128
 43
0.0
 10
0.1726378966162994
 20
0.1210634924144198
 10
0.1713750153794358
 20
0.123354219593153
 10
0.1700643566050459
 20
0.1233225970522405
 10
0.1702755223107299
 20
0.1246824177468921
 10
0.1674812491459274
 20
0.1255459850877858
  0
LWPOLYLINE
  5
2084
330
2
100
AcDbEntity
  8
Profilo
  6
Continuous
370
     0
100
AcDbPolyline
 90
        5
 70
   128
 43
0.0
 10
0.1765231085629519
 20
0.126415405557478
 10
0.1744862727571821
 20
0.1269611740667487
 10
0.1745494075711669
 20
0.1280544109289718
 10
0.1733938008754041
 20
0.1281726485593375
 10
0.1730096072471934
 20
0.1298834015572448
  0
LWPOLYLINE
  5
2085
330
2
100
AcDbEntity
  8
Profilo
  6
Continuous
370
     0
100
AcDbPolyline
 90
        2
 70
   128
 43
0.0
 10
0.1718085549560673
 20
0.1249975683453663
 10
0.1709618876841823
 20
0.124122849143717
  0
LWPOLYLINE
  5
2086
330
2
100
AcDbEntity
  8
Profilo
  6
Continuous
370
     0
100
AcDbPolyline
 90
        2
 70
   128
 43
0.0
 10
0.1740170165198567
 20
0.1275269647241584
 10
0.1731244499557469
 20
0.1264809470318928
  0
ELLIPSE
  5
2087
330
2
100
AcDbEntity
  8
Profilo
  6
Continuous
370
     0
100
AcDbEllipse
 10
0.1779202145971794
 20
0.1213212668690882
 30
0.0
 11
0.0025137664846028
 21
-0.00157567158998
 31
0.0
210
0.0
220
0.0
230
1.0
 40
0.8246019661597953
 41
0.0
 42
6.283185307179585
  0
ELLIPSE
  5
2088
330
2
100
AcDbEntity
  8
Profilo
  6
Continuous
370
     0
100
AcDbEllipse
 10
0.1776219709562667
 20
0.1212360952476739
 30
0.0
 11
0.003578922345009
 21
-0.0025125577224448
 31
0.0
210
0.0
220
0.0
230
1.0
 40
0.7893281930750148
 41
0.0
 42
6.283185307179585
  0
ELLIPSE
  5
2089
330
2
100
AcDbEntity
  8
Profilo
  6
Continuous
370
     0
100
AcDbEllipse
 10
0.1838715672883104
 20
0.1178192570854648
 30
0.0
 11
0.0009644433632832
 21
-0.0003981658342419
 31
0.0
210
0.0
220
0.0
230
1.0
 40
0.6508041496962198
 41
0.0
 42
6.283185307179585
  0
LWPOLYLINE
  5
208A
330
2
100
AcDbEntity
  8
Profilo
  6
Continuous
370
     0
100
AcDbPolyline
 90
        2
 70
   128
 43
0.0
 10
0.1873003536350826
 20
0.1192875657677472
 10
0.184954088671903
 20
0.1178804849391235
  0
LWPOLYLINE
  5
208B
330
2
100
AcDbEntity
  8
Profilo
  6
Continuous
370
     0
100
AcDbPolyline
 90
        2
 70
   128
 43
0.0
 10
0.1845135680693275
 20
0.1171096144931982
 10
0.1849995254516035
 20
0.1141952786787823
  0
LWPOLYLINE
  5
208C
330
2
100
AcDbEntity
  8
Profilo
  6
Continuous
370
     0
100
AcDbPolyline
 90
        3
 70
   128
 43
0.0
 10
0.1828937128203147
 20
0.1177341144166117
 10
0.1808804669609643
 20
0.1169708363539748
 10
0.1798622728483075
 20
0.1167857988350103
  0
LWPOLYLINE
  5
208D
330
2
100
AcDbEntity
  8
Profilo
  6
Continuous
370
     0
100
AcDbPolyline
 90
        2
 70
   128
 43
0.0
 10
0.1832176844084987
 20
0.1185205238722107
 10
0.1829399948603285
 20
0.1213654706170146
  0
LWPOLYLINE
  5
208E
330
2
100
AcDbEntity
  8
Profilo
  6
Continuous
370
     0
100
AcDbPolyline
 90
        5
 70
   128
 43
0.0
 10
0.1851956446876421
 20
0.1134539398448413
 10
0.1833829112644292
 20
0.1153397546719588
 10
0.182125096620636
 20
0.1149699861905558
 10
0.1819771195356825
 20
0.1163381258249458
 10
0.1790545512455424
 20
0.1164490567099849
  0
LWPOLYLINE
  5
208F
330
2
100
AcDbEntity
  8
Profilo
  6
Continuous
370
     0
100
AcDbPolyline
 90
        5
 70
   128
 43
0.0
 10
0.1875632941983625
 20
0.1196290578158305
 10
0.1854546066052443
 20
0.1196290578158305
 10
0.1852326396318578
 20
0.1207013840275715
 10
0.1840858071288025
 20
0.1205164997868695
 10
0.183271929123693
 20
0.1220695236619615
  0
LWPOLYLINE
  5
2090
330
2
100
AcDbEntity
  8
Profilo
  6
Continuous
370
     0
100
AcDbPolyline
 90
        2
 70
   128
 43
0.0
 10
0.1833763483833994
 20
0.1170393159725598
 10
0.1827849245877147
 20
0.1159752684901072
  0
LWPOLYLINE
  5
2091
330
2
100
AcDbEntity
  8
Profilo
  6
Continuous
370
     0
100
AcDbPolyline
 90
        2
 70
   128
 43
0.0
 10
0.1848549024887855
 20
0.1200541171728426
 10
0.1842634786931008
 20
0.1188127284433147
  0
ELLIPSE
  5
2092
330
2
100
AcDbEntity
  8
Profilo
  6
Continuous
370
     0
100
AcDbEllipse
 10
0.1902312551098379
 20
0.1150700953437025
 30
0.0
 11
0.0028359257850515
 21
-0.0008713712413561
 31
0.0
210
0.0
220
0.0
230
1.0
 40
0.8246019661597953
 41
0.0
 42
6.283185307179585
  0
ELLIPSE
  5
2093
330
2
100
AcDbEntity
  8
Profilo
  6
Continuous
370
     0
100
AcDbEllipse
 10
0.1899652179122757
 20
0.114910634740562
 30
0.0
 11
0.0041072713138153
 21
-0.0015006511303202
 31
0.0
210
0.0
220
0.0
230
1.0
 40
0.789328193075015
 41
0.0
 42
6.283185307179585
  0
ELLIPSE
  5
2094
330
2
100
AcDbEntity
  8
Profilo
  6
Continuous
370
     0
100
AcDbEllipse
 10
0.1968862072036934
 20
0.1132277370703707
 30
0.0
 11
0.0010346336535993
 21
-0.0001349823520997
 31
0.0
210
0.0
220
0.0
230
1.0
 40
0.6508041496962198
 41
0.0
 42
6.283185307179585
  0
LWPOLYLINE
  5
2095
330
2
100
AcDbEntity
  8
Profilo
  6
Continuous
370
     0
100
AcDbPolyline
 90
        2
 70
   128
 43
0.0
 10
0.1998181342378036
 20
0.1155334495556839
 10
0.1979159956309964
 20
0.1135670557863122
  0
LWPOLYLINE
  5
2096
330
2
100
AcDbEntity
  8
Profilo
  6
Continuous
370
     0
100
AcDbPolyline
 90
        2
 70
   128
 43
0.0
 10
0.1976900013566674
 20
0.1127084369921629
 10
0.1989136857552811
 20
0.1100191797881811
  0
LWPOLYLINE
  5
2097
330
2
100
AcDbEntity
  8
Profilo
  6
Continuous
370
     0
100
AcDbPolyline
 90
        3
 70
   128
 43
0.0
 10
0.1959637088629531
 20
0.1128924082079497
 10
0.1942166135920562
 20
0.1116340718437354
 10
0.1932810048364324
 20
0.1111918112973682
  0
LWPOLYLINE
  5
2098
330
2
100
AcDbEntity
  8
Profilo
  6
Continuous
370
     0
100
AcDbPolyline
 90
        2
 70
   128
 43
0.0
 10
0.1960731036426058
 20
0.1137358714282453
 10
0.1950685497364795
 20
0.1164120076197754
  0
LWPOLYLINE
  5
2099
330
2
100
AcDbEntity
  8
Profilo
  6
Continuous
370
     0
100
AcDbPolyline
 90
        5
 70
   128
 43
0.0
 10
0.1992949949994997
 20
0.109353860855844
 10
0.1970559441770465
 20
0.1107062481673342
 10
0.1959366916531877
 20
0.1100235328563768
 10
0.1954396561713931
 20
0.111306754975379
 10
0.1925879609551142
 20
0.1106574896480703
  0
LWPOLYLINE
  5
209A
330
2
100
AcDbEntity
  8
Profilo
  6
Continuous
370
     0
100
AcDbPolyline
 90
        5
 70
   128
 43
0.0
 10
0.1999837306728587
 20
0.1159313595699065
 10
0.1979468948670906
 20
0.1153855910606358
 10
0.1974549527887515
 20
0.116363929362667
 10
0.1963950492182551
 20
0.1158885228063657
 10
0.1952069512772994
 20
0.117177981548048
  0
LWPOLYLINE
  5
209B
330
2
100
AcDbEntity
  8
Profilo
  6
Continuous
370
     0
100
AcDbPolyline
 90
        2
 70
   128
 43
0.0
 10
0.1966097260878499
 20
0.1123461997223449
 10
0.1963138503226691
 20
0.1111653370365961
  0
LWPOLYLINE
  5
209C
330
2
100
AcDbEntity
  8
Profilo
  6
Continuous
370
     0
100
AcDbPolyline
 90
        2
 70
   128
 43
0.0
 10
0.1972576117159761
 20
0.1156409520245138
 10
0.1970076352430219
 20
0.1142887908481485
  0
ELLIPSE
  5
209D
330
2
100
AcDbEntity
  8
Profilo
  6
Continuous
370
     0
100
AcDbEllipse
 10
0.2242125256390626
 20
0.1146920529637545
 30
0.0
 11
0.0009635102036772
 21
0.0004004186808188
 31
0.0
210
0.0
220
0.0
230
1.0
 40
0.6508041496962199
 41
0.0
 42
6.283185307179585
  0
LWPOLYLINE
  5
209E
330
2
100
AcDbEntity
  8
Profilo
  6
Continuous
370
     0
100
AcDbPolyline
 90
        2
 70
   128
 43
0.0
 10
0.2255987926899881
 20
0.1181548220669137
 10
0.2249346892196602
 20
0.1155008058053917
  0
LWPOLYLINE
  5
209F
330
2
100
AcDbEntity
  8
Profilo
  6
Continuous
370
     0
100
AcDbPolyline
 90
        2
 70
   128
 43
0.0
 10
0.2251682818340566
 20
0.1146442229803268
 10
0.2275726522114603
 20
0.1129271001236747
  0
LWPOLYLINE
  5
20A0
330
2
100
AcDbEntity
  8
Profilo
  6
Continuous
370
     0
100
AcDbPolyline
 90
        3
 70
   128
 43
0.0
 10
0.2235812830722441
 20
0.1139404004799061
 10
0.222697422366922
 20
0.1119771015865418
 10
0.2221082916897323
 20
0.1111262883404849
  0
LWPOLYLINE
  5
20A1
330
2
100
AcDbEntity
  8
Profilo
  6
Continuous
370
     0
100
AcDbPolyline
 90
        2
 70
   128
 43
0.0
 10
0.2232542901203161
 20
0.1147255584456666
 10
0.2210462528223758
 20
0.1165408834184554
  0
LWPOLYLINE
  5
20A2
330
2
100
AcDbEntity
  8
Profilo
  6
Continuous
370
     0
100
AcDbPolyline
 90
        5
 70
   128
 43
0.0
 10
0.2282355351698211
 20
0.1125415716487619
 10
0.2256202666214673
 20
0.1125932480050413
 10
0.224992323158034
 20
0.1114423729402705
 10
0.2239202667447167
 20
0.1123051581531271
 10
0.2217752589072237
 20
0.1103170302777423
  0
LWPOLYLINE
  5
20A3
330
2
100
AcDbEntity
  8
Profilo
  6
Continuous
370
     0
100
AcDbPolyline
 90
        5
 70
   128
 43
0.0
 10
0.2255432484024116
 20
0.118582220465179
 10
0.2240521811059128
 20
0.1170911531686807
 10
0.223136977617866
 20
0.1176924479525661
 10
0.2224567774784045
 20
0.1167507820124354
 10
0.2207831251085111
 20
0.1172734370693855
  0
LWPOLYLINE
  5
20A4
330
2
100
AcDbEntity
  8
Profilo
  6
Continuous
370
     0
100
AcDbPolyline
 90
        2
 70
   128
 43
0.0
 10
0.2244138546430889
 20
0.1137903786680581
 10
0.2247480500569523
 20
0.1126197837012279
  0
LWPOLYLINE
  5
20A5
330
2
100
AcDbEntity
  8
Profilo
  6
Continuous
370
     0
100
AcDbPolyline
 90
        2
 70
   128
 43
0.0
 10
0.223327563904709
 20
0.1169676606749768
 10
0.2237871585169646
 20
0.1156716665097561
  0
ELLIPSE
  5
20A6
330
2
100
AcDbEntity
  8
Profilo
  6
Continuous
370
     0
100
AcDbEllipse
 10
0.2306534549340728
 20
0.1172450804384062
 30
0.0
 11
0.0026214548672455
 21
0.0013891498398579
 31
0.0
210
0.0
220
0.0
230
1.0
 40
0.8246019661597953
 41
0.0
 42
6.283185307179585
  0
ELLIPSE
  5
20A7
330
2
100
AcDbEntity
  8
Profilo
  6
Continuous
370
     0
100
AcDbEllipse
 10
0.2305780939014408
 20
0.1169442080581504
 30
0.0
 11
0.0039653999886165
 21
0.0018431588077271
 31
0.0
210
0.0
220
0.0
230
1.0
 40
0.7893281930750149
 41
0.0
 42
6.283185307179585
  0
ELLIPSE
  5
20A8
330
2
100
AcDbEntity
  8
Profilo
  6
Continuous
370
     0
100
AcDbEllipse
 10
0.2366619607165568
 20
0.1206480981639952
 30
0.0
 11
0.0008270434090141
 21
0.0006361495359937
 31
0.0
210
0.0
220
0.0
230
1.0
 40
0.6508041496962198
 41
0.0
 42
6.283185307179585
  0
LWPOLYLINE
  5
20A9
330
2
100
AcDbEntity
  8
Profilo
  6
Continuous
370
     0
100
AcDbPolyline
 90
        2
 70
   128
 43
0.0
 10
0.2371047612704888
 20
0.1243516685855903
 10
0.2371501965316654
 20
0.1216162031091548
  0
LWPOLYLINE
  5
20AA
330
2
100
AcDbEntity
  8
Profilo
  6
Continuous
370
     0
100
AcDbPolyline
 90
        2
 70
   128
 43
0.0
 10
0.2375975296195758
 20
0.1208492658534705
 10
0.2403643971611569
 20
0.1198129493844711
  0
LWPOLYLINE
  5
20AB
330
2
100
AcDbEntity
  8
Profilo
  6
Continuous
370
     0
100
AcDbPolyline
 90
        3
 70
   128
 43
0.0
 10
0.2362467691967325
 20
0.1197586800190793
 10
0.2359011644594506
 20
0.1176335189294995
 10
0.2355523145951999
 20
0.1166592182024728
  0
LWPOLYLINE
  5
20AC
330
2
100
AcDbEntity
  8
Profilo
  6
Continuous
370
     0
100
AcDbPolyline
 90
        2
 70
   128
 43
0.0
 10
0.2357277044244981
 20
0.1204324523723508
 10
0.233125063496999
 20
0.1216144395416712
  0
LWPOLYLINE
  5
20AD
330
2
100
AcDbEntity
  8
Profilo
  6
Continuous
370
     0
100
AcDbPolyline
 90
        5
 70
   128
 43
0.0
 10
0.2411044750421816
 20
0.1196121242080808
 10
0.238564944783457
 20
0.118985158426848
 10
0.2382562663599756
 20
0.1177109747513696
 10
0.2369974341381926
 20
0.1182668926538168
 10
0.2354400810286137
 20
0.1157913397127803
  0
LWPOLYLINE
  5
20AE
330
2
100
AcDbEntity
  8
Profilo
  6
Continuous
370
     0
100
AcDbPolyline
 90
        5
 70
   128
 43
0.0
 10
0.236940490763299
 20
0.1247501278171175
 10
0.2358861469667399
 20
0.1229239507928312
 10
0.2348465017395345
 20
0.1232678848609483
 10
0.2344331999372144
 20
0.1221822566590651
 10
0.2326813028061458
 20
0.1222539295686045
  0
LWPOLYLINE
  5
20AF
330
2
100
AcDbEntity
  8
Profilo
  6
Continuous
370
     0
100
AcDbPolyline
 90
        2
 70
   128
 43
0.0
 10
0.237089800081332
 20
0.1198292554554543
 10
0.2377155803341271
 20
0.1187850436827631
  0
LWPOLYLINE
  5
20B0
330
2
100
AcDbEntity
  8
Profilo
  6
Continuous
370
     0
100
AcDbPolyline
 90
        2
 70
   128
 43
0.0
 10
0.2352181827072215
 20
0.1226171214717295
 10
0.2359975449851213
 20
0.1214842390755009
  0
ELLIPSE
  5
20B1
330
2
100
AcDbEntity
  8
Profilo
  6
Continuous
370
     0
100
AcDbEllipse
 10
0.2422226485347991
 20
0.1247811685066935
 30
0.0
 11
0.0021725925236673
 21
0.0020202981524239
 31
0.0
210
0.0
220
0.0
230
1.0
 40
0.8246019661597953
 41
0.0
 42
6.283185307179585
  0
ELLIPSE
  5
20B2
330
2
100
AcDbEntity
  8
Profilo
  6
Continuous
370
     0
100
AcDbEllipse
 10
0.2422277268692401
 20
0.124471043233684
 30
0.0
 11
0.0033532376579828
 21
0.0028066757328391
 31
0.0
210
0.0
220
0.0
230
1.0
 40
0.789328193075015
 41
0.0
 42
6.283185307179585
  0
ELLIPSE
  5
20B3
330
2
100
AcDbEntity
  8
Profilo
  6
Continuous
370
     0
100
AcDbEllipse
 10
0.2471456536493051
 20
0.1296233469442751
 30
0.0
 11
0.0006342149727806
 21
0.0008285278515775
 31
0.0
210
0.0
220
0.0
230
1.0
 40
0.6508041496962198
 41
0.0
 42
6.283185307179585
  0
LWPOLYLINE
  5
20B4
330
2
100
AcDbEntity
  8
Profilo
  6
Continuous
370
     0
100
AcDbPolyline
 90
        2
 70
   128
 43
0.0
 10
0.2466148115802547
 20
0.1333153264805138
 10
0.2473666892349708
 20
0.1306848292408147
  0
LWPOLYLINE
  5
20B5
330
2
100
AcDbEntity
  8
Profilo
  6
Continuous
370
     0
100
AcDbPolyline
 90
        2
 70
   128
 43
0.0
 10
0.2479972777857071
 20
0.1300598030610613
 10
0.2509380850409713
 20
0.1297749162344832
  0
LWPOLYLINE
  5
20B6
330
2
100
AcDbEntity
  8
Profilo
  6
Continuous
370
     0
100
AcDbPolyline
 90
        3
 70
   128
 43
0.0
 10
0.2469748077924123
 20
0.1286567755150352
 10
0.2471910114148805
 20
0.1265145784454993
 10
0.2471062159053137
 20
0.1254831872219428
  0
LWPOLYLINE
  5
20B7
330
2
100
AcDbEntity
  8
Profilo
  6
Continuous
370
     0
100
AcDbPolyline
 90
        2
 70
   128
 43
0.0
 10
0.2462990446063067
 20
0.1291732457834041
 10
0.2434791657273898
 20
0.1296413446769926
  0
LWPOLYLINE
  5
20B8
330
2
100
AcDbEntity
  8
Profilo
  6
Continuous
370
     0
100
AcDbPolyline
 90
        5
 70
   128
 43
0.0
 10
0.2517049227601049
 20
0.1297724802605069
 10
0.2494141955813713
 20
0.1285095990236429
 10
0.2494458181222843
 20
0.127198940249253
 10
0.2480859974276317
 20
0.1274101059549375
 10
0.2472224300867385
 20
0.1246158327901354
  0
LWPOLYLINE
  5
20B9
330
2
100
AcDbEntity
  8
Profilo
  6
Continuous
370
     0
100
AcDbPolyline
 90
        5
 70
   128
 43
0.0
 10
0.2463530096170459
 20
0.1336576922071599
 10
0.2458072411077747
 20
0.1316208564013905
 10
0.2447140042455516
 20
0.1316839912153753
 10
0.2445957666151859
 20
0.130528384519613
 10
0.2428850136172791
 20
0.1301441908914014
  0
LWPOLYLINE
  5
20BA
330
2
100
AcDbEntity
  8
Profilo
  6
Continuous
370
     0
100
AcDbPolyline
 90
        2
 70
   128
 43
0.0
 10
0.2477708468291571
 20
0.1289431386002757
 10
0.2486455660308078
 20
0.1280964713283907
  0
LWPOLYLINE
  5
20BB
330
2
100
AcDbEntity
  8
Profilo
  6
Continuous
370
     0
100
AcDbPolyline
 90
        2
 70
   128
 43
0.0
 10
0.245241450450365
 20
0.1311516001640647
 10
0.246287468142631
 20
0.1302590335999545
  0
ELLIPSE
  5
20BC
330
2
100
AcDbEntity
  8
Profilo
  6
Continuous
370
     0
100
AcDbEllipse
 10
0.2595406781041536
 20
0.1540207908479005
 30
0.0
 11
0.0001349823520997
 21
0.0010346336535993
 31
0.0
210
0.0
220
0.0
230
1.0
 40
0.6508041496962198
 41
0.0
 42
6.283185307179585
  0
LWPOLYLINE
  5
20BD
330
2
100
AcDbEntity
  8
Profilo
  6
Continuous
370
     0
100
AcDbPolyline
 90
        2
 70
   128
 43
0.0
 10
0.2572349656188404
 20
0.1569527178820111
 10
0.2592013593882125
 20
0.1550505792752048
  0
LWPOLYLINE
  5
20BE
330
2
100
AcDbEntity
  8
Profilo
  6
Continuous
370
     0
100
AcDbPolyline
 90
        2
 70
   128
 43
0.0
 10
0.2600599781823618
 20
0.1548245850008758
 10
0.2627492353863428
 20
0.1560482693994882
  0
LWPOLYLINE
  5
20BF
330
2
100
AcDbEntity
  8
Profilo
  6
Continuous
370
     0
100
AcDbPolyline
 90
        3
 70
   128
 43
0.0
 10
0.2598760069665751
 20
0.1530982925071607
 10
0.261134343330788
 20
0.1513511972362638
 10
0.2615766038771561
 20
0.15041558848064
  0
LWPOLYLINE
  5
20C0
330
2
100
AcDbEntity
  8
Profilo
  6
Continuous
370
     0
100
AcDbPolyline
 90
        2
 70
   128
 43
0.0
 10
0.2590325437462795
 20
0.1532076872868138
 10
0.2563564075547493
 20
0.1522031333806875
  0
LWPOLYLINE
  5
20C1
330
2
100
AcDbEntity
  8
Profilo
  6
Continuous
370
     0
100
AcDbPolyline
 90
        5
 70
   128
 43
0.0
 10
0.2634145543186808
 20
0.1564295786437078
 10
0.2620621670071905
 20
0.1541905278212545
 10
0.2627448823181471
 20
0.1530712752973962
 10
0.2614616601991457
 20
0.1525742398156007
 10
0.2621109255264535
 20
0.1497225445993227
  0
LWPOLYLINE
  5
20C2
330
2
100
AcDbEntity
  8
Profilo
  6
Continuous
370
     0
100
AcDbPolyline
 90
        5
 70
   128
 43
0.0
 10
0.2568370556046169
 20
0.1571183143170671
 10
0.257382824113888
 20
0.1550814785112977
 10
0.2564044858118564
 20
0.1545895364329604
 10
0.2568798923681577
 20
0.1535296328624636
 10
0.2555904336264767
 20
0.1523415349215069
  0
LWPOLYLINE
  5
20C3
330
2
100
AcDbEntity
  8
Profilo
  6
Continuous
370
     0
100
AcDbPolyline
 90
        2
 70
   128
 43
0.0
 10
0.2604222154521789
 20
0.1537443097320574
 10
0.2616030781379273
 20
0.1534484339668771
  0
LWPOLYLINE
  5
20C4
330
2
100
AcDbEntity
  8
Profilo
  6
Continuous
370
     0
100
AcDbPolyline
 90
        2
 70
   128
 43
0.0
 10
0.2571274631500096
 20
0.1543921953601846
 10
0.2584796243263749
 20
0.154142218887229
  0
ELLIPSE
  5
20C5
330
2
100
AcDbEntity
  8
Profilo
  6
Continuous
370
     0
100
AcDbEllipse
 10
0.2605501561020507
 20
0.1608753129786837
 30
0.0
 11
0.0001076883826428
 21
0.0029648214298379
 31
0.0
210
0.0
220
0.0
230
1.0
 40
0.8246019661597951
 41
0.0
 42
6.283185307179585
  0
ELLIPSE
  5
20C6
330
2
100
AcDbEntity
  8
Profilo
  6
Continuous
370
     0
100
AcDbEllipse
 10
0.2607730387103331
 20
0.1606596122198423
 30
0.0
 11
0.0003864776436075
 21
0.0043557165301719
 31
0.0
210
0.0
220
0.0
230
1.0
 40
0.7893281930750149
 41
0.0
 42
6.283185307179585
  0
ELLIPSE
  5
20C7
330
2
100
AcDbEntity
  8
Profilo
  6
Continuous
370
     0
100
AcDbEllipse
 10
0.2606073091934036
 20
0.1677803404878961
 30
0.0
 11
-0.0001373999542692
 21
0.0010343153702356
 31
0.0
210
0.0
220
0.0
230
1.0
 40
0.6508041496962198
 41
0.0
 42
6.283185307179585
  0
LWPOLYLINE
  5
20C8
330
2
100
AcDbEntity
  8
Profilo
  6
Continuous
370
     0
100
AcDbPolyline
 90
        2
 70
   128
 43
0.0
 10
0.2576213234005635
 20
0.1700156022272088
 10
0.2600130236249196
 20
0.1686872175793974
  0
LWPOLYLINE
  5
20C9
330
2
100
AcDbEntity
  8
Profilo
  6
Continuous
370
     0
100
AcDbPolyline
 90
        2
 70
   128
 43
0.0
 10
0.2609008773154073
 20
0.1686911507696385
 10
0.2631817874747107
 20
0.1705691701150549
  0
LWPOLYLINE
  5
20CA
330
2
100
AcDbEntity
  8
Profilo
  6
Continuous
370
     0
100
AcDbPolyline
 90
        3
 70
   128
 43
0.0
 10
0.261169972141575
 20
0.1669760650118337
 10
0.2628376132636454
 20
0.1656141819848904
 10
0.2635069575120497
 20
0.1648249187768287
  0
LWPOLYLINE
  5
20CB
330
2
100
AcDbEntity
  8
Profilo
  6
Continuous
370
     0
100
AcDbPolyline
 90
        2
 70
   128
 43
0.0
 10
0.2603269357811584
 20
0.1668634279095058
 10
0.2580019844018295
 20
0.1652004683340227
  0
LWPOLYLINE
  5
20CC
330
2
100
AcDbEntity
  8
Profilo
  6
Continuous
370
     0
100
AcDbPolyline
 90
        5
 70
   128
 43
0.0
 10
0.2637257461196967
 20
0.1711096837726056
 10
0.2629989492841869
 20
0.1685969031642549
 10
0.2639480855044969
 20
0.16769248797018
 10
0.2628372303676674
 20
0.1668802662382371
 10
0.2642024455482286
 20
0.1642937824121611
  0
LWPOLYLINE
  5
20CD
330
2
100
AcDbEntity
  8
Profilo
  6
Continuous
370
     0
100
AcDbPolyline
 90
        5
 70
   128
 43
0.0
 10
0.2571941123300938
 20
0.1700725694106531
 10
0.2582484561266529
 20
0.1682463923863664
 10
0.2574307778728357
 20
0.167518000242743
 10
0.2581643085735692
 20
0.1666172562815618
 10
0.2572262894476118
 20
0.1651359053160091
  0
LWPOLYLINE
  5
20CE
330
2
100
AcDbEntity
  8
Profilo
  6
Continuous
370
     0
100
AcDbPolyline
 90
        2
 70
   128
 43
0.0
 10
0.2615303674630915
 20
0.1677414388922602
 10
0.2627475715115715
 20
0.1677612746020221
  0
LWPOLYLINE
  5
20CF
330
2
100
AcDbEntity
  8
Profilo
  6
Continuous
370
     0
100
AcDbPolyline
 90
        2
 70
   128
 43
0.0
 10
0.258180195983595
 20
0.1675145037082526
 10
0.2595509820571795
 20
0.1676230100415523
  0
ELLIPSE
  5
20D0
330
2
100
AcDbEntity
  8
Profilo
  6
Continuous
370
     0
100
AcDbEllipse
 10
0.2598083091901202
 20
0.1746625725723572
 30
0.0
 11
-0.0006633332613842
 21
0.00289166939378
 31
0.0
210
0.0
220
0.0
230
1.0
 40
0.8246019661597951
 41
0.0
 42
6.283185307179585
  0
ELLIPSE
  5
20D1
330
2
100
AcDbEntity
  8
Profilo
  6
Continuous
370
     0
100
AcDbEllipse
 10
0.2600794247221216
 20
0.1745119079024877
 30
0.0
 11
-0.0007540336558325
 21
0.0043073268631593
 31
0.0
210
0.0
220
0.0
230
1.0
 40
0.7893281930750148
 41
0.0
 42
6.283185307179585
  0
ELLIPSE
  5
20D2
330
2
100
AcDbEntity
  8
Profilo
  6
Continuous
370
     0
100
AcDbEllipse
 10
0.2580763622107689
 20
0.1813471092832706
 30
0.0
 11
-0.0004004186808188
 21
0.0009635102036772
 31
0.0
210
0.0
220
0.0
230
1.0
 40
0.6508041496962198
 41
0.0
 42
6.283185307179585
  0
LWPOLYLINE
  5
20D3
330
2
100
AcDbEntity
  8
Profilo
  6
Continuous
370
     0
100
AcDbPolyline
 90
        2
 70
   128
 43
0.0
 10
0.2546135931076101
 20
0.1827333763341961
 10
0.2572676093691335
 20
0.1820692728638682
  0
LWPOLYLINE
  5
20D4
330
2
100
AcDbEntity
  8
Profilo
  6
Continuous
370
     0
100
AcDbPolyline
 90
        2
 70
   128
 43
0.0
 10
0.258124192194197
 20
0.1823028654782641
 10
0.2598413150508492
 20
0.1847072358556683
  0
LWPOLYLINE
  5
20D5
330
2
100
AcDbEntity
  8
Profilo
  6
Continuous
370
     0
100
AcDbPolyline
 90
        3
 70
   128
 43
0.0
 10
0.2588280146946182
 20
0.1807158667164512
 10
0.2607913135879816
 20
0.17983200601113
 10
0.2616421268340385
 20
0.1792428753339403
  0
LWPOLYLINE
  5
20D6
330
2
100
AcDbEntity
  8
Profilo
  6
Continuous
370
     0
100
AcDbPolyline
 90
        2
 70
   128
 43
0.0
 10
0.2580428567288582
 20
0.1803888737645245
 10
0.2562275317560694
 20
0.1781808364665829
  0
LWPOLYLINE
  5
20D7
330
2
100
AcDbEntity
  8
Profilo
  6
Continuous
370
     0
100
AcDbPolyline
 90
        5
 70
   128
 43
0.0
 10
0.2602268435257624
 20
0.1853701188140291
 10
0.2601751671694821
 20
0.1827548502656748
 10
0.2613260422342538
 20
0.182126906802242
 10
0.2604632570213976
 20
0.1810548503889242
 10
0.2624513848967815
 20
0.1789098425514308
  0
LWPOLYLINE
  5
20D8
330
2
100
AcDbEntity
  8
Profilo
  6
Continuous
370
     0
100
AcDbPolyline
 90
        5
 70
   128
 43
0.0
 10
0.2541861947093444
 20
0.1826778320466191
 10
0.2556772620058432
 20
0.1811867647501209
 10
0.2550759672219591
 20
0.180271561262074
 10
0.2560176331620898
 20
0.179591361122613
 10
0.2554949781051388
 20
0.1779177087527191
  0
LWPOLYLINE
  5
20D9
330
2
100
AcDbEntity
  8
Profilo
  6
Continuous
370
     0
100
AcDbPolyline
 90
        2
 70
   128
 43
0.0
 10
0.2589780365064662
 20
0.1815484382872965
 10
0.2601486314732959
 20
0.1818826337011607
  0
LWPOLYLINE
  5
20DA
330
2
100
AcDbEntity
  8
Profilo
  6
Continuous
370
     0
100
AcDbPolyline
 90
        2
 70
   128
 43
0.0
 10
0.255800754499548
 20
0.180462147548917
 10
0.2570967486647682
 20
0.1809217421611717
  0
ELLIPSE
  5
20DB
330
2
100
AcDbEntity
  8
Profilo
  6
Continuous
370
     0
100
AcDbEllipse
 10
0.2431450682302483
 20
0.2042802372935122
 30
0.0
 11
-0.0008285278515775
 21
0.0006342149727806
 31
0.0
210
0.0
220
0.0
230
1.0
 40
0.6508041496962198
 41
0.0
 42
6.283185307179585
  0
LWPOLYLINE
  5
20DC
330
2
100
AcDbEntity
  8
Profilo
  6
Continuous
370
     0
100
AcDbPolyline
 90
        2
 70
   128
 43
0.0
 10
0.2394530886940096
 20
0.2037493952244631
 10
0.2420835859337096
 20
0.2045012728791793
  0
LWPOLYLINE
  5
20DD
330
2
100
AcDbEntity
  8
Profilo
  6
Continuous
370
     0
100
AcDbPolyline
 90
        2
 70
   128
 43
0.0
 10
0.2427086121134625
 20
0.2051318614299147
 10
0.2429934989400415
 20
0.2080726686851797
  0
LWPOLYLINE
  5
20DE
330
2
100
AcDbEntity
  8
Profilo
  6
Continuous
370
     0
100
AcDbPolyline
 90
        3
 70
   128
 43
0.0
 10
0.24411163965949
 20
0.2041093914366208
 10
0.246253836729025
 20
0.2043255950590876
 10
0.247285227952581
 20
0.2042407995495212
  0
LWPOLYLINE
  5
20DF
330
2
100
AcDbEntity
  8
Profilo
  6
Continuous
370
     0
100
AcDbPolyline
 90
        2
 70
   128
 43
0.0
 10
0.2435951693911207
 20
0.2034336282505138
 10
0.2431270704975308
 20
0.2006137493715983
  0
LWPOLYLINE
  5
20E0
330
2
100
AcDbEntity
  8
Profilo
  6
Continuous
370
     0
100
AcDbPolyline
 90
        5
 70
   128
 43
0.0
 10
0.2429959349140169
 20
0.2088395064043125
 10
0.2442588161508805
 20
0.2065487792255789
 10
0.2455694749252704
 20
0.2065804017664914
 10
0.2453583092195863
 20
0.2052205810718397
 10
0.2481525823843889
 20
0.2043570137309465
  0
LWPOLYLINE
  5
20E1
330
2
100
AcDbEntity
  8
Profilo
  6
Continuous
370
     0
100
AcDbPolyline
 90
        5
 70
   128
 43
0.0
 10
0.2391107229673643
 20
0.2034875932612539
 10
0.2411475587731342
 20
0.2029418247519832
 10
0.2410844239591494
 20
0.2018485878897605
 10
0.2422400306549122
 20
0.2017303502593943
 10
0.2426242242831229
 20
0.2000195972614871
  0
LWPOLYLINE
  5
20E2
330
2
100
AcDbEntity
  8
Profilo
  6
Continuous
370
     0
100
AcDbPolyline
 90
        2
 70
   128
 43
0.0
 10
0.243825276574249
 20
0.2049054304733655
 10
0.244671943846134
 20
0.2057801496750149
  0
LWPOLYLINE
  5
20E3
330
2
100
AcDbEntity
  8
Profilo
  6
Continuous
370
     0
100
AcDbPolyline
 90
        2
 70
   128
 43
0.0
 10
0.2416168150104596
 20
0.2023760340945735
 10
0.2425093815745694
 20
0.203422051786839
  0
LWPOLYLINE
  5
20E4
330
2
100
AcDbEntity
  8
Profilo
  6
Continuous
370
     0
100
AcDbPolyline
 90
        9
 70
   129
 43
0.0
 10
0.2078474097643497
 20
0.1919071040632336
 10
0.2057120722441592
 20
0.1919861530695912
 10
0.203339477691415
 20
0.1918280567599679
 10
0.2046839476687783
 20
0.1947528512611885
 10
0.2052375527952286
 20
0.1992586156710092
 10
0.2053166411646572
 20
0.2033691384552259
 10
0.2057911579216771
 20
0.1979938400847474
 10
0.2065029370950739
 20
0.1948318985644537
 10
0.2073728903154191
 20
0.1927766380238918
  0
LWPOLYLINE
  5
20E5
330
2
100
AcDbEntity
  8
Profilo
  6
Continuous
370
     0
100
AcDbPolyline
 90
       13
 70
   128
 43
0.0
 10
0.2201058216833065
 20
0.1976776457624085
 10
0.220501255454721
 20
0.1962547721634311
 10
0.219552216556858
 20
0.1940414136101536
 10
0.2177332244386516
 20
0.1926185417142681
 10
0.2150442844839233
 20
0.1916699587472528
 10
0.2120389964353002
 20
0.1919861530695912
 10
0.210061832962058
 20
0.1929347343335146
 10
0.2087964486622127
 20
0.1945947532484728
 10
0.2076892357174014
 20
0.1976776457624085
 10
0.207451975992937
 20
0.2004443439540058
 10
0.2081637551663338
 20
0.2025786535009257
 10
0.2099036589151098
 20
0.2046339140414881
 10
0.2134625520901832
 20
0.2069263216011232
  0
LWPOLYLINE
  5
20E6
330
2
100
AcDbEntity
  8
Profilo
  6
Continuous
370
     0
100
AcDbPolyline
 90
       27
 70
   128
 43
0.0
 10
0.2232692837788779
 20
0.1981519363943702
 10
0.2219248111096022
 20
0.1980728873880126
 10
0.2214502916606715
 20
0.1979147910783894
 10
0.2201058216833065
 20
0.1982309854007283
 10
0.2196313022343759
 20
0.1981519363943702
 10
0.2184450036120484
 20
0.1980728873880126
 10
0.2170214479571655
 20
0.1987843250390475
 10
0.2161514947368222
 20
0.1983890817103511
 10
0.2152815442083895
 20
0.1988633723423132
 10
0.215914235012356
 20
0.1996538589997052
 10
0.2174168790366675
 20
0.1998910043156861
 10
0.2181286582100643
 20
0.2002862459412902
 10
0.2182077438875822
 20
0.2011557799019483
 10
0.2171005336346834
 20
0.2021834101722297
 10
0.2145697650349927
 20
0.2024205554882106
 10
0.2131462066881991
 20
0.2022624591785869
 10
0.2111690432149569
 20
0.2007605365732523
 10
0.2103781783640422
 20
0.199100519361386
 10
0.2097454848681632
 20
0.1964128701761463
 10
0.2098245732375918
 20
0.1945947532484728
 10
0.2113272172619034
 20
0.1931718813525873
 10
0.2129880326412508
 20
0.1927766380238918
 10
0.2142534169410979
 20
0.1939623663068879
 10
0.2146488507125106
 20
0.1953852382027734
 10
0.2146488507125106
 20
0.1967290627953928
 10
0.2143325053105265
 20
0.1978357420720318
 10
0.2133834664126653
 20
0.1988633723423132
  0
LWPOLYLINE
  5
20E7
330
2
100
AcDbEntity
  8
Profilo
  6
Continuous
370
     0
100
AcDbPolyline
 90
       11
 70
   128
 43
0.0
 10
0.214886110436975
 20
0.1991795666646516
 10
0.2136998118146476
 20
0.1998910043156861
 10
0.2122762561597664
 20
0.1999700516189518
 10
0.2116435626638875
 20
0.1994957609869901
 10
0.2118017367108358
 20
0.1989424213486708
 10
0.2120389964353002
 20
0.1979147910783894
 10
0.2123553418372843
 20
0.1976776457624085
 10
0.2114853886169392
 20
0.1970452571177317
 10
0.2114063029394213
 20
0.1960176268474503
 10
0.2117226483414054
 20
0.1949109475708117
 10
0.2118017367108358
 20
0.1948318985644537
  0
LWPOLYLINE
  5
20E8
330
2
100
AcDbEntity
  8
Profilo
  6
Continuous
370
     0
100
AcDbPolyline
 90
       77
 70
   128
 43
0.0
 10
0.2146126471903713
 20
0.202433854932154
 10
0.2146126471903713
 20
0.2036891766557796
 10
0.2150312879336305
 20
0.2045260572371657
 10
0.2149615135791176
 20
0.2055721575381257
 10
0.2156592517404317
 20
0.2064787780260362
 10
0.2164965332269517
 20
0.2078038396561861
 10
0.215868572112063
 20
0.208710460144097
 10
0.2141242320925976
 20
0.2089196798636705
 10
0.2127985328163913
 20
0.2089196798636705
 10
0.2123798920731321
 20
0.2095473407254835
 10
0.2127287584618767
 20
0.210453961213394
 10
0.2130776275425354
 20
0.2112211018882557
 10
0.2125194380902471
 20
0.2120579824696422
 10
0.2127287584618767
 20
0.2132435642867425
 10
0.213286947914165
 20
0.2141501847746534
 10
0.2130776275425354
 20
0.2148475855429908
 10
0.2125892124447617
 20
0.2151265451690887
 10
0.2116821539118163
 20
0.2151265451690887
 10
0.2110541927969258
 20
0.214777845636466
 10
0.2107750980707816
 20
0.2142199246811778
 10
0.2098680422297487
 20
0.2140107049616042
 10
0.2093098527774604
 20
0.2135225239128409
 10
0.2100075882468637
 20
0.214568624213801
 10
0.2099378138923509
 20
0.215405504795187
 10
0.2093098527774604
 20
0.2161726454700488
 10
0.2086121173080571
 20
0.2165910866122878
 10
0.2074957384034821
 20
0.2167305664253365
 10
0.2067282285795642
 20
0.2167305664253365
 10
0.2065886825624474
 20
0.2156844661243769
 10
0.2063793621908179
 20
0.2165910866122878
 10
0.2055420780123871
 20
0.2167305664253365
 10
0.2044256991078104
 20
0.2167305664253365
 10
0.2035884176212903
 20
0.2167305664253365
 10
0.2029604538144891
 20
0.2163121269861894
 10
0.2018440776018266
 20
0.2165910866122878
 10
0.2012161137950237
 20
0.2161726454700488
 10
0.2007974730517645
 20
0.2157542060309012
 10
0.2000997375823612
 20
0.2150568052625643
 10
0.199960188873332
 20
0.2144988843072761
 10
0.1997508685017024
 20
0.2139409650550799
 10
0.1988438126606695
 20
0.2144291444007513
 10
0.198006528482237
 20
0.2144291444007513
 10
0.1971692443038062
 20
0.2141501847746534
 10
0.1969599239321766
 20
0.2133830440997917
 10
0.1969599239321766
 20
0.2125461635184056
 10
0.1973087930128336
 20
0.2112211018882557
 10
0.1970994726412041
 20
0.2107329208394923
 10
0.1968901522695727
 20
0.2099657818677221
 10
0.1975878877389778
 20
0.2092683810993852
 10
0.1986344922890382
 20
0.2085012404245234
 10
0.1989135870151823
 20
0.2079433194692353
 10
0.1983553975628958
 20
0.2075248783269963
 10
0.1982856232083812
 20
0.2071064388878492
 10
0.1964715088344029
 20
0.2074551384204715
 10
0.1954946786388554
 20
0.2073853985139471
 10
0.1947271688149374
 20
0.2067577376521346
 10
0.1943085280716765
 20
0.2059905986803647
 10
0.1945876227978207
 20
0.2050142365828376
 10
0.1955644529933682
 20
0.2043168358145002
 10
0.1964715088344029
 20
0.2039681362818775
 10
0.1959133220740252
 20
0.2027825544647768
 10
0.1963319628172861
 20
0.2023641150256297
 10
0.1962621884627715
 20
0.20131801472467
 10
0.196052868091142
 20
0.2002719127206181
 10
0.1963319628172861
 20
0.1990863326066092
 10
0.1952155839127112
 20
0.1983889318382719
 10
0.1943085280716765
 20
0.1983191919317475
 10
0.1940294333455323
 20
0.1975520512568858
 10
0.1938201129739028
 20
0.1965059509559262
 10
0.1931921491671016
 20
0.1960875098136867
 10
0.192982828795472
 20
0.1965059509559262
 10
0.1928432827783553
 20
0.1972033500211716
 10
0.1919362242454099
 20
0.1974823113503614
 10
0.1911687171134044
 20
0.1969941303015976
 10
0.1905407533066015
 20
0.1968546504885484
 10
0.1898430178371981
 20
0.1964362110494013
 10
0.1896336974655686
 20
0.1944137486509145
  0
LWPOLYLINE
  5
20E9
330
2
100
AcDbEntity
  8
Profilo
  6
Continuous
370
     0
100
AcDbPolyline
 90
       14
 70
   128
 43
0.0
 10
0.1906802993237182
 20
0.1960177699071623
 10
0.1909593940498624
 20
0.1936466079760528
 10
0.1921455473089519
 20
0.1926702475816176
 10
0.1940294333455323
 20
0.191414925857992
 10
0.1967506035605453
 20
0.1910662263253693
 10
0.1993322277584433
 20
0.1914846657645168
 10
0.2014952085211679
 20
0.1923215463459029
 10
0.2026813590883449
 20
0.1942742688378654
 10
0.2031697741861187
 20
0.1972033500211716
 10
0.2033093228951479
 20
0.1999929530945201
 10
0.2026115874257428
 20
0.2019456738833907
 10
0.2007974730517645
 20
0.2039681362818775
 10
0.1991229073868137
 20
0.2052931979120274
 10
0.1973785673673483
 20
0.2059905986803647
  0
LWPOLYLINE
  5
20EA
330
2
100
AcDbEntity
  8
Profilo
  6
Continuous
370
     0
100
AcDbPolyline
 90
        7
 70
   128
 43
0.0
 10
0.1991229073868137
 20
0.2078735795627109
 10
0.2005183783256204
 20
0.2075248783269963
 10
0.2006579270346478
 20
0.2068274792617508
 10
0.2013556625040529
 20
0.2069669590748
 10
0.2023324926996004
 20
0.2064787780260362
 10
0.2024720387167154
 20
0.2058511171642237
 10
0.2026813590883449
 20
0.2048747567697884
  0
LWPOLYLINE
  5
20EB
330
2
100
AcDbEntity
  8
Profilo
  6
Continuous
370
     0
100
AcDbPolyline
 90
        4
 70
   128
 43
0.0
 10
0.2041466070735787
 20
0.2045260572371657
 10
0.2026813590883449
 20
0.2075946199366125
 10
0.2014952085211679
 20
0.2099657818677221
 10
0.1995415481300728
 20
0.2124066837053564
  0
LWPOLYLINE
  5
20EC
330
2
100
AcDbEntity
  8
Profilo
  6
Continuous
370
     0
100
AcDbPolyline
 90
        3
 70
   128
 43
0.0
 10
0.2047047938339546
 20
0.205920857070748
 10
0.2044256991078104
 20
0.2102447414938204
 10
0.2043559274452082
 20
0.2115000615143541
  0
LWPOLYLINE
  5
20ED
330
2
100
AcDbEntity
  8
Profilo
  6
Continuous
370
     0
100
AcDbPolyline
 90
        4
 70
   128
 43
0.0
 10
0.2059607187556462
 20
0.2064090381195118
 10
0.2056118523668999
 20
0.2100355217742469
 10
0.2062398134817904
 20
0.2116395430304947
 10
0.2073561923863654
 20
0.2133133041932673
  0
LWPOLYLINE
  5
20EE
330
2
100
AcDbEntity
  8
Profilo
  6
Continuous
370
     0
100
AcDbPolyline
 90
        2
 70
   128
 43
0.0
 10
0.2077050587751117
 20
0.2111513619817313
 10
0.2075655127579949
 20
0.2133133041932673
  0
LWPOLYLINE
  5
20EF
330
2
100
AcDbEntity
  8
Profilo
  6
Continuous
370
     0
100
AcDbPolyline
 90
        2
 70
   128
 43
0.0
 10
0.2067980029340788
 20
0.2097565604450571
 10
0.2065189082079346
 20
0.2112908417947805
  0
LWPOLYLINE
  5
20F0
330
2
100
AcDbEntity
  8
Profilo
  6
Continuous
370
     0
100
AcDbPolyline
 90
        4
 70
   128
 43
0.0
 10
0.2065189082079346
 20
0.2038983963753531
 10
0.2077050587751117
 20
0.2085709803310478
 10
0.2093098527774604
 20
0.2115000615143541
 10
0.210984418442413
 20
0.2131040827706019
  0
LWPOLYLINE
  5
20F1
330
2
100
AcDbEntity
  8
Profilo
  6
Continuous
370
     0
100
AcDbPolyline
 90
        2
 70
   128
 43
0.0
 10
0.1945178484433061
 20
0.1944137486509145
 10
0.1934712438932458
 20
0.1955993287649233
  0
LWPOLYLINE
  5
20F2
330
2
100
AcDbEntity
  8
Profilo
  6
Continuous
370
     0
100
AcDbPolyline
 90
       12
 70
   128
 43
0.0
 10
0.1973785673673483
 20
0.1979007507895085
 10
0.1961924141082587
 20
0.1971336101146468
 10
0.1961924141082587
 20
0.1962967295332607
 10
0.1962621884627715
 20
0.1947624481835373
 10
0.1971692443038062
 20
0.1930189471142403
 10
0.1989135870151823
 20
0.1923912862524273
 10
0.2010067934233941
 20
0.193158426927289
 10
0.2014254341666533
 20
0.195320369138825
 10
0.2010765677779087
 20
0.197691531069935
 10
0.2000299632278466
 20
0.1992258124196584
 10
0.1988438126606695
 20
0.2002021728140937
 10
0.1968203779150599
 20
0.2008298336759062
  0
LWPOLYLINE
  5
20F3
330
2
100
AcDbEntity
  8
Profilo
  6
Continuous
370
     0
100
AcDbPolyline
 90
        2
 70
   128
 43
0.0
 10
0.1991229073868137
 20
0.1943440087443897
 10
0.1994020021129561
 20
0.1960177699071623
  0
LWPOLYLINE
  5
20F4
330
2
100
AcDbEntity
  8
Profilo
  6
Continuous
370
     0
100
AcDbPolyline
 90
        3
 70
   128
 43
0.0
 10
0.2174035917598971
 20
0.1944137486509145
 10
0.2183106476009318
 20
0.1965756908624505
 10
0.2169151739702126
 20
0.197691531069935
  0
LWPOLYLINE
  5
20F5
330
2
100
AcDbEntity
  8
Profilo
  6
Continuous
370
     0
100
AcDbPolyline
 90
       15
 70
   129
 43
0.0
 10
0.2281487266028339
 20
0.1965756908624505
 10
0.2239623084025872
 20
0.1990165927000849
 10
0.2198456672487676
 20
0.2008298336759062
 10
0.2194967981681088
 20
0.2052931979120274
 10
0.2186595166815888
 20
0.2083617606114743
 10
0.2181710988919043
 20
0.2107329208394923
 10
0.2191479317793625
 20
0.2110816220752065
 10
0.22012476197491
 20
0.2106631809329675
 10
0.2269625733437444
 20
0.2081525391888088
 10
0.2335910670328598
 20
0.2045957971436905
 10
0.2366611036366191
 20
0.2018759339768659
 10
0.2375681621695644
 20
0.2004113942367591
 10
0.2368704267001593
 20
0.1998534732814709
 10
0.2347772176000369
 20
0.1993652922327072
 10
0.2294046515245256
 20
0.1972730916307879
  0
LWPOLYLINE
  5
20F6
330
2
100
AcDbEntity
  8
Profilo
  6
Continuous
370
     0
100
AcDbPolyline
 90
       31
 70
   129
 43
0.0
 10
0.2230552525615526
 20
0.2039681362818775
 10
0.2221481967205197
 20
0.2036891766557796
 10
0.2208224974443151
 20
0.2044563173306408
 10
0.2215900072682313
 20
0.205920857070748
 10
0.2214504585592039
 20
0.2066182578390854
 10
0.2215202329137185
 20
0.2081525391888088
 10
0.2229854782070397
 20
0.2085709803310478
 10
0.2242414031287314
 20
0.2079433194692353
 10
0.2240320827571001
 20
0.2071064388878492
 10
0.226613706954998
 20
0.2062695583064626
 10
0.2287069133632098
 20
0.2052234580055026
 10
0.2307303481088176
 20
0.2037589165623039
 10
0.2317769526588798
 20
0.2031312557004914
 10
0.233242197952201
 20
0.2032009956070158
 10
0.2338003874044894
 20
0.2018759339768659
 10
0.2335212926783452
 20
0.2010390533954798
 10
0.2325444624827977
 20
0.2007600937693819
 10
0.2314978579327356
 20
0.2008995735824306
 10
0.2308001224633323
 20
0.1998534732814709
 10
0.2295441975416406
 20
0.2001324329075689
 10
0.2289162337348394
 20
0.2010390533954798
 10
0.2280091778938047
 20
0.2010390533954798
 10
0.227381216778916
 20
0.2017364541638171
 10
0.2274509884415181
 20
0.2021548953060561
 10
0.2264741582459706
 20
0.200690353862857
 10
0.2252880076787918
 20
0.2002719127206181
 10
0.2243809518377589
 20
0.20131801472467
 10
0.2245902722093884
 20
0.2026430746517276
 10
0.2242414031287314
 20
0.2029220359809178
 10
0.2237529880309577
 20
0.2034799552331141
 10
0.2234738933048135
 20
0.2039681362818775
  0
LWPOLYLINE
  5
20F7
330
2
100
AcDbEntity
  8
Profilo
  6
Continuous
370
     0
100
AcDbPolyline
 90
        2
 70
   128
 43
0.0
 10
0.2257764227765655
 20
0.2051537163958863
 10
0.2241018571116147
 20
0.2036891766557796
  0
LWPOLYLINE
  5
20F8
330
2
100
AcDbEntity
  8
Profilo
  6
Continuous
370
     0
100
AcDbPolyline
 90
        3
 70
   128
 43
0.0
 10
0.2284975929915802
 20
0.2041076160949267
 10
0.228986008089354
 20
0.2028522960743935
 10
0.2290557824438668
 20
0.2015272344442436
  0
LWPOLYLINE
  5
20F9
330
2
100
AcDbEntity
  8
Profilo
  6
Continuous
370
     0
100
AcDbPolyline
 90
        2
 70
   128
 43
0.0
 10
0.2297535179132701
 20
0.2033404754200649
 10
0.2304512533826752
 20
0.2008298336759062
  0
LWPOLYLINE
  5
20FA
330
2
100
AcDbEntity
  8
Profilo
  6
Continuous
370
     0
100
AcDbPolyline
 90
        2
 70
   128
 43
0.0
 10
0.2242414031287314
 20
0.2057813772576993
 10
0.2234041216422113
 20
0.2047352769567392
  0
ELLIPSE
  5
20FB
330
2
100
AcDbEntity
  8
Profilo
  6
Continuous
370
     0
100
AcDbEllipse
 10
0.1641866832248802
 20
0.194848200577344
 30
0.0
 11
-0.00157567158998
 21
-0.0025137664846028
 31
0.0
210
0.0
220
0.0
230
1.0
 40
0.8246019661597955
 41
0.0
 42
6.283185307179585
  0
ELLIPSE
  5
20FC
330
2
100
AcDbEntity
  8
Profilo
  6
Continuous
370
     0
100
AcDbEllipse
 10
0.1641015116034659
 20
0.195146444218258
 30
0.0
 11
-0.0025125577224448
 21
-0.003578922345009
 31
0.0
210
0.0
220
0.0
230
1.0
 40
0.7893281930750149
 41
1.887603617210134
 42
6.765935049911796
  0
ELLIPSE
  5
20FD
330
2
100
AcDbEntity
  8
Profilo
  6
Continuous
370
     0
100
AcDbEllipse
 10
0.1606846734412564
 20
0.188896847886213
 30
0.0
 11
-0.0003981658342419
 21
-0.0009644433632832
 31
0.0
210
0.0
220
0.0
230
1.0
 40
0.6508041496962198
 41
0.0
 42
6.283185307179585
  0
LWPOLYLINE
  5
20FE
330
2
100
AcDbEntity
  8
Profilo
  6
Continuous
370
     0
100
AcDbPolyline
 90
        2
 70
   128
 43
0.0
 10
0.1599750308489902
 20
0.1882548471051977
 10
0.1570606950345752
 20
0.1877688897229204
  0
LWPOLYLINE
  5
20FF
330
2
100
AcDbEntity
  8
Profilo
  6
Continuous
370
     0
100
AcDbPolyline
 90
        3
 70
   128
 43
0.0
 10
0.1605995307724033
 20
0.1898747023542096
 10
0.1598362527097663
 20
0.19188794821356
 10
0.1596512151908023
 20
0.1929061423262164
  0
LWPOLYLINE
  5
2100
330
2
100
AcDbEntity
  8
Profilo
  6
Continuous
370
     0
100
AcDbPolyline
 90
        5
 70
   128
 43
0.0
 10
0.1563193562006333
 20
0.1875727704868821
 10
0.1582051710277508
 20
0.1893855039100947
 10
0.1578354025463486
 20
0.1906433185538878
 10
0.1592035421807374
 20
0.1907912956388413
 10
0.1593144730657769
 20
0.1937138639289815
  0
LWPOLYLINE
  5
2101
330
2
100
AcDbEntity
  8
Profilo
  6
Continuous
370
     0
100
AcDbPolyline
 90
        2
 70
   128
 43
0.0
 10
0.1599047323283518
 20
0.1893920667911253
 10
0.1588406848458987
 20
0.1899834905868087
  0
ELLIPSE
  5
2102
330
2
100
AcDbEntity
  8
Profilo
  6
Continuous
370
     0
100
AcDbEllipse
 10
0.1579355116994954
 20
0.1825371600646872
 30
0.0
 11
-0.0008713712413561
 21
-0.0028359257850515
 31
0.0
210
0.0
220
0.0
230
1.0
 40
0.8246019661597955
 41
0.0
 42
6.283185307179585
  0
ELLIPSE
  5
2103
330
2
100
AcDbEntity
  8
Profilo
  6
Continuous
370
     0
100
AcDbEllipse
 10
0.1577760510963539
 20
0.1828031972622481
 30
0.0
 11
-0.0015006511303202
 21
-0.0041072713138153
 31
0.0
210
0.0
220
0.0
230
1.0
 40
0.789328193075015
 41
2.702219286795263
 42
7.44100580417628
  0
LWPOLYLINE
  5
2104
330
2
100
AcDbEntity
  8
Profilo
  6
Continuous
370
     0
100
AcDbPolyline
 90
        9
 70
   129
 43
0.0
 10
0.184487924360134
 20
0.1784557103142625
 10
0.1833517971523903
 20
0.1766459782793026
 10
0.1823024152963963
 20
0.1745122029689341
 10
0.1804417039461725
 20
0.1771389453745664
 10
0.1768164000670236
 20
0.1798712636826476
 10
0.1732961270977729
 20
0.1819950176118259
 10
0.1781885304180371
 20
0.1797183119926862
 10
0.1812827416865907
 20
0.1787537600785862
 10
0.183497626136285
 20
0.1784795313972278
  0
LWPOLYLINE
  5
2105
330
2
100
AcDbEntity
  8
Profilo
  6
Continuous
370
     0
100
AcDbPolyline
 90
       13
 70
   128
 43
0.0
 10
0.1856196946145303
 20
0.1919570772957213
 10
0.1870496561833246
 20
0.1915880961877909
 10
0.1884919614692162
 20
0.1896595251164235
 10
0.1888147086182812
 20
0.1873727957848299
 10
0.1882917355879492
 20
0.1845698139912773
 10
0.18651525924796
 20
0.1821252553566493
 10
0.1847051820392274
 20
0.1808872721933481
 10
0.1826348713381876
 20
0.1806214267016109
 10
0.1794114016315778
 20
0.1812039984209739
 10
0.1768967408508182
 20
0.1823818745680907
 10
0.1754042641503428
 20
0.1840654481875967
 10
0.1744943081852099
 20
0.1865998793044587
 10
0.1742884715902733
 20
0.1908281749832437
  0
LWPOLYLINE
  5
2106
330
2
100
AcDbEntity
  8
Profilo
  6
Continuous
370
     0
100
AcDbPolyline
 90
       27
 70
   128
 43
0.0
 10
0.1867906779262593
 20
0.1949338611503757
 10
0.1861869000392708
 20
0.1937299891609103
 10
0.1860865557351836
 20
0.1932399951087342
 10
0.1851404884308252
 20
0.1922337471148809
 10
0.1849716871540092
 20
0.1917832767143382
 10
0.1844469962904949
 20
0.1907163874677491
 10
0.1831190953840487
 20
0.1898392709324375
 10
0.183026409537204
 20
0.1888882476791669
 10
0.1821806865369311
 20
0.1883719937374897
 10
0.1818124504122611
 20
0.189315163375162
 10
0.1823583985563886
 20
0.1907350639310512
 10
0.1823719988546806
 20
0.1915491035898991
 10
0.1816585031940558
 20
0.1920523607760343
 10
0.1802149441478455
 20
0.1916073037048345
 10
0.1787441859799728
 20
0.1895341664643921
 10
0.1781693222269531
 20
0.1882222806174876
 10
0.1784814436210702
 20
0.1857590455195575
 10
0.1795236282718093
 20
0.1842441278617719
 10
0.1815348539947479
 20
0.1823523746289117
 10
0.183148933625878
 20
0.1815118087021452
 10
0.1851324988462011
 20
0.1821017006521011
 10
0.1863051972992018
 20
0.1833423872972641
 10
0.185911018634064
 20
0.1850311063879784
 10
0.184876492311604
 20
0.1860849980274795
 10
0.1837127060761645
 20
0.1867569103237892
 10
0.1825961210077622
 20
0.1870362868076207
 10
0.1812316476390698
 20
0.1867282101480327
  0
LWPOLYLINE
  5
2107
330
2
100
AcDbEntity
  8
Profilo
  6
Continuous
370
     0
100
AcDbPolyline
 90
       11
 70
   128
 43
0.0
 10
0.181709137335547
 20
0.1881876352071003
 10
0.1804998649453786
 20
0.1875159892892073
 10
0.1797196301452093
 20
0.1863226775800118
 10
0.1798140311333256
 20
0.185537603623791
 10
0.1803723243405049
 20
0.1853979165475072
 10
0.1813809081224988
 20
0.1850895743610486
 10
0.1817444546915183
 20
0.1852449648575463
 10
0.1818571427127011
 20
0.1841753689462848
 10
0.1827075537937031
 20
0.1835930636053385
 10
0.1838241388621071
 20
0.1833136871215073
 10
0.1839321414944717
 20
0.1833426551553985
  0
LWPOLYLINE
  5
2108
330
2
100
AcDbEntity
  8
Profilo
  6
Continuous
370
     0
100
AcDbPolyline
 90
       77
 70
   128
 43
0.0
 10
0.1787541094013498
 20
0.1895779532222908
 10
0.1776669688987678
 20
0.1902056140841033
 10
0.1771515294269825
 20
0.1909866078935183
 10
0.1762106928141893
 20
0.191449231680457
 10
0.1757744055207251
 20
0.1925068008973012
 10
0.1750455092306939
 20
0.1938944387498203
 10
0.1739463722991275
 20
0.1938039187156928
 10
0.172893012697271
 20
0.1923978858057849
 10
0.1722301630591687
 20
0.1912497965548119
 10
0.1714772724362472
 20
0.191201073466996
 10
0.1708665492564982
 20
0.1919565108661318
 10
0.1703766204841202
 20
0.1926422106900079
 10
0.169372765914563
 20
0.192577244734895
 10
0.168450682128503
 20
0.1933513124028061
 10
0.1679446204805259
 20
0.1942880288925677
 10
0.1672359935127119
 20
0.1944554525173752
 10
0.1667501998409939
 20
0.1941719524481598
 10
0.1662966705745212
 20
0.1933864167159096
 10
0.1662846726706153
 20
0.1926682366715155
 10
0.166628299028126
 20
0.1921475730709683
 10
0.1663559606997325
 20
0.1912574298101948
 10
0.1664996431634638
 20
0.1905299330400076
 10
0.1659425614626286
 20
0.1916572398321126
 10
0.1651829144419565
 20
0.1920152537592639
 10
0.1642045705718047
 20
0.1918549938186116
 10
0.1634933221779349
 20
0.1914599577481057
 10
0.1628143396642319
 20
0.1905628851630188
 10
0.1624305847522738
 20
0.1898982021578521
 10
0.1632667611792531
 20
0.1892543016115531
 10
0.1623769446193162
 20
0.1895263350961471
 10
0.1618375094686844
 20
0.1888709656339631
 10
0.1612793200163978
 20
0.1879041531423517
 10
0.1608606792731368
 20
0.187179046104907
 10
0.1609090765539829
 20
0.1864259937759862
 10
0.1601093023248197
 20
0.1855986634286881
 10
0.1601577010805872
 20
0.184845610248221
 10
0.1603107598932034
 20
0.1842738370099251
 10
0.160565858940501
 20
0.1833208799841315
 10
0.1609792583065701
 20
0.1829210667794037
 10
0.1613577703664166
 20
0.1824608303939445
 10
0.1604814667309462
 20
0.1819193866657942
 10
0.1600628246417308
 20
0.1811942772970858
 10
0.1598857686753448
 20
0.1803296881153278
 10
0.1604454718022374
 20
0.1797648410185362
 10
0.1611702316456522
 20
0.1793464007278431
 10
0.1624922032192693
 20
0.1789859993992127
 10
0.1628103202233309
 20
0.1785606321154698
 10
0.1633700218753002
 20
0.1779957858702232
 10
0.1643228563920012
 20
0.1782513421276799
 10
0.1655105219797388
 20
0.1787741579183191
 10
0.1661332430633937
 20
0.1787369005635777
 10
0.1662165289964186
 20
0.1780442737466523
 10
0.166544021003407
 20
0.177774627663537
 10
0.1653349811628786
 20
0.1763779082966121
 10
0.1649069625958131
 20
0.1754970785788221
 10
0.1650667779351451
 20
0.1745185651427485
 10
0.1655218194013006
 20
0.1737724421381412
 10
0.1665069211441246
 20
0.1735259642122804
 10
0.1675993030238967
 20
0.1740232235926404
 10
0.1683548135979525
 20
0.1746344072273152
 10
0.1691024641896384
 20
0.173558212404223
 10
0.1696741637455155
 20
0.1737115462033718
 10
0.1705452260037958
 20
0.17312806968935
 10
0.1713465167284394
 20
0.1724237419279628
 10
0.1725128065884647
 20
0.1720726549938614
 10
0.1725585839181765
 20
0.1707571421180813
 10
0.1721654525283665
 20
0.1699367387638326
 10
0.1726902684780018
 20
0.1693114653034993
 10
0.1734915577277238
 20
0.168607138393658
 10
0.1735399564834914
 20
0.1678540852131909
 10
0.1730729156385085
 20
0.1678820290249496
 10
0.1723991773228732
 20
0.1681098781617529
 10
0.1717040604586479
 20
0.1674638230940975
 10
0.1717430840825198
 20
0.1665550518958128
 10
0.1715498952405348
 20
0.1659414793799407
 10
0.1715634066900797
 20
0.1651280030187423
 10
0.1732102503195545
 20
0.1639354950601377
  0
LWPOLYLINE
  5
2109
330
2
100
AcDbEntity
  8
Profilo
  6
Continuous
370
     0
100
AcDbPolyline
 90
       14
 70
   128
 43
0.0
 10
0.1723444280925079
 20
0.1656438894850671
 10
0.1745374619244071
 20
0.1647000116424153
 10
0.1759760914587822
 20
0.1652390703003506
 10
0.1780051749796545
 20
0.1662429026040524
 10
0.1796677427406994
 20
0.1684251553719638
 10
0.1805961756554009
 20
0.1708701272299411
 10
0.1809529061933492
 20
0.173161763809051
 10
0.1798548741923582
 20
0.1751653615789213
 10
0.177562423026755
 20
0.1770528820528385
 10
0.1752163302532743
 20
0.1785685363165963
 10
0.1731763567089111
 20
0.1789406400694062
 10
0.1705177957066333
 20
0.178380802135413
 10
0.1685329758408685
 20
0.177593116544335
 10
0.1670568390491365
 20
0.1764311741588087
  0
LWPOLYLINE
  5
210A
330
2
100
AcDbEntity
  8
Profilo
  6
Continuous
370
     0
100
AcDbPolyline
 90
        7
 70
   128
 43
0.0
 10
0.1662982997799176
 20
0.1788833073696767
 10
0.16729801937778
 20
0.1799174700350696
 10
0.1679717590393732
 20
0.17968962322953
 10
0.1681998337126593
 20
0.1803636197776801
 10
0.1691110260003086
 20
0.1809654890178263
 10
0.1697243692601571
 20
0.1807725089827392
 10
0.1706745823508022
 20
0.1804656055448825
  0
LWPOLYLINE
  5
210B
330
2
100
AcDbEntity
  8
Profilo
  6
Continuous
370
     0
100
AcDbPolyline
 90
        4
 70
   128
 43
0.0
 10
0.1717091889969584
 20
0.1815601977566277
 10
0.1683191117535152
 20
0.1818255371282946
 10
0.1656725500010978
 20
0.1819838815699604
 10
0.1625818368060159
 20
0.1815124129597217
  0
LWPOLYLINE
  5
210C
330
2
100
AcDbEntity
  8
Profilo
  6
Continuous
370
     0
100
AcDbPolyline
 90
        3
 70
   128
 43
0.0
 10
0.1707803502880694
 20
0.1827410015879605
 10
0.166896209171588
 20
0.1846612406765935
 10
0.1657741843126264
 20
0.1852284766545828
  0
LWPOLYLINE
  5
210D
330
2
100
AcDbEntity
  8
Profilo
  6
Continuous
370
     0
100
AcDbPolyline
 90
        4
 70
   128
 43
0.0
 10
0.1709855355590388
 20
0.1840727549997734
 10
0.1676704753932565
 20
0.1855838696719601
 10
0.1665953327945804
 20
0.1869297105781671
 10
0.1657040025600391
 20
0.1887334036511645
  0
LWPOLYLINE
  5
210E
330
2
100
AcDbEntity
  8
Profilo
  6
Continuous
370
     0
100
AcDbPolyline
 90
        4
 70
   128
 43
0.0
 10
0.1734389098154256
 20
0.1833008403734993
 10
0.1699854086920673
 20
0.1866643688752356
 10
0.1682511469787524
 20
0.1895187018407643
 10
0.1676993066551073
 20
0.1917709288750413
  0
LWPOLYLINE
  5
210F
330
2
100
AcDbEntity
  8
Profilo
  6
Continuous
370
     0
100
AcDbPolyline
 90
        2
 70
   128
 43
0.0
 10
0.1756523258084233
 20
0.1681652938827773
 10
0.1741022810364381
 20
0.1678516978117122
  0
LWPOLYLINE
  5
2110
330
2
100
AcDbEntity
  8
Profilo
  6
Continuous
370
     0
100
AcDbPolyline
 90
       12
 70
   128
 43
0.0
 10
0.1740628528353696
 20
0.1723862502133806
 10
0.1741341395185323
 20
0.1709754410207966
 10
0.1748588993619453
 20
0.1705570007301036
 10
0.1762225131646158
 20
0.1698502864187836
 10
0.1781859573026701
 20
0.1697640692851214
 10
0.17960169890965
 20
0.1709608839551739
 10
0.1799839388010476
 20
0.1731572242174799
 10
0.1783209622959738
 20
0.1746007488419701
 10
0.1760930426327736
 20
0.1754842026523447
 10
0.1742410137323294
 20
0.1753449571991368
 10
0.1728023855439105
 20
0.1748059008724652
 10
0.1712470979198155
 20
0.1733673854107742
  0
LWPOLYLINE
  5
2111
330
2
100
AcDbEntity
  8
Profilo
  6
Continuous
370
     0
100
AcDbPolyline
 90
        2
 70
   128
 43
0.0
 10
0.1780152518108835
 20
0.1721185219605164
 10
0.1767052794871269
 20
0.1731971056648049
  0
LWPOLYLINE
  5
2112
330
2
100
AcDbEntity
  8
Profilo
  6
Continuous
370
     0
100
AcDbPolyline
 90
        3
 70
   128
 43
0.0
 10
0.1870951974667179
 20
0.1879849289794348
 10
0.185676428510531
 20
0.1898514334861896
 10
0.1840123457289255
 20
0.1892008379754171
  0
LWPOLYLINE
  5
2113
330
2
100
AcDbEntity
  8
Profilo
  6
Continuous
370
     0
100
AcDbPolyline
 90
       15
 70
   129
 43
0.0
 10
0.1905954680114821
 20
0.1983714598262747
 10
0.1863883759118234
 20
0.1959663662328133
 10
0.1827597425866685
 20
0.1933078709032512
 10
0.1787199212315169
 20
0.1952374235348668
 10
0.1756438272374297
 20
0.1960465978471459
 10
0.1733461333486801
 20
0.1968091957476266
 10
0.173532565663951
 20
0.1978295084612758
 10
0.1743833614208921
 20
0.1984662476546841
 10
0.179976546635551
 20
0.2031326451343007
 10
0.1863710224458899
 20
0.2070947180353402
 10
0.1902615113450565
 20
0.2083935161413315
 10
0.1919833692313144
 20
0.2084467820035281
 10
0.1921176752171956
 20
0.2075635648842589
 10
0.1914938478570089
 20
0.205506702103738
 10
0.1906194636903287
 20
0.1998078230978741
  0
LWPOLYLINE
  5
2114
330
2
100
AcDbEntity
  8
Profilo
  6
Continuous
370
     0
100
AcDbPolyline
 90
       31
 70
   129
 43
0.0
 10
0.1816466854615282
 20
0.1976566046227233
 10
0.1814347436638428
 20
0.196731591408688
 10
0.180107530713034
 20
0.1959670724951463
 10
0.1792229570052068
 20
0.1973640253703666
 10
0.1785492158686956
 20
0.1975918730274522
 10
0.177255376420538
 20
0.1984194400658552
 10
0.1776256184080314
 20
0.1998976002837667
 10
0.1787971511201682
 20
0.200671432740291
 10
0.1794172507777674
 20
0.2000717156902367
 10
0.1814328227201312
 20
0.201889027537947
 10
0.1833853753597747
 20
0.2031787473123425
 10
0.1856654228272845
 20
0.2041988224833409
 10
0.1867322953536057
 20
0.204791378180504
 10
0.1874045214695581
 20
0.2060951877805581
 10
0.1888311532289926
 20
0.2059160632112893
 10
0.1894163657093344
 20
0.2052559197976933
 10
0.1891695367343917
 20
0.2042704802201163
 10
0.188525441397946
 20
0.2034338339985711
 10
0.1890825230987811
 20
0.2023065272064661
 10
0.1882129745151051
 20
0.2013583441320841
 10
0.1871138362375824
 20
0.2012678217666926
 10
0.1866603083170641
 20
0.200482288365706
 10
0.1857423609776205
 20
0.2002871584717911
 10
0.1854148661497543
 20
0.2005568030751887
 10
0.1861947811466855
 20
0.1989785725890614
 10
0.1859640865222651
 20
0.197742115494052
 10
0.1846046076912895
 20
0.1974796330950919
 10
0.1835617323187364
 20
0.1983234398179823
 10
0.1831457101806553
 20
0.1981607909961322
 10
0.1824183303861062
 20
0.1980167707399669
 10
0.1818560058331577
 20
0.1980191581414457
  0
LWPOLYLINE
  5
2115
330
2
100
AcDbEntity
  8
Profilo
  6
Continuous
370
     0
100
AcDbPolyline
 90
        2
 70
   128
 43
0.0
 10
0.1819805280720814
 20
0.2006059972139504
 10
0.1824115738593903
 20
0.1984235109377437
  0
LWPOLYLINE
  5
2116
330
2
100
AcDbEntity
  8
Profilo
  6
Continuous
370
     0
100
AcDbPolyline
 90
        3
 70
   128
 43
0.0
 10
0.1842470626151247
 20
0.2024395495976936
 10
0.1855784091916739
 20
0.2022348694696912
 10
0.1867608334022197
 20
0.2016327650181577
  0
LWPOLYLINE
  5
2117
330
2
100
AcDbEntity
  8
Profilo
  6
Continuous
370
     0
100
AcDbPolyline
 90
        2
 70
   128
 43
0.0
 10
0.1806694479968716
 20
0.1995904616345232
 10
0.1811567566891501
 20
0.1983423044465988
  0
ELLIPSE
  5
2118
330
2
100
AcDbEntity
  8
Profilo
  6
Continuous
370
     0
100
AcDbEllipse
 10
0.1601104967941982
 20
0.1421149602404519
 30
0.0
 11
0.0013891498398579
 21
-0.0026214548672455
 31
0.0
210
0.0
220
0.0
230
1.0
 40
0.8246019661597953
 41
0.0
 42
6.283185307179585
  0
ELLIPSE
  5
2119
330
2
100
AcDbEntity
  8
Profilo
  6
Continuous
370
     0
100
AcDbEllipse
 10
0.159809624413942
 20
0.1421903212730826
 30
0.0
 11
0.0018431588077271
 21
-0.0039653999886165
 31
0.0
210
0.0
220
0.0
230
1.0
 40
0.789328193075015
 41
1.887603617210134
 42
6.765935049911796
  0
ELLIPSE
  5
211A
330
2
100
AcDbEntity
  8
Profilo
  6
Continuous
370
     0
100
AcDbEllipse
 10
0.1635135145197868
 20
0.1361064544579671
 30
0.0
 11
0.0006361495359937
 21
-0.0008270434090141
 31
0.0
210
0.0
220
0.0
230
1.0
 40
0.6508041496962195
 41
0.0
 42
6.283185307179585
  0
LWPOLYLINE
  5
211B
330
2
100
AcDbEntity
  8
Profilo
  6
Continuous
370
     0
100
AcDbPolyline
 90
        2
 70
   128
 43
0.0
 10
0.1637146822092621
 20
0.1351708855549489
 10
0.1626783657402626
 20
0.1324040180133674
  0
LWPOLYLINE
  5
211C
330
2
100
AcDbEntity
  8
Profilo
  6
Continuous
370
     0
100
AcDbPolyline
 90
        3
 70
   128
 43
0.0
 10
0.1626240963748717
 20
0.1365216459777923
 10
0.1604989352852915
 20
0.1368672507150728
 10
0.1595246345582648
 20
0.1372161005793244
  0
LWPOLYLINE
  5
211D
330
2
100
AcDbEntity
  8
Profilo
  6
Continuous
370
     0
100
AcDbPolyline
 90
        5
 70
   128
 43
0.0
 10
0.1624775405638719
 20
0.1316639401323432
 10
0.1618505747826404
 20
0.1342034703910668
 10
0.1605763911071616
 20
0.1345121488145495
 10
0.1611323090096093
 20
0.1357709810363321
 10
0.1586567560685719
 20
0.1373283341459106
  0
LWPOLYLINE
  5
211E
330
2
100
AcDbEntity
  8
Profilo
  6
Continuous
370
     0
100
AcDbPolyline
 90
        2
 70
   128
 43
0.0
 10
0.1626946718112467
 20
0.1356786150931915
 10
0.1616504600385546
 20
0.1350528348403963
  0
ELLIPSE
  5
211F
330
2
100
AcDbEntity
  8
Profilo
  6
Continuous
370
     0
100
AcDbEllipse
 10
0.1676465848624851
 20
0.1305457666397256
 30
0.0
 11
0.0020202981524239
 21
-0.0021725925236673
 31
0.0
210
0.0
220
0.0
230
1.0
 40
0.8246019661597955
 41
0.0
 42
6.283185307179585
  0
ELLIPSE
  5
2120
330
2
100
AcDbEntity
  8
Profilo
  6
Continuous
370
     0
100
AcDbEllipse
 10
0.1673364595894764
 20
0.1305406883052838
 30
0.0
 11
0.0028066757328391
 21
-0.0033532376579828
 31
0.0
210
0.0
220
0.0
230
1.0
 40
0.789328193075015
 41
2.702219286795263
 42
7.44100580417628
  0
LWPOLYLINE
  5
2121
330
2
100
AcDbEntity
  8
Profilo
  6
Continuous
370
     0
100
AcDbPolyline
 90
        9
 70
   129
 43
0.0
 10
0.1844574303609434
 20
0.1515001056603951
 10
0.1854566406733884
 20
0.1496113246190771
 10
0.1867798533701386
 20
0.1476356456183319
 10
0.1835746720425515
 20
0.1473375935227441
 10
0.179395763036954
 20
0.1455641474210041
 10
0.1757964016982729
 20
0.1435773785659657
 10
0.180214288261519
 20
0.1466759713173054
 10
0.1825967203566741
 20
0.1488733609234982
 10
0.183941651586025
 20
0.1506543927827022
  0
LWPOLYLINE
  5
2122
330
2
100
AcDbEntity
  8
Profilo
  6
Continuous
370
     0
100
AcDbPolyline
 90
       13
 70
   128
 43
0.0
 10
0.1733307886963811
 20
0.1592309309426789
 10
0.1743653164937626
 20
0.1602848234337255
 10
0.1767566606775155
 20
0.1605696109156356
 10
0.1788983999447868
 20
0.159705753479928
 10
0.1810643668691849
 20
0.1578513546533902
 10
0.182293178577817
 20
0.1550906016964242
 10
0.1824602648423266
 20
0.1529040372691992
 10
0.1816553384411339
 20
0.1509781728625037
 10
0.1795390816793336
 20
0.1484778520679315
 10
0.1772616806230385
 20
0.1468890300234511
 10
0.1750574247491681
 20
0.1464382940960371
 10
0.1724075650352574
 20
0.1469174646723368
 10
0.1686428352652491
 20
0.1488533527914866
  0
LWPOLYLINE
  5
2123
330
2
100
AcDbEntity
  8
Profilo
  6
Continuous
370
     0
100
AcDbPolyline
 90
       27
 70
   128
 43
0.0
 10
0.1713383099125405
 20
0.1617334241653712
 10
0.1720790046948277
 20
0.1606086011822634
 10
0.1724531798396711
 20
0.1602767034397106
 10
0.172851582512676
 20
0.1589542611235188
 10
0.1731573006847906
 20
0.1585828397293336
 10
0.1738189084436037
 20
0.1575949994891022
 10
0.1739145631920405
 20
0.1560064453027561
 10
0.1746918305655409
 20
0.1554506653781815
 10
0.1747160580937006
 20
0.1544601208045426
 10
0.1737151311650624
 20
0.1546128037848224
 10
0.1727584352848783
 20
0.1557955590247309
 10
0.1720602564097753
 20
0.156214357057975
 10
0.1712676750716326
 20
0.1558480802834516
 10
0.1709313262783194
 20
0.1543753929419709
 10
0.1719913367101373
 20
0.1520651103855473
 10
0.1728400313039131
 20
0.1509113208482669
 10
0.1751293161712724
 20
0.1499500083556713
 10
0.1769623656729262
 20
0.1500951079097517
 10
0.1796062848917437
 20
0.1508910038621316
 10
0.1811412761534434
 20
0.1518685548630381
 10
0.1816221973494567
 20
0.1538813187088794
 10
0.1811340804231083
 20
0.1555172486827385
 10
0.1794745174581251
 20
0.1560202394904566
 10
0.1780445573642506
 20
0.1556512592340717
 10
0.1768807711288129
 20
0.154979346937762
 10
0.176080531462393
 20
0.1541520441449546
 10
0.1756650969915636
 20
0.1528163372150857
  0
LWPOLYLINE
  5
2124
330
2
100
AcDbEntity
  8
Profilo
  6
Continuous
370
     0
100
AcDbPolyline
 90
       11
 70
   128
 43
0.0
 10
0.1746399426637293
 20
0.1539595679518149
 10
0.1746169688958883
 20
0.152576484382887
 10
0.1752602897506019
 20
0.1513041253704257
 10
0.1759873842345954
 20
0.1509933420461667
 10
0.1763875033948281
 20
0.1514069946082022
 10
0.1771588274523559
 20
0.1521262826920249
 10
0.177206028619393
 20
0.1525188185045034
 10
0.178188669860921
 20
0.1520816112379193
 10
0.1791181666194408
 20
0.1525269361672539
 10
0.179918406285859
 20
0.1533542389600617
 10
0.1799473205487949
 20
0.1534622560003109
  0
LWPOLYLINE
  5
2125
330
2
100
AcDbEntity
  8
Profilo
  6
Continuous
370
     0
100
AcDbPolyline
 90
       77
 70
   128
 43
0.0
 10
0.1719583779761375
 20
0.1520955976995024
 10
0.1708712374735555
 20
0.1514679368376899
 10
0.1699371572585111
 20
0.1514120500657183
 10
0.1690660950002307
 20
0.1508285735516974
 10
0.1679320695454507
 20
0.1509795222806312
 10
0.1663658917689013
 20
0.1510420985030003
 10
0.1658947159522235
 20
0.150044957980962
 10
0.1665856963698324
 20
0.14842970535148
 10
0.1672485460079347
 20
0.1472816161005075
 10
0.1669142961282741
 20
0.1466052321508786
 10
0.1659547065597788
 20
0.146454049062104
 10
0.1651159087067437
 20
0.1463726082111179
 10
0.1646702435894731
 20
0.1454707616746189
 10
0.1635388394317836
 20
0.1450592475254298
 10
0.1624745883315182
 20
0.1450893435272804
 10
0.1619752817353337
 20
0.1445593663837505
 10
0.1619779031613895
 20
0.1439969066884372
 10
0.1624314324278622
 20
0.1432113709561871
 10
0.1630473956388467
 20
0.1428418904444153
 10
0.1636701167225016
 20
0.1428791477991562
 10
0.1643048342351427
 20
0.1421982242579567
 10
0.1650067061511606
 20
0.1419589085365329
 10
0.1637518889809222
 20
0.1420401150276778
 10
0.1630620163147647
 20
0.141561248373443
 10
0.1627116335595016
 20
0.140633847757929
 10
0.1626981206350369
 20
0.1398203705451841
 10
0.1631355170259088
 20
0.1387838181470484
 10
0.1635192719378669
 20
0.1381191351418818
 10
0.1644949943819629
 20
0.1385213348965419
 10
0.1638144981936556
 20
0.1378867478932255
 10
0.1641123472214563
 20
0.1370918986179928
 10
0.1646705366737446
 20
0.136125086126381
 10
0.1650891774170038
 20
0.1353999790889362
 10
0.165765538504651
 20
0.1350653661991625
 10
0.1660821404881521
 20
0.1339590762257665
 10
0.1667585030507208
 20
0.1336244641875379
 10
0.1673302026065979
 20
0.1334711303883895
 10
0.1682830371232988
 20
0.1332155741309333
 10
0.1688359851983954
 20
0.1333736818814937
 10
0.1694238176298732
 20
0.1334713647482304
 10
0.1694545698354357
 20
0.1324417416744086
 10
0.1698732119246511
 20
0.1317166323057002
 10
0.1705334401366976
 20
0.1311310027500405
 10
0.1713024636352198
 20
0.1313332963281106
 10
0.1720272234786329
 20
0.1317517366188037
 10
0.1730003259715946
 20
0.1327163969203227
 10
0.173527763347284
 20
0.1327792106853436
 10
0.1742967853708865
 20
0.1329815034118673
 10
0.1745518844181824
 20
0.1339344604376613
 10
0.1746929454558579
 20
0.1352244169031618
 10
0.1750365718133686
 20
0.1357450805037086
 10
0.1756780471986818
 20
0.1354708948290222
 10
0.1760753135601849
 20
0.135619688185054
 10
0.1766803880936347
 20
0.1338742692855064
 10
0.1772291997221167
 20
0.1330631794742407
 10
0.1781565248853667
 20
0.1327123268999801
 10
0.1790302070947831
 20
0.1327333428671427
 10
0.1797362141114611
 20
0.133463227038809
 10
0.1798517657956857
 20
0.1346578871875059
 10
0.1797002205287086
 20
0.1356177703548034
 10
0.1810060578807704
 20
0.1357271573488119
 10
0.1811591166933866
 20
0.1362989305871078
 10
0.1820999533061815
 20
0.1367615543740461
 10
0.1831105644024564
 20
0.1371033286167109
 10
0.1839977595363376
 20
0.1379378217966183
 10
0.1851599157706243
 20
0.1373197096891756
 10
0.1856738402218489
 20
0.1365690462414513
 10
0.1864777508976267
 20
0.1367109134559796
 10
0.1874883605189801
 20
0.137052686847098
 10
0.1881647230815488
 20
0.1367180748088699
 10
0.1879070026081955
 20
0.1363275774783896
 10
0.1873728103096752
 20
0.1358580275499475
 10
0.1875847519783971
 20
0.1349330111531022
 10
0.1883912827342744
 20
0.1345124210035813
 10
0.1888260576990905
 20
0.134038328300758
 10
0.1895373046180388
 20
0.1336432913787067
 10
0.1913934686191432
 20
0.1344732458185893
  0
LWPOLYLINE
  5
2126
330
2
100
AcDbEntity
  8
Profilo
  6
Continuous
370
     0
100
AcDbPolyline
 90
       14
 70
   128
 43
0.0
 10
0.189481044533947
 20
0.1345776189872709
 10
0.1913949836397037
 20
0.1360049030757287
 10
0.1916474599149875
 20
0.1375203221280992
 10
0.1917926573992794
 20
0.1397794761554265
 10
0.1907340549453114
 20
0.1423104284559606
 10
0.1890808636621166
 20
0.1443369608747904
 10
0.1872746134373404
 20
0.1457917168725138
 10
0.1849904308691705
 20
0.1458425921504221
 10
0.1822095646057935
 20
0.1448010314410331
 10
0.1797239231232837
 20
0.1435270826314423
 10
0.1783816850483255
 20
0.1419464655953817
 10
0.1775372384200278
 20
0.1393641652629012
 10
0.1772269842192138
 20
0.1372514180416737
 10
0.1774951874469473
 20
0.1353920748878101
  0
LWPOLYLINE
  5
2127
330
2
100
AcDbEntity
  8
Profilo
  6
Continuous
370
     0
100
AcDbPolyline
 90
        7
 70
   128
 43
0.0
 10
0.1749923081582629
 20
0.135961227216332
 10
0.1745965568173187
 20
0.1373440911174395
 10
0.1751307477698827
 20
0.1378136433771453
 10
0.1746610869737655
 20
0.1383481601122463
 10
0.1745954490658672
 20
0.1394382104011558
 10
0.175069246308599
 20
0.1398728912278813
 10
0.1758101390276145
 20
0.1405423481844603
  0
LWPOLYLINE
  5
2128
330
2
100
AcDbEntity
  8
Profilo
  6
Continuous
370
     0
100
AcDbPolyline
 90
        4
 70
   128
 43
0.0
 10
0.175379497688537
 20
0.1419856399288277
 10
0.1734546684303275
 20
0.1391824166010482
 10
0.171994257245089
 20
0.1369695991116044
 10
0.1708572044411003
 20
0.1340572286637309
  0
LWPOLYLINE
  5
2129
330
2
100
AcDbEntity
  8
Profilo
  6
Continuous
370
     0
100
AcDbPolyline
 90
        3
 70
   128
 43
0.0
 10
0.1738924722192721
 20
0.1417716439265786
 10
0.1702874258289366
 20
0.1393679985921392
 10
0.1692351726325754
 20
0.1386799145495949
  0
LWPOLYLINE
  5
212A
330
2
100
AcDbEntity
  8
Profilo
  6
Continuous
370
     0
100
AcDbPolyline
 90
        4
 70
   128
 43
0.0
 10
0.1728417325685516
 20
0.1426152162896273
 10
0.1698755387915138
 20
0.1404998473070793
 10
0.168172435077949
 20
0.1402416669570385
 10
0.1661647259388328
 20
0.1403715988672634
  0
LWPOLYLINE
  5
212B
330
2
100
AcDbEntity
  8
Profilo
  6
Continuous
370
     0
100
AcDbPolyline
 90
        4
 70
   128
 43
0.0
 10
0.1747369173726501
 20
0.1443539434075123
 10
0.1700972656821147
 20
0.143044887953554
 10
0.1667582099664493
 20
0.1429701397357763
 10
0.1645318039778534
 20
0.1436183455138056
  0
LWPOLYLINE
  5
212C
330
2
100
AcDbEntity
  8
Profilo
  6
Continuous
370
     0
100
AcDbPolyline
 90
        2
 70
   128
 43
0.0
 10
0.1889513931302744
 20
0.138703044641229
 10
0.1884479529083514
 20
0.1372038684561549
  0
LWPOLYLINE
  5
212D
330
2
100
AcDbEntity
  8
Profilo
  6
Continuous
370
     0
100
AcDbPolyline
 90
       12
 70
   128
 43
0.0
 10
0.1845012012331804
 20
0.1394369988332382
 10
0.1857586411754326
 20
0.138793330315516
 10
0.1864834010188456
 20
0.139211770606209
 10
0.1877772404670015
 20
0.1400393376446125
 10
0.1888336287640229
 20
0.1416966215802469
 10
0.1885050276596249
 20
0.1435210971121124
 10
0.1867940611428125
 20
0.1449502966995566
 10
0.1847124438944778
 20
0.1442318791125112
 10
0.1828333906200239
 20
0.1427441709917758
 10
0.1820279662696418
 20
0.1410706441888445
 10
0.1817754886484
 20
0.1395552274677376
 10
0.1822436357699129
 20
0.1374890511442337
  0
LWPOLYLINE
  5
212E
330
2
100
AcDbEntity
  8
Profilo
  6
Continuous
370
     0
100
AcDbPolyline
 90
        2
 70
   128
 43
0.0
 10
0.1867092601892288
 20
0.1427260126254923
 10
0.185120193139328
 20
0.1421308351670087
  0
LWPOLYLINE
  5
212F
330
2
100
AcDbEntity
  8
Profilo
  6
Continuous
370
     0
100
AcDbPolyline
 90
        3
 70
   128
 43
0.0
 10
0.177508521471978
 20
0.1585226797378865
 10
0.1751826966747583
 20
0.1582272420331048
 10
0.1749140875238719
 20
0.1564608063148483
  0
LWPOLYLINE
  5
2130
330
2
100
AcDbEntity
  8
Profilo
  6
Continuous
370
     0
100
AcDbPolyline
 90
       15
 70
   129
 43
0.0
 10
0.1702636571738072
 20
0.1667472683731903
 10
0.1702429832743935
 20
0.1619012729420945
 10
0.1707309911030599
 20
0.1574295366367107
 10
0.1670400388285653
 20
0.1548957250322056
 10
0.1648012263209981
 20
0.1526363366450378
 10
0.1629919502219348
 20
0.1510277743175008
 10
0.1622015496497458
 20
0.1516993857954354
 10
0.1620755152111393
 20
0.1527545661310827
 10
0.1608308890569656
 20
0.1599316053548581
 10
0.1605968711781891
 20
0.1674504203010159
 10
0.1614173234735965
 20
0.1714690815738313
 10
0.162232122826909
 20
0.1729868871761351
 10
0.1630641642821935
 20
0.1726615910121541
 10
0.1645335460221311
 20
0.1710929092803965
 10
0.1690317279309621
 20
0.1674862308764524
  0
LWPOLYLINE
  5
2131
330
2
100
AcDbEntity
  8
Profilo
  6
Continuous
370
     0
100
AcDbPolyline
 90
       31
 70
   129
 43
0.0
 10
0.1664083486651329
 20
0.1586399677502115
 10
0.1671034627084804
 20
0.1579939141622746
 10
0.1671019490338779
 20
0.1564622545738712
 10
0.1654498655021328
 20
0.1563946677089842
 10
0.164915673074649
 20
0.1559251145977325
 10
0.1635520592719786
 20
0.1552184002864121
 10
0.1624570559661507
 20
0.156278119362085
 10
0.1623726637565959
 20
0.1576796126804218
 10
0.1632020837858246
 20
0.1579167762117537
 10
0.1626360315302904
 20
0.1605709686408501
 10
0.1624953777617222
 20
0.1629067887162061
 10
0.1627519904836241
 20
0.1653914053304026
 10
0.1627722584598832
 20
0.1666116218893787
 10
0.1619792392825161
 20
0.1678456915829085
 10
0.1628476815896604
 20
0.1689916286437891
 10
0.1637119887961482
 20
0.1691683658115792
 10
0.1644419900167531
 20
0.1684618858601006
 10
0.1648444992303677
 20
0.1674857598255066
 10
0.1660993164006079
 20
0.1674045533343609
 10
0.1664856927386218
 20
0.1661774106338814
 10
0.1660145182679003
 20
0.1651802677805785
 10
0.1664680461884185
 20
0.164394734379592
 10
0.1661780599638636
 20
0.1635022037173401
 10
0.1657807934733952
 20
0.1633534071784983
 10
0.1675375386658739
 20
0.16323971813557
 10
0.1684929946086306
 20
0.1624217021828
 10
0.1680405716186879
 20
0.161113117779788
 10
0.1667883758745052
 20
0.1606318645756204
 10
0.1667212228170811
 20
0.1601902544245806
 10
0.1664822581203058
 20
0.1594883149162189
 10
0.1661990282935033
 20
0.1590025212689339
  0
LWPOLYLINE
  5
2132
330
2
100
AcDbEntity
  8
Profilo
  6
Continuous
370
     0
100
AcDbPolyline
 90
        2
 70
   128
 43
0.0
 10
0.1640210210606732
 20
0.1604037802274298
 10
0.1661266325129329
 20
0.1596858336913303
  0
LWPOLYLINE
  5
2133
330
2
100
AcDbEntity
  8
Profilo
  6
Continuous
370
     0
100
AcDbPolyline
 90
        3
 70
   128
 43
0.0
 10
0.1635663853887035
 20
0.1632834329121326
 10
0.1644093168674789
 20
0.1643340728046634
 10
0.1655219667235119
 20
0.1650570299832803
  0
LWPOLYLINE
  5
2134
330
2
100
AcDbEntity
  8
Profilo
  6
Continuous
370
     0
100
AcDbPolyline
 90
        2
 70
   128
 43
0.0
 10
0.1642449606332992
 20
0.1587605837861901
 10
0.1655695508120978
 20
0.1585585268992253
  0
ELLIPSE
  5
2135
330
2
100
AcDbEntity
  8
Profilo
  6
Continuous
370
     0
100
AcDbEllipse
 10
0.2037407293344753
 20
0.1122182590724736
 30
0.0
 11
0.0029648214298379
 21
-0.0001076883826428
 31
0.0
210
0.0
220
0.0
230
1.0
 40
0.8246019661597951
 41
0.0
 42
6.283185307179585
  0
ELLIPSE
  5
2136
330
2
100
AcDbEntity
  8
Profilo
  6
Continuous
370
     0
100
AcDbEllipse
 10
0.2035250285756351
 20
0.1119953764641908
 30
0.0
 11
0.0043557165301719
 21
-0.0003864776436075
 31
0.0
210
0.0
220
0.0
230
1.0
 40
0.7893281930750149
 41
1.887603617210134
 42
6.765935049911796
  0
ELLIPSE
  5
2137
330
2
100
AcDbEntity
  8
Profilo
  6
Continuous
370
     0
100
AcDbEllipse
 10
0.2106457568436877
 20
0.1121611059811203
 30
0.0
 11
0.0010343153702355
 21
0.0001373999542692
 31
0.0
210
0.0
220
0.0
230
1.0
 40
0.65080414969622
 41
0.0
 42
6.283185307179585
  0
LWPOLYLINE
  5
2138
330
2
100
AcDbEntity
  8
Profilo
  6
Continuous
370
     0
100
AcDbPolyline
 90
        2
 70
   128
 43
0.0
 10
0.2115565671254309
 20
0.1118675378591174
 10
0.2134345864708464
 20
0.1095866276998132
  0
LWPOLYLINE
  5
2139
330
2
100
AcDbEntity
  8
Profilo
  6
Continuous
370
     0
100
AcDbPolyline
 90
        3
 70
   128
 43
0.0
 10
0.2098414813676257
 20
0.1115984430329489
 10
0.2084795983406824
 20
0.1099308019108784
 10
0.2076903351326216
 20
0.1092614576624742
  0
LWPOLYLINE
  5
213A
330
2
100
AcDbEntity
  8
Profilo
  6
Continuous
370
     0
100
AcDbPolyline
 90
        5
 70
   128
 43
0.0
 10
0.2139751001283976
 20
0.1090426690548272
 10
0.2114623195200469
 20
0.1097694658903379
 10
0.210557904325972
 20
0.1088203296700279
 10
0.2097456825940291
 20
0.1099311848068569
 10
0.207159198767954
 20
0.1085659696262948
  0
LWPOLYLINE
  5
213B
330
2
100
AcDbEntity
  8
Profilo
  6
Continuous
370
     0
100
AcDbPolyline
 90
        2
 70
   128
 43
0.0
 10
0.2106068552480522
 20
0.1112380477114323
 10
0.2106266909578149
 20
0.1100208436629533
  0
ELLIPSE
  5
213C
330
2
100
AcDbEntity
  8
Profilo
  6
Continuous
370
     0
100
AcDbEllipse
 10
0.2175279889281487
 20
0.1129601059844045
 30
0.0
 11
0.00289166939378
 21
0.0006633332613842
 31
0.0
210
0.0
220
0.0
230
1.0
 40
0.8246019661597951
 41
0.0
 42
6.283185307179585
  0
ELLIPSE
  5
213D
330
2
100
AcDbEntity
  8
Profilo
  6
Continuous
370
     0
100
AcDbEllipse
 10
0.2173773242582797
 20
0.1126889904524018
 30
0.0
 11
0.0043073268631593
 21
0.0007540336558325
 31
0.0
210
0.0
220
0.0
230
1.0
 40
0.7893281930750149
 41
2.702219286795263
 42
7.44100580417628
  0
LWPOLYLINE
  5
213E
330
2
100
AcDbEntity
  8
Profilo
  6
Continuous
370
     0
100
AcDbPolyline
 90
        9
 70
   129
 43
0.0
 10
0.2077864217659666
 20
0.1379958947554987
 10
0.2099217592861571
 20
0.1379168457491406
 10
0.2122943538389013
 20
0.1380749420587639
 10
0.210949883861538
 20
0.1351501475575438
 10
0.2103962787350877
 20
0.1306443831477226
 10
0.2103171903656591
 20
0.126533860363506
 10
0.2098426736086392
 20
0.1319091587339849
 10
0.2091308944352423
 20
0.1350711002542781
 10
0.2082609412148972
 20
0.1371263607948405
  0
LWPOLYLINE
  5
213F
330
2
100
AcDbEntity
  8
Profilo
  6
Continuous
370
     0
100
AcDbPolyline
 90
       13
 70
   128
 43
0.0
 10
0.1955280098470098
 20
0.1322253530563233
 10
0.1951325760755953
 20
0.1336482266553007
 10
0.1960816149734583
 20
0.1358615852085783
 10
0.1979006070916647
 20
0.1372844571044638
 10
0.200589547046393
 20
0.1382330400714795
 10
0.2035948350950161
 20
0.1379168457491406
 10
0.2055719985682582
 20
0.1369682644852173
 10
0.2068373828681036
 20
0.135308245570259
 10
0.2079445958129149
 20
0.1322253530563233
 10
0.2081818555373793
 20
0.1294586548647265
 10
0.2074700763639825
 20
0.1273243453178066
 10
0.2057301726152065
 20
0.1252690847772437
 10
0.2021712794401331
 20
0.1229766772176086
  0
LWPOLYLINE
  5
2140
330
2
100
AcDbEntity
  8
Profilo
  6
Continuous
370
     0
100
AcDbPolyline
 90
       27
 70
   128
 43
0.0
 10
0.1923645477514384
 20
0.1317510624243616
 10
0.1937090204207141
 20
0.1318301114307192
 10
0.1941835398696447
 20
0.1319882077403425
 10
0.1955280098470098
 20
0.131672013418004
 10
0.1960025292959404
 20
0.1317510624243616
 10
0.1971888279182678
 20
0.1318301114307192
 10
0.1986123835731508
 20
0.1311186737796848
 10
0.1994823367934941
 20
0.1315139171083808
 10
0.2003522873219268
 20
0.1310396264764186
 10
0.1997195965179603
 20
0.1302491398190266
 10
0.1982169524936488
 20
0.1300119945030458
 10
0.197505173320252
 20
0.1296167528774417
 10
0.197426087642734
 20
0.1287472189167835
 10
0.1985332978956329
 20
0.1277195886465021
 10
0.2010640664953236
 20
0.1274824433305213
 10
0.2024876248421172
 20
0.127640539640145
 10
0.2044647883153594
 20
0.1291424622454795
 10
0.2052556531662741
 20
0.1308024794573463
 10
0.205888346662153
 20
0.1334901286425856
 10
0.2058092582927244
 20
0.135308245570259
 10
0.2043066142684129
 20
0.1367311174661445
 10
0.2026457988890655
 20
0.1371263607948405
 10
0.2013804145892184
 20
0.135940632511844
 10
0.2009849808178057
 20
0.1345177606159584
 10
0.2009849808178057
 20
0.133173936023339
 10
0.2013013262197898
 20
0.1320672567467001
 10
0.202250365117651
 20
0.1310396264764186
  0
LWPOLYLINE
  5
2141
330
2
100
AcDbEntity
  8
Profilo
  6
Continuous
370
     0
100
AcDbPolyline
 90
       11
 70
   128
 43
0.0
 10
0.2007477210933413
 20
0.1307234321540802
 10
0.2019340197156687
 20
0.1300119945030458
 10
0.2033575753705499
 20
0.1299329471997801
 10
0.2039902688664288
 20
0.1304072378317418
 10
0.2038320948194805
 20
0.1309605774700611
 10
0.2035948350950161
 20
0.1319882077403425
 10
0.203278489693032
 20
0.1322253530563233
 10
0.2041484429133771
 20
0.1328577417010006
 10
0.204227528590895
 20
0.1338853719712816
 10
0.2039111831889109
 20
0.1349920512479206
 10
0.2038320948194805
 20
0.1350711002542781
  0
LWPOLYLINE
  5
2142
330
2
100
AcDbEntity
  8
Profilo
  6
Continuous
370
     0
100
AcDbPolyline
 90
       77
 70
   128
 43
0.0
 10
0.201021184339945
 20
0.1274691438865778
 10
0.201021184339945
 20
0.1262138221629523
 10
0.2006025435966858
 20
0.1253769415815662
 10
0.2006723179511987
 20
0.1243308412806066
 10
0.1999745797898846
 20
0.1234242207926957
 10
0.1991372983033646
 20
0.1220991591625458
 10
0.1997652594182533
 20
0.1211925386746349
 10
0.2015095994377187
 20
0.1209833189550613
 10
0.202835298713925
 20
0.1209833189550613
 10
0.2032539394571842
 20
0.1203556580932488
 10
0.2029050730684396
 20
0.1194490376053379
 10
0.2025562039877808
 20
0.1186818969304761
 10
0.2031143934400692
 20
0.1178450163490901
 10
0.2029050730684396
 20
0.1166594345319893
 10
0.2023468836161513
 20
0.1157528140440784
 10
0.2025562039877808
 20
0.1150554132757415
 10
0.2030446190855546
 20
0.1147764536496432
 10
0.2039516776185
 20
0.1147764536496432
 10
0.2045796387333905
 20
0.1151251531822659
 10
0.2048587334595329
 20
0.1156830741375541
 10
0.2057657893005675
 20
0.1158922938571276
 10
0.2063239787528559
 20
0.1163804749058914
 10
0.2056262432834526
 20
0.1153343746049313
 10
0.2056960176379654
 20
0.1144974940235448
 10
0.2063239787528559
 20
0.1137303533486831
 10
0.2070217142222592
 20
0.1133119122064445
 10
0.2081380931268342
 20
0.1131724323933954
 10
0.2089056029507521
 20
0.1131724323933954
 10
0.2090451489678688
 20
0.114218532694355
 10
0.2092544693394984
 20
0.1133119122064445
 10
0.2100917535179292
 20
0.1131724323933954
 10
0.2112081324225059
 20
0.1131724323933954
 10
0.212045413909026
 20
0.1131724323933954
 10
0.2126733777158272
 20
0.1135908718325425
 10
0.2137897539284896
 20
0.1133119122064445
 10
0.2144177177352926
 20
0.1137303533486831
 10
0.2148363584785518
 20
0.1141487927878306
 10
0.2155340939479551
 20
0.114846193556168
 10
0.2156736426569843
 20
0.1154041145114557
 10
0.2158829630286139
 20
0.115962033763652
 10
0.2167900188696468
 20
0.1154738544179805
 10
0.2176273030480793
 20
0.1154738544179805
 10
0.2184645872265101
 20
0.1157528140440784
 10
0.2186739075981396
 20
0.1165199547189402
 10
0.2186739075981396
 20
0.1173568353003267
 10
0.2183250385174826
 20
0.1186818969304761
 10
0.2185343588891122
 20
0.1191700779792399
 10
0.2187436792607436
 20
0.1199372169510098
 10
0.2180459437913385
 20
0.1206346177193471
 10
0.2169993392412763
 20
0.1214017583942089
 10
0.2167202445151339
 20
0.1219596793494966
 10
0.2172784339674205
 20
0.1223781204917356
 10
0.2173482083219351
 20
0.1227965599308827
 10
0.2191623226959134
 20
0.1224478603982604
 10
0.2201391528914609
 20
0.1225176003047848
 10
0.2209066627153788
 20
0.1231452611665977
 10
0.2213253034586398
 20
0.1239124001383676
 10
0.2210462087324956
 20
0.1248887622358947
 10
0.2200693785369481
 20
0.1255861630042316
 10
0.2191623226959134
 20
0.1259348625368544
 10
0.2197205094562911
 20
0.1271204443539551
 10
0.2193018687130301
 20
0.1275388837931022
 10
0.2193716430675447
 20
0.1285849840940623
 10
0.2195809634391743
 20
0.1296310860981138
 10
0.2193018687130301
 20
0.1308166662121226
 10
0.2204182476176051
 20
0.13151406698046
 10
0.2213253034586398
 20
0.1315838068869843
 10
0.2216043981847839
 20
0.1323509475618461
 10
0.2218137185564135
 20
0.1333970478628061
 10
0.2224416823632147
 20
0.1338154890050451
 10
0.2226510027348443
 20
0.1333970478628061
 10
0.222790548751961
 20
0.1326996487975607
 10
0.2236976072849064
 20
0.1324206874683709
 10
0.2244651144169119
 20
0.1329088685171342
 10
0.2250930782237148
 20
0.1330483483301834
 10
0.2257908136931181
 20
0.1334667877693305
 10
0.2260001340647477
 20
0.1354892501678178
  0
LWPOLYLINE
  5
2143
330
2
100
AcDbEntity
  8
Profilo
  6
Continuous
370
     0
100
AcDbPolyline
 90
       14
 70
   128
 43
0.0
 10
0.2249535322065981
 20
0.1338852289115695
 10
0.2246744374804539
 20
0.1362563908426795
 10
0.2234882842213643
 20
0.1372327512371148
 10
0.2216043981847839
 20
0.1384880729607398
 10
0.218883227969771
 20
0.1388367724933626
 10
0.216301603771873
 20
0.1384183330542155
 10
0.2141386230091484
 20
0.1375814524728289
 10
0.2129524724419713
 20
0.1356287299808665
 10
0.2124640573441958
 20
0.1326996487975607
 10
0.2123245086351684
 20
0.1299100457242122
 10
0.2130222441045735
 20
0.1279573249353416
 10
0.2148363584785518
 20
0.1259348625368544
 10
0.2165109241435026
 20
0.1246098009067045
 10
0.218255264162968
 20
0.1239124001383676
  0
LWPOLYLINE
  5
2144
330
2
100
AcDbEntity
  8
Profilo
  6
Continuous
370
     0
100
AcDbPolyline
 90
        7
 70
   128
 43
0.0
 10
0.2165109241435026
 20
0.1220294192560209
 10
0.2151154532046959
 20
0.1223781204917356
 10
0.2149759044956685
 20
0.123075519556981
 10
0.2142781690262634
 20
0.1229360397439323
 10
0.2133013388307159
 20
0.1234242207926957
 10
0.2131617928136009
 20
0.1240518816545082
 10
0.2129524724419713
 20
0.1250282420489435
  0
LWPOLYLINE
  5
2145
330
2
100
AcDbEntity
  8
Profilo
  6
Continuous
370
     0
100
AcDbPolyline
 90
        4
 70
   128
 43
0.0
 10
0.2114872244567376
 20
0.1253769415815662
 10
0.2129524724419713
 20
0.1223083788821193
 10
0.2141386230091484
 20
0.1199372169510098
 10
0.2160922834002434
 20
0.1174963151133754
  0
LWPOLYLINE
  5
2146
330
2
100
AcDbEntity
  8
Profilo
  6
Continuous
370
     0
100
AcDbPolyline
 90
        3
 70
   128
 43
0.0
 10
0.2109290376963617
 20
0.1239821417479838
 10
0.2112081324225059
 20
0.1196582573249119
 10
0.211277904085108
 20
0.1184029373043782
  0
LWPOLYLINE
  5
2147
330
2
100
AcDbEntity
  8
Profilo
  6
Continuous
370
     0
100
AcDbPolyline
 90
        4
 70
   128
 43
0.0
 10
0.20967311277467
 20
0.12349396069922
 10
0.2100219791634164
 20
0.1198674770444854
 10
0.2093940180485259
 20
0.1182634557882372
 10
0.2082776391439509
 20
0.116589694625465
  0
LWPOLYLINE
  5
2148
330
2
100
AcDbEntity
  8
Profilo
  6
Continuous
370
     0
100
AcDbPolyline
 90
        4
 70
   128
 43
0.0
 10
0.2091149233223817
 20
0.1260046024433787
 10
0.2079287727552046
 20
0.121332018487684
 10
0.2063239787528559
 20
0.1184029373043782
 10
0.2046494130879033
 20
0.11679891604813
  0
LWPOLYLINE
  5
2149
330
2
100
AcDbEntity
  8
Profilo
  6
Continuous
370
     0
100
AcDbPolyline
 90
        2
 70
   128
 43
0.0
 10
0.2211159830870102
 20
0.1354892501678178
 10
0.2221625876370705
 20
0.1343036700538085
  0
LWPOLYLINE
  5
214A
330
2
100
AcDbEntity
  8
Profilo
  6
Continuous
370
     0
100
AcDbPolyline
 90
       12
 70
   128
 43
0.0
 10
0.218255264162968
 20
0.1320022480292238
 10
0.2194414174220576
 20
0.1327693887040851
 10
0.2194414174220576
 20
0.1336062692854711
 10
0.2193716430675447
 20
0.1351405506351946
 10
0.2184645872265101
 20
0.1368840517044916
 10
0.2167202445151339
 20
0.1375117125663046
 10
0.2146270381069222
 20
0.1367445718914428
 10
0.214208397363663
 20
0.1345826296799069
 10
0.2145572637524076
 20
0.1322114677487973
 10
0.2156038683024697
 20
0.1306771863990739
 10
0.2167900188696468
 20
0.1297008260046386
 10
0.2188134536152564
 20
0.1290731651428256
  0
LWPOLYLINE
  5
214B
330
2
100
AcDbEntity
  8
Profilo
  6
Continuous
370
     0
100
AcDbPolyline
 90
        2
 70
   128
 43
0.0
 10
0.2165109241435026
 20
0.1355589900743421
 10
0.2162318294173602
 20
0.1338852289115695
  0
LWPOLYLINE
  5
214C
330
2
100
AcDbEntity
  8
Profilo
  6
Continuous
370
     0
100
AcDbPolyline
 90
        3
 70
   128
 43
0.0
 10
0.1982302397704192
 20
0.1354892501678178
 10
0.1973231839293845
 20
0.1333273079562813
 10
0.1987186575601036
 20
0.1322114677487973
  0
LWPOLYLINE
  5
214D
330
2
100
AcDbEntity
  8
Profilo
  6
Continuous
370
     0
100
AcDbPolyline
 90
       15
 70
   129
 43
0.0
 10
0.1874851049274824
 20
0.1333273079562813
 10
0.191671523127729
 20
0.1308864061186474
 10
0.1957881642815486
 20
0.1290731651428256
 10
0.1961370333622074
 20
0.1246098009067045
 10
0.1969743148487275
 20
0.1215412382072576
 10
0.1974627326384119
 20
0.1191700779792399
 10
0.1964858997509537
 20
0.1188213767435253
 10
0.1955090695554062
 20
0.1192398178857643
 10
0.1886712581865719
 20
0.121750459629923
 10
0.1820427644974565
 20
0.1253072016750418
 10
0.1789727278936972
 20
0.128027064841866
 10
0.1780656693607518
 20
0.1294916045819727
 10
0.178763404830157
 20
0.1300495255372609
 10
0.1808566139302794
 20
0.1305377065860247
 10
0.1862291800057907
 20
0.1326299071879444
  0
LWPOLYLINE
  5
214E
330
2
100
AcDbEntity
  8
Profilo
  6
Continuous
370
     0
100
AcDbPolyline
 90
       31
 70
   129
 43
0.0
 10
0.1925785789687637
 20
0.1259348625368544
 10
0.1934856348097966
 20
0.1262138221629523
 10
0.1948113340860011
 20
0.125446681488091
 10
0.194043824262085
 20
0.1239821417479838
 10
0.1941833729711124
 20
0.1232847409796465
 10
0.1941135986165978
 20
0.121750459629923
 10
0.1926483533232766
 20
0.121332018487684
 10
0.1913924284015849
 20
0.1219596793494966
 10
0.1916017487732162
 20
0.1227965599308827
 10
0.1890201245753182
 20
0.1236334405122692
 10
0.1869269181671065
 20
0.1246795408132293
 10
0.1849034834214986
 20
0.1261440822564279
 10
0.1838568788714365
 20
0.1267717431182405
 10
0.1823916335781153
 20
0.1267020032117161
 10
0.1818334441258269
 20
0.128027064841866
 10
0.1821125388519711
 20
0.1288639454232521
 10
0.1830893690475186
 20
0.1291429050493504
 10
0.1841359735975807
 20
0.1290034252363013
 10
0.184833709066984
 20
0.1300495255372609
 10
0.1860896339886757
 20
0.129770565911163
 10
0.1867175977954769
 20
0.1288639454232521
 10
0.1876246536365116
 20
0.1288639454232521
 10
0.1882526147514003
 20
0.1281665446549152
 10
0.1881828430887982
 20
0.1277481035126757
 10
0.1891596732843457
 20
0.1292126449558748
 10
0.1903458238515245
 20
0.1296310860981138
 10
0.1912528796925574
 20
0.1285849840940623
 10
0.1910435593209279
 20
0.1272599241670043
 10
0.1913924284015849
 20
0.126980962837814
 10
0.1918808434993586
 20
0.1264230435856182
 10
0.1921599382255028
 20
0.1259348625368544
  0
LWPOLYLINE
  5
214F
330
2
100
AcDbEntity
  8
Profilo
  6
Continuous
370
     0
100
AcDbPolyline
 90
        2
 70
   128
 43
0.0
 10
0.189857408753749
 20
0.1247492824228455
 10
0.1915319744187016
 20
0.1262138221629523
  0
LWPOLYLINE
  5
2150
330
2
100
AcDbEntity
  8
Profilo
  6
Continuous
370
     0
100
AcDbPolyline
 90
        3
 70
   128
 43
0.0
 10
0.1871362385387361
 20
0.1257953827238052
 10
0.1866478234409623
 20
0.1270507027443388
 10
0.1865780490864495
 20
0.1283757643744887
  0
LWPOLYLINE
  5
2151
330
2
100
AcDbEntity
  8
Profilo
  6
Continuous
370
     0
100
AcDbPolyline
 90
        2
 70
   128
 43
0.0
 10
0.1913924284015849
 20
0.124121621561033
 10
0.1922297098881049
 20
0.1251677218619926
  0
ELLIPSE
  5
2152
330
2
100
AcDbEntity
  8
Profilo
  6
Continuous
370
     0
100
AcDbEllipse
 10
0.2514471483054361
 20
0.1350547982413879
 30
0.0
 11
0.0015756715899801
 21
0.0025137664846028
 31
0.0
210
0.0
220
0.0
230
1.0
 40
0.8246019661597955
 41
0.0
 42
6.283185307179585
  0
ELLIPSE
  5
2153
330
2
100
AcDbEntity
  8
Profilo
  6
Continuous
370
     0
100
AcDbEllipse
 10
0.2515323199268504
 20
0.1347565546004739
 30
0.0
 11
0.0025125577224448
 21
0.003578922345009
 31
0.0
210
0.0
220
0.0
230
1.0
 40
0.7893281930750148
 41
1.887603617210134
 42
6.765935049911796
  0
ELLIPSE
  5
2154
330
2
100
AcDbEntity
  8
Profilo
  6
Continuous
370
     0
100
AcDbEllipse
 10
0.2549491580890599
 20
0.1410061509325189
 30
0.0
 11
0.0003981658342419
 21
0.0009644433632832
 31
0.0
210
0.0
220
0.0
230
1.0
 40
0.6508041496962198
 41
0.0
 42
6.283185307179585
  0
LWPOLYLINE
  5
2155
330
2
100
AcDbEntity
  8
Profilo
  6
Continuous
370
     0
100
AcDbPolyline
 90
        2
 70
   128
 43
0.0
 10
0.2556588006813261
 20
0.1416481517135346
 10
0.2585731364957411
 20
0.1421341090958115
  0
LWPOLYLINE
  5
2156
330
2
100
AcDbEntity
  8
Profilo
  6
Continuous
370
     0
100
AcDbPolyline
 90
        3
 70
   128
 43
0.0
 10
0.255034300757913
 20
0.1400282964645223
 10
0.25579757882055
 20
0.1380150506051718
 10
0.255982616339514
 20
0.1369968564925155
  0
LWPOLYLINE
  5
2157
330
2
100
AcDbEntity
  8
Profilo
  6
Continuous
370
     0
100
AcDbPolyline
 90
        5
 70
   128
 43
0.0
 10
0.259314475329683
 20
0.1423302283318502
 10
0.2574286605025655
 20
0.1405174949086372
 10
0.2577984289839676
 20
0.139259680264844
 10
0.2564302893495789
 20
0.1391117031798905
 10
0.2563193584645393
 20
0.1361891348897504
  0
LWPOLYLINE
  5
2158
330
2
100
AcDbEntity
  8
Profilo
  6
Continuous
370
     0
100
AcDbPolyline
 90
        2
 70
   128
 43
0.0
 10
0.2557290992019645
 20
0.1405109320276066
 10
0.2567931466844175
 20
0.1399195082319231
  0
ELLIPSE
  5
2159
330
2
100
AcDbEntity
  8
Profilo
  6
Continuous
370
     0
100
AcDbEllipse
 10
0.2576983198308209
 20
0.1473658387540451
 30
0.0
 11
0.0008713712413561
 21
0.0028359257850515
 31
0.0
210
0.0
220
0.0
230
1.0
 40
0.8246019661597953
 41
0.0
 42
6.283185307179585
  0
ELLIPSE
  5
215A
330
2
100
AcDbEntity
  8
Profilo
  6
Continuous
370
     0
100
AcDbEllipse
 10
0.2578577804339623
 20
0.1470998015564837
 30
0.0
 11
0.0015006511303202
 21
0.0041072713138153
 31
0.0
210
0.0
220
0.0
230
1.0
 40
0.789328193075015
 41
2.702219286795263
 42
7.44100580417628
  0
LWPOLYLINE
  5
215B
330
2
100
AcDbEntity
  8
Profilo
  6
Continuous
370
     0
100
AcDbPolyline
 90
        9
 70
   129
 43
0.0
 10
0.2311459071701822
 20
0.1514472885044693
 10
0.2322820343779259
 20
0.1532570205394297
 10
0.2333314162339199
 20
0.1553907958497982
 10
0.2351921275841438
 20
0.1527640534441654
 10
0.2388174314632927
 20
0.1500317351360847
 10
0.2423377044325434
 20
0.147907981206906
 10
0.2374453011122792
 20
0.1501846868260457
 10
0.2343510898437255
 20
0.1511492387401456
 10
0.2321362053940312
 20
0.1514234674215045
  0
LWPOLYLINE
  5
215C
330
2
100
AcDbEntity
  8
Profilo
  6
Continuous
370
     0
100
AcDbPolyline
 90
       13
 70
   128
 43
0.0
 10
0.230014136915786
 20
0.1379459215230105
 10
0.2285841753469917
 20
0.1383149026309414
 10
0.2271418700611001
 20
0.1402434737023084
 10
0.2268191229120351
 20
0.142530203033902
 10
0.2273420959423671
 20
0.145333184827455
 10
0.2291185722823563
 20
0.1477777434620826
 10
0.2309286494910889
 20
0.1490157266253838
 10
0.2329989601921287
 20
0.149281572117121
 10
0.2362224298987385
 20
0.148699000397758
 10
0.2387370906794981
 20
0.1475211242506416
 10
0.2402295673799735
 20
0.1458375506311356
 10
0.2411395233451063
 20
0.1433031195142731
 10
0.241345359940043
 20
0.1390748238354882
  0
LWPOLYLINE
  5
215D
330
2
100
AcDbEntity
  8
Profilo
  6
Continuous
370
     0
100
AcDbPolyline
 90
       27
 70
   128
 43
0.0
 10
0.2288431536040569
 20
0.1349691376683562
 10
0.2294469314910454
 20
0.1361730096578215
 10
0.2295472757951327
 20
0.1366630037099976
 10
0.2304933430994911
 20
0.1376692517038509
 10
0.230662144376307
 20
0.1381197221043937
 10
0.2311868352398214
 20
0.1391866113509832
 10
0.2325147361462676
 20
0.1400637278862944
 10
0.2326074219931122
 20
0.1410147511395654
 10
0.2334531449933852
 20
0.1415310050812422
 10
0.2338213811180552
 20
0.1405878354435699
 10
0.2332754329739277
 20
0.1391679348876806
 10
0.2332618326756357
 20
0.1383538952288328
 10
0.2339753283362604
 20
0.1378506380426976
 10
0.2354188873824707
 20
0.1382956951138974
 10
0.2368896455503435
 20
0.1403688323543402
 10
0.2374645093033632
 20
0.1416807182012443
 10
0.2371523879092461
 20
0.1441439532991744
 10
0.236110203258507
 20
0.1456588709569604
 10
0.2340989775355684
 20
0.1475506241898201
 10
0.2324848979044383
 20
0.1483911901165866
 10
0.2305013326841152
 20
0.1478012981666308
 10
0.2293286342311145
 20
0.1465606115214681
 10
0.2297228128962523
 20
0.1448718924307535
 10
0.2307573392187123
 20
0.1438180007912524
 10
0.2319211254541518
 20
0.1431460884949427
 10
0.2330377105225541
 20
0.1428667120111111
 10
0.2344021838912464
 20
0.1431747886706991
  0
LWPOLYLINE
  5
215E
330
2
100
AcDbEntity
  8
Profilo
  6
Continuous
370
     0
100
AcDbPolyline
 90
       11
 70
   128
 43
0.0
 10
0.2339246941947692
 20
0.1417153636116315
 10
0.2351339665849377
 20
0.1423870095295245
 10
0.235914201385107
 20
0.1435803212387201
 10
0.2358198003969907
 20
0.1443653951949413
 10
0.2352615071898114
 20
0.1445050822712246
 10
0.2342529234078174
 20
0.1448134244576833
 10
0.233889376838798
 20
0.144658033961186
 10
0.2337766888176151
 20
0.145727629872447
 10
0.2329262777366132
 20
0.1463099352133934
 10
0.2318096926682092
 20
0.1465893116972246
 10
0.2317016900358446
 20
0.1465603436633334
  0
LWPOLYLINE
  5
215F
330
2
100
AcDbEntity
  8
Profilo
  6
Continuous
370
     0
100
AcDbPolyline
 90
       77
 70
   128
 43
0.0
 10
0.2368797221289665
 20
0.1403250455964411
 10
0.2379668626315485
 20
0.1396973847346286
 10
0.2384823021033338
 20
0.1389163909252136
 10
0.239423138716127
 20
0.1384537671382748
 10
0.2398594260095912
 20
0.1373961979214306
 10
0.2405883222996223
 20
0.1360085600689116
 10
0.2416874592311888
 20
0.1360990801030391
 10
0.2427408188330453
 20
0.1375051130129474
 10
0.2434036684711476
 20
0.13865320226392
 10
0.2441565590940691
 20
0.1387019253517359
 10
0.244767282273818
 20
0.1379464879526
 10
0.2452572110461961
 20
0.1372607881287244
 10
0.2462610656157533
 20
0.1373257540838373
 10
0.2471831494018133
 20
0.1365516864159257
 10
0.2476892110497904
 20
0.1356149699261642
 10
0.2483978380176044
 20
0.1354475463013567
 10
0.2488836316893224
 20
0.1357310463705721
 10
0.2493371609557951
 20
0.1365165821028222
 10
0.249349158859701
 20
0.1372347621472167
 10
0.2490055325021903
 20
0.1377554257477636
 10
0.2492778708305838
 20
0.1386455690085371
 10
0.2491341883668525
 20
0.1393730657787242
 10
0.2496912700676876
 20
0.1382457589866193
 10
0.2504509170883598
 20
0.137887745059468
 10
0.2514292609585116
 20
0.1380480050001203
 10
0.2521405093523814
 20
0.1384430410706261
 10
0.2528194918660844
 20
0.1393401136557131
 10
0.2532032467780425
 20
0.1400047966608797
 10
0.2523670703510632
 20
0.1406486972071788
 10
0.2532568869110001
 20
0.1403766637225847
 10
0.2537963220616319
 20
0.1410320331847688
 10
0.2543545115139185
 20
0.1419988456763801
 10
0.2547731522571794
 20
0.1427239527138249
 10
0.2547247549763334
 20
0.1434770050427456
 10
0.2555245292054966
 20
0.1443043353900437
 10
0.255476130449729
 20
0.1450573885705109
 10
0.2553230716371129
 20
0.1456291618088072
 10
0.2550679725898153
 20
0.1465821188346004
 10
0.2546545732237462
 20
0.1469819320393282
 10
0.2542760611638997
 20
0.1474421684247873
 10
0.2551523647993701
 20
0.1479836121529376
 10
0.2555710068885855
 20
0.148708721521646
 10
0.2557480628549715
 20
0.1495733107034041
 10
0.2551883597280788
 20
0.1501381578001957
 10
0.254463599884664
 20
0.1505565980908887
 10
0.253141628311047
 20
0.1509169994195192
 10
0.2528235113069854
 20
0.1513423667032625
 10
0.2522638096550143
 20
0.1519072129485086
 10
0.2513109751383151
 20
0.151651656691052
 10
0.2501233095505775
 20
0.1511288409004132
 10
0.2495005884669226
 20
0.1511660982551541
 10
0.2494173025338977
 20
0.1518587250720795
 10
0.2490898105269093
 20
0.1521283711551948
 10
0.2502988503674377
 20
0.1535250905221197
 10
0.2507268689345032
 20
0.1544059202399097
 10
0.2505670535951712
 20
0.1553844336759833
 10
0.2501120121290157
 20
0.1561305566805906
 10
0.2491269103861917
 20
0.1563770346064515
 10
0.2480345285064196
 20
0.1558797752260914
 10
0.2472790179323638
 20
0.1552685915914167
 10
0.2465313673406779
 20
0.1563447864145089
 10
0.2459596677848008
 20
0.15619145261536
 10
0.2450886055265204
 20
0.1567749291293818
 10
0.2442873148018769
 20
0.157479256890769
 10
0.2431210249418516
 20
0.1578303438248705
 10
0.2430752476121398
 20
0.1591458567006505
 10
0.2434683790019498
 20
0.1599662600548992
 10
0.2429435630523145
 20
0.1605915335152326
 10
0.2421422738025925
 20
0.1612958604250738
 10
0.2420938750468249
 20
0.162048913605541
 10
0.2425609158918078
 20
0.1620209697937822
 10
0.2432346542074431
 20
0.1617931206569789
 10
0.2439297710716683
 20
0.1624391757246348
 10
0.2438907474477965
 20
0.1633479469229191
 10
0.2440839362897815
 20
0.1639615194387911
 10
0.2440704248402365
 20
0.1647749957999895
 10
0.2424235812107618
 20
0.1659675037585946
  0
LWPOLYLINE
  5
2160
330
2
100
AcDbEntity
  8
Profilo
  6
Continuous
370
     0
100
AcDbPolyline
 90
       14
 70
   128
 43
0.0
 10
0.2432894034378084
 20
0.1642591093336647
 10
0.2410963696059092
 20
0.165202987176317
 10
0.2396577400715341
 20
0.1646639285183813
 10
0.2376286565506618
 20
0.1636600962146795
 10
0.2359660887896169
 20
0.1614778434467681
 10
0.2350376558749154
 20
0.1590328715887908
 10
0.234680925336967
 20
0.1567412350096808
 10
0.2357789573379581
 20
0.1547376372398106
 10
0.2380714085035613
 20
0.1528501167658933
 10
0.240417501277042
 20
0.1513344625021356
 10
0.2424574748214052
 20
0.1509623587493256
 10
0.245116035823683
 20
0.1515221966833189
 10
0.2471008556894478
 20
0.1523098822743969
 10
0.2485769924811798
 20
0.1534718246599231
  0
LWPOLYLINE
  5
2161
330
2
100
AcDbEntity
  8
Profilo
  6
Continuous
370
     0
100
AcDbPolyline
 90
        7
 70
   128
 43
0.0
 10
0.2493355317503987
 20
0.1510196914490551
 10
0.2483358121525363
 20
0.1499855287836622
 10
0.2476620724909431
 20
0.1502133755892019
 10
0.247433997817657
 20
0.1495393790410517
 10
0.2465228055300077
 20
0.148937509800906
 10
0.2459094622701592
 20
0.1491304898359926
 10
0.2449592491795141
 20
0.1494373932738493
  0
LWPOLYLINE
  5
2162
330
2
100
AcDbEntity
  8
Profilo
  6
Continuous
370
     0
100
AcDbPolyline
 90
        4
 70
   128
 43
0.0
 10
0.2439246425333579
 20
0.1483428010621042
 10
0.2473147197768011
 20
0.1480774616904372
 10
0.2499612815292185
 20
0.1479191172487715
 10
0.2530519947243004
 20
0.1483905858590102
  0
LWPOLYLINE
  5
2163
330
2
100
AcDbEntity
  8
Profilo
  6
Continuous
370
     0
100
AcDbPolyline
 90
        3
 70
   128
 43
0.0
 10
0.2448534812422469
 20
0.1471619972307714
 10
0.2487376223587283
 20
0.1452417581421383
 10
0.2498596472176899
 20
0.144674522164149
  0
LWPOLYLINE
  5
2164
330
2
100
AcDbEntity
  8
Profilo
  6
Continuous
370
     0
100
AcDbPolyline
 90
        4
 70
   128
 43
0.0
 10
0.2446482959712775
 20
0.1458302438189585
 10
0.2479633561370598
 20
0.1443191291467718
 10
0.2490384987357359
 20
0.1429732882405648
 10
0.2499298289702772
 20
0.1411695951675673
  0
LWPOLYLINE
  5
2165
330
2
100
AcDbEntity
  8
Profilo
  6
Continuous
370
     0
100
AcDbPolyline
 90
        4
 70
   128
 43
0.0
 10
0.2421949217148906
 20
0.1466021584452326
 10
0.2456484228382489
 20
0.1432386299434962
 10
0.2473826845515639
 20
0.1403842969779676
 10
0.2479345248752089
 20
0.1381320699436905
  0
LWPOLYLINE
  5
2166
330
2
100
AcDbEntity
  8
Profilo
  6
Continuous
370
     0
100
AcDbPolyline
 90
        2
 70
   128
 43
0.0
 10
0.239981505721893
 20
0.1617377049359545
 10
0.2415315504938782
 20
0.1620513010070197
  0
LWPOLYLINE
  5
2167
330
2
100
AcDbEntity
  8
Profilo
  6
Continuous
370
     0
100
AcDbPolyline
 90
       12
 70
   128
 43
0.0
 10
0.2415709786949467
 20
0.1575167486053512
 10
0.241499692011784
 20
0.1589275577979352
 10
0.240774932168371
 20
0.1593459980886283
 10
0.2394113183657005
 20
0.1600527123999482
 10
0.2374478742276462
 20
0.1601389295336109
 10
0.2360321326206662
 20
0.1589421148635579
 10
0.2356498927292687
 20
0.1567457746012519
 10
0.2373128692343425
 20
0.1553022499767618
 10
0.2395407888975427
 20
0.1544187961663876
 10
0.2413928177979869
 20
0.1545580416195955
 10
0.2428314459864058
 20
0.1550970979462667
 10
0.2443867336105008
 20
0.1565356134079576
  0
LWPOLYLINE
  5
2168
330
2
100
AcDbEntity
  8
Profilo
  6
Continuous
370
     0
100
AcDbPolyline
 90
        2
 70
   128
 43
0.0
 10
0.2376185797194328
 20
0.1577844768582155
 10
0.2389285520431894
 20
0.1567058931539269
  0
LWPOLYLINE
  5
2169
330
2
100
AcDbEntity
  8
Profilo
  6
Continuous
370
     0
100
AcDbPolyline
 90
        3
 70
   128
 43
0.0
 10
0.2285386340635984
 20
0.141918069839297
 10
0.2299574030197853
 20
0.1400515653325427
 10
0.2316214858013907
 20
0.1407021608433148
  0
LWPOLYLINE
  5
216A
330
2
100
AcDbEntity
  8
Profilo
  6
Continuous
370
     0
100
AcDbPolyline
 90
       15
 70
   129
 43
0.0
 10
0.2250383635188342
 20
0.1315315389924572
 10
0.2292454556184928
 20
0.1339366325859186
 10
0.2328740889436478
 20
0.1365951279154807
 10
0.2369139102987994
 20
0.134665575283865
 10
0.2399900042928866
 20
0.1338564009715859
 10
0.2422876981816362
 20
0.1330938030711053
 10
0.2421012658663653
 20
0.1320734903574561
 10
0.2412504701094242
 20
0.1314367511640477
 10
0.2356572848947653
 20
0.1267703536844311
 10
0.2292628090844264
 20
0.1228082807833917
 10
0.2253723201852598
 20
0.1215094826774004
 10
0.2236504622990019
 20
0.1214562168152038
 10
0.2235161563131207
 20
0.122339433934473
 10
0.2241399836733073
 20
0.1243962967149943
 10
0.2250143678399876
 20
0.1300951757208577
  0
LWPOLYLINE
  5
216B
330
2
100
AcDbEntity
  8
Profilo
  6
Continuous
370
     0
100
AcDbPolyline
 90
       31
 70
   129
 43
0.0
 10
0.2339871460687881
 20
0.1322463941960086
 10
0.2341990878664735
 20
0.1331714074100438
 10
0.2355263008172823
 20
0.1339359263235855
 10
0.2364108745251094
 20
0.1325389734483653
 10
0.2370846156616206
 20
0.1323111257912797
 10
0.2383784551097783
 20
0.1314835587528766
 10
0.2380082131222849
 20
0.1300053985349652
 10
0.236836680410148
 20
0.1292315660784409
 10
0.2362165807525489
 20
0.1298312831284951
 10
0.2342010088101851
 20
0.1280139712807848
 10
0.2322484561705416
 20
0.1267242515063893
 10
0.2299684087030318
 20
0.125704176335391
 10
0.2289015361767106
 20
0.1251116206382279
 10
0.2282293100607582
 20
0.1238078110381737
 10
0.2268026783013237
 20
0.1239869356074426
 10
0.2262174658209819
 20
0.1246470790210385
 10
0.2264642947959246
 20
0.1256325185986156
 10
0.2271083901323703
 20
0.1264691648201608
 10
0.2265513084315351
 20
0.1275964716122662
 10
0.2274208570152112
 20
0.1285446546866478
 10
0.2285199952927339
 20
0.1286351770520397
 10
0.2289735232132521
 20
0.1294207104530263
 10
0.2298914705526958
 20
0.1296158403469407
 10
0.230218965380562
 20
0.1293461957435436
 10
0.2294390503836308
 20
0.1309244262296709
 10
0.2296697450080511
 20
0.1321608833246799
 10
0.2310292238390268
 20
0.13242336572364
 10
0.2320720992115799
 20
0.13157955900075
 10
0.232488121349661
 20
0.1317422078225996
 10
0.2332155011442101
 20
0.1318862280787649
 10
0.2337778256971585
 20
0.1318838406772862
  0
LWPOLYLINE
  5
216C
330
2
100
AcDbEntity
  8
Profilo
  6
Continuous
370
     0
100
AcDbPolyline
 90
        2
 70
   128
 43
0.0
 10
0.2336533034582349
 20
0.1292970016047814
 10
0.233222257670926
 20
0.1314794878809882
  0
LWPOLYLINE
  5
216D
330
2
100
AcDbEntity
  8
Profilo
  6
Continuous
370
     0
100
AcDbPolyline
 90
        3
 70
   128
 43
0.0
 10
0.2313867689151916
 20
0.1274634492210387
 10
0.2300554223386424
 20
0.1276681293490411
 10
0.2288729981280966
 20
0.1282702338005741
  0
LWPOLYLINE
  5
216E
330
2
100
AcDbEntity
  8
Profilo
  6
Continuous
370
     0
100
AcDbPolyline
 90
        2
 70
   128
 43
0.0
 10
0.2349643835334429
 20
0.1303125371842086
 10
0.2344770748411662
 20
0.131560694372133
  0
ELLIPSE
  5
216F
330
2
100
AcDbEntity
  8
Profilo
  6
Continuous
370
     0
100
AcDbEllipse
 10
0.2555233347361181
 20
0.18778803857828
 30
0.0
 11
-0.0013891498398579
 21
0.0026214548672455
 31
0.0
210
0.0
220
0.0
230
1.0
 40
0.8246019661597953
 41
0.0
 42
6.283185307179585
  0
ELLIPSE
  5
2170
330
2
100
AcDbEntity
  8
Profilo
  6
Continuous
370
     0
100
AcDbEllipse
 10
0.2558242071163743
 20
0.1877126775456492
 30
0.0
 11
-0.0018431588077271
 21
0.0039653999886165
 31
0.0
210
0.0
220
0.0
230
1.0
 40
0.789328193075015
 41
1.887603617210134
 42
6.765935049911796
  0
ELLIPSE
  5
2171
330
2
100
AcDbEntity
  8
Profilo
  6
Continuous
370
     0
100
AcDbEllipse
 10
0.2521203170105295
 20
0.1937965443607652
 30
0.0
 11
-0.0006361495359937
 21
0.0008270434090141
 31
0.0
210
0.0
220
0.0
230
1.0
 40
0.6508041496962198
 41
0.0
 42
6.283185307179585
  0
LWPOLYLINE
  5
2172
330
2
100
AcDbEntity
  8
Profilo
  6
Continuous
370
     0
100
AcDbPolyline
 90
        2
 70
   128
 43
0.0
 10
0.2519191493210542
 20
0.1947321132637834
 10
0.2529554657900537
 20
0.1974989808053644
  0
LWPOLYLINE
  5
2173
330
2
100
AcDbEntity
  8
Profilo
  6
Continuous
370
     0
100
AcDbPolyline
 90
        3
 70
   128
 43
0.0
 10
0.2530097351554446
 20
0.1933813528409396
 10
0.2551348962450248
 20
0.1930357481036591
 10
0.2561091969720515
 20
0.1926868982394074
  0
LWPOLYLINE
  5
2174
330
2
100
AcDbEntity
  8
Profilo
  6
Continuous
370
     0
100
AcDbPolyline
 90
        5
 70
   128
 43
0.0
 10
0.2531562909664444
 20
0.1982390586863891
 10
0.2537832567476759
 20
0.195699528427665
 10
0.2550574404231547
 20
0.1953908500041828
 10
0.254501522520707
 20
0.1941320177823997
 10
0.2569770754617444
 20
0.1925746646728212
  0
LWPOLYLINE
  5
2175
330
2
100
AcDbEntity
  8
Profilo
  6
Continuous
370
     0
100
AcDbPolyline
 90
        2
 70
   128
 43
0.0
 10
0.2529391597190695
 20
0.1942243837255404
 10
0.2539833714917616
 20
0.1948501639783355
  0
ELLIPSE
  5
2176
330
2
100
AcDbEntity
  8
Profilo
  6
Continuous
370
     0
100
AcDbEllipse
 10
0.2479872466678312
 20
0.1993572321790067
 30
0.0
 11
-0.0020202981524239
 21
0.0021725925236673
 31
0.0
210
0.0
220
0.0
230
1.0
 40
0.8246019661597953
 41
0.0
 42
6.283185307179585
  0
ELLIPSE
  5
2177
330
2
100
AcDbEntity
  8
Profilo
  6
Continuous
370
     0
100
AcDbEllipse
 10
0.2482973719408399
 20
0.1993623105134481
 30
0.0
 11
-0.0028066757328391
 21
0.0033532376579828
 31
0.0
210
0.0
220
0.0
230
1.0
 40
0.7893281930750149
 41
2.702219286795263
 42
7.44100580417628
  0
LWPOLYLINE
  5
2178
330
2
100
AcDbEntity
  8
Profilo
  6
Continuous
370
     0
100
AcDbPolyline
 90
        9
 70
   129
 43
0.0
 10
0.2311764011693729
 20
0.1784028931583368
 10
0.2301771908569279
 20
0.1802916741996547
 10
0.2288539781601777
 20
0.1822673532004
 10
0.2320591594877648
 20
0.1825654052959878
 10
0.2362380684933623
 20
0.1843388513977278
 10
0.2398374298320434
 20
0.1863256202527661
 10
0.2354195432687973
 20
0.1832270275014269
 10
0.2330371111736404
 20
0.1810296378952336
 10
0.2316921799442912
 20
0.1792486060360301
  0
LWPOLYLINE
  5
2179
330
2
100
AcDbEntity
  8
Profilo
  6
Continuous
370
     0
100
AcDbPolyline
 90
       13
 70
   128
 43
0.0
 10
0.2423030428339352
 20
0.1706720678760534
 10
0.2412685150365537
 20
0.1696181753850068
 10
0.238877170852799
 20
0.1693333879030963
 10
0.2367354315855294
 20
0.1701972453388039
 10
0.2345694646611314
 20
0.1720516441653417
 10
0.2333406529524993
 20
0.1748123971223077
 10
0.2331735666879879
 20
0.1769989615495326
 10
0.2339784930891824
 20
0.1789248259562282
 10
0.2360947498509827
 20
0.1814251467508008
 10
0.2383721509072778
 20
0.1830139687952812
 10
0.2405764067811482
 20
0.1834647047226951
 10
0.2432262664950588
 20
0.1829855341463955
 10
0.2469909962650671
 20
0.1810496460272457
  0
LWPOLYLINE
  5
217A
330
2
100
AcDbEntity
  8
Profilo
  6
Continuous
370
     0
100
AcDbPolyline
 90
       27
 70
   128
 43
0.0
 10
0.2442955216177758
 20
0.1681695746533607
 10
0.2435548268354886
 20
0.1692943976364685
 10
0.2431806516906452
 20
0.1696262953790213
 10
0.2427822490176403
 20
0.170948737695213
 10
0.2424765308455257
 20
0.1713201590893982
 10
0.2418149230867126
 20
0.1723079993296297
 10
0.2417192683382758
 20
0.1738965535159762
 10
0.2409420009647754
 20
0.1744523334405503
 10
0.2409177734366157
 20
0.1754428780141892
 10
0.2419187003652539
 20
0.1752901950339094
 10
0.242875396245438
 20
0.174107439794001
 10
0.243573575120541
 20
0.1736886417607573
 10
0.2443661564586836
 20
0.1740549185352802
 10
0.2447025052519969
 20
0.1755276058767614
 10
0.243642494820179
 20
0.1778378884331846
 10
0.2427938002264032
 20
0.1789916779704654
 10
0.2405045153590439
 20
0.179952990463061
 10
0.2386714658573901
 20
0.1798078909089802
 10
0.2360275466385726
 20
0.1790119949566002
 10
0.2344925553768729
 20
0.1780344439556938
 10
0.2340116341808596
 20
0.1760216801098524
 10
0.234499751107208
 20
0.1743857501359938
 10
0.2361593140721911
 20
0.1738827593282752
 10
0.2375892741660657
 20
0.1742517395846601
 10
0.2387530604015033
 20
0.1749236518809698
 10
0.2395533000679233
 20
0.1757509546737772
 10
0.2399687345387527
 20
0.1770866616036466
  0
LWPOLYLINE
  5
217B
330
2
100
AcDbEntity
  8
Profilo
  6
Continuous
370
     0
100
AcDbPolyline
 90
       11
 70
   128
 43
0.0
 10
0.240993888866587
 20
0.175943430866917
 10
0.241016862634428
 20
0.1773265144358449
 10
0.2403735417797144
 20
0.1785988734483062
 10
0.2396464472957209
 20
0.1789096567725652
 10
0.2392463281354882
 20
0.1784960042105297
 10
0.2384750040779604
 20
0.177776716126707
 10
0.2384278029109232
 20
0.1773841803142284
 10
0.2374451616693953
 20
0.1778213875808126
 10
0.2365156649108755
 20
0.177376062651478
 10
0.2357154252444573
 20
0.1765487598586701
 10
0.2356865109815214
 20
0.1764407428184214
  0
LWPOLYLINE
  5
217C
330
2
100
AcDbEntity
  8
Profilo
  6
Continuous
370
     0
100
AcDbPolyline
 90
       77
 70
   128
 43
0.0
 10
0.2436754535541787
 20
0.1778074011192294
 10
0.2447625940567608
 20
0.1784350619810424
 10
0.2456966742718052
 20
0.1784909487530135
 10
0.2465677365300856
 20
0.1790744252670349
 10
0.2477017619848656
 20
0.1789234765381011
 10
0.249267939761415
 20
0.1788609003157315
 10
0.2497391155780928
 20
0.1798580408377703
 10
0.2490481351604838
 20
0.1814732934672518
 10
0.2483852855223816
 20
0.1826213827182244
 10
0.2487195354020422
 20
0.1832977666678532
 10
0.2496791249705375
 20
0.1834489497566278
 10
0.2505179228235725
 20
0.183530390607614
 10
0.2509635879408432
 20
0.1844322371441134
 10
0.2520949920985327
 20
0.1848437512933021
 10
0.2531592431987981
 20
0.1848136552914519
 10
0.2536585497949826
 20
0.1853436324349818
 10
0.2536559283689268
 20
0.1859060921302946
 10
0.2532023991024541
 20
0.1866916278625448
 10
0.2525864358914696
 20
0.1870611083743165
 10
0.2519637148078146
 20
0.1870238510195756
 10
0.2513289972951735
 20
0.1877047745607756
 10
0.2506271253791557
 20
0.1879440902821989
 10
0.2518819425493941
 20
0.1878628837910541
 10
0.2525718152155516
 20
0.1883417504452889
 10
0.2529221979708147
 20
0.1892691510608029
 10
0.2529357108952794
 20
0.1900826282735477
 10
0.2524983145044075
 20
0.1911191806716839
 10
0.2521145595924494
 20
0.1917838636768505
 10
0.2511388371483534
 20
0.1913816639221899
 10
0.2518193333366607
 20
0.1920162509255063
 10
0.25152148430886
 20
0.1928111002007396
 10
0.2509632948565716
 20
0.1937779126923509
 10
0.2505446541133125
 20
0.1945030197297957
 10
0.2498682930256653
 20
0.1948376326195693
 10
0.2495516910421642
 20
0.1959439225929658
 10
0.2488753284795955
 20
0.1962785346311939
 10
0.2483036289237184
 20
0.1964318684303428
 10
0.2473507944070175
 20
0.196687424687799
 10
0.2467978463319209
 20
0.1965293169372386
 10
0.2462100139004431
 20
0.1964316340705014
 10
0.2461792616948806
 20
0.1974612571443233
 10
0.2457606196056652
 20
0.1981863665130317
 10
0.2451003913936187
 20
0.1987719960686918
 10
0.2443313678950965
 20
0.1985697024906212
 10
0.2436066080516834
 20
0.1981512621999282
 10
0.2426335055587216
 20
0.1971866018984092
 10
0.2421060681830323
 20
0.1971237881333887
 10
0.2413370461594297
 20
0.196921495406865
 10
0.2410819471121339
 20
0.195968538381071
 10
0.2409408860744584
 20
0.1946785819155705
 10
0.2405972597169477
 20
0.1941579183150233
 10
0.2399557843316344
 20
0.1944321039897097
 10
0.2395585179701314
 20
0.1942833106336779
 10
0.2389534434366816
 20
0.1960287295332255
 10
0.2384046318081996
 20
0.1968398193444911
 10
0.2374773066449496
 20
0.1971906719187522
 10
0.2366036244355332
 20
0.1971696559515892
 10
0.2358976174188552
 20
0.1964397717799229
 10
0.2357820657346306
 20
0.1952451116312259
 10
0.2359336110016077
 20
0.1942852284639285
 10
0.2346277736495459
 20
0.1941758414699199
 10
0.2344747148369297
 20
0.193604068231624
 10
0.2335338782241347
 20
0.1931414444446857
 10
0.2325232671278599
 20
0.1927996702020214
 10
0.2316360719939787
 20
0.1919651770221136
 10
0.230473915759692
 20
0.1925832891295567
 10
0.2299599913084673
 20
0.193333952577281
 10
0.2291560806326895
 20
0.1931920853627527
 10
0.2281454710113362
 20
0.1928503119716338
 10
0.2274691084487674
 20
0.193184924009862
 10
0.2277268289221208
 20
0.1935754213403422
 10
0.2282610212206411
 20
0.1940449712687844
 10
0.2280490795519192
 20
0.1949699876656301
 10
0.2272425487960419
 20
0.1953905778151506
 10
0.2268077738312257
 20
0.1958646705179738
 10
0.2260965269122774
 20
0.1962597074400252
 10
0.2242403629111731
 20
0.195429753000143
  0
LWPOLYLINE
  5
217D
330
2
100
AcDbEntity
  8
Profilo
  6
Continuous
370
     0
100
AcDbPolyline
 90
       14
 70
   128
 43
0.0
 10
0.2261527869963693
 20
0.1953253798314614
 10
0.2242388478906125
 20
0.1938980957430036
 10
0.2239863716153287
 20
0.1923826766906327
 10
0.2238411741310369
 20
0.1901235226633058
 10
0.2248997765850049
 20
0.1875925703627716
 10
0.2265529678681997
 20
0.1855660379439419
 10
0.2283592180929759
 20
0.184111281946218
 10
0.2306434006611457
 20
0.1840604066683102
 10
0.2334242669245228
 20
0.1851019673776992
 10
0.2359099084070326
 20
0.1863759161872895
 10
0.2372521464819908
 20
0.1879565332233506
 10
0.2380965931102885
 20
0.1905388335558307
 10
0.2384068473111025
 20
0.1926515807770581
 10
0.238138644083369
 20
0.1945109239309217
  0
LWPOLYLINE
  5
217E
330
2
100
AcDbEntity
  8
Profilo
  6
Continuous
370
     0
100
AcDbPolyline
 90
        7
 70
   128
 43
0.0
 10
0.2406415233720534
 20
0.1939417716023999
 10
0.2410372747129976
 20
0.1925589077012924
 10
0.2405030837604336
 20
0.1920893554415865
 10
0.2409727445565508
 20
0.191554838706486
 10
0.2410383824644491
 20
0.1904647884175765
 10
0.2405645852217173
 20
0.1900301075908506
 10
0.2398236925027017
 20
0.1893606506342715
  0
LWPOLYLINE
  5
217F
330
2
100
AcDbEntity
  8
Profilo
  6
Continuous
370
     0
100
AcDbPolyline
 90
        4
 70
   128
 43
0.0
 10
0.2402543338417793
 20
0.1879173588899041
 10
0.2421791630999888
 20
0.1907205822176836
 10
0.2436395742852273
 20
0.1929333997071274
 10
0.244776627089216
 20
0.1958457701550009
  0
LWPOLYLINE
  5
2180
330
2
100
AcDbEntity
  8
Profilo
  6
Continuous
370
     0
100
AcDbPolyline
 90
        3
 70
   128
 43
0.0
 10
0.2417413593110442
 20
0.1881313548921537
 10
0.2453464057013797
 20
0.1905350002265926
 10
0.2463986588977409
 20
0.1912230842691369
  0
LWPOLYLINE
  5
2181
330
2
100
AcDbEntity
  8
Profilo
  6
Continuous
370
     0
100
AcDbPolyline
 90
        4
 70
   128
 43
0.0
 10
0.2427920989617647
 20
0.1872877825291046
 10
0.2457582927388024
 20
0.1894031515116525
 10
0.2474613964523673
 20
0.1896613318616937
 10
0.2494691055914835
 20
0.1895313999514685
  0
LWPOLYLINE
  5
2182
330
2
100
AcDbEntity
  8
Profilo
  6
Continuous
370
     0
100
AcDbPolyline
 90
        4
 70
   128
 43
0.0
 10
0.2408969141576662
 20
0.18554905541122
 10
0.2455365658482016
 20
0.1868581108651779
 10
0.248875621563867
 20
0.1869328590829555
 10
0.2511020275524629
 20
0.1862846533049263
  0
LWPOLYLINE
  5
2183
330
2
100
AcDbEntity
  8
Profilo
  6
Continuous
370
     0
100
AcDbPolyline
 90
        2
 70
   128
 43
0.0
 10
0.2266824384000419
 20
0.1911999541775029
 10
0.2271858786219649
 20
0.1926991303625774
  0
LWPOLYLINE
  5
2184
330
2
100
AcDbEntity
  8
Profilo
  6
Continuous
370
     0
100
AcDbPolyline
 90
       12
 70
   128
 43
0.0
 10
0.2311326302971359
 20
0.1904659999854936
 10
0.2298751903548837
 20
0.1911096685032163
 10
0.2291504305114707
 20
0.1906912282125233
 10
0.2278565910633148
 20
0.1898636611741194
 10
0.2268002027662934
 20
0.188206377238485
 10
0.2271288038706913
 20
0.1863819017066195
 10
0.2288397703875038
 20
0.1849527021191752
 10
0.2309213876358385
 20
0.1856711197062206
 10
0.2328004409102924
 20
0.1871588278269565
 10
0.2336058652606745
 20
0.1888323546298878
 10
0.2338583428819163
 20
0.1903477713509942
 10
0.2333901957604034
 20
0.1924139476744981
  0
LWPOLYLINE
  5
2185
330
2
100
AcDbEntity
  8
Profilo
  6
Continuous
370
     0
100
AcDbPolyline
 90
        2
 70
   128
 43
0.0
 10
0.2289245713410875
 20
0.1871769861932395
 10
0.2305136383909883
 20
0.1877721636517231
  0
LWPOLYLINE
  5
2186
330
2
100
AcDbEntity
  8
Profilo
  6
Continuous
370
     0
100
AcDbPolyline
 90
        3
 70
   128
 43
0.0
 10
0.2381253100583383
 20
0.1713803190808454
 10
0.240451134855558
 20
0.1716757567856271
 10
0.2407197440064444
 20
0.1734421925038836
  0
LWPOLYLINE
  5
2187
330
2
100
AcDbEntity
  8
Profilo
  6
Continuous
370
     0
100
AcDbPolyline
 90
       15
 70
   129
 43
0.0
 10
0.2453701743565091
 20
0.163155730445542
 10
0.2453908482559228
 20
0.1680017258766373
 10
0.2449028404272564
 20
0.1724734621820212
 10
0.248593792701751
 20
0.1750072737865262
 10
0.2508326052093182
 20
0.177266662173694
 10
0.2526418813083815
 20
0.1788752245012315
 10
0.2534322818805705
 20
0.1782036130232965
 10
0.253558316319177
 20
0.1771484326876496
 10
0.2548029424733507
 20
0.1699713934638742
 10
0.2550369603521272
 20
0.162452578517716
 10
0.2542165080567198
 20
0.1584339172449005
 10
0.2534017087034073
 20
0.1569161116425968
 10
0.2525696672481228
 20
0.1572414078065782
 10
0.2511002855081852
 20
0.1588100895383353
 10
0.2466021035993542
 20
0.1624167679422794
  0
LWPOLYLINE
  5
2188
330
2
100
AcDbEntity
  8
Profilo
  6
Continuous
370
     0
100
AcDbPolyline
 90
       31
 70
   129
 43
0.0
 10
0.2492254828651834
 20
0.1712630310685204
 10
0.2485303688218359
 20
0.1719090846564573
 10
0.2485318824964384
 20
0.1734407442448607
 10
0.2501839660281835
 20
0.1735083311097476
 10
0.2507181584556672
 20
0.1739778842209994
 10
0.2520817722583377
 20
0.1746845985323198
 10
0.2531767755641656
 20
0.1736248794566473
 10
0.2532611677737204
 20
0.17222338613831
 10
0.2524317477444917
 20
0.1719862226069782
 10
0.2529978000000259
 20
0.1693320301778818
 10
0.2531384537685941
 20
0.1669962101025262
 10
0.2528818410466922
 20
0.1645115934883292
 10
0.2528615730704331
 20
0.1632913769293531
 10
0.2536545922478002
 20
0.1620573072358238
 10
0.2527861499406558
 20
0.1609113701749427
 10
0.2519218427341681
 20
0.1607346330071526
 10
0.2511918415135632
 20
0.1614411129586313
 10
0.2507893322999486
 20
0.1624172389932257
 10
0.2495345151297084
 20
0.162498445484371
 10
0.2491481387916945
 20
0.1637255881848509
 10
0.249619313262416
 20
0.1647227310381534
 10
0.2491657853418978
 20
0.1655082644391399
 10
0.2494557715664527
 20
0.1664007951013917
 10
0.249853038056921
 20
0.1665495916402335
 10
0.2480962928644423
 20
0.1666632806831618
 10
0.2471408369216856
 20
0.1674812966359318
 10
0.2475932599116284
 20
0.1687898810389439
 10
0.2488454556558111
 20
0.1692711342431115
 10
0.2489126087132352
 20
0.1697127443941513
 10
0.2491515734100105
 20
0.1704146839025133
 10
0.249434803236813
 20
0.170900477549798
  0
LWPOLYLINE
  5
2189
330
2
100
AcDbEntity
  8
Profilo
  6
Continuous
370
     0
100
AcDbPolyline
 90
        2
 70
   128
 43
0.0
 10
0.2516128104696431
 20
0.169499218591302
 10
0.2495071990173834
 20
0.1702171651274016
  0
LWPOLYLINE
  5
218A
330
2
100
AcDbEntity
  8
Profilo
  6
Continuous
370
     0
100
AcDbPolyline
 90
        3
 70
   128
 43
0.0
 10
0.2520674461416128
 20
0.1666195659065992
 10
0.2512245146628373
 20
0.1655689260140685
 10
0.2501118648068044
 20
0.1648459688354515
  0
LWPOLYLINE
  5
218B
330
2
100
AcDbEntity
  8
Profilo
  6
Continuous
370
     0
100
AcDbPolyline
 90
        2
 70
   128
 43
0.0
 10
0.2513888708970171
 20
0.1711424150325422
 10
0.2500642807182185
 20
0.1713444719195065
  0
ARC
  5
218C
330
2
100
AcDbEntity
  8
Profilo
  6
Continuous
370
     0
100
AcDbCircle
 10
0.2078169157651573
 20
0.1649514994093661
 30
0.0
 40
0.0494009056964024
100
AcDbArc
 50
102.6957083761296
 51
143.7110551223396
  0
ARC
  5
218D
330
2
100
AcDbEntity
  8
Profilo
  6
Continuous
370
     0
100
AcDbCircle
 10
0.2078169157651573
 20
0.1649514994093661
 30
0.0
 40
0.0494009056964024
100
AcDbArc
 50
162.6957083761339
 51
203.711055122329
  0
ARC
  5
218E
330
2
100
AcDbEntity
  8
Profilo
  6
Continuous
370
     0
100
AcDbCircle
 10
0.2078169157651573
 20
0.1649514994093661
 30
0.0
 40
0.0494009056964024
100
AcDbArc
 50
222.695708376114
 51
263.7110551223237
  0
ARC
  5
218F
330
2
100
AcDbEntity
  8
Profilo
  6
Continuous
370
     0
100
AcDbCircle
 10
0.207816915765159
 20
0.1649514994093657
 30
0.0
 40
0.0494009056964024
100
AcDbArc
 50
282.6957083761296
 51
323.7110551223395
  0
ARC
  5
2190
330
2
100
AcDbEntity
  8
Profilo
  6
Continuous
370
     0
100
AcDbCircle
 10
0.207816915765159
 20
0.1649514994093661
 30
0.0
 40
0.0494009056964024
100
AcDbArc
 50
342.695708376134
 51
23.71105512232901
  0
DIMENSION
  5
2191
102
{ACAD_XDICTIONARY
360
219B
102
}
102
{ACAD_REACTORS
330
21A2
102
}
330
2
100
AcDbEntity
  8
Sezione
  6
ACAD_ISO10W100
100
AcDbDimension
  2
*D42
 10
0.1634137099536523
 20
0.1209673509731266
 30
0.0
 11
0.2702800468841856
 21
0.211046886970545
 31
0.0
 70
    35
  1
d 500 mm
 71
     5
 42
0.125
  3
Bovelacci
100
AcDbDiametricDimension
 15
0.252220121576662
 25
0.2089356478456055
 35
0.0
 40
0.0
1001
ACAD
1000
DSTYLE
1002
{
1070
   288
1070
     1
1002
}
  0
ENDSEC
  0
SECTION
  2
OBJECTS
  0
DICTIONARY
  5
9
330
0
100
AcDbDictionary
281
     1
  3
ACAD_2007HEADERVARS_RT
350
208
  3
ACAD_COLOR
350
184
  3
ACAD_GROUP
350
17F
  3
ACAD_LAYOUT
350
164
  3
ACAD_MATERIAL
350
B
  3
ACAD_MLINESTYLE
350
180
  3
ACAD_PLOTSETTINGS
350
181
  3
ACAD_PLOTSTYLENAME
350
8
  3
ACAD_TABLESTYLE
350
185
  3
ACAD_VISUALSTYLE
350
17A
  3
ACDBHEADERROUNDTRIPXREC
350
21B2
  3
AcDbVariableDictionary
350
18B
  3
DWGPROPS
350
21B1
  0
DICTIONARY
  5
16E
330
16D
100
AcDbDictionary
280
     1
281
     1
  3
ACAD_LAYERSTATES
360
16F
  0
DICTIONARY
  5
3
330
2
100
AcDbDictionary
280
     1
281
     1
  3
ACAD_SORTENTS
360
18A
  0
DICTIONARY
  5
1378
330
12F0
100
AcDbDictionary
280
     1
281
     1
  3
ACAD_SORTENTS
360
1379
  0
DICTIONARY
  5
21B3
330
18
100
AcDbDictionary
280
     1
281
     1
  3
ACAD_MTEXT_RT
360
21B4
  0
DICTIONARY
  5
219B
330
2191
100
AcDbDictionary
280
     1
281
     1
  3
ACAD_DIMASSOC
360
21A2
  0
DICTIONARY
  5
208
102
{ACAD_REACTORS
330
9
102
}
330
9
100
AcDbDictionary
281
     1
  3
DIMFXL
350
209
  0
DICTIONARY
  5
184
102
{ACAD_REACTORS
330
9
102
}
330
9
100
AcDbDictionary
281
     1
  0
DICTIONARY
  5
17F
102
{ACAD_REACTORS
330
9
102
}
330
9
100
AcDbDictionary
281
     1
  0
DICTIONARY
  5
164
102
{ACAD_REACTORS
330
9
102
}
330
9
100
AcDbDictionary
281
     1
  3
Layout1
350
168
  3
Layout2
350
16C
  3
Model
350
163
  0
DICTIONARY
  5
B
102
{ACAD_REACTORS
330
9
102
}
330
9
100
AcDbDictionary
281
     1
  3
ByBlock
350
183
  3
ByLayer
350
182
  3
Global
350
A
  0
DICTIONARY
  5
180
102
{ACAD_REACTORS
330
9
102
}
330
9
100
AcDbDictionary
281
     1
  3
Standard
350
186
  0
DICTIONARY
  5
181
102
{ACAD_REACTORS
330
9
102
}
330
9
100
AcDbDictionary
281
     1
  0
ACDBDICTIONARYWDFLT
  5
8
102
{ACAD_REACTORS
330
9
102
}
330
9
100
AcDbDictionary
281
     1
  3
Normal
350
7
100
AcDbDictionaryWithDefault
340
7
  0
DICTIONARY
  5
185
102
{ACAD_REACTORS
330
9
102
}
330
9
100
AcDbDictionary
281
     1
  3
Standard
350
187
  0
DICTIONARY
  5
17A
102
{ACAD_REACTORS
330
9
102
}
330
9
100
AcDbDictionary
281
     1
  3
2dWireframe
350
179
  3
3D Hidden
350
1BD
  3
3dWireframe
350
189
  3
Basic
350
1BC
  3
Brighten
350
1C0
  3
ColorChange
350
1C4
  3
Conceptual
350
1BE
  3
Dim
350
1BF
  3
Facepattern
350
1C3
  3
Flat
350
1B8
  3
FlatWithEdges
350
1B9
  3
Gouraud
350
1BA
  3
GouraudWithEdges
350
1BB
  3
Linepattern
350
1C2
  3
Realistic
350
188
  3
Thicken
350
1C1
  0
DICTIONARY
  5
21B2
102
{ACAD_REACTORS
330
9
102
}
330
9
100
AcDbDictionary
281
     1
  0
DICTIONARY
  5
18B
102
{ACAD_REACTORS
330
9
102
}
330
9
100
AcDbDictionary
281
     1
  3
CTABLESTYLE
350
18C
  3
DIMASSOC
350
190
  3
HIDETEXT
350
18F
  3
INDEXCTL
350
18E
  3
PROJECTNAME
350
31D
  3
SORTENTS
350
18D
  0
XRECORD
  5
21B1
102
{ACAD_REACTORS
330
9
102
}
330
9
100
AcDbXrecord
280
     1
  1
DWGPROPS COOKIE
  2

  3

  4

  6

  7

  8
Mario
  9

300
=
301
=
302
=
303
=
304
=
305
=
306
=
307
=
308
=
309
=
 40
0.1876421527777777
 41
2454297.625402373
 42
2454306.905442338
  1

 90
        0
  0
DICTIONARY
  5
16F
102
{ACAD_REACTORS
330
16E
102
}
330
16E
100
AcDbDictionary
281
     1
  0
SORTENTSTABLE
  5
18A
102
{ACAD_REACTORS
330
3
102
}
330
3
100
AcDbSortentsTable
330
2
331
23F
  5
1CA6
331
1E
  5
24
331
24
  5
1F
331
12
  5
1D
331
1D
  5
23
331
23
  5
3BB
331
11
  5
1C
331
D
  5
17
331
1C
  5
22
331
18
  5
21
331
22
  5
2AC
331
10
  5
18
331
1F
  5
25
331
25
  5
1066
331
17
  5
1E
331
21
  5
23F
  0
SORTENTSTABLE
  5
1379
102
{ACAD_REACTORS
330
1378
102
}
330
1378
100
AcDbSortentsTable
330
12F0
  0
XRECORD
  5
21B4
102
{ACAD_REACTORS
330
21B3
102
}
330
21B3
100
AcDbXrecord
280
     1
 40
7955300.0
  1
{\fTimes New Roman|b0|i0|c238|p18;\H1.6x;\C4;Bovelacci\P\pt0.09;\H0.4375x;\T0.95;via del Commercio, 5  47100 Forli - Italy  \fTimes New Roman|b0|i0|c0|p18;\P\fTimes New Roman|b0|i0|c238|p18;tel.+39-0543721386  fax +39-0543721127\fTimes New Roman|b0|i
  1
0|c0|p18; \fTimes New Roman|b0|i0|c238|p18;www.bovelacci.it\fTimes New Roman|b0|i0|c0|p18; \fTimes New Roman|b0|i0|c238|p18;e-mail: bovelacci@bovelacci\fTimes New Roman|b0|i0|c0|p18;.it}
  0
DIMASSOC
  5
21A2
102
{ACAD_REACTORS
330
219B
102
}
330
219B
100
AcDbDimAssoc
330
2191
 90
        2
 70
     0
 71
     0
  1
AcDbOsnapPointRef
 72
     3
331
2018
 73
     2
 91
        0
 40
0.0
 10
0.0
 20
0.0
 30
0.0
 75
     0
  0
XRECORD
  5
209
102
{ACAD_REACTORS
330
208
102
}
330
208
100
AcDbXrecord
280
     1
 40
0.18
  0
LAYOUT
  5
168
102
{ACAD_XDICTIONARY
360
21B7
102
}
102
{ACAD_REACTORS
330
164
102
}
330
164
100
AcDbPlotSettings
  1

  2
C:\Documents and Settings\All Users\Dati applicazioni\Autodesk\ADT 2006\enu\Plotters\Default Windows System Printer.pc3
  4

  6

 40
0.0
 41
0.0
 42
0.0
 43
0.0
 44
0.0
 45
0.0
 46
0.0
 47
0.0
 48
0.0
 49
0.0
140
0.0
141
0.0
142
1.0
143
1.0
 70
   688
 72
     0
 73
     0
 74
     5
  7

 75
    16
147
1.0
148
0.0
149
0.0
100
AcDbLayout
  1
Layout1
 70
     1
 71
     1
 10
0.0
 20
0.0
 11
420.0
 21
297.0
 12
0.0
 22
0.0
 32
0.0
 14
1.000000000000000E+20
 24
1.000000000000000E+20
 34
1.000000000000000E+20
 15
-1.000000000000000E+20
 25
-1.000000000000000E+20
 35
-1.000000000000000E+20
146
0.0
 13
0.0
 23
0.0
 33
0.0
 16
1.0
 26
0.0
 36
0.0
 17
0.0
 27
1.0
 37
0.0
 76
     0
330
165
  0
LAYOUT
  5
16C
102
{ACAD_XDICTIONARY
360
21B9
102
}
102
{ACAD_REACTORS
330
164
102
}
330
164
100
AcDbPlotSettings
  1

  2
C:\Documents and Settings\All Users\Dati applicazioni\Autodesk\ADT 2006\enu\Plotters\Default Windows System Printer.pc3
  4

  6

 40
0.0
 41
0.0
 42
0.0
 43
0.0
 44
0.0
 45
0.0
 46
0.0
 47
0.0
 48
0.0
 49
0.0
140
0.0
141
0.0
142
1.0
143
1.0
 70
   688
 72
     0
 73
     0
 74
     5
  7

 75
    16
147
1.0
148
0.0
149
0.0
100
AcDbLayout
  1
Layout2
 70
     1
 71
     2
 10
0.0
 20
0.0
 11
12.0
 21
9.0
 12
0.0
 22
0.0
 32
0.0
 14
0.0
 24
0.0
 34
0.0
 15
0.0
 25
0.0
 35
0.0
146
0.0
 13
0.0
 23
0.0
 33
0.0
 16
1.0
 26
0.0
 36
0.0
 17
0.0
 27
1.0
 37
0.0
 76
     0
330
169
  0
LAYOUT
  5
163
102
{ACAD_XDICTIONARY
360
21B5
102
}
102
{ACAD_REACTORS
330
164
102
}
330
164
100
AcDbPlotSettings
  1

  2
C:\Documents and Settings\All Users\Dati applicazioni\Autodesk\ADT 2006\enu\Plotters\Default Windows System Printer.pc3
  4

  6

 40
0.0
 41
0.0
 42
0.0
 43
0.0
 44
0.0
 45
0.0
 46
0.0
 47
0.0
 48
0.0
 49
0.0
140
0.0
141
0.0
142
1.0
143
1.0
 70
  1712
 72
     0
 73
     0
 74
     0
  7

 75
     0
147
1.0
148
0.0
149
0.0
100
AcDbLayout
  1
Model
 70
     1
 71
     0
 10
0.0
 20
0.0
 11
12.0
 21
9.0
 12
0.0
 22
0.0
 32
0.0
 14
0.0
 24
0.0
 34
0.0
 15
0.0
 25
0.0
 35
0.0
146
0.0
 13
0.0
 23
0.0
 33
0.0
 16
1.0
 26
0.0
 36
0.0
 17
0.0
 27
1.0
 37
0.0
 76
     0
330
2
  0
MATERIAL
  5
183
102
{ACAD_XDICTIONARY
360
1B0
102
}
102
{ACAD_REACTORS
330
B
102
}
330
B
100
AcDbMaterial
  1
ByBlock
  0
MATERIAL
  5
182
102
{ACAD_XDICTIONARY
360
1AE
102
}
102
{ACAD_REACTORS
330
B
102
}
330
B
100
AcDbMaterial
  1
ByLayer
  0
MATERIAL
  5
A
102
{ACAD_XDICTIONARY
360
193
102
}
102
{ACAD_REACTORS
330
B
102
}
330
B
100
AcDbMaterial
  1
Global
  0
MLINESTYLE
  5
186
102
{ACAD_REACTORS
330
180
102
}
330
180
100
AcDbMlineStyle
  2
STANDARD
 70
     0
  3

 62
   256
 51
90.0
 52
90.0
 71
     2
 49
0.5
 62
   256
  6
BYLAYER
 49
-0.5
 62
   256
  6
BYLAYER
  0
ACDBPLACEHOLDER
  5
7
102
{ACAD_REACTORS
330
8
102
}
330
8
  0
TABLESTYLE
  5
187
102
{ACAD_XDICTIONARY
360
21A
102
}
102
{ACAD_REACTORS
330
185
102
}
330
185
100
AcDbTableStyle
  3
Standard
 70
     0
 71
     0
 40
1.5
 41
1.5
280
     0
281
     0
  7
Standard
140
4.5
170
     2
 62
     0
 63
     7
283
     0
274
    -2
284
     1
 64
     0
275
    -2
285
     1
 65
     0
276
    -2
286
     1
 66
     0
277
    -2
287
     1
 67
     0
278
    -2
288
     1
 68
     0
279
    -2
289
     1
 69
     0
  7
Standard
140
6.0
170
     5
 62
     0
 63
     7
283
     0
274
    -2
284
     1
 64
     0
275
    -2
285
     1
 65
     0
276
    -2
286
     1
 66
     0
277
    -2
287
     1
 67
     0
278
    -2
288
     1
 68
     0
279
    -2
289
     1
 69
     0
  7
Standard
140
4.5
170
     5
 62
     0
 63
     7
283
     0
274
    -2
284
     1
 64
     0
275
    -2
285
     1
 65
     0
276
    -2
286
     1
 66
     0
277
    -2
287
     1
 67
     0
278
    -2
288
     1
 68
     0
279
    -2
289
     1
 69
     0
  0
VISUALSTYLE
  5
179
102
{ACAD_REACTORS
330
17A
102
}
330
17A
100
AcDbVisualStyle
  2
2dWireframe
 70
     4
 71
     0
 72
     2
 73
     0
 90
        0
 40
-0.6
 41
-30.0
 62
     5
 63
     7
 74
     1
 91
        4
 64
     7
 65
   257
 75
     1
175
     1
 42
1.0
 92
        0
 66
   257
 43
1.0
 76
     1
 77
     6
 78
     2
 67
     7
 79
     5
170
     0
171
     0
290
     0
174
     0
 93
        1
 44
0.0
173
     0
291
     0
 45
0.0
1001
ACAD
1000
AcDbSavedByObjectVersion
1070
     0
1000
AcDbSavedByObjectVersion
1070
     0
1000
AcDbSavedByObjectVersion
1070
     0
1001
ACAD
1000
AcRTDxfName
1000
VISUALSTYLE
  0
VISUALSTYLE
  5
1BD
102
{ACAD_REACTORS
330
17A
102
}
330
17A
100
AcDbVisualStyle
  2
3D Hidden
 70
     6
 71
     1
 72
     2
 73
     2
 90
        0
 40
-0.6
 41
-30.0
 62
     5
 63
     7
 74
     2
 91
        2
 64
     7
 65
   257
 75
     2
175
     1
 42
40.0
 92
        0
 66
   257
 43
1.0
 76
     1
 77
     6
 78
     2
 67
     7
 79
     3
170
     0
171
     0
290
     0
174
     0
 93
        1
 44
0.0
173
     0
291
     0
 45
0.0
1001
ACAD
1000
AcDbSavedByObjectVersion
1070
     0
1000
AcDbSavedByObjectVersion
1070
     0
1001
ACAD
1000
AcRTDxfName
1000
VISUALSTYLE
  0
VISUALSTYLE
  5
189
102
{ACAD_REACTORS
330
17A
102
}
330
17A
100
AcDbVisualStyle
  2
3dWireframe
 70
     5
 71
     0
 72
     2
 73
     0
 90
        0
 40
-0.6
 41
-30.0
 62
     5
 63
     7
 74
     1
 91
        4
 64
     7
 65
   257
 75
     1
175
     1
 42
1.0
 92
        0
 66
   257
 43
1.0
 76
     1
 77
     6
 78
     2
 67
     7
 79
     5
170
     0
171
     0
290
     0
174
     0
 93
        1
 44
0.0
173
     0
291
     0
 45
0.0
1001
ACAD
1000
AcDbSavedByObjectVersion
1070
     0
1000
AcDbSavedByObjectVersion
1070
     0
1000
AcDbSavedByObjectVersion
1070
     0
1001
ACAD
1000
AcRTDxfName
1000
VISUALSTYLE
  0
VISUALSTYLE
  5
1BC
102
{ACAD_REACTORS
330
17A
102
}
330
17A
100
AcDbVisualStyle
  2
Basic
 70
     7
 71
     1
 72
     0
 73
     1
 90
        0
 40
-0.6
 41
-30.0
 62
     5
 63
     7
 74
     0
 91
        4
 64
     7
 65
   257
 75
     1
175
     1
 42
1.0
 92
        8
 66
     7
 43
1.0
 76
     1
 77
     6
 78
     2
 67
     7
 79
     5
170
     0
171
     0
290
     0
174
     0
 93
        1
 44
0.0
173
     0
291
     1
 45
0.0
1001
ACAD
1000
AcDbSavedByObjectVersion
1070
     0
1000
AcDbSavedByObjectVersion
1070
     0
1001
ACAD
1000
AcRTDxfName
1000
VISUALSTYLE
  0
VISUALSTYLE
  5
1C0
102
{ACAD_REACTORS
330
17A
102
}
330
17A
100
AcDbVisualStyle
  2
Brighten
 70
    12
 71
     2
 72
     2
 73
     0
 90
        0
 40
-0.6
 41
-30.0
 62
     5
 63
     7
 74
     1
 91
        4
 64
     7
 65
   257
 75
     1
175
     1
 42
1.0
 92
        8
 66
     7
 43
1.0
 76
     1
 77
     6
 78
     2
 67
     7
 79
     5
170
     0
171
     0
290
     0
174
     0
 93
        1
 44
50.0
173
     0
291
     1
 45
0.0
1001
ACAD
1000
AcDbSavedByObjectVersion
1070
     0
1000
AcDbSavedByObjectVersion
1070
     0
1001
ACAD
1000
AcRTDxfName
1000
VISUALSTYLE
  0
VISUALSTYLE
  5
1C4
102
{ACAD_REACTORS
330
17A
102
}
330
17A
100
AcDbVisualStyle
  2
ColorChange
 70
    16
 71
     2
 72
     2
 73
     3
 90
        0
 40
-0.6
 41
-30.0
 62
     5
 63
     8
 74
     1
 91
        4
 64
     7
 65
   257
 75
     1
175
     1
 42
1.0
 92
        8
 66
     8
 43
1.0
 76
     1
 77
     6
 78
     2
 67
     7
 79
     5
170
     0
171
     0
290
     0
174
     0
 93
        1
 44
0.0
173
     0
291
     1
 45
0.0
1001
ACAD
1000
AcDbSavedByObjectVersion
1070
     0
1000
AcDbSavedByObjectVersion
1070
     0
1001
ACAD
1000
AcRTDxfName
1000
VISUALSTYLE
  0
VISUALSTYLE
  5
1BE
102
{ACAD_REACTORS
330
17A
102
}
330
17A
100
AcDbVisualStyle
  2
Conceptual
 70
     9
 71
     3
 72
     2
 73
     0
 90
        0
 40
-0.6
 41
-30.0
 62
     5
 63
     7
 74
     2
 91
        2
 64
     7
 65
   257
 75
     1
175
     1
 42
40.0
 92
        8
 66
     7
 43
1.0
 76
     1
 77
     6
 78
     2
 67
     7
 79
     3
170
     0
171
     0
290
     0
174
     0
 93
        1
 44
0.0
173
     0
291
     0
 45
0.0
1001
ACAD
1000
AcDbSavedByObjectVersion
1070
     0
1000
AcDbSavedByObjectVersion
1070
     0
1001
ACAD
1000
AcRTDxfName
1000
VISUALSTYLE
  0
VISUALSTYLE
  5
1BF
102
{ACAD_REACTORS
330
17A
102
}
330
17A
100
AcDbVisualStyle
  2
Dim
 70
    11
 71
     2
 72
     2
 73
     0
 90
        0
 40
-0.6
 41
-30.0
 62
     5
 63
     7
 74
     1
 91
        4
 64
     7
 65
   257
 75
     1
175
     1
 42
1.0
 92
        8
 66
     7
 43
1.0
 76
     1
 77
     6
 78
     2
 67
     7
 79
     5
170
     0
171
     0
290
     0
174
     0
 93
        1
 44
-50.0
173
     0
291
     1
 45
0.0
1001
ACAD
1000
AcDbSavedByObjectVersion
1070
     0
1000
AcDbSavedByObjectVersion
1070
     0
1001
ACAD
1000
AcRTDxfName
1000
VISUALSTYLE
  0
VISUALSTYLE
  5
1C3
102
{ACAD_REACTORS
330
17A
102
}
330
17A
100
AcDbVisualStyle
  2
Facepattern
 70
    15
 71
     2
 72
     2
 73
     0
 90
        0
 40
-0.6
 41
-30.0
 62
     5
 63
     7
 74
     1
 91
        4
 64
     7
 65
   257
 75
     1
175
     1
 42
1.0
 92
        8
 66
     7
 43
1.0
 76
     1
 77
     6
 78
     2
 67
     7
 79
     5
170
     0
171
     0
290
     0
174
     0
 93
        1
 44
0.0
173
     0
291
     1
 45
0.0
1001
ACAD
1000
AcDbSavedByObjectVersion
1070
     0
1000
AcDbSavedByObjectVersion
1070
     0
1001
ACAD
1000
AcRTDxfName
1000
VISUALSTYLE
  0
VISUALSTYLE
  5
1B8
102
{ACAD_REACTORS
330
17A
102
}
330
17A
100
AcDbVisualStyle
  2
Flat
 70
     0
 71
     2
 72
     1
 73
     1
 90
        2
 40
-0.6
 41
30.0
 62
     5
 63
     7
 74
     0
 91
        4
 64
     7
 65
   257
 75
     1
175
     1
 42
1.0
 92
        8
 66
     7
 43
1.0
 76
     1
 77
     6
 78
     2
 67
     7
 79
     5
170
     0
171
     0
290
     0
174
     0
 93
       13
 44
0.0
173
     0
291
     1
 45
0.0
1001
ACAD
1000
AcDbSavedByObjectVersion
1070
     0
1000
AcDbSavedByObjectVersion
1070
     0
1001
ACAD
1000
AcRTDxfName
1000
VISUALSTYLE
  0
VISUALSTYLE
  5
1B9
102
{ACAD_REACTORS
330
17A
102
}
330
17A
100
AcDbVisualStyle
  2
FlatWithEdges
 70
     1
 71
     2
 72
     1
 73
     1
 90
        2
 40
-0.6
 41
30.0
 62
     5
 63
     7
 74
     1
 91
        4
 64
     7
 65
   257
 75
     1
175
     1
 42
1.0
 92
        0
 66
   257
 43
1.0
 76
     1
 77
     6
 78
     2
 67
     7
 79
     5
170
     0
171
     0
290
     0
174
     0
 93
       13
 44
0.0
173
     0
291
     1
 45
0.0
1001
ACAD
1000
AcDbSavedByObjectVersion
1070
     0
1000
AcDbSavedByObjectVersion
1070
     0
1001
ACAD
1000
AcRTDxfName
1000
VISUALSTYLE
  0
VISUALSTYLE
  5
1BA
102
{ACAD_REACTORS
330
17A
102
}
330
17A
100
AcDbVisualStyle
  2
Gouraud
 70
     2
 71
     2
 72
     2
 73
     1
 90
        2
 40
-0.6
 41
30.0
 62
     5
 63
     7
 74
     0
 91
        4
 64
     7
 65
   257
 75
     1
175
     1
 42
1.0
 92
        0
 66
     7
 43
1.0
 76
     1
 77
     6
 78
     2
 67
     7
 79
     5
170
     0
171
     0
290
     0
174
     0
 93
       13
 44
0.0
173
     0
291
     1
 45
0.0
1001
ACAD
1000
AcDbSavedByObjectVersion
1070
     0
1000
AcDbSavedByObjectVersion
1070
     0
1001
ACAD
1000
AcRTDxfName
1000
VISUALSTYLE
  0
VISUALSTYLE
  5
1BB
102
{ACAD_REACTORS
330
17A
102
}
330
17A
100
AcDbVisualStyle
  2
GouraudWithEdges
 70
     3
 71
     2
 72
     2
 73
     1
 90
        2
 40
-0.6
 41
30.0
 62
     5
 63
     7
 74
     1
 91
        4
 64
     7
 65
   257
 75
     1
175
     1
 42
1.0
 92
        0
 66
   257
 43
1.0
 76
     1
 77
     6
 78
     2
 67
     7
 79
     5
170
     0
171
     0
290
     0
174
     0
 93
       13
 44
0.0
173
     0
291
     1
 45
0.0
1001
ACAD
1000
AcDbSavedByObjectVersion
1070
     0
1000
AcDbSavedByObjectVersion
1070
     0
1001
ACAD
1000
AcRTDxfName
1000
VISUALSTYLE
  0
VISUALSTYLE
  5
1C2
102
{ACAD_REACTORS
330
17A
102
}
330
17A
100
AcDbVisualStyle
  2
Linepattern
 70
    14
 71
     2
 72
     2
 73
     0
 90
        0
 40
-0.6
 41
-30.0
 62
     5
 63
     7
 74
     1
 91
        4
 64
     7
 65
   257
 75
     7
175
     7
 42
1.0
 92
        8
 66
     7
 43
1.0
 76
     1
 77
     6
 78
     2
 67
     7
 79
     5
170
     0
171
     0
290
     0
174
     0
 93
        1
 44
0.0
173
     0
291
     1
 45
0.0
1001
ACAD
1000
AcDbSavedByObjectVersion
1070
     0
1000
AcDbSavedByObjectVersion
1070
     0
1001
ACAD
1000
AcRTDxfName
1000
VISUALSTYLE
  0
VISUALSTYLE
  5
188
102
{ACAD_REACTORS
330
17A
102
}
330
17A
100
AcDbVisualStyle
  2
Realistic
 70
     8
 71
     2
 72
     2
 73
     0
 90
        0
 40
-0.6
 41
-30.0
 62
     5
 63
     7
 74
     1
 91
        0
 64
     7
 65
   257
 75
     1
175
     1
 42
1.0
 92
        8
 66
     8
 43
1.0
 76
     1
 77
     6
 78
     2
 67
     7
 79
     5
170
     0
171
     0
290
     0
174
     0
 93
       13
 44
0.0
173
     0
291
     0
 45
0.0
1001
ACAD
1000
AcDbSavedByObjectVersion
1070
     0
1000
AcDbSavedByObjectVersion
1070
     0
1000
AcDbSavedByObjectVersion
1070
     0
1001
ACAD
1000
AcRTDxfName
1000
VISUALSTYLE
  0
VISUALSTYLE
  5
1C1
102
{ACAD_REACTORS
330
17A
102
}
330
17A
100
AcDbVisualStyle
  2
Thicken
 70
    13
 71
     2
 72
     2
 73
     0
 90
        0
 40
-0.6
 41
-30.0
 62
     5
 63
     7
 74
     1
 91
        4
 64
     7
 65
   257
 75
     1
175
     1
 42
1.0
 92
       12
 66
     7
 43
1.0
 76
     1
 77
     6
 78
     2
 67
     7
 79
     5
170
     0
171
     0
290
     0
174
     0
 93
        1
 44
0.0
173
     0
291
     1
 45
0.0
1001
ACAD
1000
AcDbSavedByObjectVersion
1070
     0
1000
AcDbSavedByObjectVersion
1070
     0
1001
ACAD
1000
AcRTDxfName
1000
VISUALSTYLE
  0
DICTIONARYVAR
  5
18C
102
{ACAD_REACTORS
330
18B
102
}
330
18B
100
DictionaryVariables
280
     0
  1
STANDARD
  0
DICTIONARYVAR
  5
190
102
{ACAD_REACTORS
330
18B
102
}
330
18B
100
DictionaryVariables
280
     0
  1
2
  0
DICTIONARYVAR
  5
18F
102
{ACAD_REACTORS
330
18B
102
}
330
18B
100
DictionaryVariables
280
     0
  1
1
  0
DICTIONARYVAR
  5
18E
102
{ACAD_REACTORS
330
18B
102
}
330
18B
100
DictionaryVariables
280
     0
  1
0
  0
DICTIONARYVAR
  5
31D
102
{ACAD_REACTORS
330
18B
102
}
330
18B
100
DictionaryVariables
280
     0
  1

  0
DICTIONARYVAR
  5
18D
102
{ACAD_REACTORS
330
18B
102
}
330
18B
100
DictionaryVariables
280
     0
  1
127
  0
DICTIONARY
  5
21B7
330
168
100
AcDbDictionary
280
     1
281
     1
  3
ACAD_XREC_ROUNDTRIP
360
21B8
  0
DICTIONARY
  5
21B9
330
16C
100
AcDbDictionary
280
     1
281
     1
  3
ACAD_XREC_ROUNDTRIP
360
21BA
  0
DICTIONARY
  5
21B5
330
163
100
AcDbDictionary
280
     1
281
     1
  3
ACAD_XREC_ROUNDTRIP
360
21B6
  0
DICTIONARY
  5
1B0
330
183
100
AcDbDictionary
280
     1
281
     1
  3
ACAD_XREC_ROUNDTRIP
360
1B1
  0
DICTIONARY
  5
1AE
330
182
100
AcDbDictionary
280
     1
281
     1
  3
ACAD_XREC_ROUNDTRIP
360
1AF
  0
DICTIONARY
  5
193
330
A
100
AcDbDictionary
280
     1
281
     1
  3
ACAD_XREC_ROUNDTRIP
360
194
  0
DICTIONARY
  5
21A
330
187
100
AcDbDictionary
280
     1
281
     1
  3
ACAD_XREC_ROUNDTRIP
360
21B
  0
XRECORD
  5
21B8
102
{ACAD_REACTORS
330
21B7
102
}
330
21B7
100
AcDbXrecord
280
     1
102
SHADEPLOT
 70
     0
102
SHADEPLOTRESLEVEL
 70
     2
102
SHADEPLOTCUSTOMDPI
 70
   300
  0
XRECORD
  5
21BA
102
{ACAD_REACTORS
330
21B9
102
}
330
21B9
100
AcDbXrecord
280
     1
102
SHADEPLOT
 70
     0
102
SHADEPLOTRESLEVEL
 70
     2
102
SHADEPLOTCUSTOMDPI
 70
   300
  0
XRECORD
  5
21B6
102
{ACAD_REACTORS
330
21B5
102
}
330
21B5
100
AcDbXrecord
280
     1
102
SHADEPLOT
 70
     0
102
SHADEPLOTRESLEVEL
 70
     2
102
SHADEPLOTCUSTOMDPI
 70
   300
  0
XRECORD
  5
1B1
102
{ACAD_REACTORS
330
1B0
102
}
330
1B0
100
AcDbXrecord
280
     1
102
MATERIAL
148
0.0
149
0.0
149
0.0
 93
        0
 94
       63
282
     0
 72
     1
 77
     1
171
     1
175
     1
179
     1
273
     0
  0
XRECORD
  5
1AF
102
{ACAD_REACTORS
330
1AE
102
}
330
1AE
100
AcDbXrecord
280
     1
102
MATERIAL
148
0.0
149
0.0
149
0.0
 93
        0
 94
       63
282
     0
 72
     1
 77
     1
171
     1
175
     1
179
     1
273
     0
  0
XRECORD
  5
194
102
{ACAD_REACTORS
330
193
102
}
330
193
100
AcDbXrecord
280
     1
102
MATERIAL
148
0.0
149
0.0
149
0.0
 93
        0
 94
       63
282
     0
 72
     1
 77
     1
171
     1
175
     1
179
     1
273
     0
  0
XRECORD
  5
21B
102
{ACAD_REACTORS
330
21A
102
}
330
21A
100
AcDbXrecord
280
     1
102
ACAD_ROUNDTRIP_PRE2007_TABLESTYLE
 90
        4
 91
        0
  1

 92
        4
 93
        0
  2

 94
        4
 95
        0
  3

  0
ENDSEC
  0
EOF
