  0
SECTION
  2
HEADER
  9
$ACADVER
  1
AC1015
  9
$ACADMAINTVER
 70
    20
  9
$DWGCODEPAGE
  3
ANSI_1252
  9
$INSBASE
 10
0.0
 20
0.0
 30
0.0
  9
$EXTMIN
 10
0.0149999999999999
 20
0.015
 30
0.0
  9
$EXTMAX
 10
0.4050000000000001
 20
0.282
 30
0.0
  9
$LIMMIN
 10
0.0
 20
0.0
  9
$LIMMAX
 10
1.0
 20
0.5
  9
$ORTHOMODE
 70
     0
  9
$REGENMODE
 70
     1
  9
$FILLMODE
 70
     1
  9
$QTEXTMODE
 70
     0
  9
$MIRRTEXT
 70
     0
  9
$LTSCALE
 40
1.0
  9
$ATTMODE
 70
     1
  9
$TEXTSIZE
 40
0.008
  9
$TRACEWID
 40
1.0
  9
$TEXTSTYLE
  7
style1
  9
$CLAYER
  8
Sezione
  9
$CELTYPE
  6
ACAD_ISO10W100
  9
$CECOLOR
 62
   256
  9
$CELTSCALE
 40
1.0
  9
$DISPSILH
 70
     0
  9
$DIMSCALE
 40
0.001
  9
$DIMASZ
 40
1.5
  9
$DIMEXO
 40
0.0625
  9
$DIMDLI
 40
0.38
  9
$DIMRND
 40
0.0
  9
$DIMDLE
 40
0.0
  9
$DIMEXE
 40
0.18
  9
$DIMTP
 40
0.0
  9
$DIMTM
 40
0.0
  9
$DIMTXT
 40
3.0
  9
$DIMCEN
 40
0.0
  9
$DIMTSZ
 40
0.0
  9
$DIMTOL
 70
     0
  9
$DIMLIM
 70
     0
  9
$DIMTIH
 70
     1
  9
$DIMTOH
 70
     1
  9
$DIMSE1
 70
     0
  9
$DIMSE2
 70
     0
  9
$DIMTAD
 70
     0
  9
$DIMZIN
 70
     0
  9
$DIMBLK
  1
ArchTick
  9
$DIMASO
 70
     1
  9
$DIMSHO
 70
     1
  9
$DIMPOST
  1

  9
$DIMAPOST
  1

  9
$DIMALT
 70
     0
  9
$DIMALTD
 70
     2
  9
$DIMALTF
 40
25.4
  9
$DIMLFAC
 40
1.0
  9
$DIMTOFL
 70
     0
  9
$DIMTVP
 40
0.0
  9
$DIMTIX
 70
     0
  9
$DIMSOXD
 70
     0
  9
$DIMSAH
 70
     0
  9
$DIMBLK1
  1

  9
$DIMBLK2
  1

  9
$DIMSTYLE
  2
Bovelacci
  9
$DIMCLRD
 70
     5
  9
$DIMCLRE
 70
     5
  9
$DIMCLRT
 70
     4
  9
$DIMTFAC
 40
1.0
  9
$DIMGAP
 40
2.0
  9
$DIMJUST
 70
     0
  9
$DIMSD1
 70
     0
  9
$DIMSD2
 70
     0
  9
$DIMTOLJ
 70
     1
  9
$DIMTZIN
 70
     0
  9
$DIMALTZ
 70
     0
  9
$DIMALTTZ
 70
     0
  9
$DIMUPT
 70
     0
  9
$DIMDEC
 70
     2
  9
$DIMTDEC
 70
     2
  9
$DIMALTU
 70
     2
  9
$DIMALTTD
 70
     2
  9
$DIMTXSTY
  7
ROMANS
  9
$DIMAUNIT
 70
     0
  9
$DIMADEC
 70
     0
  9
$DIMALTRND
 40
0.0
  9
$DIMAZIN
 70
     0
  9
$DIMDSEP
 70
    46
  9
$DIMATFIT
 70
     3
  9
$DIMFRAC
 70
     0
  9
$DIMLDRBLK
  1

  9
$DIMLUNIT
 70
     2
  9
$DIMLWD
 70
    -2
  9
$DIMLWE
 70
    -2
  9
$DIMTMOVE
 70
     2
  9
$LUNITS
 70
     2
  9
$LUPREC
 70
     2
  9
$SKETCHINC
 40
1.0
  9
$FILLETRAD
 40
0.0
  9
$AUNITS
 70
     0
  9
$AUPREC
 70
     0
  9
$MENU
  1
.
  9
$ELEVATION
 40
0.0
  9
$PELEVATION
 40
0.0
  9
$THICKNESS
 40
0.0
  9
$LIMCHECK
 70
     0
  9
$CHAMFERA
 40
0.0
  9
$CHAMFERB
 40
0.0
  9
$CHAMFERC
 40
0.0
  9
$CHAMFERD
 40
0.0
  9
$SKPOLY
 70
     0
  9
$TDCREATE
 40
2454297.625402373
  9
$TDUCREATE
 40
2454297.542069039
  9
$TDUPDATE
 40
2454305.910353727
  9
$TDUUPDATE
 40
2454305.827020394
  9
$TDINDWG
 40
0.0705078241
  9
$TDUSRTIMER
 40
0.0705058218
  9
$USRTIMER
 70
     1
  9
$ANGBASE
 50
0.0
  9
$ANGDIR
 70
     0
  9
$PDMODE
 70
     0
  9
$PDSIZE
 40
0.0
  9
$PLINEWID
 40
0.0
  9
$SPLFRAME
 70
     0
  9
$SPLINETYPE
 70
     6
  9
$SPLINESEGS
 70
     8
  9
$HANDSEED
  5
24D
  9
$SURFTAB1
 70
     6
  9
$SURFTAB2
 70
     6
  9
$SURFTYPE
 70
     6
  9
$SURFU
 70
     6
  9
$SURFV
 70
     6
  9
$UCSBASE
  2

  9
$UCSNAME
  2

  9
$UCSORG
 10
0.0
 20
0.0
 30
0.0
  9
$UCSXDIR
 10
1.0
 20
0.0
 30
0.0
  9
$UCSYDIR
 10
0.0
 20
1.0
 30
0.0
  9
$UCSORTHOREF
  2

  9
$UCSORTHOVIEW
 70
     0
  9
$UCSORGTOP
 10
0.0
 20
0.0
 30
0.0
  9
$UCSORGBOTTOM
 10
0.0
 20
0.0
 30
0.0
  9
$UCSORGLEFT
 10
0.0
 20
0.0
 30
0.0
  9
$UCSORGRIGHT
 10
0.0
 20
0.0
 30
0.0
  9
$UCSORGFRONT
 10
0.0
 20
0.0
 30
0.0
  9
$UCSORGBACK
 10
0.0
 20
0.0
 30
0.0
  9
$PUCSBASE
  2

  9
$PUCSNAME
  2

  9
$PUCSORG
 10
0.0
 20
0.0
 30
0.0
  9
$PUCSXDIR
 10
1.0
 20
0.0
 30
0.0
  9
$PUCSYDIR
 10
0.0
 20
1.0
 30
0.0
  9
$PUCSORTHOREF
  2

  9
$PUCSORTHOVIEW
 70
     0
  9
$PUCSORGTOP
 10
0.0
 20
0.0
 30
0.0
  9
$PUCSORGBOTTOM
 10
0.0
 20
0.0
 30
0.0
  9
$PUCSORGLEFT
 10
0.0
 20
0.0
 30
0.0
  9
$PUCSORGRIGHT
 10
0.0
 20
0.0
 30
0.0
  9
$PUCSORGFRONT
 10
0.0
 20
0.0
 30
0.0
  9
$PUCSORGBACK
 10
0.0
 20
0.0
 30
0.0
  9
$USERI1
 70
     0
  9
$USERI2
 70
     0
  9
$USERI3
 70
     0
  9
$USERI4
 70
     0
  9
$USERI5
 70
     0
  9
$USERR1
 40
0.0
  9
$USERR2
 40
0.0
  9
$USERR3
 40
0.0
  9
$USERR4
 40
0.0
  9
$USERR5
 40
0.0
  9
$WORLDVIEW
 70
     1
  9
$SHADEDGE
 70
     3
  9
$SHADEDIF
 70
    70
  9
$TILEMODE
 70
     1
  9
$MAXACTVP
 70
    64
  9
$PINSBASE
 10
0.0
 20
0.0
 30
0.0
  9
$PLIMCHECK
 70
     0
  9
$PEXTMIN
 10
1.000000000000000E+20
 20
1.000000000000000E+20
 30
1.000000000000000E+20
  9
$PEXTMAX
 10
-1.000000000000000E+20
 20
-1.000000000000000E+20
 30
-1.000000000000000E+20
  9
$PLIMMIN
 10
0.0
 20
0.0
  9
$PLIMMAX
 10
420.0
 20
297.0
  9
$UNITMODE
 70
     0
  9
$VISRETAIN
 70
     1
  9
$PLINEGEN
 70
     0
  9
$PSLTSCALE
 70
     1
  9
$TREEDEPTH
 70
  3020
  9
$CMLSTYLE
  2
Standard
  9
$CMLJUST
 70
     0
  9
$CMLSCALE
 40
20.0
  9
$PROXYGRAPHICS
 70
     1
  9
$MEASUREMENT
 70
     1
  9
$CELWEIGHT
370
    -1
  9
$ENDCAPS
280
     0
  9
$JOINSTYLE
280
     0
  9
$LWDISPLAY
290
     0
  9
$INSUNITS
 70
     4
  9
$HYPERLINKBASE
  1

  9
$STYLESHEET
  1

  9
$XEDIT
290
     1
  9
$CEPSNTYPE
380
     0
  9
$PSTYLEMODE
290
     1
  9
$FINGERPRINTGUID
  2
{904A8C64-524F-4709-A9C6-320D2C273A6D}
  9
$VERSIONGUID
  2
{A207B641-BB3E-49F0-90BC-AA26206BE599}
  9
$EXTNAMES
290
     1
  9
$PSVPSCALE
 40
0.0
  9
$OLESTARTUP
290
     0
  0
ENDSEC
  0
SECTION
  2
CLASSES
  0
CLASS
  1
ACDBDICTIONARYWDFLT
  2
AcDbDictionaryWithDefault
  3
ObjectDBX Classes
 90
        0
280
     0
281
     0
  0
CLASS
  1
TABLESTYLE
  2
AcDbTableStyle
  3
ObjectDBX Classes
 90
     2047
280
     0
281
     0
  0
CLASS
  1
SORTENTSTABLE
  2
AcDbSortentsTable
  3
ObjectDBX Classes
 90
        0
280
     0
281
     0
  0
CLASS
  1
DICTIONARYVAR
  2
AcDbDictionaryVar
  3
ObjectDBX Classes
 90
        0
280
     0
281
     0
  0
CLASS
  1
ACDBPLACEHOLDER
  2
AcDbPlaceHolder
  3
ObjectDBX Classes
 90
        0
280
     0
281
     0
  0
CLASS
  1
LAYOUT
  2
AcDbLayout
  3
ObjectDBX Classes
 90
        0
280
     0
281
     0
  0
CLASS
  1
DIMASSOC
  2
AcDbDimAssoc
  3
"AcDbDimAssoc|Product Desc:     AcDim ARX App For Dimension|Company:          Autodesk, Inc.|WEB Address:      www.autodesk.com"
 90
        0
280
     0
281
     0
  0
CLASS
  1
MATERIAL
  2
AcDbMaterial
  3
ObjectDBX Classes
 90
        0
280
     0
281
     0
  0
CLASS
  1
VISUALSTYLE
  2
AcDbVisualStyle
  3
ObjectDBX Classes
 90
     4095
280
     0
281
     0
  0
ENDSEC
  0
SECTION
  2
TABLES
  0
TABLE
  2
VPORT
  5
177
330
0
100
AcDbSymbolTable
 70
     3
  0
VPORT
  5
242
330
177
100
AcDbSymbolTableRecord
100
AcDbViewportTableRecord
  2
*Active
 70
     0
 10
0.0
 20
0.0
 11
1.0
 21
1.0
 12
0.2263705399592084
 22
0.1448622611535356
 13
0.0
 23
0.0
 14
10.0
 24
10.0
 15
10.0
 25
10.0
 16
0.0
 26
0.0
 36
1.0
 17
0.0
 27
0.0
 37
0.0
 40
0.3447465060569303
 41
1.546526867627785
 42
50.0
 43
0.0
 44
0.0
 50
0.0
 51
0.0
 71
     0
 72
  1000
 73
     1
 74
     3
 75
     0
 76
     0
 77
     0
 78
     0
281
     0
 65
     1
110
0.0
120
0.0
130
0.0
111
1.0
121
0.0
131
0.0
112
0.0
122
1.0
132
0.0
 79
     0
146
0.0
  0
ENDTAB
  0
TABLE
  2
LTYPE
  5
172
330
0
100
AcDbSymbolTable
 70
     3
  0
LTYPE
  5
173
330
172
100
AcDbSymbolTableRecord
100
AcDbLinetypeTableRecord
  2
ByBlock
 70
     0
  3

 72
    65
 73
     0
 40
0.0
  0
LTYPE
  5
174
330
172
100
AcDbSymbolTableRecord
100
AcDbLinetypeTableRecord
  2
ByLayer
 70
     0
  3

 72
    65
 73
     0
 40
0.0
  0
LTYPE
  5
C
330
172
100
AcDbSymbolTableRecord
100
AcDbLinetypeTableRecord
  2
Continuous
 70
     0
  3
Solid line
 72
    65
 73
     0
 40
0.0
  0
LTYPE
  5
14E
330
172
100
AcDbSymbolTableRecord
100
AcDbLinetypeTableRecord
  2
ACAD_ISO10W100
 70
     0
  3
ISO dash dot __ . __ . __ . __ . __ . __ . __ .
 72
    65
 73
     4
 40
18.0
 49
12.0
 74
     0
 49
-3.0
 74
     0
 49
0.0
 74
     0
 49
-3.0
 74
     0
  0
ENDTAB
  0
TABLE
  2
LAYER
  5
16D
102
{ACAD_XDICTIONARY
360
16E
102
}
330
0
100
AcDbSymbolTable
 70
     6
  0
LAYER
  5
6
330
16D
100
AcDbSymbolTableRecord
100
AcDbLayerTableRecord
  2
0
 70
     0
 62
     7
  6
Continuous
370
    -3
390
7
  0
LAYER
  5
15F
330
16D
100
AcDbSymbolTableRecord
100
AcDbLayerTableRecord
  2
Defpoints
 70
     0
 62
     7
  6
Continuous
290
     0
370
    -3
390
7
  0
LAYER
  5
28
330
16D
100
AcDbSymbolTableRecord
100
AcDbLayerTableRecord
  2
Profilo
 70
     0
 62
     1
  6
Continuous
370
    -3
390
7
1001
AcAecLayerStandard
1000

1000

  0
LAYER
  5
14D
330
16D
100
AcDbSymbolTableRecord
100
AcDbLayerTableRecord
  2
Sezione
 70
     0
 62
     2
  6
Continuous
370
    -3
390
7
1001
AcAecLayerStandard
1000

1000

  0
LAYER
  5
E
330
16D
100
AcDbSymbolTableRecord
100
AcDbLayerTableRecord
  2
Table
 70
     0
 62
     3
  6
Continuous
370
    -3
390
7
1001
AcAecLayerStandard
1000

1000

  0
LAYER
  5
19
330
16D
100
AcDbSymbolTableRecord
100
AcDbLayerTableRecord
  2
Text
 70
     0
 62
     4
  6
Continuous
370
    -3
390
7
1001
AcAecLayerStandard
1000

1000

  0
ENDTAB
  0
TABLE
  2
STYLE
  5
170
330
0
100
AcDbSymbolTable
 70
     3
  0
STYLE
  5
1A
330
170
100
AcDbSymbolTableRecord
100
AcDbTextStyleTableRecord
  2
Standard
 70
     0
 40
0.0
 41
1.0
 50
0.0
 71
     0
 42
2.5
  3
txt
  4

  0
STYLE
  5
20
330
170
100
AcDbSymbolTableRecord
100
AcDbTextStyleTableRecord
  2
ROMANS
 70
     0
 40
0.0
 41
1.0
 50
0.0
 71
     0
 42
2.5
  3
romans
  4

  0
STYLE
  5
26
330
170
100
AcDbSymbolTableRecord
100
AcDbTextStyleTableRecord
  2
style1
 70
     0
 40
0.0
 41
1.0
 50
0.0
 71
     0
 42
0.008
  3
TIMES.TTF
  4

1001
ACAD
1000
Times New Roman
1071
       18
  0
ENDTAB
  0
TABLE
  2
VIEW
  5
175
330
0
100
AcDbSymbolTable
 70
     0
  0
ENDTAB
  0
TABLE
  2
UCS
  5
176
330
0
100
AcDbSymbolTable
 70
     0
  0
ENDTAB
  0
TABLE
  2
APPID
  5
17B
330
0
100
AcDbSymbolTable
 70
     9
  0
APPID
  5
1B
330
17B
100
AcDbSymbolTableRecord
100
AcDbRegAppTableRecord
  2
ACAD
 70
     0
  0
APPID
  5
157
330
17B
100
AcDbSymbolTableRecord
100
AcDbRegAppTableRecord
  2
ACAD_DSTYLE_DIMJOGGED_JOGANGLE_SYMBOL
 70
     0
  0
APPID
  5
F
330
17B
100
AcDbSymbolTableRecord
100
AcDbRegAppTableRecord
  2
AcAecLayerStandard
 70
     0
  0
APPID
  5
19C
330
17B
100
AcDbSymbolTableRecord
100
AcDbRegAppTableRecord
  2
ACAD_DSTYLE_DIMFLIPARROW_WHICH_SYMBOL
 70
     0
  0
APPID
  5
1A7
330
17B
100
AcDbSymbolTableRecord
100
AcDbRegAppTableRecord
  2
ACAD_DSTYLE_DIMEXT_LENGTH
 70
     0
  0
APPID
  5
1D2
330
17B
100
AcDbSymbolTableRecord
100
AcDbRegAppTableRecord
  2
ACAD_EXEMPT_FROM_CAD_STANDARDS
 70
     0
  0
APPID
  5
1D3
330
17B
100
AcDbSymbolTableRecord
100
AcDbRegAppTableRecord
  2
ACAD_DSTYLE_DIM_LINETYPE
 70
     0
  0
APPID
  5
1D4
330
17B
100
AcDbSymbolTableRecord
100
AcDbRegAppTableRecord
  2
ACAD_DSTYLE_DIM_EXT1_LINETYPE
 70
     0
  0
APPID
  5
1D5
330
17B
100
AcDbSymbolTableRecord
100
AcDbRegAppTableRecord
  2
ACAD_DSTYLE_DIM_EXT2_LINETYPE
 70
     0
  0
ENDTAB
  0
TABLE
  2
DIMSTYLE
  5
17C
330
0
100
AcDbSymbolTable
 70
     3
100
AcDbDimStyleTable
 71
     2
340
156
340
17D
  0
DIMSTYLE
105
17D
330
17C
100
AcDbSymbolTableRecord
100
AcDbDimStyleTableRecord
  2
ISO-25
 70
     0
 41
2.5
 42
0.625
 43
3.75
 44
1.25
 73
     0
 74
     0
 77
     1
 78
     8
140
2.5
141
2.5
143
0.03937007874016
147
0.625
171
     3
172
     1
271
     2
272
     2
274
     3
278
    44
283
     0
284
     8
340
1A
  0
DIMSTYLE
105
156
102
{ACAD_REACTORS
330
14F
102
}
330
17C
100
AcDbSymbolTableRecord
100
AcDbDimStyleTableRecord
  2
Bovelacci
 70
     0
 40
0.001
 41
1.5
140
3.0
141
0.0
147
2.0
176
     5
177
     5
178
     4
271
     2
272
     2
279
     2
340
20
342
152
1001
ACAD_DSTYLE_DIMJOGGED_JOGANGLE_SYMBOL
1070
   384
1040
0.7853981633974483
1001
ACAD_DSTYLE_DIMEXT_LENGTH
1070
   378
1040
0.18
  0
ENDTAB
  0
TABLE
  2
BLOCK_RECORD
  5
1
330
0
100
AcDbSymbolTable
 70
     6
  0
BLOCK_RECORD
  5
2
102
{ACAD_XDICTIONARY
360
3
102
}
330
1
100
AcDbSymbolTableRecord
100
AcDbBlockTableRecord
  2
*Model_Space
340
163
  0
BLOCK_RECORD
  5
165
330
1
100
AcDbSymbolTableRecord
100
AcDbBlockTableRecord
  2
*Paper_Space
340
168
  0
BLOCK_RECORD
  5
169
330
1
100
AcDbSymbolTableRecord
100
AcDbBlockTableRecord
  2
*Paper_Space0
340
16C
  0
BLOCK_RECORD
  5
152
330
1
100
AcDbSymbolTableRecord
100
AcDbBlockTableRecord
  2
_ArchTick
340
0
310
2800000020000000200000000100080000000000000400000000000000000000000000000000000000000000000080000080000000808000800000008000800080800000C0C0C000C0DCC000F0CAA6000020400000206000002080000020A0000020C0000020E00000400000004020000040400000406000004080000040A0
310
000040C0000040E00000600000006020000060400000606000006080000060A0000060C0000060E00000800000008020000080400000806000008080000080A0000080C0000080E00000A0000000A0200000A0400000A0600000A0800000A0A00000A0C00000A0E00000C0000000C0200000C0400000C0600000C0800000C0
310
A00000C0C00000C0E00000E0000000E0200000E0400000E0600000E0800000E0A00000E0C00000E0E00040000000400020004000400040006000400080004000A0004000C0004000E00040200000402020004020400040206000402080004020A0004020C0004020E000404000004040200040404000404060004040800040
310
40A0004040C0004040E00040600000406020004060400040606000406080004060A0004060C0004060E00040800000408020004080400040806000408080004080A0004080C0004080E00040A0000040A0200040A0400040A0600040A0800040A0A00040A0C00040A0E00040C0000040C0200040C0400040C0600040C08000
310
40C0A00040C0C00040C0E00040E0000040E0200040E0400040E0600040E0800040E0A00040E0C00040E0E00080000000800020008000400080006000800080008000A0008000C0008000E00080200000802020008020400080206000802080008020A0008020C0008020E00080400000804020008040400080406000804080
310
008040A0008040C0008040E00080600000806020008060400080606000806080008060A0008060C0008060E00080800000808020008080400080806000808080008080A0008080C0008080E00080A0000080A0200080A0400080A0600080A0800080A0A00080A0C00080A0E00080C0000080C0200080C0400080C0600080C0
310
800080C0A00080C0C00080C0E00080E0000080E0200080E0400080E0600080E0800080E0A00080E0C00080E0E000C0000000C0002000C0004000C0006000C0008000C000A000C000C000C000E000C0200000C0202000C0204000C0206000C0208000C020A000C020C000C020E000C0400000C0402000C0404000C0406000C0
310
408000C040A000C040C000C040E000C0600000C0602000C0604000C0606000C0608000C060A000C060C000C060E000C0800000C0802000C0804000C0806000C0808000C080A000C080C000C080E000C0A00000C0A02000C0A04000C0A06000C0A08000C0A0A000C0A0C000C0A0E000C0C00000C0C02000C0C04000C0C06000
310
C0C08000C0C0A000F0FBFF00A4A0A000808080000000FF0000FF000000FFFF00FF000000FF00FF00FFFF0000FFFFFF00000000FF000000000000000000000000000000000000000000000000000000000000FF00FF00000000000000000000000000000000000000000000000000000000FF000000FF000000000000000000
310
0000000000000000000000000000000000FF0000000000FF0000000000000000000000000000000000000000000000000000FF0000000000FF0000000000000000000000000000000000000000000000000000FF0000000000FF0000000000000000000000000000000000000000000000000000FF0000000000FF00000000
310
00000000000000000000000000000000000000000000FF0000000000FF0000000000000000000000000000000000000000000000000000FF0000000000FF0000000000000000000000000000000000000000000000000000FF0000000000FF0000000000000000000000000000000000000000000000000000FF0000000000
310
FF0000000000000000000000000000000000000000000000000000FF0000000000FF0000000000000000000000000000000000000000000000000000FF0000000000FF0000000000000000000000000000000000000000000000000000FF0000000000FF0000000000000000000000000000000000000000000000000000FF
310
0000000000FF0000000000000000000000000000000000000000000000000000FF0000000000FF0000000000000000000000000000000000000000000000000000FF0000000000FF0000000000000000000000000000000000000000000000000000FF0000000000FF00000000000000000000000000000000000000000000
310
00000000FF0000000000FF0000000000000000000000000000000000000000000000000000FF0000000000FF0000000000000000000000000000000000000000000000000000FF0000000000FF0000000000000000000000000000000000000000000000000000FF0000000000FF0000000000000000000000000000000000
310
000000000000000000FF0000000000FF0000000000000000000000000000000000000000000000000000FF0000000000FF0000000000000000000000000000000000000000000000000000FF0000000000FF0000000000000000000000000000000000000000000000000000FF0000000000FF000000000000000000000000
310
0000000000000000000000000000FF0000000000FF0000000000000000000000000000000000000000000000000000FF0000000000FF0000000000000000000000000000000000000000000000000000FF0000000000FF0000000000000000000000000000000000000000000000000000FF000000FF000000000000000000
310
00000000000000000000000000000000000000FF00FF000000000000000000000000000000000000000000000000000000000000FF000000
102
{BLKREFS
331
15D
331
211
102
}
  0
BLOCK_RECORD
  5
19E
330
1
100
AcDbSymbolTableRecord
100
AcDbBlockTableRecord
  2
*D3
340
0
  0
ENDTAB
  0
ENDSEC
  0
SECTION
  2
BLOCKS
  0
BLOCK
  5
5
330
2
100
AcDbEntity
  8
0
100
AcDbBlockBegin
  2
*Model_Space
 70
     0
 10
0.0
 20
0.0
 30
0.0
  3
*Model_Space
  1

  0
ENDBLK
  5
162
330
2
100
AcDbEntity
  8
0
100
AcDbBlockEnd
  0
BLOCK
  5
166
330
165
100
AcDbEntity
 67
     1
  8
0
100
AcDbBlockBegin
  2
*Paper_Space
 70
     0
 10
0.0
 20
0.0
 30
0.0
  3
*Paper_Space
  1

  0
ENDBLK
  5
167
330
165
100
AcDbEntity
 67
     1
  8
0
100
AcDbBlockEnd
  0
BLOCK
  5
16A
330
169
100
AcDbEntity
 67
     1
  8
0
100
AcDbBlockBegin
  2
*Paper_Space0
 70
     0
 10
0.0
 20
0.0
 30
0.0
  3
*Paper_Space0
  1

  0
ENDBLK
  5
16B
330
169
100
AcDbEntity
 67
     1
  8
0
100
AcDbBlockEnd
  0
BLOCK
  5
153
330
152
100
AcDbEntity
  8
0
 62
     1
100
AcDbBlockBegin
  2
_ArchTick
 70
     0
 10
0.0
 20
0.0
 30
0.0
  3
_ArchTick
  1

  0
LWPOLYLINE
  5
154
330
152
100
AcDbEntity
  8
0
  6
ByBlock
 62
     0
100
AcDbPolyline
 90
        2
 70
     0
 43
0.15
 10
-0.5
 20
-0.5
 10
0.5
 20
0.5
  0
ENDBLK
  5
155
330
152
100
AcDbEntity
  8
0
 62
     1
100
AcDbBlockEnd
  0
BLOCK
  5
1A5
330
19E
100
AcDbEntity
  8
0
100
AcDbBlockBegin
  2
*D3
 70
     1
 10
0.0
 20
0.0
 30
0.0
  3
*D3
  1

  0
LINE
  5
20E
330
19E
100
AcDbEntity
  8
Sezione
  6
ACAD_ISO10W100
 62
     5
370
    -2
100
AcDbLine
 10
0.2798037962738808
 20
0.1903534367689069
 30
0.0
 11
0.2529466534167379
 21
0.190353436768907
 31
0.0
  0
LINE
  5
20F
330
19E
100
AcDbEntity
  8
Sezione
  6
ACAD_ISO10W100
 62
     5
370
    -2
100
AcDbLine
 10
0.2529466534167379
 20
0.190353436768907
 30
0.0
 11
0.2507223528394369
 21
0.1883403577983203
 31
0.0
  0
MTEXT
  5
210
330
19E
100
AcDbEntity
  8
Sezione
  6
ACAD_ISO10W100
 62
     4
100
AcDbMText
 10
0.2673752248453093
 20
0.193853436768907
 30
0.0
 40
0.003
 41
0.0
 71
     5
 72
     1
  1
\A1;d 410 mm
  7
ROMANS
 73
     1
 44
1.0
1001
ACAD
1000
MTEXTBEGIN
1070
    73
1070
     1
1070
    44
1040
1.0
1070
    74
1070
     0
1000
MTEXTEND
  0
INSERT
  5
211
330
19E
100
AcDbEntity
  8
Sezione
  6
ACAD_ISO10W100
 62
     5
370
    -2
100
AcDbBlockReference
  2
_ArchTick
 10
0.2507223528394369
 20
0.1883403577983203
 30
0.0
 41
0.0015
 42
0.0015
 43
0.0015
 50
312.1463264419372
  0
POINT
  5
212
330
19E
100
AcDbEntity
  8
Defpoints
  6
ACAD_ISO10W100
 62
     0
100
AcDbPoint
 10
0.2507223528394369
 20
0.1883403577983203
 30
0.0
  0
POINT
  5
213
330
19E
100
AcDbEntity
  8
Defpoints
  6
ACAD_ISO10W100
 62
     0
100
AcDbPoint
 10
0.1747785735100222
 20
0.1196082688553671
 30
0.0
  0
ENDBLK
  5
1A6
330
19E
100
AcDbEntity
  8
0
100
AcDbBlockEnd
  0
ENDSEC
  0
SECTION
  2
ENTITIES
  0
LINE
  5
D
330
2
100
AcDbEntity
  8
Table
100
AcDbLine
 10
0.02
 20
0.02
 30
0.0
 11
0.4
 21
0.02
 31
0.0
  0
LINE
  5
10
330
2
100
AcDbEntity
  8
Table
100
AcDbLine
 10
0.4
 20
0.02
 30
0.0
 11
0.4
 21
0.2769999999999999
 31
0.0
  0
LINE
  5
11
330
2
100
AcDbEntity
  8
Table
100
AcDbLine
 10
0.4
 20
0.2769999999999999
 30
0.0
 11
0.02
 21
0.277
 31
0.0
  0
LINE
  5
12
330
2
100
AcDbEntity
  8
Table
100
AcDbLine
 10
0.02
 20
0.277
 30
0.0
 11
0.02
 21
0.02
 31
0.0
  0
LINE
  5
13
330
2
100
AcDbEntity
  8
Table
 62
     2
100
AcDbLine
 10
0.015
 20
0.015
 30
0.0
 11
0.4050000000000001
 21
0.015
 31
0.0
  0
LINE
  5
14
330
2
100
AcDbEntity
  8
Table
 62
     2
100
AcDbLine
 10
0.4050000000000001
 20
0.015
 30
0.0
 11
0.4050000000000001
 21
0.2819999999999998
 31
0.0
  0
LINE
  5
15
330
2
100
AcDbEntity
  8
Table
 62
     2
100
AcDbLine
 10
0.4050000000000001
 20
0.2819999999999998
 30
0.0
 11
0.0149999999999999
 21
0.282
 31
0.0
  0
LINE
  5
16
330
2
100
AcDbEntity
  8
Table
 62
     2
100
AcDbLine
 10
0.0149999999999999
 20
0.282
 30
0.0
 11
0.015
 21
0.015
 31
0.0
  0
LINE
  5
17
330
2
100
AcDbEntity
  8
Table
100
AcDbLine
 10
0.21
 20
0.2769999999999999
 30
0.0
 11
0.21
 21
0.2532994226089223
 31
0.0
  0
MTEXT
  5
18
102
{ACAD_XDICTIONARY
360
245
102
}
330
2
100
AcDbEntity
  8
Text
100
AcDbMText
 10
0.305
 20
0.0471738284815141
 30
0.0
 40
0.005
 41
0.1900000000000001
 71
     2
 72
     5
  3
{\fTimes New Roman|b0|i0|c238|p18;\H1.6x;\C4;Bovelacci\P\H0.4375x;\T0.95;via del Commercio, 5  47100 Forli - Italy  \fTimes New Roman|b0|i0|c0|p18;\P\fTimes New Roman|b0|i0|c238|p18;tel.+39-0543721386  fax +39-0543721127\fTimes New Roman|b0|i0|c0|p18
  1
; \fTimes New Roman|b0|i0|c238|p18;www.bovelacci.it\fTimes New Roman|b0|i0|c0|p18; \fTimes New Roman|b0|i0|c238|p18;e-mail: bovelacci@bovelacci\fTimes New Roman|b0|i0|c0|p18;.it}
 73
     1
 44
1.0
1001
ACAD
1000
ACAD_MTEXT_DEFINED_HEIGHT_BEGIN
1070
    46
1040
0.0271738284815141
1000
ACAD_MTEXT_DEFINED_HEIGHT_END
1000
MTEXTBEGIN
1070
    73
1070
     1
1070
    44
1040
1.0
1070
    74
1070
     0
1000
MTEXTEND
  0
MTEXT
  5
1C
330
2
100
AcDbEntity
  8
Text
100
AcDbMText
 10
0.0219676065851835
 20
0.0500313976452307
 30
0.0
 40
0.002
 41
0.1863544980601608
 71
     1
 72
     5
  3
{\fArial|b0|i0|c0|p34;\H1.25x;Le caratteristiche tecniche indicate vengono fornite a titolo indicativo e potranno essere modificate senza preavviso. Non devono quindi essere considerate a scopo di specifica.\P\fArial|b0|i1|c0|p34;The given values are
  3
 indicative and can be changed without notice. They cannot be considered like a state.\PThis lealfet and designs embodied within are protected by copyright law and international treaties. Unauthorized repro- duction of the leaflet or any portion of i
  1
t or reproduction of any of the designs embodied therein may result in severe civil penalties and will be prosecuted to the maximum.\PAll right reserved, Bovelacci Forlì Italy.}
 73
     1
 44
1.0
1001
ACAD
1000
MTEXTBEGIN
1070
    73
1070
     1
1070
    44
1040
1.0
1070
    74
1070
     0
1000
MTEXTEND
  0
LINE
  5
1D
330
2
100
AcDbEntity
  8
Table
100
AcDbLine
 10
0.02
 20
0.0528099428524846
 30
0.0
 11
0.4
 21
0.0528099428524846
 31
0.0
  0
MTEXT
  5
1E
330
2
100
AcDbEntity
  8
Text
100
AcDbMText
 10
0.1133313047219695
 20
0.2610796890771976
 30
0.0
 40
0.003
 41
0.1103605678262056
 71
     2
 72
     5
  1
{\fTimes New Roman|b0|i0|c0|p18;Rosoni\fTimes New Roman|b0|i1|c0|p18;   Ceiling centres}
 73
     1
 44
1.0
1001
ACAD
1000
ACAD_MTEXT_DEFINED_HEIGHT_BEGIN
1070
    46
1040
0.0141952763113409
1000
ACAD_MTEXT_DEFINED_HEIGHT_END
1000
MTEXTBEGIN
1070
    73
1070
     1
1070
    44
1040
1.0
1070
    74
1070
     0
1000
MTEXTEND
  0
TEXT
  5
1F
330
2
100
AcDbEntity
  8
Text
100
AcDbText
 10
0.2180556919891047
 20
0.269976982173197
 30
0.0
 40
0.003
  1
Rosone - Ceiling centre : D 410 mm
  7
ROMANS
100
AcDbText
  0
TEXT
  5
21
330
2
100
AcDbEntity
  8
Text
100
AcDbText
 10
0.2184542410678115
 20
0.2576348370183962
 30
0.0
 40
0.003
  1
File : E - R6
  7
ROMANS
100
AcDbText
  0
LINE
  5
22
330
2
100
AcDbEntity
  8
Table
100
AcDbLine
 10
0.4
 20
0.2654452889427402
 30
0.0
 11
0.02
 21
0.2654452889427403
 31
0.0
  0
LINE
  5
23
330
2
100
AcDbEntity
  8
Table
100
AcDbLine
 10
0.4
 20
0.2532994226089223
 30
0.0
 11
0.02
 21
0.2532994226089225
 31
0.0
  0
LINE
  5
24
330
2
100
AcDbEntity
  8
Table
100
AcDbLine
 10
0.21
 20
0.0528099428524846
 30
0.0
 11
0.21
 21
0.02
 31
0.0
  0
TEXT
  5
25
330
2
100
AcDbEntity
  8
Text
100
AcDbText
 10
0.0947789320547719
 20
0.2687784133392506
 30
0.0
 40
0.005
  1
EUROSTYL
  7
style1
 72
     1
 11
0.1140561490699125
 21
0.2687784133392506
 31
0.0
100
AcDbText
  0
ARC
  5
27
330
2
100
AcDbEntity
  8
Profilo
  6
Continuous
370
     0
100
AcDbCircle
 10
0.2127504631747297
 20
0.1539743133268437
 30
0.0
 40
0.027012390537963
100
AcDbArc
 50
48.92983592264283
 51
130.8453441767282
  0
ARC
  5
29
330
2
100
AcDbEntity
  8
Profilo
  6
Continuous
370
     0
100
AcDbCircle
 10
0.2127504631747297
 20
0.1539743133268437
 30
0.0
 40
0.027012390537963
100
AcDbArc
 50
131.0951153114938
 51
133.2310976036628
  0
ARC
  5
2A
330
2
100
AcDbEntity
  8
Profilo
  6
Continuous
370
     0
100
AcDbCircle
 10
0.2127504631747297
 20
0.1539743133268437
 30
0.0
 40
0.027012390537963
100
AcDbArc
 50
138.9298359226428
 51
220.8453441767282
  0
ARC
  5
2B
330
2
100
AcDbEntity
  8
Profilo
  6
Continuous
370
     0
100
AcDbCircle
 10
0.2127504631747297
 20
0.1539743133268437
 30
0.0
 40
0.027012390537963
100
AcDbArc
 50
221.0951153114938
 51
223.2310976036629
  0
ARC
  5
2C
330
2
100
AcDbEntity
  8
Profilo
  6
Continuous
370
     0
100
AcDbCircle
 10
0.2127504631747297
 20
0.1539743133268437
 30
0.0
 40
0.027012390537963
100
AcDbArc
 50
228.9298359226428
 51
310.8453441767283
  0
ARC
  5
2D
330
2
100
AcDbEntity
  8
Profilo
  6
Continuous
370
     0
100
AcDbCircle
 10
0.2127504631747297
 20
0.1539743133268437
 30
0.0
 40
0.027012390537963
100
AcDbArc
 50
311.0951153114937
 51
313.2310976036629
  0
ARC
  5
2E
330
2
100
AcDbEntity
  8
Profilo
  6
Continuous
370
     0
100
AcDbCircle
 10
0.2127504631747297
 20
0.1539743133268437
 30
0.0
 40
0.027012390537963
100
AcDbArc
 50
318.9298359226429
 51
40.84534417672824
  0
ARC
  5
2F
330
2
100
AcDbEntity
  8
Profilo
  6
Continuous
370
     0
100
AcDbCircle
 10
0.2127504631747297
 20
0.1539743133268437
 30
0.0
 40
0.027012390537963
100
AcDbArc
 50
41.09511531149377
 51
43.23109760366286
  0
ARC
  5
30
330
2
100
AcDbEntity
  8
Profilo
  6
Continuous
370
     0
100
AcDbCircle
 10
0.2127504631747297
 20
0.1539743133268437
 30
0.0
 40
0.0346428294790008
100
AcDbArc
 50
111.9119357550579
 51
160.973704117056
  0
ELLIPSE
  5
31
330
2
100
AcDbEntity
  8
Profilo
  6
Continuous
370
     0
100
AcDbEllipse
 10
0.2029534272125188
 20
0.18258705386692
 30
0.0
 11
-0.001674122404519
 21
-0.0006578857275433
 31
0.0
210
0.0
220
0.0
230
1.0
 40
0.6999527604408505
 41
0.0
 42
6.283185307179584
  0
ELLIPSE
  5
32
330
2
100
AcDbEntity
  8
Profilo
  6
Continuous
370
     0
100
AcDbEllipse
 10
0.2030249713212104
 20
0.1824440346723918
 30
0.0
 11
-0.0033482448090379
 21
-0.0013157705993249
 31
0.0
210
0.0
220
0.0
230
1.0
 40
0.6088587585262749
 41
0.0
 42
6.283185307179584
  0
ELLIPSE
  5
33
330
2
100
AcDbEntity
  8
Profilo
  6
Continuous
370
     0
100
AcDbEllipse
 10
0.1945911051999662
 20
0.1781591960597198
 30
0.0
 11
-0.0013888871517259
 21
-0.0011430187818179
 31
0.0
210
0.0
220
0.0
230
1.0
 40
0.6999527604408505
 41
0.0
 42
6.283185307179584
  0
ELLIPSE
  5
34
330
2
100
AcDbEntity
  8
Profilo
  6
Continuous
370
     0
100
AcDbEllipse
 10
0.1947033430523712
 20
0.1780452850682413
 30
0.0
 11
-0.0027777745678966
 21
-0.0022860367497579
 31
0.0
210
0.0
220
0.0
230
1.0
 40
0.6088587585262748
 41
0.0
 42
6.283185307179584
  0
ELLIPSE
  5
35
330
2
100
AcDbEntity
  8
Profilo
  6
Continuous
370
     0
100
AcDbEllipse
 10
0.1880063476696707
 20
0.1713639534246395
 30
0.0
 11
-0.000967697947576
 21
-0.001516265193848
 31
0.0
210
0.0
220
0.0
230
1.0
 40
0.6999527604408505
 41
0.0
 42
6.283185307179584
  0
ELLIPSE
  5
36
330
2
100
AcDbEntity
  8
Profilo
  6
Continuous
370
     0
100
AcDbEllipse
 10
0.1881482926427884
 20
0.1712903010377221
 30
0.0
 11
-0.0019353963981562
 21
-0.00303252969537
 31
0.0
210
0.0
220
0.0
230
0.9999999999999998
 40
0.6088587585262749
 41
0.0
 42
6.283185307179584
  0
ELLIPSE
  5
37
330
2
100
AcDbEntity
  8
Profilo
  6
Continuous
370
     0
100
AcDbEllipse
 10
0.1838437165674007
 20
0.1628664916560399
 30
0.0
 11
-0.0004517837259694
 21
-0.0017410890042634
 31
0.0
210
0.0
220
0.0
230
0.9999999999999998
 40
0.6999527604408505
 41
0.0
 42
6.283185307179584
  0
ELLIPSE
  5
38
330
2
100
AcDbEntity
  8
Profilo
  6
Continuous
370
     0
100
AcDbEllipse
 10
0.1840014740982732
 20
0.1628403074824808
 30
0.0
 11
-0.0009035681442646
 21
-0.0034821775055226
 31
0.0
210
0.0
220
0.0
230
1.0
 40
0.6088587585262749
 41
0.0
 42
6.283185307179584
  0
ELLIPSE
  5
39
330
2
100
AcDbEntity
  8
Profilo
  6
Continuous
370
     0
100
AcDbEllipse
 10
0.1825106792282025
 20
0.1534986015171297
 30
0.0
 11
0.0001083542344975
 21
-0.0017954828920611
 31
0.0
210
0.0
220
0.0
230
1.0
 40
0.6999527604408505
 41
0.0
 42
6.283185307179584
  0
ELLIPSE
  5
3A
330
2
100
AcDbEntity
  8
Profilo
  6
Continuous
370
     0
100
AcDbEllipse
 10
0.1826688069105462
 20
0.1535224486462722
 30
0.0
 11
0.0002167076551171
 21
-0.0035909655196772
 31
0.0
210
0.0
220
0.0
230
1.0
 40
0.6088587585262753
 41
0.0
 42
6.283185307179584
  0
ELLIPSE
  5
3B
330
2
100
AcDbEntity
  8
Profilo
  6
Continuous
370
     0
100
AcDbEllipse
 10
0.1841377226346534
 20
0.1441772773646329
 30
0.0
 11
0.0006578857275433
 21
-0.001674122404519
 31
0.0
210
0.0
220
0.0
230
1.0
 40
0.6999527604408505
 41
0.0
 42
6.283185307179584
  0
ELLIPSE
  5
3C
330
2
100
AcDbEntity
  8
Profilo
  6
Continuous
370
     0
100
AcDbEllipse
 10
0.1842807418291816
 20
0.1442488214733245
 30
0.0
 11
0.0013157705993249
 21
-0.0033482448090379
 31
0.0
210
0.0
220
0.0
230
1.0
 40
0.6088587585262749
 41
0.0
 42
6.283185307179584
  0
ELLIPSE
  5
3D
330
2
100
AcDbEntity
  8
Profilo
  6
Continuous
370
     0
100
AcDbEllipse
 10
0.1885655804418536
 20
0.1358149553520812
 30
0.0
 11
0.0011430187818179
 21
-0.0013888871517259
 31
0.0
210
0.0
220
0.0
230
1.0
 40
0.6999527604408505
 41
0.0
 42
6.283185307179584
  0
ELLIPSE
  5
3E
330
2
100
AcDbEntity
  8
Profilo
  6
Continuous
370
     0
100
AcDbEllipse
 10
0.1886794914333321
 20
0.1359271932044853
 30
0.0
 11
0.0022860367497579
 21
-0.0027777745678966
 31
0.0
210
0.0
220
0.0
230
1.0
 40
0.6088587585262748
 41
0.0
 42
6.283185307179584
  0
ELLIPSE
  5
3F
330
2
100
AcDbEntity
  8
Profilo
  6
Continuous
370
     0
100
AcDbEllipse
 10
0.1953608230769339
 20
0.1292301978217848
 30
0.0
 11
0.001516265193848
 21
-0.000967697947576
 31
0.0
210
0.0
220
0.0
230
1.0
 40
0.6999527604408505
 41
0.0
 42
6.283185307179584
  0
ELLIPSE
  5
40
330
2
100
AcDbEntity
  8
Profilo
  6
Continuous
370
     0
100
AcDbEllipse
 10
0.1954344754638513
 20
0.1293721427949025
 30
0.0
 11
0.00303252969537
 21
-0.0019353963981562
 31
0.0
210
0.0
220
0.0
230
0.9999999999999998
 40
0.6088587585262749
 41
0.0
 42
6.283185307179584
  0
ELLIPSE
  5
41
330
2
100
AcDbEntity
  8
Profilo
  6
Continuous
370
     0
100
AcDbEllipse
 10
0.2038582848455335
 20
0.1250675667195148
 30
0.0
 11
0.0017410890042634
 21
-0.0004517837259694
 31
0.0
210
0.0
220
0.0
230
0.9999999999999998
 40
0.6999527604408505
 41
0.0
 42
6.283185307179584
  0
ELLIPSE
  5
42
330
2
100
AcDbEntity
  8
Profilo
  6
Continuous
370
     0
100
AcDbEllipse
 10
0.2038844690190926
 20
0.1252253242503872
 30
0.0
 11
0.0034821775055226
 21
-0.0009035681442646
 31
0.0
210
0.0
220
0.0
230
1.0
 40
0.6088587585262749
 41
0.0
 42
6.283185307179584
  0
ELLIPSE
  5
43
330
2
100
AcDbEntity
  8
Profilo
  6
Continuous
370
     0
100
AcDbEllipse
 10
0.2132261749844437
 20
0.1237345293803166
 30
0.0
 11
0.0017954828920611
 21
0.0001083542344975
 31
0.0
210
0.0
220
0.0
230
1.0
 40
0.6999527604408505
 41
0.0
 42
6.283185307179584
  0
ELLIPSE
  5
44
330
2
100
AcDbEntity
  8
Profilo
  6
Continuous
370
     0
100
AcDbEllipse
 10
0.2132023278553012
 20
0.1238926570626603
 30
0.0
 11
0.0035909655196772
 21
0.0002167076551171
 31
0.0
210
0.0
220
0.0
230
1.0
 40
0.6088587585262753
 41
0.0
 42
6.283185307179584
  0
ELLIPSE
  5
45
330
2
100
AcDbEntity
  8
Profilo
  6
Continuous
370
     0
100
AcDbEllipse
 10
0.2225474991369405
 20
0.1253615727867684
 30
0.0
 11
0.001674122404519
 21
0.0006578857275433
 31
0.0
210
0.0
220
0.0
230
1.0
 40
0.6999527604408505
 41
0.0
 42
6.283185307179584
  0
ELLIPSE
  5
46
330
2
100
AcDbEntity
  8
Profilo
  6
Continuous
370
     0
100
AcDbEllipse
 10
0.2224759550282489
 20
0.1255045919812957
 30
0.0
 11
0.0033482448090379
 21
0.0013157705993249
 31
0.0
210
0.0
220
0.0
230
1.0
 40
0.6088587585262749
 41
0.0
 42
6.283185307179584
  0
ELLIPSE
  5
47
330
2
100
AcDbEntity
  8
Profilo
  6
Continuous
370
     0
100
AcDbEllipse
 10
0.2309098211494922
 20
0.1297894305939676
 30
0.0
 11
0.0013888871517259
 21
0.0011430187818179
 31
0.0
210
0.0
220
0.0
230
1.0
 40
0.6999527604408505
 41
0.0
 42
6.283185307179584
  0
ELLIPSE
  5
48
330
2
100
AcDbEntity
  8
Profilo
  6
Continuous
370
     0
100
AcDbEllipse
 10
0.2307975832970881
 20
0.1299033415854461
 30
0.0
 11
0.0027777745678966
 21
0.0022860367497579
 31
0.0
210
0.0
220
0.0
230
1.0
 40
0.6088587585262748
 41
0.0
 42
6.283185307179584
  0
ELLIPSE
  5
49
330
2
100
AcDbEntity
  8
Profilo
  6
Continuous
370
     0
100
AcDbEllipse
 10
0.2374945786797886
 20
0.136584673229048
 30
0.0
 11
0.000967697947576
 21
0.001516265193848
 31
0.0
210
0.0
220
0.0
230
1.0
 40
0.6999527604408505
 41
0.0
 42
6.283185307179584
  0
ELLIPSE
  5
4A
330
2
100
AcDbEntity
  8
Profilo
  6
Continuous
370
     0
100
AcDbEllipse
 10
0.2373526337066709
 20
0.1366583256159662
 30
0.0
 11
0.0019353963981562
 21
0.00303252969537
 31
0.0
210
0.0
220
0.0
230
0.9999999999999998
 40
0.6088587585262749
 41
0.0
 42
6.283185307179584
  0
ELLIPSE
  5
4B
330
2
100
AcDbEntity
  8
Profilo
  6
Continuous
370
     0
100
AcDbEllipse
 10
0.2416572097820586
 20
0.1450821349976475
 30
0.0
 11
0.0004517837259694
 21
0.0017410890042634
 31
0.0
210
0.0
220
0.0
230
0.9999999999999998
 40
0.6999527604408505
 41
0.0
 42
6.283185307179584
  0
ELLIPSE
  5
4C
330
2
100
AcDbEntity
  8
Profilo
  6
Continuous
370
     0
100
AcDbEllipse
 10
0.2414994522511862
 20
0.1451083191712067
 30
0.0
 11
0.0009035681442646
 21
0.0034821775055226
 31
0.0
210
0.0
220
0.0
230
1.0
 40
0.6088587585262749
 41
0.0
 42
6.283185307179584
  0
ELLIPSE
  5
4D
330
2
100
AcDbEntity
  8
Profilo
  6
Continuous
370
     0
100
AcDbEllipse
 10
0.2429902471212568
 20
0.1544500251365578
 30
0.0
 11
-0.0001083542344975
 21
0.0017954828920611
 31
0.0
210
0.0
220
0.0
230
1.0
 40
0.6999527604408505
 41
0.0
 42
6.283185307179584
  0
ELLIPSE
  5
4E
330
2
100
AcDbEntity
  8
Profilo
  6
Continuous
370
     0
100
AcDbEllipse
 10
0.2428321194389122
 20
0.1544261780074153
 30
0.0
 11
-0.0002167076551171
 21
0.0035909655196772
 31
0.0
210
0.0
220
0.0
230
1.0
 40
0.6088587585262753
 41
0.0
 42
6.283185307179584
  0
ELLIPSE
  5
4F
330
2
100
AcDbEntity
  8
Profilo
  6
Continuous
370
     0
100
AcDbEllipse
 10
0.241363203714805
 20
0.1637713492890546
 30
0.0
 11
-0.0006578857275433
 21
0.001674122404519
 31
0.0
210
0.0
220
0.0
230
1.0
 40
0.6999527604408505
 41
0.0
 42
6.283185307179584
  0
ELLIPSE
  5
50
330
2
100
AcDbEntity
  8
Profilo
  6
Continuous
370
     0
100
AcDbEllipse
 10
0.2412201845202777
 20
0.163699805180363
 30
0.0
 11
-0.0013157705993249
 21
0.0033482448090379
 31
0.0
210
0.0
220
0.0
230
1.0
 40
0.6088587585262749
 41
0.0
 42
6.283185307179584
  0
ELLIPSE
  5
51
330
2
100
AcDbEntity
  8
Profilo
  6
Continuous
370
     0
100
AcDbEllipse
 10
0.2369353459076058
 20
0.1721336713016072
 30
0.0
 11
-0.0011430187818179
 21
0.0013888871517259
 31
0.0
210
0.0
220
0.0
230
1.0
 40
0.6999527604408505
 41
0.0
 42
6.283185307179584
  0
ELLIPSE
  5
52
330
2
100
AcDbEntity
  8
Profilo
  6
Continuous
370
     0
100
AcDbEllipse
 10
0.2368214349161273
 20
0.1720214334492022
 30
0.0
 11
-0.0022860367497579
 21
0.0027777745678966
 31
0.0
210
0.0
220
0.0
230
1.0
 40
0.6088587585262748
 41
0.0
 42
6.283185307179584
  0
ELLIPSE
  5
53
330
2
100
AcDbEntity
  8
Profilo
  6
Continuous
370
     0
100
AcDbEllipse
 10
0.2301401032725254
 20
0.1787184288319027
 30
0.0
 11
-0.001516265193848
 21
0.000967697947576
 31
0.0
210
0.0
220
0.0
230
1.0
 40
0.6999527604408505
 41
0.0
 42
6.283185307179584
  0
ELLIPSE
  5
54
330
2
100
AcDbEntity
  8
Profilo
  6
Continuous
370
     0
100
AcDbEllipse
 10
0.2300664508856081
 20
0.178576483858785
 30
0.0
 11
-0.00303252969537
 21
0.0019353963981562
 31
0.0
210
0.0
220
0.0
230
0.9999999999999998
 40
0.6088587585262749
 41
0.0
 42
6.283185307179584
  0
ELLIPSE
  5
55
330
2
100
AcDbEntity
  8
Profilo
  6
Continuous
370
     0
100
AcDbEllipse
 10
0.2216426415039259
 20
0.1828810599341727
 30
0.0
 11
-0.0017410890042634
 21
0.0004517837259694
 31
0.0
210
0.0
220
0.0
230
0.9999999999999998
 40
0.6999527604408505
 41
0.0
 42
6.283185307179584
  0
ELLIPSE
  5
56
330
2
100
AcDbEntity
  8
Profilo
  6
Continuous
370
     0
100
AcDbEllipse
 10
0.2216164573303667
 20
0.1827233024033002
 30
0.0
 11
-0.0034821775055226
 21
0.0009035681442646
 31
0.0
210
0.0
220
0.0
230
1.0
 40
0.6088587585262749
 41
0.0
 42
6.283185307179584
  0
ELLIPSE
  5
57
330
2
100
AcDbEntity
  8
Profilo
  6
Continuous
370
     0
100
AcDbEllipse
 10
0.2122747513650156
 20
0.1842140972733709
 30
0.0
 11
-0.0017954828920611
 21
-0.0001083542344975
 31
0.0
210
0.0
220
0.0
230
1.0
 40
0.6999527604408505
 41
0.0
 42
6.283185307179584
  0
ELLIPSE
  5
58
330
2
100
AcDbEntity
  8
Profilo
  6
Continuous
370
     0
100
AcDbEllipse
 10
0.2122985984941581
 20
0.1840559695910272
 30
0.0
 11
-0.0035909655196772
 21
-0.0002167076551171
 31
0.0
210
0.0
220
0.0
230
1.0
 40
0.6088587585262753
 41
0.0
 42
6.283185307179584
  0
LWPOLYLINE
  5
59
330
2
100
AcDbEntity
  8
Profilo
  6
Continuous
370
     0
100
AcDbPolyline
 90
        6
 70
   129
 43
0.0
 10
0.2058926817846454
 20
0.1851558899738131
 10
0.207312580687294
 20
0.1841913745162488
 10
0.2082499893563929
 20
0.1854452452956913
 10
0.2076847864340856
 20
0.185596810983537
 10
0.2072160820995361
 20
0.1848803141287941
 10
0.206375172018195
 20
0.1854314658188313
  0
LWPOLYLINE
  5
5A
330
2
100
AcDbEntity
  8
Profilo
  6
Continuous
370
     0
100
AcDbPolyline
 90
        6
 70
   129
 43
0.0
 10
0.2073878729049074
 20
0.1829936382892917
 10
0.2066973633025253
 20
0.1815910172783986
 10
0.2073555155387503
 20
0.181615048781888
 10
0.2077053137891902
 20
0.1822205019825874
 10
0.2085238731842021
 20
0.1818581844077517
 10
0.2090139137403784
 20
0.182036294115797
  0
LWPOLYLINE
  5
5B
330
2
100
AcDbEntity
  8
Profilo
  6
Continuous
370
     0
100
AcDbPolyline
 90
        6
 70
   129
 43
0.0
 10
0.1965926884010447
 20
0.1815105839920562
 10
0.1982411441726131
 20
0.1810320481722852
 10
0.1987452054161933
 20
0.1825142253570927
 10
0.1981608291205952
 20
0.1824837155839013
 10
0.1979364745135375
 20
0.1816574489765802
 10
0.1969664062623606
 20
0.1819217698769812
  0
LWPOLYLINE
  5
5C
330
2
100
AcDbEntity
  8
Profilo
  6
Continuous
370
     0
100
AcDbPolyline
 90
        6
 70
   129
 43
0.0
 10
0.1986828721757086
 20
0.1799161999036215
 10
0.198459592247832
 20
0.1783688488494043
 10
0.1990781060778295
 20
0.1785950843932736
 10
0.1992236886549838
 20
0.1792789982090989
 10
0.2001141471895693
 20
0.1791873624825472
 10
0.2005251645271209
 20
0.1795081857407904
  0
LWPOLYLINE
  5
5D
330
2
100
AcDbEntity
  8
Profilo
  6
Continuous
370
     0
100
AcDbPolyline
 90
        6
 70
   129
 43
0.0
 10
0.1888743305901281
 20
0.1751698359811099
 10
0.1905899808942284
 20
0.1752241222193257
 10
0.1906113536857676
 20
0.1767895199797133
 10
0.1900650068402812
 20
0.1765799212546598
 10
0.1901069633528254
 20
0.1757247656272222
 10
0.1891026939710996
 20
0.1756763821666242
  0
LWPOLYLINE
  5
5E
330
2
100
AcDbEntity
  8
Profilo
  6
Continuous
370
     0
100
AcDbPolyline
 90
        6
 70
   129
 43
0.0
 10
0.1913549052681633
 20
0.1742993889120651
 10
0.1916207112098169
 20
0.172758773316738
 10
0.1921390421904665
 20
0.1731650673896782
 10
0.1920661584573502
 20
0.1738604955712292
 10
0.1929413518459555
 20
0.1740485116363398
 10
0.1932331127241558
 20
0.1744806440289567
  0
LWPOLYLINE
  5
5F
330
2
100
AcDbEntity
  8
Profilo
  6
Continuous
370
     0
100
AcDbPolyline
 90
        6
 70
   129
 43
0.0
 10
0.1834931349913893
 20
0.1667543225348739
 10
0.1851080400226188
 20
0.1673361169158459
 10
0.1846446322443678
 20
0.1688315032122588
 10
0.1841897950848514
 20
0.1684633325189105
 10
0.1844939557212204
 20
0.1676629964623911
 10
0.1835537900931865
 20
0.1673066447510244
  0
LWPOLYLINE
  5
60
330
2
100
AcDbEntity
  8
Profilo
  6
Continuous
370
     0
100
AcDbPolyline
 90
        6
 70
   129
 43
0.0
 10
0.1861212846401312
 20
0.1666930179090972
 10
0.1868501575137655
 20
0.1653099439612328
 10
0.1872175677972578
 20
0.1658565256685666
 10
0.1869333521214795
 20
0.166495394860099
 10
0.1877076103373956
 20
0.1669446583944344
 10
0.1878515551686696
 20
0.1674457997919928
  0
LWPOLYLINE
  5
61
330
2
100
AcDbEntity
  8
Profilo
  6
Continuous
370
     0
100
AcDbPolyline
 90
        6
 70
   129
 43
0.0
 10
0.1809758505230292
 20
0.157087812743795
 10
0.1823319321252248
 20
0.1581401651799149
 10
0.1814291053592705
 20
0.1594191611826913
 10
0.1811103005159345
 20
0.1589284576337103
 10
0.1816468919138299
 20
0.1582612836175888
 10
0.1808628600016775
 20
0.1576318458438116
  0
LWPOLYLINE
  5
62
330
2
100
AcDbEntity
  8
Profilo
  6
Continuous
370
     0
100
AcDbPolyline
 90
        6
 70
   129
 43
0.0
 10
0.1834943135434621
 20
0.1578416514851936
 10
0.1846149061938498
 20
0.1567515040992505
 10
0.1847954311017388
 20
0.1573848702152055
 10
0.1843277044938898
 20
0.1579046434489898
 10
0.1849252377483703
 20
0.1585711774076056
 10
0.1849072762097095
 20
0.1590922725984546
  0
LWPOLYLINE
  5
63
330
2
100
AcDbEntity
  8
Profilo
  6
Continuous
370
     0
100
AcDbPolyline
 90
        6
 70
   129
 43
0.0
 10
0.1815688865277603
 20
0.1471165319367603
 10
0.1825334019853246
 20
0.148536430839408
 10
0.1812795312058821
 20
0.1494738395085079
 10
0.1811279655180364
 20
0.1489086365862006
 10
0.1818444623727793
 20
0.1484399322516502
 10
0.1812933106827421
 20
0.1475990221703091
  0
LWPOLYLINE
  5
64
330
2
100
AcDbEntity
  8
Profilo
  6
Continuous
370
     0
100
AcDbPolyline
 90
        6
 70
   129
 43
0.0
 10
0.1837311382122817
 20
0.1486117230570215
 10
0.1851337592231748
 20
0.1479212134546394
 10
0.1851097277196854
 20
0.1485793656908644
 10
0.184504274518986
 20
0.1489291639413043
 10
0.1848665920938217
 20
0.1497477233363161
 10
0.1846884823857764
 20
0.1502377638924924
  0
LWPOLYLINE
  5
65
330
2
100
AcDbEntity
  8
Profilo
  6
Continuous
370
     0
100
AcDbPolyline
 90
        6
 70
   129
 43
0.0
 10
0.1852141925095172
 20
0.1378165385531588
 10
0.1856927283292882
 20
0.1394649943247271
 10
0.1842105511444807
 20
0.1399690555683074
 10
0.1842410609176721
 20
0.1393846792727092
 10
0.1850673275249932
 20
0.1391603246656524
 10
0.1848030066245923
 20
0.1381902564144747
  0
LWPOLYLINE
  5
66
330
2
100
AcDbEntity
  8
Profilo
  6
Continuous
370
     0
100
AcDbPolyline
 90
        6
 70
   129
 43
0.0
 10
0.1868085765979519
 20
0.1399067223278226
 10
0.1883559276521691
 20
0.139683442399947
 10
0.1881296921082998
 20
0.1403019562299444
 10
0.1874457782924745
 20
0.1404475388070979
 10
0.1875374140190262
 20
0.1413379973416843
 10
0.187216590760783
 20
0.1417490146792349
  0
LWPOLYLINE
  5
67
330
2
100
AcDbEntity
  8
Profilo
  6
Continuous
370
     0
100
AcDbPolyline
 90
        6
 70
   129
 43
0.0
 10
0.1915549405204635
 20
0.1300981807422422
 10
0.1915006542822476
 20
0.1318138310463434
 10
0.1899352565218602
 20
0.1318352038378817
 10
0.1901448552469136
 20
0.1312888569923952
 10
0.1910000108743513
 20
0.1313308135049395
 10
0.1910483943349492
 20
0.1303265441232136
  0
LWPOLYLINE
  5
68
330
2
100
AcDbEntity
  8
Profilo
  6
Continuous
370
     0
100
AcDbPolyline
 90
        6
 70
   129
 43
0.0
 10
0.1924253875895083
 20
0.1325787554202774
 10
0.1939660031848354
 20
0.132844561361931
 10
0.1935597091118952
 20
0.1333628923425815
 10
0.1928642809303442
 20
0.1332900086094643
 10
0.1926762648652335
 20
0.1341652019980696
 10
0.1922441324726167
 20
0.1344569628762698
  0
LWPOLYLINE
  5
69
330
2
100
AcDbEntity
  8
Profilo
  6
Continuous
370
     0
100
AcDbPolyline
 90
        6
 70
   129
 43
0.0
 10
0.1999704539666995
 20
0.1247169851435043
 10
0.1993886595857275
 20
0.1263318901747338
 10
0.1978932732893146
 20
0.1258684823964818
 10
0.198261443982662
 20
0.1254136452369655
 10
0.1990617800391823
 20
0.1257178058733345
 10
0.199418131750549
 20
0.1247776402453006
  0
LWPOLYLINE
  5
6A
330
2
100
AcDbEntity
  8
Profilo
  6
Continuous
370
     0
100
AcDbPolyline
 90
        6
 70
   129
 43
0.0
 10
0.2000317585924762
 20
0.1273451347922453
 10
0.2014148325403406
 20
0.1280740076658796
 10
0.2008682508330069
 20
0.1284414179493719
 10
0.2002293816414744
 20
0.1281572022735936
 10
0.199780118107139
 20
0.1289314604895096
 10
0.1992789767095806
 20
0.1290754053207837
  0
LWPOLYLINE
  5
6B
330
2
100
AcDbEntity
  8
Profilo
  6
Continuous
370
     0
100
AcDbPolyline
 90
        6
 70
   129
 43
0.0
 10
0.2096369637577784
 20
0.1221997006751433
 10
0.2085846113216585
 20
0.1235557822773398
 10
0.2073056153188821
 20
0.1226529555113845
 10
0.2077963188678631
 20
0.1223341506680485
 10
0.2084634928839846
 20
0.1228707420659439
 10
0.2090929306577627
 20
0.1220867101537916
  0
LWPOLYLINE
  5
6C
330
2
100
AcDbEntity
  8
Profilo
  6
Continuous
370
     0
100
AcDbPolyline
 90
        6
 70
   129
 43
0.0
 10
0.2088831250163798
 20
0.1247181636955762
 10
0.2099732724023229
 20
0.1258387563459639
 10
0.2093399062863679
 20
0.1260192812538529
 10
0.2088201330525836
 20
0.1255515546460039
 10
0.2081535990939678
 20
0.1261490879004844
 10
0.2076325039031188
 20
0.1261311263618235
  0
LWPOLYLINE
  5
6D
330
2
100
AcDbEntity
  8
Profilo
  6
Continuous
370
     0
100
AcDbPolyline
 90
        6
 70
   129
 43
0.0
 10
0.2196082445648131
 20
0.1227927366798752
 10
0.2181883456621654
 20
0.1237572521374387
 10
0.2172509369930655
 20
0.1225033813579962
 10
0.2178161399153728
 20
0.1223518156701505
 10
0.2182848442499232
 20
0.1230683125248934
 10
0.2191257543312643
 20
0.1225171608348571
  0
LWPOLYLINE
  5
6E
330
2
100
AcDbEntity
  8
Profilo
  6
Continuous
370
     0
100
AcDbPolyline
 90
        6
 70
   129
 43
0.0
 10
0.2181130534445519
 20
0.1249549883643958
 10
0.2188035630469332
 20
0.1263576093752897
 10
0.2181454108107081
 20
0.1263335778717994
 10
0.2177956125602691
 20
0.1257281246711001
 10
0.2169770531652573
 20
0.1260904422459358
 10
0.216487012609081
 20
0.1259123325378905
  0
LWPOLYLINE
  5
6F
330
2
100
AcDbEntity
  8
Profilo
  6
Continuous
370
     0
100
AcDbPolyline
 90
        6
 70
   129
 43
0.0
 10
0.2289082379484146
 20
0.1264380426616313
 10
0.2272597821768463
 20
0.1269165784814022
 10
0.226755720933266
 20
0.1254344012965948
 10
0.2273400972288642
 20
0.1254649110697862
 10
0.227564451835921
 20
0.1262911776771073
 10
0.2285345200870987
 20
0.1260268567767063
  0
LWPOLYLINE
  5
70
330
2
100
AcDbEntity
  8
Profilo
  6
Continuous
370
     0
100
AcDbPolyline
 90
        6
 70
   129
 43
0.0
 10
0.2268180541737508
 20
0.128032426750066
 10
0.2270413341016264
 20
0.1295797778042841
 10
0.226422820271629
 20
0.1293535422604138
 10
0.2262772376944755
 20
0.1286696284445886
 10
0.2253867791598891
 20
0.1287612641711403
 10
0.2249757618223385
 20
0.1284404409128971
  0
LWPOLYLINE
  5
71
330
2
100
AcDbEntity
  8
Profilo
  6
Continuous
370
     0
100
AcDbPolyline
 90
        6
 70
   129
 43
0.0
 10
0.2366265957593312
 20
0.1327787906725785
 10
0.2349109454552301
 20
0.1327245044343618
 10
0.2348895726636917
 20
0.1311591066739751
 10
0.2354359195091782
 20
0.1313687053990286
 10
0.2353939629966339
 20
0.1322238610264653
 10
0.2363982323783598
 20
0.1322722444870633
  0
LWPOLYLINE
  5
72
330
2
100
AcDbEntity
  8
Profilo
  6
Continuous
370
     0
100
AcDbPolyline
 90
        6
 70
   129
 43
0.0
 10
0.2341460210812951
 20
0.1336492377416233
 10
0.2338802151396424
 20
0.1351898533369494
 10
0.2333618841589919
 20
0.1347835592640093
 10
0.2334347678921091
 20
0.1340881310824592
 10
0.2325595745035038
 20
0.1339001150173485
 10
0.2322678136253036
 20
0.1334679826247308
  0
LWPOLYLINE
  5
73
330
2
100
AcDbEntity
  8
Profilo
  6
Continuous
370
     0
100
AcDbPolyline
 90
        6
 70
   129
 43
0.0
 10
0.2420077913580692
 20
0.1411943041188145
 10
0.2403928863268396
 20
0.1406125097378416
 10
0.2408562941050916
 20
0.1391171234414287
 10
0.2413111312646079
 20
0.1394852941347769
 10
0.2410069706282381
 20
0.1402856301912964
 10
0.2419471362562728
 20
0.1406419819026631
  0
LWPOLYLINE
  5
74
330
2
100
AcDbEntity
  8
Profilo
  6
Continuous
370
     0
100
AcDbPolyline
 90
        6
 70
   129
 43
0.0
 10
0.2393796417093281
 20
0.1412556087445903
 10
0.2386507688356938
 20
0.1426386826924547
 10
0.2382833585522006
 20
0.1420921009851209
 10
0.2385675742279798
 20
0.1414532317935885
 10
0.2377933160120638
 20
0.1410039682592531
 10
0.2376493711807897
 20
0.1405028268616947
  0
LWPOLYLINE
  5
75
330
2
100
AcDbEntity
  8
Profilo
  6
Continuous
370
     0
100
AcDbPolyline
 90
        6
 70
   129
 43
0.0
 10
0.2445250758264301
 20
0.1508608139098925
 10
0.2431689942242337
 20
0.1498084614737726
 10
0.2440718209901889
 20
0.1485294654709962
 10
0.2443906258335249
 20
0.1490201690199772
 10
0.2438540344356295
 20
0.1496873430360986
 10
0.2446380663477818
 20
0.1503167808098767
  0
LWPOLYLINE
  5
76
330
2
100
AcDbEntity
  8
Profilo
  6
Continuous
370
     0
100
AcDbPolyline
 90
        6
 70
   129
 43
0.0
 10
0.2420066128059972
 20
0.1501069751684939
 10
0.2408860201556096
 20
0.1511971225544369
 10
0.2407054952477206
 20
0.150563756438482
 10
0.2411732218555687
 20
0.1500439832046977
 10
0.240575688601089
 20
0.1493774492460819
 10
0.2405936501397499
 20
0.1488563540552329
  0
LWPOLYLINE
  5
77
330
2
100
AcDbEntity
  8
Profilo
  6
Continuous
370
     0
100
AcDbPolyline
 90
        6
 70
   129
 43
0.0
 10
0.2439320398216982
 20
0.160832094716928
 10
0.2429675243641347
 20
0.1594121958142794
 10
0.2442213951435772
 20
0.1584747871451805
 10
0.2443729608314229
 20
0.1590399900674878
 10
0.2436564639766801
 20
0.1595086944020373
 10
0.2442076156667172
 20
0.1603496044833784
  0
LWPOLYLINE
  5
78
330
2
100
AcDbEntity
  8
Profilo
  6
Continuous
370
     0
100
AcDbPolyline
 90
        6
 70
   129
 43
0.0
 10
0.2417697881371776
 20
0.159336903596666
 10
0.2403671671262837
 20
0.1600274131990481
 10
0.240391198629774
 20
0.1593692609628231
 10
0.2409966518304734
 20
0.1590194627123832
 10
0.2406343342556376
 20
0.1582009033173713
 10
0.2408124439636829
 20
0.157710862761195
  0
LWPOLYLINE
  5
79
330
2
100
AcDbEntity
  8
Profilo
  6
Continuous
370
     0
100
AcDbPolyline
 90
        6
 70
   129
 43
0.0
 10
0.2402867338399421
 20
0.1701320881005287
 10
0.2398081980201712
 20
0.1684836323289603
 10
0.2412903752049786
 20
0.1679795710853801
 10
0.2412598654317872
 20
0.1685639473809782
 10
0.2404335988244661
 20
0.168788301988036
 10
0.2406979197248671
 20
0.1697583702392128
  0
LWPOLYLINE
  5
7A
330
2
100
AcDbEntity
  8
Profilo
  6
Continuous
370
     0
100
AcDbPolyline
 90
        6
 70
   129
 43
0.0
 10
0.2386923497515074
 20
0.1680419043258648
 10
0.2371449986972893
 20
0.1682651842537414
 10
0.2373712342411596
 20
0.1676466704237439
 10
0.2380551480569848
 20
0.1675010878465896
 10
0.2379635123304331
 20
0.1666106293120032
 10
0.2382843355886763
 20
0.1661996119744525
  0
LWPOLYLINE
  5
7B
330
2
100
AcDbEntity
  8
Profilo
  6
Continuous
370
     0
100
AcDbPolyline
 90
        6
 70
   129
 43
0.0
 10
0.2339459858289958
 20
0.1778504459114453
 10
0.2340002720672116
 20
0.176134795607345
 10
0.2355656698275992
 20
0.1761134228158058
 10
0.2353560711025457
 20
0.1766597696612923
 10
0.2345009154751081
 20
0.176617813148748
 10
0.2344525320145101
 20
0.1776220825304738
  0
LWPOLYLINE
  5
7C
330
2
100
AcDbEntity
  8
Profilo
  6
Continuous
370
     0
100
AcDbPolyline
 90
        6
 70
   129
 43
0.0
 10
0.2330755387599501
 20
0.1753698712334101
 10
0.231534923164624
 20
0.1751040652917565
 10
0.2319412172375641
 20
0.1745857343111069
 10
0.2326366454191142
 20
0.1746586180442232
 10
0.2328246614842258
 20
0.1737834246556179
 10
0.2332567938768426
 20
0.1734916637774176
  0
LWPOLYLINE
  5
7D
330
2
100
AcDbEntity
  8
Profilo
  6
Continuous
370
     0
100
AcDbPolyline
 90
        6
 70
   129
 43
0.0
 10
0.2255304723827589
 20
0.1832316415101832
 10
0.2261122667637319
 20
0.1816167364789546
 10
0.2276076530601447
 20
0.1820801442572056
 10
0.2272394823667965
 20
0.182534981416722
 10
0.2264391463102771
 20
0.182230820780353
 10
0.2260827945989103
 20
0.1831709864083869
  0
LWPOLYLINE
  5
7E
330
2
100
AcDbEntity
  8
Profilo
  6
Continuous
370
     0
100
AcDbPolyline
 90
        6
 70
   129
 43
0.0
 10
0.2254691677569831
 20
0.1806034918614422
 10
0.2240860938091187
 20
0.1798746189878079
 10
0.2246326755164525
 20
0.1795072087043156
 10
0.2252715447079849
 20
0.1797914243800939
 10
0.2257208082423203
 20
0.1790171661641778
 10
0.2262219496398787
 20
0.1788732213329037
  0
LWPOLYLINE
  5
7F
330
2
100
AcDbEntity
  8
Profilo
  6
Continuous
370
     0
100
AcDbPolyline
 90
        6
 70
   129
 43
0.0
 10
0.2158639625916809
 20
0.1857489259785442
 10
0.2169163150278008
 20
0.1843928443763486
 10
0.2181953110305772
 20
0.1852956711423029
 10
0.2177046074815963
 20
0.185614475985639
 10
0.2170374334654748
 20
0.1850778845877435
 10
0.2164079956916967
 20
0.1858619164998959
  0
LWPOLYLINE
  5
80
330
2
100
AcDbEntity
  8
Profilo
  6
Continuous
370
     0
100
AcDbPolyline
 90
        6
 70
   129
 43
0.0
 10
0.2166178013330795
 20
0.1832304629581113
 10
0.2155276539471365
 20
0.1821098703077236
 10
0.2161610200630915
 20
0.1819293453998346
 10
0.2166807932968757
 20
0.1823970720076836
 10
0.2173473272554915
 20
0.1817995387532031
 10
0.2178684224463405
 20
0.1818175002918639
  0
LWPOLYLINE
  5
81
330
2
100
AcDbEntity
  8
Profilo
  6
Continuous
370
     0
100
AcDbPolyline
 90
       51
 70
   128
 43
0.0
 10
0.1933228662606361
 20
0.1949381221896503
 10
0.1937592862704875
 20
0.1953198056545226
 10
0.1945775697311014
 20
0.1950471753416959
 10
0.1948503308846388
 20
0.1940657055309106
 10
0.194413913580026
 20
0.1933023403126922
 10
0.1931592101095616
 20
0.1933023403126922
 10
0.1923409239437098
 20
0.1941747569714319
 10
0.1921772677926345
 20
0.1953743313747823
 10
0.1922863727950974
 20
0.1968465360909594
 10
0.1932393825787042
 20
0.1981528650701006
 10
0.1941957035751003
 20
0.1990275785935717
 10
0.1959959293526403
 20
0.2000090484043561
 10
0.197305186676956
 20
0.2002271529969221
 10
0.1986689924446445
 20
0.2003362044374434
 10
0.2000328009175718
 20
0.2002816787171827
 10
0.2011238482369617
 20
0.2000090484043561
 10
0.202214892851112
 20
0.1992456831861377
 10
0.2037423574751147
 20
0.1980461087827864
 10
0.2049425097969675
 20
0.1965193783463487
 10
0.2053789271015793
 20
0.195428857095043
 10
0.2059790032625062
 20
0.1939021266586053
 10
0.2061426594135807
 20
0.1923208705019069
 10
0.2059790032625062
 20
0.1898671976864697
 10
0.2055425832526547
 20
0.1881223626574661
 10
0.2047788509406534
 20
0.1869227882541148
 10
0.2031422813141879
 20
0.1862139487561569
 10
0.2012875043880371
 20
0.1858867927230697
 10
0.2000328009175718
 20
0.1859413184433304
 10
0.199105412454496
 20
0.1867046836615497
 10
0.1987780974471074
 20
0.1875771020318128
 10
0.199105412454496
 20
0.1883949929702918
 10
0.2000328009175718
 20
0.1883404672500312
 10
0.2004146670735729
 20
0.1877952066243788
 10
0.2004146670735729
 20
0.1874680488797681
 10
0.2010147432344989
 20
0.1872499442872021
 10
0.2019421316975747
 20
0.1872499442872021
 10
0.2027604151581877
 20
0.1876316277520734
 10
0.2035787013240402
 20
0.1885040444108131
 10
0.2040696724825033
 20
0.1902488794398168
 10
0.2040696724825033
 20
0.1916665584357332
 10
0.2037423574751147
 20
0.1935204449052582
 10
0.2027604151581877
 20
0.1951562267822172
 10
0.2015057143929628
 20
0.1966284314983943
 10
0.2001964570686463
 20
0.1974463224368733
 10
0.1987235462984958
 20
0.1980461087827864
 10
0.197305186676956
 20
0.1980461087827864
 10
0.1959413782040287
 20
0.1978825316220053
 10
0.1947957797360262
 20
0.1971736921240467
 10
0.1942502574289515
 20
0.1965193783463487
 10
0.1939229424215629
 20
0.196083170872741
 10
0.1939229424215629
 20
0.1953743313747823
  0
LWPOLYLINE
  5
82
330
2
100
AcDbEntity
  8
Profilo
  6
Continuous
370
     0
100
AcDbPolyline
 90
        6
 70
   128
 43
0.0
 10
0.2060335544111178
 20
0.1889947793162058
 10
0.2064154205671189
 20
0.1882314140979865
 10
0.2070154967280449
 20
0.1875225763115521
 10
0.2076701240375833
 20
0.1872499442872021
 10
0.2085975125006592
 20
0.1872499442872021
 10
0.2091430375129735
 20
0.1872499442872021
  0
LWPOLYLINE
  5
83
330
2
100
AcDbEntity
  8
Profilo
  6
Continuous
370
     0
100
AcDbPolyline
 90
        9
 70
   128
 43
0.0
 10
0.209197588661586
 20
0.1881223626574661
 10
0.2082702001985093
 20
0.1885040444108131
 10
0.2078337801886578
 20
0.1891038324682505
 10
0.2076155728889717
 20
0.1899762491269902
 10
0.2076155728889717
 20
0.1909031932175148
 10
0.2079428851911207
 20
0.1919937144688205
 10
0.2084884102034359
 20
0.1926480265349942
 10
0.2091430375129735
 20
0.1929206568478209
 10
0.2099067698249748
 20
0.1929206568478209
  0
LWPOLYLINE
  5
84
330
2
100
AcDbEntity
  8
Profilo
  6
Continuous
370
     0
100
AcDbPolyline
 90
        6
 70
   128
 43
0.0
 10
0.2062517644160435
 20
0.1921572916296025
 10
0.2067427355745075
 20
0.1930297099998656
 10
0.2071246017305077
 20
0.1935204449052582
 10
0.2071246017305077
 20
0.1937385494978242
 10
0.2062517644160435
 20
0.1939021266586053
 10
0.2060335544111178
 20
0.1939566523788659
  0
LWPOLYLINE
  5
85
330
2
100
AcDbEntity
  8
Profilo
  6
Continuous
370
     0
100
AcDbPolyline
 90
       26
 70
   128
 43
0.0
 10
0.2056516882551176
 20
0.1953198056545226
 10
0.206088108264969
 20
0.1957014874078696
 10
0.2064699744209701
 20
0.1957014874078696
 10
0.2066336305720446
 20
0.1958105405599143
 10
0.2064154205671189
 20
0.1959741177206963
 10
0.2059790032625062
 20
0.1962467480335229
 10
0.2057062421089688
 20
0.1963558011855676
 10
0.2055425832526547
 20
0.1966284314983943
 10
0.2055425832526547
 20
0.1968465360909594
 10
0.2053789271015793
 20
0.1970101132517413
 10
0.2050516120941916
 20
0.1973372692848286
 10
0.2046697459381905
 20
0.1979370573422651
 10
0.2046697459381905
 20
0.198318739095613
 10
0.2049970609455791
 20
0.198973052873311
 10
0.2053789271015793
 20
0.1990275785935717
 10
0.205597137106506
 20
0.199191157465877
 10
0.2053789271015793
 20
0.1996273649394847
 10
0.2047788509406534
 20
0.2001180998448774
 10
0.2040151186286521
 20
0.2007178879023147
 10
0.2030331790169646
 20
0.2010995696556618
 10
0.2023239978535758
 20
0.2011540953759225
 10
0.2017784755465002
 20
0.2011540953759225
 10
0.2010692943831105
 20
0.2011540953759225
 10
0.2008510843781848
 20
0.2009905182151414
 10
0.2007965332295731
 20
0.2006088347502692
 10
0.2007965332295731
 20
0.2003907301577041
  0
LWPOLYLINE
  5
86
330
2
100
AcDbEntity
  8
Profilo
  6
Continuous
370
     0
100
AcDbPolyline
 90
       24
 70
   128
 43
0.0
 10
0.1982325751400318
 20
0.2004452558779638
 10
0.1982325751400318
 20
0.2013176742482278
 10
0.1985598874421817
 20
0.2022991440590122
 10
0.199105412454496
 20
0.2030625092772315
 10
0.1998145909126461
 20
0.2033896653103188
 10
0.2007965332295731
 20
0.2037713470636659
 10
0.2019421316975747
 20
0.2037713470636659
 10
0.2030331790169646
 20
0.2035532424710999
 10
0.204178777484967
 20
0.2031170349974921
 10
0.204506089787116
 20
0.2026808258123601
 10
0.2052152709505048
 20
0.2018084091536204
 10
0.2058698982600433
 20
0.200826939342836
 10
0.2064154205671189
 20
0.1998999952523114
 10
0.2066336305720446
 20
0.1994092603469187
 10
0.2070700478766574
 20
0.1993547346266581
 10
0.2079428851911207
 20
0.1994637877787028
 10
0.2080519901935836
 20
0.1999545226840954
 10
0.2078337801886578
 20
0.2006633604705307
 10
0.2075610190351205
 20
0.2014267256887491
 10
0.2077246778914346
 20
0.2019174605941417
 10
0.2084884102034359
 20
0.2021900909069675
 10
0.2088702763594361
 20
0.2021900909069675
 10
0.2098522159711245
 20
0.2020810394664471
 10
0.2098522159711245
 20
0.2024081954995335
  0
LWPOLYLINE
  5
87
330
2
100
AcDbEntity
  8
Profilo
  6
Continuous
370
     0
100
AcDbPolyline
 90
        6
 70
   128
 43
0.0
 10
0.2102340821271247
 20
0.1960286434409569
 10
0.2100704259760493
 20
0.197064638972002
 10
0.2099067698249748
 20
0.1980461087827864
 10
0.2096340086714374
 20
0.198754948280745
 10
0.2093066936640489
 20
0.1992456831861377
 10
0.2089248275080477
 20
0.1996818923712688
  0
LWPOLYLINE
  5
88
330
2
100
AcDbEntity
  8
Profilo
  6
Continuous
370
     0
100
AcDbPolyline
 90
        4
 70
   128
 43
0.0
 10
0.2088702763594361
 20
0.1952652782227376
 10
0.2084447774002636
 20
0.1960017091933664
 10
0.2072337067329706
 20
0.1973917967166127
 10
0.2068518405769704
 20
0.1977734784699597
  0
CIRCLE
  5
89
330
2
100
AcDbEntity
  8
Profilo
  6
Continuous
370
     0
100
AcDbCircle
 10
0.210715022258608
 20
0.193431106794072
 30
0.0
 40
0.0006930229282738
  0
CIRCLE
  5
8A
330
2
100
AcDbEntity
  8
Profilo
  6
Continuous
370
     0
100
AcDbCircle
 10
0.2099531322145067
 20
0.1875768846683105
 30
0.0
 40
0.000740587731585
  0
LWPOLYLINE
  5
8B
330
2
100
AcDbEntity
  8
Profilo
  6
Continuous
370
     0
100
AcDbPolyline
 90
       51
 70
   128
 43
0.0
 10
0.2300912002236528
 20
0.1958642166092005
 10
0.2296361186430886
 20
0.1962234455715442
 10
0.2288325976873982
 20
0.1959099664125053
 10
0.2286095921628928
 20
0.1949160095862797
 10
0.2290838859041504
 20
0.1941755827045725
 10
0.2303369984181443
 20
0.1942387477745692
 10
0.2311103272547827
 20
0.1951512528902238
 10
0.2312133861629582
 20
0.1963575451211547
 10
0.2310303048506948
 20
0.1978223904580408
 10
0.2300127394440017
 20
0.1990790860029093
 10
0.2290135956794173
 20
0.1999045466827626
 10
0.227166242807834
 20
0.2007941438991775
 10
0.2258476656555912
 20
0.2009460604820642
 10
0.2244800992493341
 20
0.2009863160796582
 10
0.2231207650454146
 20
0.200863201795141
 10
0.2220448260938836
 20
0.2005359909866419
 10
0.2209935947289241
 20
0.1997186676578545
 10
0.2195284566487807
 20
0.19844371772438
 10
0.2184066857352074
 20
0.1968585043511547
 10
0.2180257215107411
 20
0.195747395480255
 10
0.2175032658651219
 20
0.1941923915179394
 10
0.2174194218194503
 20
0.192604901503833
 10
0.217706394793159
 20
0.1901625788115252
 10
0.2182301010057517
 20
0.1884419267530516
 10
0.2190532546376469
 20
0.1872823216944791
 10
0.2207234339467672
 20
0.1866567702165648
 10
0.222592328921362
 20
0.186423403360083
 10
0.2238426964673075
 20
0.1865410250120542
 10
0.2247304791962092
 20
0.1873501094601172
 10
0.2250134593367046
 20
0.1882378995067609
 10
0.2246453845835632
 20
0.1890382754668
 10
0.2237219170115419
 20
0.1889371317124672
 10
0.2233679849123471
 20
0.1883733383281981
 10
0.2233844548929638
 20
0.1880465954176443
 10
0.2227961195833654
 20
0.1877985579694833
 10
0.2218699070432948
 20
0.1877518707971241
 10
0.2210334462125341
 20
0.1880918757498401
 10
0.2201722778813633
 20
0.1889219915134909
 10
0.2195940896906878
 20
0.1906398973237854
 10
0.2195227200044487
 20
0.1920557787112423
 10
0.2197562904615806
 20
0.1939237923614886
 10
0.2206546381231089
 20
0.1956069336335705
 10
0.2218336332810049
 20
0.1971404365368107
 10
0.2231000556956737
 20
0.1980232018488536
 10
0.2245409040029476
 20
0.1986963778681815
 10
0.2259574651529992
 20
0.1987677818189034
 10
0.2273277792291133
 20
0.1986730697755238
 10
0.2285076099282526
 20
0.1980228015192459
 10
0.2290853803913884
 20
0.1973967804340336
 10
0.2294342401958629
 20
0.1969776039665229
 10
0.2294699250389824
 20
0.1962696632727935
  0
LWPOLYLINE
  5
8C
330
2
100
AcDbEntity
  8
Profilo
  6
Continuous
370
     0
100
AcDbPolyline
 90
        6
 70
   128
 43
0.0
 10
0.217695832648505
 20
0.1892885204143407
 10
0.2173528805076661
 20
0.1885068989928195
 10
0.2167892499966684
 20
0.1877687505975348
 10
0.2161491777631979
 20
0.1874635086098676
 10
0.2152229652231281
 20
0.1874168214375084
 10
0.2146781319332549
 20
0.1873893582747778
  0
LWPOLYLINE
  5
8D
330
2
100
AcDbEntity
  8
Profilo
  6
Continuous
370
     0
100
AcDbPolyline
 90
        9
 70
   128
 43
0.0
 10
0.2145797301217442
 20
0.1882579241756049
 10
0.2154867277993111
 20
0.1886858091311388
 10
0.2158923995241875
 20
0.1893068071911029
 10
0.2160664103910614
 20
0.190189102759659
 10
0.2160197455895842
 20
0.1911148714906398
 10
0.2156379486118471
 20
0.1921875322060934
 10
0.2150601755330659
 20
0.1928135514457633
 10
0.2143926533606211
 20
0.1930528804059012
 10
0.2136298894566082
 20
0.1930144321142672
  0
LWPOLYLINE
  5
8E
330
2
100
AcDbEntity
  8
Profilo
  6
Continuous
370
     0
100
AcDbPolyline
 90
        6
 70
   128
 43
0.0
 10
0.2173186901517845
 20
0.19243603741601
 10
0.2167844217083747
 20
0.1932826327866527
 10
0.216378334871606
 20
0.1937535212973133
 10
0.2163673549132483
 20
0.1939713493345646
 10
0.21723085057109
 20
0.1941786600046681
 10
0.2174460389189907
 20
0.1942441018517348
  0
LWPOLYLINE
  5
8F
330
2
100
AcDbEntity
  8
Profilo
  6
Continuous
370
     0
100
AcDbPolyline
 90
       26
 70
   128
 43
0.0
 10
0.217758796152806
 20
0.1956247508030356
 10
0.2173037146584049
 20
0.1959839780560258
 10
0.216922332706398
 20
0.1959647539102084
 10
0.2167533940480812
 20
0.1960654299027856
 10
0.2169630924598842
 20
0.1962397849138021
 10
0.2173852314635678
 20
0.1965340399270236
 10
0.2176521567353398
 20
0.1966566863135973
 10
0.2178018831468
 20
0.1969372099497363
 10
0.2177909031884433
 20
0.1971550379869876
 10
0.2179461169203549
 20
0.1973266466136362
 10
0.2182565469998237
 20
0.1976698657124748
 10
0.2186077340448078
 20
0.1982881173880718
 10
0.2185885191823049
 20
0.1986693151712465
 10
0.2182286793333106
 20
0.1993063213853631
 10
0.2178445524132553
 20
0.1993415538215201
 10
0.2176183841069978
 20
0.1994939400117047
 10
0.2178143575923956
 20
0.199940579641947
 10
0.2183889679755879
 20
0.2004609017093339
 10
0.2191215369725781
 20
0.2010983775307475
 10
0.2200830166282286
 20
0.2015290087344596
 10
0.2207885535861094
 20
0.2016191673598898
 10
0.2213333841741731
 20
0.2016466303864316
 10
0.2220416661001032
 20
0.2016823324298874
 10
0.2222678343201985
 20
0.2015299479490563
 10
0.2223415312469472
 20
0.2011514947047063
 10
0.222352511205304
 20
0.200933666667455
  0
LWPOLYLINE
  5
90
330
2
100
AcDbEntity
  8
Profilo
  6
Continuous
370
     0
100
AcDbPolyline
 90
       24
 70
   128
 43
0.0
 10
0.224910473243326
 20
0.2011171996376028
 10
0.2248665534098981
 20
0.2019885117866091
 10
0.2244902463682579
 20
0.2029522593381138
 10
0.2239069832672158
 20
0.2036871934510861
 10
0.2231822341486407
 20
0.2039782327450203
 10
0.2221823220661758
 20
0.2043099969714687
 10
0.2210381762101561
 20
0.2042523245340172
 10
0.2199594922905768
 20
0.2039795703074935
 10
0.2188373062651083
 20
0.2034862435048929
 10
0.2185323689097081
 20
0.2030341096689398
 10
0.2178680067310437
 20
0.2021270971858321
 10
0.2172636192545314
 20
0.20111391621379
 10
0.216765453467944
 20
0.2001606844562675
 10
0.2165722250367577
 20
0.1996595865346981
 10
0.2161391060747173
 20
0.1995831595587271
 10
0.2152618854904704
 20
0.1996481335078494
 10
0.2151282139477335
 20
0.2001327535317813
 10
0.2153104625067252
 20
0.2008516777812485
 10
0.2155444479895883
 20
0.2016278065702227
 10
0.2153562917669591
 20
0.2021096802097867
 10
0.2145798029365402
 20
0.2023435165373785
 10
0.2141984209845333
 20
0.202324292391561
 10
0.2132232164024776
 20
0.2021659458070747
 10
0.2132067465080232
 20
0.202492687008275
  0
LWPOLYLINE
  5
91
330
2
100
AcDbEntity
  8
Profilo
  6
Continuous
370
     0
100
AcDbPolyline
 90
        6
 70
   128
 43
0.0
 10
0.2131465279717715
 20
0.1961020000376056
 10
0.2132578218702543
 20
0.1971449208132595
 10
0.2133718607367856
 20
0.198133385006939
 10
0.2136085911876979
 20
0.1988550572139388
 10
0.2139107862768583
 20
0.1993616477680543
 10
0.2142702083121508
 20
0.1998165279883744
  0
LWPOLYLINE
  5
92
330
2
100
AcDbEntity
  8
Profilo
  6
Continuous
370
     0
100
AcDbPolyline
 90
        4
 70
   128
 43
0.0
 10
0.2145470342530988
 20
0.1954082603282566
 10
0.214934919811782
 20
0.1961651782446271
 10
0.21607447418974
 20
0.197614471625258
 10
0.216436641279244
 20
0.1980148935542502
  0
CIRCLE
  5
93
330
2
100
AcDbEntity
  8
Profilo
  6
Continuous
370
     0
100
AcDbCircle
 10
0.2127969644904815
 20
0.1934835452614963
 30
0.0
 40
0.0006930229282738
  0
CIRCLE
  5
94
330
2
100
AcDbEntity
  8
Profilo
  6
Continuous
370
     0
100
AcDbCircle
 10
0.2138526053889749
 20
0.1876751018012838
 30
0.0
 40
0.000740587731585
  0
LWPOLYLINE
  5
95
330
2
100
AcDbEntity
  8
Profilo
  6
Continuous
370
     0
100
AcDbPolyline
 90
       13
 70
   128
 43
0.0
 10
0.2102683737393136
 20
0.1926559063898526
 10
0.2100850180363329
 20
0.1920694545246521
 10
0.2099750067787351
 20
0.191446348669085
 10
0.2101216902590244
 20
0.1907865888231507
 10
0.2105250684772006
 20
0.1902734432271597
 10
0.2112846536574973
 20
0.1899081664279437
 10
0.212211931205766
 20
0.1898336056119024
 10
0.2129086763845198
 20
0.189906911881112
 10
0.2135320825283682
 20
0.190310097217527
 10
0.2138987912290917
 20
0.1910798156115131
 10
0.2138987912290917
 20
0.191812881726657
 10
0.2136787660086574
 20
0.1924359858707006
 10
0.2133487268253866
 20
0.1928391729186389
  0
LWPOLYLINE
  5
96
330
2
100
AcDbEntity
  8
Profilo
  6
Continuous
370
     0
100
AcDbPolyline
 90
        5
 70
   128
 43
0.0
 10
0.211617338564712
 20
0.1963003221466367
 10
0.2115251007287056
 20
0.1981903234765804
 10
0.211617338564712
 20
0.200218615916984
 10
0.211617338564712
 20
0.2016476423146626
 10
0.2116634574827156
 20
0.2022469100689118
  0
LWPOLYLINE
  5
97
330
2
100
AcDbEntity
  8
Profilo
  6
Continuous
370
     0
100
AcDbPolyline
 90
       13
 70
   128
 43
0.0
 10
0.2098522159711245
 20
0.2024081954995335
 10
0.2099134355343815
 20
0.2030656875766391
 10
0.210215924561566
 20
0.2037021997969125
 10
0.2106457762506226
 20
0.2042591501290557
 10
0.2111074713103866
 20
0.2043864515461959
 10
0.2117761306956922
 20
0.2044819288926941
 10
0.2123651911225679
 20
0.2044023652930415
 10
0.2127632021461558
 20
0.2041795848178788
 10
0.2132885785368563
 20
0.203829502925576
 10
0.2134477818641962
 20
0.2032884663402775
 10
0.2134477818641962
 20
0.2026996919374916
 10
0.2133681802005258
 20
0.2024450856801629
 10
0.2132232164024776
 20
0.2021659458070747
  0
ELLIPSE
  5
98
330
2
100
AcDbEntity
  8
Profilo
  6
Continuous
370
     0
100
AcDbEllipse
 10
0.1840014740982732
 20
0.1628403074824808
 30
0.0
 11
-0.0009035681442646
 21
-0.0034821775055226
 31
0.0
210
0.0
220
0.0
230
1.0
 40
0.6088587585262749
 41
0.0
 42
6.283185307179584
  0
ELLIPSE
  5
99
330
2
100
AcDbEntity
  8
Profilo
  6
Continuous
370
     0
100
AcDbEllipse
 10
0.1825106792282025
 20
0.1534986015171297
 30
0.0
 11
0.0001083542344975
 21
-0.0017954828920611
 31
0.0
210
0.0
220
0.0
230
1.0
 40
0.6999527604408505
 41
0.0
 42
6.283185307179584
  0
ELLIPSE
  5
9A
330
2
100
AcDbEntity
  8
Profilo
  6
Continuous
370
     0
100
AcDbEllipse
 10
0.1826688069105462
 20
0.1535224486462722
 30
0.0
 11
0.0002167076551171
 21
-0.0035909655196772
 31
0.0
210
0.0
220
0.0
230
1.0
 40
0.6088587585262753
 41
0.0
 42
6.283185307179584
  0
LWPOLYLINE
  5
9B
330
2
100
AcDbEntity
  8
Profilo
  6
Continuous
370
     0
100
AcDbPolyline
 90
        6
 70
   129
 43
0.0
 10
0.1815688865277603
 20
0.1471165319367603
 10
0.1825334019853246
 20
0.148536430839408
 10
0.1812795312058821
 20
0.1494738395085079
 10
0.1811279655180364
 20
0.1489086365862006
 10
0.1818444623727793
 20
0.1484399322516502
 10
0.1812933106827421
 20
0.1475990221703091
  0
LWPOLYLINE
  5
9C
330
2
100
AcDbEntity
  8
Profilo
  6
Continuous
370
     0
100
AcDbPolyline
 90
        6
 70
   129
 43
0.0
 10
0.1809758505230292
 20
0.157087812743795
 10
0.1823319321252248
 20
0.1581401651799149
 10
0.1814291053592705
 20
0.1594191611826913
 10
0.1811103005159345
 20
0.1589284576337103
 10
0.1816468919138299
 20
0.1582612836175888
 10
0.1808628600016775
 20
0.1576318458438116
  0
LWPOLYLINE
  5
9D
330
2
100
AcDbEntity
  8
Profilo
  6
Continuous
370
     0
100
AcDbPolyline
 90
       51
 70
   128
 43
0.0
 10
0.1717866543119231
 20
0.1345467164127502
 10
0.1714049708470509
 20
0.1349831364226025
 10
0.1716776011598775
 20
0.1358014198832155
 10
0.1726590709706628
 20
0.1360741810367528
 10
0.1734224361888812
 20
0.1356377637321401
 10
0.1734224361888812
 20
0.1343830602616757
 10
0.1725500195301415
 20
0.133564774095824
 10
0.1713504451267911
 20
0.1334011179447486
 10
0.1698782404106141
 20
0.1335102229472115
 10
0.1685719114314728
 20
0.1344632327308183
 10
0.1676971979080017
 20
0.1354195537272144
 10
0.1667157280972173
 20
0.1372197795047544
 10
0.1664976235046514
 20
0.13852903682907
 10
0.16638857206413
 20
0.1398928425967586
 10
0.1664430977843907
 20
0.1412566510696859
 10
0.1667157280972173
 20
0.1423476983890758
 10
0.1674790933154358
 20
0.143438743003227
 10
0.168678667718787
 20
0.1449662076272288
 10
0.1702053981552247
 20
0.1461663599490815
 10
0.1712959194065304
 20
0.1466027772536943
 10
0.1728226498429681
 20
0.1472028534146211
 10
0.1744039059996665
 20
0.1473665095656947
 10
0.1768575788151037
 20
0.1472028534146211
 10
0.1786024138441073
 20
0.1467664334047688
 10
0.1798019882474586
 20
0.1460027010927675
 10
0.1805108277454164
 20
0.1443661314663019
 10
0.1808379837785037
 20
0.1425113545401512
 10
0.180783458058243
 20
0.1412566510696859
 10
0.1800200928400237
 20
0.14032926260661
 10
0.1791476744697606
 20
0.1400019475992215
 10
0.1783297835312816
 20
0.14032926260661
 10
0.1783843092515422
 20
0.1412566510696859
 10
0.1789295698771947
 20
0.141638517225687
 10
0.1792567276218053
 20
0.141638517225687
 10
0.1794748322143713
 20
0.1422385933866129
 10
0.1794748322143713
 20
0.1431659818496896
 10
0.1790931487495
 20
0.1439842653103017
 10
0.1782207320907603
 20
0.1448025514761543
 10
0.1764758970617566
 20
0.1452935226346182
 10
0.1750582180658402
 20
0.1452935226346182
 10
0.1732043315963152
 20
0.1449662076272288
 10
0.1715685497193562
 20
0.1439842653103017
 10
0.1700963450031792
 20
0.1427295645450769
 10
0.1692784540647001
 20
0.1414203072207613
 10
0.168678667718787
 20
0.1399473964506098
 10
0.168678667718787
 20
0.13852903682907
 10
0.1688422448795681
 20
0.1371652283561427
 10
0.1695510843775267
 20
0.1360196298881412
 10
0.1702053981552247
 20
0.1354741075810656
 10
0.1706416056288325
 20
0.135146792573677
 10
0.1713504451267911
 20
0.135146792573677
  0
LWPOLYLINE
  5
9E
330
2
100
AcDbEntity
  8
Profilo
  6
Continuous
370
     0
100
AcDbPolyline
 90
        6
 70
   128
 43
0.0
 10
0.1777299971853676
 20
0.1472574045632319
 10
0.1784933624035869
 20
0.147639270719233
 10
0.1792022001900213
 20
0.1482393468801589
 10
0.1794748322143713
 20
0.1488939741896974
 10
0.1794748322143713
 20
0.1498213626527732
 10
0.1794748322143713
 20
0.1503668876650884
  0
LWPOLYLINE
  5
9F
330
2
100
AcDbEntity
  8
Profilo
  6
Continuous
370
     0
100
AcDbPolyline
 90
        9
 70
   128
 43
0.0
 10
0.1786024138441073
 20
0.1504214388137001
 10
0.1782207320907603
 20
0.1494940503506242
 10
0.177620944033323
 20
0.1490576303407719
 10
0.1767485273745832
 20
0.1488394230410858
 10
0.1758215832840586
 20
0.1488394230410858
 10
0.1747310620327529
 20
0.1491667353432348
 10
0.1740767499665792
 20
0.14971226035555
 10
0.1738041196537525
 20
0.1503668876650884
 10
0.1738041196537525
 20
0.1511306199770889
  0
LWPOLYLINE
  5
A0
330
2
100
AcDbEntity
  8
Profilo
  6
Continuous
370
     0
100
AcDbPolyline
 90
        6
 70
   128
 43
0.0
 10
0.1745674848719709
 20
0.1474756145681585
 10
0.1736950665017078
 20
0.1479665857266216
 10
0.1732043315963152
 20
0.1483484518826227
 10
0.1729862270037492
 20
0.1483484518826227
 10
0.1728226498429681
 20
0.1474756145681585
 10
0.1727681241227075
 20
0.1472574045632319
  0
LWPOLYLINE
  5
A1
330
2
100
AcDbEntity
  8
Profilo
  6
Continuous
370
     0
100
AcDbPolyline
 90
       26
 70
   128
 43
0.0
 10
0.1714049708470509
 20
0.1468755384072317
 10
0.1710232890937038
 20
0.147311958417084
 10
0.1710232890937038
 20
0.1476938245730842
 10
0.1709142359416591
 20
0.1478574807241587
 10
0.1707506587808771
 20
0.147639270719233
 10
0.1704780284680505
 20
0.1472028534146211
 10
0.1703689753160058
 20
0.1469300922610829
 10
0.1700963450031792
 20
0.1467664334047688
 10
0.1698782404106141
 20
0.1467664334047688
 10
0.1697146632498321
 20
0.1466027772536943
 10
0.1693875072167448
 20
0.1462754622463057
 10
0.1687877191593083
 20
0.1458935960903046
 10
0.1684060374059604
 20
0.1458935960903046
 10
0.1677517236282624
 20
0.1462209110976932
 10
0.1676971979080017
 20
0.1466027772536943
 10
0.1675336190356964
 20
0.14682098725862
 10
0.1670974115620887
 20
0.1466027772536943
 10
0.166606676656696
 20
0.1460027010927675
 10
0.1660068885992587
 20
0.1452389687807661
 10
0.1656252068459116
 20
0.1442570291690787
 10
0.165570681125651
 20
0.1435478480056899
 10
0.165570681125651
 20
0.1430023256986143
 10
0.165570681125651
 20
0.1422931445352254
 10
0.1657342582864321
 20
0.1420749345302988
 10
0.1661159417513043
 20
0.1420203833816872
 10
0.1663340463438694
 20
0.1420203833816872
  0
LWPOLYLINE
  5
A2
330
2
100
AcDbEntity
  8
Profilo
  6
Continuous
370
     0
100
AcDbPolyline
 90
       24
 70
   128
 43
0.0
 10
0.1662795206236096
 20
0.1394564252921459
 10
0.1654071022533456
 20
0.1394564252921459
 10
0.1644256324425612
 20
0.1397837375942957
 10
0.163662267224342
 20
0.14032926260661
 10
0.1633351111912547
 20
0.1410384410647601
 10
0.1629534294379076
 20
0.1420203833816872
 10
0.1629534294379076
 20
0.1431659818496896
 10
0.1631715340304736
 20
0.1442570291690787
 10
0.1636077415040813
 20
0.1454026276370811
 10
0.1640439506892133
 20
0.1457299399392301
 10
0.164916367347953
 20
0.1464391211026198
 10
0.1658978371587383
 20
0.1470937484121574
 10
0.166824781249262
 20
0.147639270719233
 10
0.1673155161546547
 20
0.1478574807241587
 10
0.1673700418749153
 20
0.1482938980287715
 10
0.1672609887228706
 20
0.1491667353432348
 10
0.166770253817478
 20
0.1492758403456976
 10
0.1660614160310436
 20
0.1490576303407719
 10
0.1652980508128243
 20
0.1487848691872345
 10
0.1648073159074317
 20
0.1489485280435486
 10
0.1645346855946059
 20
0.14971226035555
 10
0.1645346855946059
 20
0.1500941265115502
 10
0.1646437370351264
 20
0.1510760661232385
 10
0.1643165810020399
 20
0.1510760661232385
  0
LWPOLYLINE
  5
A3
330
2
100
AcDbEntity
  8
Profilo
  6
Continuous
370
     0
100
AcDbPolyline
 90
        6
 70
   128
 43
0.0
 10
0.1706961330606165
 20
0.1514579322792388
 10
0.1696601375295714
 20
0.1512942761281634
 10
0.168678667718787
 20
0.1511306199770889
 10
0.1679698282208284
 20
0.1508578588235515
 10
0.1674790933154358
 20
0.1505305438161629
 10
0.1670428841303047
 20
0.1501486776601618
  0
LWPOLYLINE
  5
A4
330
2
100
AcDbEntity
  8
Profilo
  6
Continuous
370
     0
100
AcDbPolyline
 90
        4
 70
   128
 43
0.0
 10
0.1714594982788358
 20
0.1500941265115502
 10
0.170723067308207
 20
0.1496686275523776
 10
0.1693329797849608
 20
0.1484575568850855
 10
0.1689512980316137
 20
0.1480756907290844
  0
CIRCLE
  5
A5
330
2
100
AcDbEntity
  8
Profilo
  6
Continuous
370
     0
100
AcDbCircle
 10
0.1732936697075014
 20
0.1519388724107221
 30
0.0
 40
0.0006930229282738
  0
CIRCLE
  5
A6
330
2
100
AcDbEntity
  8
Profilo
  6
Continuous
370
     0
100
AcDbCircle
 10
0.179147891833263
 20
0.1511769823666208
 30
0.0
 40
0.000740587731585
  0
LWPOLYLINE
  5
A7
330
2
100
AcDbEntity
  8
Profilo
  6
Continuous
370
     0
100
AcDbPolyline
 90
       51
 70
   128
 43
0.0
 10
0.1708605598923729
 20
0.1713150503757669
 10
0.1705013309300292
 20
0.1708599687952036
 10
0.1708148100890681
 20
0.1700564478395131
 10
0.1718087669152937
 20
0.1698334423150068
 10
0.1725491937970009
 20
0.1703077360562645
 10
0.1724860287270042
 20
0.1715608485702583
 10
0.1715735236113496
 20
0.1723341774068968
 10
0.1703672313804188
 20
0.1724372363150722
 10
0.1689023860435326
 20
0.1722541550028088
 10
0.1676456904986641
 20
0.1712365895961158
 10
0.1668202298188108
 20
0.1702374458315313
 10
0.1659306326023959
 20
0.1683900929599481
 10
0.1657787160195092
 20
0.1670715158077053
 10
0.1657384604219152
 20
0.1657039494014482
 10
0.1658615747064325
 20
0.1643446151975286
 10
0.1661887855149315
 20
0.1632686762459977
 10
0.1670061088437189
 20
0.1622174448810382
 10
0.1682810587771935
 20
0.1607523068008948
 10
0.1698662721504187
 20
0.1596305358873214
 10
0.1709773810213184
 20
0.1592495716628551
 10
0.172532384983634
 20
0.158727116017236
 10
0.1741198749977404
 20
0.1586432719715643
 10
0.1765621976900482
 20
0.1589302449452731
 10
0.1782828497485218
 20
0.1594539511578657
 10
0.1794424548070943
 20
0.160277104789761
 10
0.1800680062850086
 20
0.1619472840988813
 10
0.1803013731414904
 20
0.1638161790734761
 10
0.1801837514895193
 20
0.1650665466194215
 10
0.1793746670414562
 20
0.1659543293483233
 10
0.1784868769948125
 20
0.1662373094888186
 10
0.1776865010347735
 20
0.1658692347356782
 10
0.1777876447891062
 20
0.1649457671636568
 10
0.1783514381733753
 20
0.1645918350644612
 10
0.1786781810839291
 20
0.1646083050450778
 10
0.1789262185320901
 20
0.1640199697354795
 10
0.1789729057044493
 20
0.1630937571954089
 10
0.1786329007517333
 20
0.1622572963646481
 10
0.1778027849880825
 20
0.1613961280334773
 10
0.176084879177788
 20
0.1608179398428019
 10
0.1746689977903311
 20
0.1607465701565628
 10
0.1728009841400848
 20
0.1609801406136947
 10
0.1711178428680029
 20
0.161878488275223
 10
0.1695843399647627
 20
0.163057483433119
 10
0.1687015746527198
 20
0.1643239058477878
 10
0.1680283986333919
 20
0.1657647541550616
 10
0.16795699468267
 20
0.1671813153051133
 10
0.1680517067260496
 20
0.1685516293812274
 10
0.1687019749823275
 20
0.1697314600803675
 10
0.1693279960675398
 20
0.1703092305435024
 10
0.1697471725350506
 20
0.170658090347977
 10
0.1704551132287799
 20
0.1706937751910965
  0
LWPOLYLINE
  5
A8
330
2
100
AcDbEntity
  8
Profilo
  6
Continuous
370
     0
100
AcDbPolyline
 90
        6
 70
   128
 43
0.0
 10
0.1774362560872327
 20
0.1589196828006191
 10
0.1782178775087539
 20
0.1585767306597811
 10
0.1789560259040386
 20
0.1580131001487824
 10
0.1792612678917058
 20
0.1573730279153128
 10
0.179307955064065
 20
0.1564468153752422
 10
0.1793354182267957
 20
0.1559019820853699
  0
LWPOLYLINE
  5
A9
330
2
100
AcDbEntity
  8
Profilo
  6
Continuous
370
     0
100
AcDbPolyline
 90
        9
 70
   128
 43
0.0
 10
0.1784668523259685
 20
0.1558035802738583
 10
0.1780389673704346
 20
0.1567105779514261
 10
0.1774179693104705
 20
0.1571162496763015
 10
0.1765356737419144
 20
0.1572902605431755
 10
0.1756099050109336
 20
0.1572435957416992
 10
0.17453724429548
 20
0.1568617987639612
 10
0.1739112250558101
 20
0.15628402568518
 10
0.1736718960956722
 20
0.155616503512736
 10
0.1737103443873063
 20
0.1548537396087223
  0
LWPOLYLINE
  5
AA
330
2
100
AcDbEntity
  8
Profilo
  6
Continuous
370
     0
100
AcDbPolyline
 90
        6
 70
   128
 43
0.0
 10
0.1742887390855634
 20
0.1585425403038986
 10
0.1734421437149207
 20
0.1580082718604888
 10
0.1729712552042601
 20
0.15760218502372
 10
0.1727534271670088
 20
0.1575912050653624
 10
0.1725461164969053
 20
0.1584547007232041
 10
0.1724806746498386
 20
0.1586698890711048
  0
LWPOLYLINE
  5
AB
330
2
100
AcDbEntity
  8
Profilo
  6
Continuous
370
     0
100
AcDbPolyline
 90
       26
 70
   128
 43
0.0
 10
0.1711000256985378
 20
0.1589826463049201
 10
0.1707407984455476
 20
0.158527564810519
 10
0.170760022591365
 20
0.158146182858513
 10
0.1706593465987878
 20
0.1579772442001953
 10
0.1704849915877713
 20
0.1581869426119983
 10
0.1701907365745499
 20
0.1586090816156819
 10
0.170068090187977
 20
0.1588760068874547
 10
0.1697875665518371
 20
0.159025733298915
 10
0.1695697385145858
 20
0.1590147533405574
 10
0.1693981298879372
 20
0.159169967072469
 10
0.1690549107890986
 20
0.1594803971519386
 10
0.1684366591135016
 20
0.1598315841969228
 10
0.1680554613303269
 20
0.1598123693344199
 10
0.1674184551162103
 20
0.1594525294854246
 10
0.1673832226800533
 20
0.1590684025653694
 10
0.1672308364898687
 20
0.1588422342591119
 10
0.1667841968596264
 20
0.1590382077445097
 10
0.1662638747922396
 20
0.159612818127702
 10
0.165626398970826
 20
0.1603453871246921
 10
0.1651957677671139
 20
0.1613068667803427
 10
0.1651056091416836
 20
0.1620124037382243
 10
0.1650781461151418
 20
0.1625572343262881
 10
0.165042444071686
 20
0.1632655162522182
 10
0.1651948285525171
 20
0.1634916844723125
 10
0.1655732817968671
 20
0.1635653813990613
 10
0.1657911098341185
 20
0.163576361357418
  0
LWPOLYLINE
  5
AC
330
2
100
AcDbEntity
  8
Profilo
  6
Continuous
370
     0
100
AcDbPolyline
 90
       24
 70
   128
 43
0.0
 10
0.1656075768639706
 20
0.1661343233954401
 10
0.1647362647149644
 20
0.1660904035620122
 10
0.1637725171634596
 20
0.1657140965203719
 10
0.1630375830504873
 20
0.1651308334193308
 10
0.1627465437565532
 20
0.1644060843007548
 10
0.1624147795301047
 20
0.1634061722182899
 10
0.1624724519675562
 20
0.1622620263622702
 10
0.1627452061940799
 20
0.1611833424426917
 10
0.1632385329966806
 20
0.1600611564172233
 10
0.1636906668326337
 20
0.1597562190618221
 10
0.1645976793157413
 20
0.1590918568831586
 10
0.1656108602877835
 20
0.1584874694066455
 10
0.166564092045306
 20
0.1579893036200589
 10
0.1670651899668754
 20
0.1577960751888726
 10
0.1671416169428463
 20
0.1573629562268314
 10
0.167076642993724
 20
0.1564857356425845
 10
0.1665920229697921
 20
0.1563520640998476
 10
0.165873098720325
 20
0.1565343126588393
 10
0.1650969699313507
 20
0.1567682981417023
 10
0.1646150962917867
 20
0.1565801419190732
 10
0.1643812599641949
 20
0.1558036530886552
 10
0.1644004841100124
 20
0.1554222711366483
 10
0.1645588306944987
 20
0.1544470665545917
 10
0.1642320894932985
 20
0.1544305966601381
  0
LWPOLYLINE
  5
AD
330
2
100
AcDbEntity
  8
Profilo
  6
Continuous
370
     0
100
AcDbPolyline
 90
        6
 70
   128
 43
0.0
 10
0.1706227764639678
 20
0.1543703781238855
 10
0.1695798556883139
 20
0.1544816720223684
 10
0.1685913914946344
 20
0.1545957108889006
 10
0.1678697192876346
 20
0.1548324413398129
 10
0.1673631287335191
 20
0.1551346364289733
 10
0.166908248513199
 20
0.1554940584642658
  0
LWPOLYLINE
  5
AE
330
2
100
AcDbEntity
  8
Profilo
  6
Continuous
370
     0
100
AcDbPolyline
 90
        4
 70
   128
 43
0.0
 10
0.1713165161733168
 20
0.1557708844052129
 10
0.1705595982569463
 20
0.1561587699638961
 10
0.1691103048763154
 20
0.1572983243418541
 10
0.1687098829473232
 20
0.1576604914313581
  0
CIRCLE
  5
AF
330
2
100
AcDbEntity
  8
Profilo
  6
Continuous
370
     0
100
AcDbCircle
 10
0.1732412312400771
 20
0.1540208146425955
 30
0.0
 40
0.0006930229282738
  0
CIRCLE
  5
B0
330
2
100
AcDbEntity
  8
Profilo
  6
Continuous
370
     0
100
AcDbCircle
 10
0.1790496747002896
 20
0.1550764555410889
 30
0.0
 40
0.000740587731585
  0
LWPOLYLINE
  5
B1
330
2
100
AcDbEntity
  8
Profilo
  6
Continuous
370
     0
100
AcDbPolyline
 90
       13
 70
   128
 43
0.0
 10
0.1740688701117208
 20
0.1514922238914286
 10
0.1746553219769213
 20
0.151308868188447
 10
0.1752784278324884
 20
0.1511988569308492
 10
0.1759381876784227
 20
0.1513455404111393
 10
0.1764513332744138
 20
0.1517489186293147
 10
0.1768166100736297
 20
0.1525085038096113
 10
0.176891170889671
 20
0.15343578135788
 10
0.1768178646204614
 20
0.1541325265366339
 10
0.1764146792840464
 20
0.1547559326804823
 10
0.1756449608900603
 20
0.1551226413812058
 10
0.1749118947749164
 20
0.1551226413812058
 10
0.1742887906308728
 20
0.1549026161607715
 10
0.1738856035829344
 20
0.1545725769775016
  0
LWPOLYLINE
  5
B2
330
2
100
AcDbEntity
  8
Profilo
  6
Continuous
370
     0
100
AcDbPolyline
 90
        5
 70
   128
 43
0.0
 10
0.1704244543549367
 20
0.152841188716826
 10
0.168534453024993
 20
0.1527489508808196
 10
0.1665061605845894
 20
0.152841188716826
 10
0.1650771341869108
 20
0.152841188716826
 10
0.1644778664326616
 20
0.1528873076348297
  0
LWPOLYLINE
  5
B3
330
2
100
AcDbEntity
  8
Profilo
  6
Continuous
370
     0
100
AcDbPolyline
 90
       13
 70
   128
 43
0.0
 10
0.1643165810020399
 20
0.1510760661232385
 10
0.1636590889249343
 20
0.1511372856864955
 10
0.1630225767046609
 20
0.1514397747136801
 10
0.1624656263725177
 20
0.1518696264027376
 10
0.1623383249553776
 20
0.1523313214625016
 10
0.1622428476088793
 20
0.1529999808478063
 10
0.162322411208532
 20
0.153589041274682
 10
0.1625451916836946
 20
0.1539870522982699
 10
0.1628952735759974
 20
0.1545124286889704
 10
0.1634363101612959
 20
0.1546716320163103
 10
0.1640250845640818
 20
0.1546716320163103
 10
0.1642796908214106
 20
0.1545920303526399
 10
0.1645588306944987
 20
0.1544470665545917
  0
ELLIPSE
  5
B4
330
2
100
AcDbEntity
  8
Profilo
  6
Continuous
370
     0
100
AcDbEllipse
 10
0.2038844690190926
 20
0.1252253242503872
 30
0.0
 11
0.0034821775055226
 21
-0.0009035681442646
 31
0.0
210
0.0
220
0.0
230
1.0
 40
0.6088587585262748
 41
0.0
 42
6.283185307179584
  0
ELLIPSE
  5
B5
330
2
100
AcDbEntity
  8
Profilo
  6
Continuous
370
     0
100
AcDbEllipse
 10
0.2132261749844437
 20
0.1237345293803166
 30
0.0
 11
0.0017954828920611
 21
0.0001083542344975
 31
0.0
210
0.0
220
0.0
230
1.0
 40
0.6999527604408505
 41
0.0
 42
6.283185307179584
  0
ELLIPSE
  5
B6
330
2
100
AcDbEntity
  8
Profilo
  6
Continuous
370
     0
100
AcDbEllipse
 10
0.2132023278553012
 20
0.1238926570626612
 30
0.0
 11
0.0035909655196772
 21
0.0002167076551171
 31
0.0
210
0.0
220
0.0
230
1.0
 40
0.6088587585262753
 41
0.0
 42
6.283185307179584
  0
LWPOLYLINE
  5
B7
330
2
100
AcDbEntity
  8
Profilo
  6
Continuous
370
     0
100
AcDbPolyline
 90
        6
 70
   129
 43
0.0
 10
0.2196082445648131
 20
0.1227927366798752
 10
0.2181883456621654
 20
0.1237572521374387
 10
0.2172509369930655
 20
0.1225033813579962
 10
0.2178161399153728
 20
0.1223518156701505
 10
0.2182848442499232
 20
0.1230683125248934
 10
0.2191257543312643
 20
0.1225171608348571
  0
LWPOLYLINE
  5
B8
330
2
100
AcDbEntity
  8
Profilo
  6
Continuous
370
     0
100
AcDbPolyline
 90
        6
 70
   129
 43
0.0
 10
0.2096369637577775
 20
0.1221997006751433
 10
0.2085846113216585
 20
0.1235557822773398
 10
0.2073056153188821
 20
0.1226529555113845
 10
0.2077963188678631
 20
0.1223341506680485
 10
0.2084634928839846
 20
0.1228707420659439
 10
0.2090929306577618
 20
0.1220867101537916
  0
LWPOLYLINE
  5
B9
330
2
100
AcDbEntity
  8
Profilo
  6
Continuous
370
     0
100
AcDbPolyline
 90
       51
 70
   128
 43
0.0
 10
0.2321780600888232
 20
0.1130105044640371
 10
0.2317416400789709
 20
0.1126288209991658
 10
0.2309233566183579
 20
0.1129014513119925
 10
0.2306505954648206
 20
0.1138829211227769
 10
0.2310870127694324
 20
0.1146462863409953
 10
0.2323417162398977
 20
0.1146462863409953
 10
0.2331600024057494
 20
0.1137738696822556
 10
0.2333236585568248
 20
0.1125742952789052
 10
0.2332145535543619
 20
0.1111020905627281
 10
0.2322615437707551
 20
0.1097957615835868
 10
0.231305222774359
 20
0.1089210480601167
 10
0.229504996996819
 20
0.1079395782493314
 10
0.2281957396725034
 20
0.1077214736567654
 10
0.2268319339048148
 20
0.107612422216245
 10
0.2254681254318875
 20
0.1076669479365048
 10
0.2243770781124976
 20
0.1079395782493314
 10
0.2232860334983464
 20
0.1087029434675507
 10
0.2217585688743446
 20
0.1099025178709011
 10
0.2205584165524919
 20
0.1114292483073388
 10
0.2201219992478791
 20
0.1125197695586445
 10
0.2195219230869523
 20
0.1140464999950822
 10
0.2193582669358778
 20
0.1156277561517806
 10
0.2195219230869523
 20
0.1180814289672186
 10
0.2199583430968046
 20
0.1198262639962223
 10
0.2207220754088059
 20
0.1210258383995727
 10
0.2223586450352706
 20
0.1217346778975304
 10
0.2242134219614222
 20
0.1220618339306178
 10
0.2254681254318875
 20
0.1220073082103571
 10
0.2263955138949634
 20
0.1212439429921387
 10
0.226722828902352
 20
0.1203715246218747
 10
0.2263955138949634
 20
0.1195536336833957
 10
0.2254681254318875
 20
0.1196081594036563
 10
0.2250862592758864
 20
0.1201534200293087
 10
0.2250862592758864
 20
0.1204805777739194
 10
0.2244861831149605
 20
0.1206986823664854
 10
0.2235587946518838
 20
0.1206986823664854
 10
0.2227405111912717
 20
0.1203169989016141
 10
0.2219222250254191
 20
0.1194445822428743
 10
0.2214312538669552
 20
0.1176997472138707
 10
0.2214312538669552
 20
0.1162820682179543
 10
0.2217585688743446
 20
0.1144281817484302
 10
0.2227405111912717
 20
0.1127923998714712
 10
0.2239952119564965
 20
0.1113201951552941
 10
0.2253044692808122
 20
0.1105023042168142
 10
0.2267773800509636
 20
0.1099025178709011
 10
0.2281957396725034
 20
0.1099025178709011
 10
0.2295595481454307
 20
0.1100660950316831
 10
0.2307051466134322
 20
0.1107749345296408
 10
0.2312506689205078
 20
0.1114292483073388
 10
0.2315779839278964
 20
0.1118654557809465
 10
0.2315779839278964
 20
0.1125742952789052
  0
LWPOLYLINE
  5
BA
330
2
100
AcDbEntity
  8
Profilo
  6
Continuous
370
     0
100
AcDbPolyline
 90
        6
 70
   128
 43
0.0
 10
0.2194673719383415
 20
0.1189538473374817
 10
0.2190855057823404
 20
0.119717212555701
 10
0.2184854296214136
 20
0.1204260503421354
 10
0.217830802311876
 20
0.1206986823664854
 10
0.2169034138488002
 20
0.1206986823664854
 10
0.216357888836485
 20
0.1206986823664854
  0
LWPOLYLINE
  5
BB
330
2
100
AcDbEntity
  8
Profilo
  6
Continuous
370
     0
100
AcDbPolyline
 90
        9
 70
   128
 43
0.0
 10
0.2163033376878733
 20
0.1198262639962223
 10
0.2172307261509492
 20
0.1194445822428743
 10
0.2176671461608015
 20
0.118844794185437
 10
0.2178853534604876
 20
0.1179723775266973
 10
0.2178853534604876
 20
0.1170454334361727
 10
0.2175580411583386
 20
0.115954912184867
 10
0.2170125161460235
 20
0.1153006001186932
 10
0.216357888836485
 20
0.1150279698058666
 10
0.2155941565244845
 20
0.1150279698058666
  0
LWPOLYLINE
  5
BC
330
2
100
AcDbEntity
  8
Profilo
  6
Continuous
370
     0
100
AcDbPolyline
 90
        6
 70
   128
 43
0.0
 10
0.2192491619334149
 20
0.1157913350240859
 10
0.218758190774951
 20
0.1149189166538219
 10
0.2183763246189507
 20
0.1144281817484302
 10
0.2183763246189507
 20
0.1142100771558642
 10
0.2192491619334149
 20
0.1140464999950822
 10
0.2194673719383415
 20
0.1139919742748215
  0
LWPOLYLINE
  5
BD
330
2
100
AcDbEntity
  8
Profilo
  6
Continuous
370
     0
100
AcDbPolyline
 90
       26
 70
   128
 43
0.0
 10
0.2198492380943418
 20
0.1126288209991658
 10
0.2194128180844894
 20
0.1122471392458179
 10
0.2190309519284892
 20
0.1122471392458179
 10
0.2188672957774147
 20
0.1121380860937732
 10
0.2190855057823404
 20
0.1119745089329921
 10
0.2195219230869523
 20
0.1117018786201654
 10
0.2197946842404905
 20
0.1115928254681208
 10
0.2199583430968046
 20
0.1113201951552941
 10
0.2199583430968046
 20
0.1111020905627281
 10
0.2201219992478791
 20
0.1109385134019462
 10
0.2204493142552677
 20
0.1106113573688588
 10
0.2208311804112688
 20
0.1100115693114224
 10
0.2208311804112688
 20
0.1096298875580745
 10
0.2205038654038793
 20
0.1089755737803774
 10
0.2201219992478791
 20
0.1089210480601167
 10
0.2199037892429534
 20
0.1087574691878114
 10
0.2201219992478791
 20
0.1083212617142027
 10
0.2207220754088059
 20
0.1078305268088101
 10
0.2214858077208073
 20
0.1072307387513737
 10
0.2224677473324947
 20
0.1068490569980257
 10
0.2231769284958835
 20
0.1067945312777651
 10
0.2237224508029592
 20
0.1067945312777651
 10
0.224431631966348
 20
0.1067945312777651
 10
0.2246498419712746
 20
0.106958108438547
 10
0.2247043931198862
 20
0.1073397919034184
 10
0.2247043931198862
 20
0.1075578964959843
  0
LWPOLYLINE
  5
BE
330
2
100
AcDbEntity
  8
Profilo
  6
Continuous
370
     0
100
AcDbPolyline
 90
       24
 70
   128
 43
0.0
 10
0.2272683512094276
 20
0.1075033707757237
 10
0.2272683512094276
 20
0.1066309524054597
 10
0.2269410389072777
 20
0.1056494825946753
 10
0.2263955138949634
 20
0.104886117376456
 10
0.2256863354368124
 20
0.1045589613433696
 10
0.2247043931198862
 20
0.1041772795900216
 10
0.2235587946518838
 20
0.1041772795900216
 10
0.2224677473324947
 20
0.1043953841825876
 10
0.2213221488644923
 20
0.1048315916561954
 10
0.2209948365623433
 20
0.1052678008413274
 10
0.2202856553989536
 20
0.106140217500068
 10
0.2196310280894151
 20
0.1071216873108524
 10
0.2190855057823404
 20
0.1080486314013761
 10
0.2188672957774147
 20
0.1085393663067687
 10
0.218430878472802
 20
0.1085938920270294
 10
0.2175580411583386
 20
0.1084848388749847
 10
0.2174489361558758
 20
0.1079941039695921
 10
0.2176671461608015
 20
0.1072852661831577
 10
0.2179399073143389
 20
0.1065219009649384
 10
0.2177762484580248
 20
0.1060311660595466
 10
0.2170125161460235
 20
0.10575853574672
 10
0.2166306499900223
 20
0.10575853574672
 10
0.2156487103783349
 20
0.1058675871872413
 10
0.2156487103783349
 20
0.105540431154154
  0
LWPOLYLINE
  5
BF
330
2
100
AcDbEntity
  8
Profilo
  6
Continuous
370
     0
100
AcDbPolyline
 90
        6
 70
   128
 43
0.0
 10
0.2152668442223347
 20
0.1119199832127314
 10
0.21543050037341
 20
0.1108839876816855
 10
0.2155941565244845
 20
0.1099025178709011
 10
0.2158669176780219
 20
0.1091936783729425
 10
0.2161942326854105
 20
0.1087029434675507
 10
0.2165760988414116
 20
0.1082667342824187
  0
LWPOLYLINE
  5
C0
330
2
100
AcDbEntity
  8
Profilo
  6
Continuous
370
     0
100
AcDbPolyline
 90
        4
 70
   128
 43
0.0
 10
0.2166306499900223
 20
0.1126833484309498
 10
0.2170561489491958
 20
0.1119469174603219
 10
0.2182672196164879
 20
0.1105568299370748
 10
0.218649085772489
 20
0.1101751481837278
  0
CIRCLE
  5
C1
330
2
100
AcDbEntity
  8
Profilo
  6
Continuous
370
     0
100
AcDbCircle
 10
0.2147859040908513
 20
0.1145175198596154
 30
0.0
 40
0.0006930229282738
  0
CIRCLE
  5
C2
330
2
100
AcDbEntity
  8
Profilo
  6
Continuous
370
     0
100
AcDbCircle
 10
0.2155477941349526
 20
0.1203717419853779
 30
0.0
 40
0.000740587731585
  0
LWPOLYLINE
  5
C3
330
2
100
AcDbEntity
  8
Profilo
  6
Continuous
370
     0
100
AcDbPolyline
 90
       51
 70
   128
 43
0.0
 10
0.1954097261258065
 20
0.1120844100444879
 10
0.1958648077063698
 20
0.1117251810821432
 10
0.1966683286620603
 20
0.1120386602411821
 10
0.1968913341865666
 20
0.1130326170674086
 10
0.1964170404453089
 20
0.1137730439491159
 10
0.1951639279313151
 20
0.1137098788791183
 10
0.1943905990946766
 20
0.1127973737634645
 10
0.1942875401865012
 20
0.1115910815325328
 10
0.1944706214987646
 20
0.1101262361956475
 10
0.1954881869054577
 20
0.1088695406507781
 10
0.1964873306700421
 20
0.1080440799709258
 10
0.1983346835416253
 20
0.10715448275451
 10
0.1996532606938681
 20
0.1070025661716233
 10
0.2010208271001252
 20
0.1069623105740293
 10
0.2023801613040448
 20
0.1070854248585474
 10
0.2034561002555757
 20
0.1074126356670456
 10
0.2045073316205352
 20
0.108229958995833
 10
0.2059724697006786
 20
0.1095049089293075
 10
0.207094240614252
 20
0.1110901223025328
 10
0.2074752048387183
 20
0.1122012311734325
 10
0.2079976604843374
 20
0.1137562351357489
 10
0.2080815045300091
 20
0.1153437251498545
 10
0.2077945315563003
 20
0.1177860478421632
 10
0.2072708253437077
 20
0.1195066999006368
 10
0.2064476717118124
 20
0.1206663049592084
 10
0.2047774924026922
 20
0.1212918564371227
 10
0.2029085974280973
 20
0.1215252232936054
 10
0.2016582298821519
 20
0.1214076016416333
 10
0.2007704471532501
 20
0.1205985171935703
 10
0.2004874670127548
 20
0.1197107271469265
 10
0.2008555417658953
 20
0.1189103511868875
 10
0.2017790093379166
 20
0.1190114949412203
 10
0.2021329414371122
 20
0.1195752883254894
 10
0.2021164714564956
 20
0.119902031236044
 10
0.2027048067660939
 20
0.1201500686842042
 10
0.2036310193061646
 20
0.1201967558565634
 10
0.2044674801369253
 20
0.1198567509038483
 10
0.2053286484680952
 20
0.1190266351401975
 10
0.2059068366587706
 20
0.117308729329903
 10
0.2059782063450106
 20
0.1158928479424451
 10
0.2057446358878787
 20
0.1140248342921998
 10
0.2048462882263504
 20
0.112341693020117
 10
0.2036672930684544
 20
0.1108081901168768
 10
0.2024008706537856
 20
0.1099254248048339
 10
0.2009600223465118
 20
0.1092522487855069
 10
0.1995434611964602
 20
0.1091808448347841
 10
0.1981731471203461
 20
0.1092755568781646
 10
0.1969933164212059
 20
0.1099258251344416
 10
0.196415545958071
 20
0.1105518462196539
 10
0.1960666861535965
 20
0.1109710226871646
 10
0.196031001310476
 20
0.111678963380894
  0
LWPOLYLINE
  5
C4
330
2
100
AcDbEntity
  8
Profilo
  6
Continuous
370
     0
100
AcDbPolyline
 90
        6
 70
   128
 43
0.0
 10
0.2078050937009543
 20
0.1186601062393476
 10
0.2081480458417924
 20
0.119441727660868
 10
0.208711676352791
 20
0.1201798760561527
 10
0.2093517485862606
 20
0.1204851180438199
 10
0.2102779611263312
 20
0.1205318052161791
 10
0.2108227944162035
 20
0.1205592683789097
  0
LWPOLYLINE
  5
C5
330
2
100
AcDbEntity
  8
Profilo
  6
Continuous
370
     0
100
AcDbPolyline
 90
        9
 70
   128
 43
0.0
 10
0.2109211962277151
 20
0.1196907024780825
 10
0.2100141985501474
 20
0.1192628175225486
 10
0.2096085268252719
 20
0.1186418194625846
 10
0.2094345159583979
 20
0.1177595238940284
 10
0.2094811807598742
 20
0.1168337551630486
 10
0.2098629777376122
 20
0.1157610944475941
 10
0.2104407508163935
 20
0.1151350752079242
 10
0.2111082729888374
 20
0.1148957462477863
 10
0.2118710368928511
 20
0.1149341945394203
  0
LWPOLYLINE
  5
C6
330
2
100
AcDbEntity
  8
Profilo
  6
Continuous
370
     0
100
AcDbPolyline
 90
        6
 70
   128
 43
0.0
 10
0.2081822361976748
 20
0.1155125892376775
 10
0.2087165046410846
 20
0.1146659938670348
 10
0.2091225914778534
 20
0.1141951053563751
 10
0.209133571436211
 20
0.1139772773191229
 10
0.2082700757783693
 20
0.1137699666490194
 10
0.2080548874304686
 20
0.1137045248019527
  0
LWPOLYLINE
  5
C7
330
2
100
AcDbEntity
  8
Profilo
  6
Continuous
370
     0
100
AcDbPolyline
 90
       26
 70
   128
 43
0.0
 10
0.2077421301966533
 20
0.1123238758506527
 10
0.2081972116910544
 20
0.1119646485976616
 10
0.2085785936430604
 20
0.1119838727434791
 10
0.2087475323013781
 20
0.1118831967509019
 10
0.2085378338895751
 20
0.1117088417398863
 10
0.2081156948858915
 20
0.1114145867266639
 10
0.2078487696141187
 20
0.111291940340091
 10
0.2076990432026584
 20
0.1110114167039512
 10
0.207710023161016
 20
0.1107935886666999
 10
0.2075548094291044
 20
0.1106219800400513
 10
0.2072443793496348
 20
0.1102787609412127
 10
0.2068931923046506
 20
0.1096605092656157
 10
0.2069124071671535
 20
0.109279311482441
 10
0.2072722470161488
 20
0.1086423052683253
 10
0.2076563739362041
 20
0.1086070728321674
 10
0.2078825422424615
 20
0.1084546866419828
 10
0.2076865687570637
 20
0.1080080470117414
 10
0.2071119583738714
 20
0.1074877249443545
 10
0.2063793893768813
 20
0.10685024912294
 10
0.2054179097212307
 20
0.1064196179192279
 10
0.2047123727633491
 20
0.1063294592937977
 10
0.2041675421752853
 20
0.1063019962672559
 10
0.2034592602493552
 20
0.1062662942238001
 10
0.2032330920292609
 20
0.1064186787046312
 10
0.2031593951025121
 20
0.1067971319489812
 10
0.2031484151441545
 20
0.1070149599862326
  0
LWPOLYLINE
  5
C8
330
2
100
AcDbEntity
  8
Profilo
  6
Continuous
370
     0
100
AcDbPolyline
 90
       24
 70
   128
 43
0.0
 10
0.2005904531061324
 20
0.1068314270160847
 10
0.2006343729395612
 20
0.1059601148670785
 10
0.2010106799812015
 20
0.1049963673155737
 10
0.2015939430822426
 20
0.1042614332026014
 10
0.2023186922008187
 20
0.1039703939086672
 10
0.2033186042832835
 20
0.1036386296822188
 10
0.2044627501393033
 20
0.1036963021196703
 10
0.2055414340588817
 20
0.103969056346194
 10
0.2066636200843501
 20
0.1044623831487946
 10
0.2069685574397504
 20
0.1049145169847477
 10
0.2076329196184148
 20
0.1058215294678554
 10
0.2082373070949279
 20
0.1068347104398984
 10
0.2087354728815145
 20
0.1077879421974209
 10
0.2089287013127008
 20
0.1082890401189903
 10
0.209361820274742
 20
0.1083654670949604
 10
0.2102390408589889
 20
0.1083004931458381
 10
0.2103727124017258
 20
0.1078158731219071
 10
0.2101904638427341
 20
0.107096948872439
 10
0.2099564783598711
 20
0.1063208200834648
 10
0.2101446345825002
 20
0.1058389464439017
 10
0.2109211234129182
 20
0.1056051101163099
 10
0.2113025053649251
 20
0.1056243342621265
 10
0.2122777099469808
 20
0.1057826808466137
 10
0.2122941798414353
 20
0.1054559396454125
  0
LWPOLYLINE
  5
C9
330
2
100
AcDbEntity
  8
Profilo
  6
Continuous
370
     0
100
AcDbPolyline
 90
        6
 70
   128
 43
0.0
 10
0.2123543983776879
 20
0.1118466266160828
 10
0.212243104479205
 20
0.1108037058404289
 10
0.2121290656126729
 20
0.1098152416467485
 10
0.2118923351617605
 20
0.1090935694397487
 10
0.2115901400726001
 20
0.1085869788856332
 10
0.2112307180373076
 20
0.108132098665313
  0
LWPOLYLINE
  5
CA
330
2
100
AcDbEntity
  8
Profilo
  6
Continuous
370
     0
100
AcDbPolyline
 90
        4
 70
   128
 43
0.0
 10
0.2109538920963605
 20
0.1125403663254308
 10
0.2105660065376773
 20
0.1117834484090604
 10
0.2094264521597193
 20
0.1103341550284304
 10
0.2090642850702153
 20
0.1099337330994382
  0
CIRCLE
  5
CB
330
2
100
AcDbEntity
  8
Profilo
  6
Continuous
370
     0
100
AcDbCircle
 10
0.2127039618589779
 20
0.1144650813921911
 30
0.0
 40
0.0006930229282738
  0
CIRCLE
  5
CC
330
2
100
AcDbEntity
  8
Profilo
  6
Continuous
370
     0
100
AcDbCircle
 10
0.2116483209604845
 20
0.1202735248524037
 30
0.0
 40
0.000740587731585
  0
LWPOLYLINE
  5
CD
330
2
100
AcDbEntity
  8
Profilo
  6
Continuous
370
     0
100
AcDbPolyline
 90
       13
 70
   128
 43
0.0
 10
0.2152325526101448
 20
0.1152927202638349
 10
0.2154159083131264
 20
0.1158791721290354
 10
0.2155259195707233
 20
0.1165022779846033
 10
0.2153792360904341
 20
0.1171620378305368
 10
0.2149758578722587
 20
0.1176751834265278
 10
0.2142162726919621
 20
0.1180404602257447
 10
0.2132889951436934
 20
0.1181150210417851
 10
0.2125922499649395
 20
0.1180417147725755
 10
0.2119688438210912
 20
0.1176385294361614
 10
0.2116021351203676
 20
0.1168688110421744
 10
0.2116021351203676
 20
0.1161357449270314
 10
0.211822160340801
 20
0.1155126407829877
 10
0.2121521995240718
 20
0.1151094537350493
  0
LWPOLYLINE
  5
CE
330
2
100
AcDbEntity
  8
Profilo
  6
Continuous
370
     0
100
AcDbPolyline
 90
        5
 70
   128
 43
0.0
 10
0.2138835877847474
 20
0.1116483045070508
 10
0.2139758256207538
 20
0.1097583031771071
 10
0.2138835877847474
 20
0.1077300107367035
 10
0.2138835877847474
 20
0.1063009843390249
 10
0.2138374688667437
 20
0.1057017165847757
  0
LWPOLYLINE
  5
CF
330
2
100
AcDbEntity
  8
Profilo
  6
Continuous
370
     0
100
AcDbPolyline
 90
       13
 70
   128
 43
0.0
 10
0.2156487103783349
 20
0.105540431154154
 10
0.2155874908150779
 20
0.1048829390770493
 10
0.2152850017878933
 20
0.1042464268567759
 10
0.2148551500988358
 20
0.1036894765246318
 10
0.2143934550390718
 20
0.1035621751074917
 10
0.2137247956537671
 20
0.1034666977609934
 10
0.2131357352268914
 20
0.1035462613606469
 10
0.2127377242033035
 20
0.1037690418358087
 10
0.212212347812603
 20
0.1041191237281115
 10
0.2120531444852631
 20
0.10466016031341
 10
0.2120531444852631
 20
0.1052489347161968
 10
0.2121327461489335
 20
0.1055035409735247
 10
0.2122777099469808
 20
0.1057826808466137
  0
ELLIPSE
  5
D0
330
2
100
AcDbEntity
  8
Profilo
  6
Continuous
370
     0
100
AcDbEllipse
 10
0.2414994522511862
 20
0.1451083191712067
 30
0.0
 11
0.0009035681442646
 21
0.0034821775055226
 31
0.0
210
0.0
220
0.0
230
1.0
 40
0.6088587585262748
 41
0.0
 42
6.283185307179584
  0
ELLIPSE
  5
D1
330
2
100
AcDbEntity
  8
Profilo
  6
Continuous
370
     0
100
AcDbEllipse
 10
0.2429902471212568
 20
0.1544500251365578
 30
0.0
 11
-0.0001083542344975
 21
0.0017954828920611
 31
0.0
210
0.0
220
0.0
230
1.0
 40
0.6999527604408505
 41
0.0
 42
6.283185307179584
  0
ELLIPSE
  5
D2
330
2
100
AcDbEntity
  8
Profilo
  6
Continuous
370
     0
100
AcDbEllipse
 10
0.2428321194389122
 20
0.1544261780074153
 30
0.0
 11
-0.0002167076551171
 21
0.0035909655196772
 31
0.0
210
0.0
220
0.0
230
1.0
 40
0.6088587585262753
 41
0.0
 42
6.283185307179584
  0
LWPOLYLINE
  5
D3
330
2
100
AcDbEntity
  8
Profilo
  6
Continuous
370
     0
100
AcDbPolyline
 90
        6
 70
   129
 43
0.0
 10
0.2439320398216982
 20
0.160832094716928
 10
0.2429675243641347
 20
0.1594121958142794
 10
0.2442213951435772
 20
0.1584747871451805
 10
0.2443729608314229
 20
0.1590399900674878
 10
0.2436564639766801
 20
0.1595086944020373
 10
0.2442076156667172
 20
0.1603496044833784
  0
LWPOLYLINE
  5
D4
330
2
100
AcDbEntity
  8
Profilo
  6
Continuous
370
     0
100
AcDbPolyline
 90
        6
 70
   129
 43
0.0
 10
0.2445250758264301
 20
0.1508608139098925
 10
0.2431689942242337
 20
0.1498084614737726
 10
0.2440718209901889
 20
0.1485294654709962
 10
0.2443906258335249
 20
0.1490201690199772
 10
0.2438540344356295
 20
0.1496873430360986
 10
0.2446380663477818
 20
0.1503167808098767
  0
LWPOLYLINE
  5
D5
330
2
100
AcDbEntity
  8
Profilo
  6
Continuous
370
     0
100
AcDbPolyline
 90
       51
 70
   128
 43
0.0
 10
0.2537142720375363
 20
0.1734019102409373
 10
0.2540959555024076
 20
0.172965490231085
 10
0.2538233251895809
 20
0.1721472067704719
 10
0.2528418553787965
 20
0.1718744456169346
 10
0.2520784901605781
 20
0.1723108629215474
 10
0.2520784901605781
 20
0.1735655663920118
 10
0.2529509068193179
 20
0.1743838525578635
 10
0.2541504812226683
 20
0.1745475087089389
 10
0.2556226859388453
 20
0.174438403706476
 10
0.2569290149179866
 20
0.1734853939228692
 10
0.2578037284414567
 20
0.1725290729264731
 10
0.258785198252242
 20
0.1707288471489331
 10
0.259003302844808
 20
0.1694195898246175
 10
0.2591123542853293
 20
0.1680557840569289
 10
0.2590578285650686
 20
0.1666919755840016
 10
0.258785198252242
 20
0.1656009282646117
 10
0.2580218330340227
 20
0.1645098836504605
 10
0.2568222586306723
 20
0.1629824190264587
 10
0.2552955281942346
 20
0.1617822667046059
 10
0.2542050069429289
 20
0.1613458493999941
 10
0.2526782765064912
 20
0.1607457732390672
 10
0.2510970203497929
 20
0.1605821170879927
 10
0.2486433475343548
 20
0.1607457732390672
 10
0.2468985125053511
 20
0.1611821932489187
 10
0.2456989381020007
 20
0.16194592556092
 10
0.244990098604043
 20
0.1635824951873855
 10
0.2446629425709557
 20
0.1654372721135363
 10
0.2447174682912163
 20
0.1666919755840016
 10
0.2454808335094347
 20
0.1676193640470774
 10
0.2463532518796987
 20
0.167946679054466
 10
0.2471711428181778
 20
0.1676193640470774
 10
0.2471166170979171
 20
0.1666919755840016
 10
0.2465713564722647
 20
0.1663101094280005
 10
0.246244198727654
 20
0.1663101094280005
 10
0.246026094135088
 20
0.1657100332670746
 10
0.246026094135088
 20
0.1647826448039987
 10
0.2464077775999593
 20
0.1639643613433858
 10
0.2472801942586991
 20
0.1631460751775332
 10
0.2490250292877028
 20
0.1626551040190692
 10
0.2504427082836191
 20
0.1626551040190692
 10
0.2522965947531432
 20
0.1629824190264587
 10
0.2539323766301023
 20
0.1639643613433858
 10
0.2554045813462793
 20
0.1652190621086106
 10
0.2562224722847592
 20
0.1665283194329262
 10
0.2568222586306723
 20
0.1680012302030777
 10
0.2568222586306723
 20
0.1694195898246175
 10
0.2566586814698903
 20
0.1707833982975447
 10
0.2559498419719326
 20
0.1719289967655472
 10
0.2552955281942346
 20
0.1724745190726219
 10
0.2548593207206269
 20
0.1728018340800105
 10
0.2541504812226683
 20
0.1728018340800105
  0
LWPOLYLINE
  5
D6
330
2
100
AcDbEntity
  8
Profilo
  6
Continuous
370
     0
100
AcDbPolyline
 90
        6
 70
   128
 43
0.0
 10
0.2477709291640917
 20
0.1606912220904556
 10
0.2470075639458724
 20
0.1603093559344545
 10
0.246298726159438
 20
0.1597092797735285
 10
0.246026094135088
 20
0.1590546524639901
 10
0.246026094135088
 20
0.1581272640009142
 10
0.246026094135088
 20
0.1575817389885999
  0
LWPOLYLINE
  5
D7
330
2
100
AcDbEntity
  8
Profilo
  6
Continuous
370
     0
100
AcDbPolyline
 90
        9
 70
   128
 43
0.0
 10
0.2468985125053511
 20
0.1575271878399874
 10
0.2472801942586991
 20
0.1584545763030641
 10
0.2478799823161364
 20
0.1588909963129156
 10
0.2487523989748761
 20
0.1591092036126017
 10
0.2496793430654007
 20
0.1591092036126017
 10
0.2507698643167064
 20
0.1587818913104527
 10
0.2514241763828802
 20
0.1582363662981375
 10
0.2516968066957068
 20
0.1575817389885999
 10
0.2516968066957068
 20
0.1568180066765986
  0
LWPOLYLINE
  5
D8
330
2
100
AcDbEntity
  8
Profilo
  6
Continuous
370
     0
100
AcDbPolyline
 90
        6
 70
   128
 43
0.0
 10
0.2509334414774875
 20
0.1604730120855299
 10
0.2518058598477515
 20
0.1599820409270659
 10
0.2522965947531432
 20
0.1596001747710657
 10
0.2525146993457101
 20
0.1596001747710657
 10
0.2526782765064912
 20
0.1604730120855299
 10
0.2527328022267519
 20
0.1606912220904556
  0
LWPOLYLINE
  5
D9
330
2
100
AcDbEntity
  8
Profilo
  6
Continuous
370
     0
100
AcDbPolyline
 90
       26
 70
   128
 43
0.0
 10
0.2540959555024076
 20
0.1610730882464558
 10
0.2544776372557556
 20
0.1606366682366035
 10
0.2544776372557556
 20
0.1602548020806033
 10
0.2545866904078002
 20
0.1600911459295288
 10
0.2547502675685822
 20
0.1603093559344545
 10
0.2550228978814089
 20
0.1607457732390672
 10
0.2551319510334526
 20
0.1610185343926046
 10
0.2554045813462793
 20
0.1611821932489187
 10
0.2556226859388453
 20
0.1611821932489187
 10
0.2557862630996273
 20
0.1613458493999941
 10
0.2561134191327146
 20
0.1616731644073818
 10
0.256713207190151
 20
0.1620550305633829
 10
0.257094888943499
 20
0.1620550305633829
 10
0.2577492027211969
 20
0.1617277155559943
 10
0.2578037284414567
 20
0.1613458493999941
 10
0.257967307313762
 20
0.1611276393950675
 10
0.2584035147873707
 20
0.1613458493999941
 10
0.2588942496927633
 20
0.16194592556092
 10
0.2594940377501997
 20
0.1627096578729213
 10
0.2598757195035477
 20
0.1636915974846088
 10
0.2599302452238084
 20
0.1644007786479976
 10
0.2599302452238084
 20
0.1649463009550732
 10
0.2599302452238084
 20
0.1656554821184629
 10
0.2597666680630264
 20
0.1658736921233886
 10
0.2593849845981551
 20
0.1659282432720003
 10
0.2591668800055891
 20
0.1659282432720003
  0
LWPOLYLINE
  5
DA
330
2
100
AcDbEntity
  8
Profilo
  6
Continuous
370
     0
100
AcDbPolyline
 90
       24
 70
   128
 43
0.0
 10
0.2592214057258497
 20
0.1684922013615416
 10
0.2600938240961137
 20
0.1684922013615416
 10
0.2610752939068981
 20
0.1681648890593917
 10
0.2618386591251174
 20
0.1676193640470774
 10
0.2621658151582038
 20
0.1669101855889273
 10
0.2625474969115518
 20
0.1659282432720003
 10
0.2625474969115518
 20
0.1647826448039987
 10
0.2623293923189858
 20
0.1636915974846088
 10
0.261893184845378
 20
0.1625459990166064
 10
0.2614569756602461
 20
0.1622186867144574
 10
0.2605845590015055
 20
0.1615095055510677
 10
0.2596030891907211
 20
0.1608548782415301
 10
0.2586761451001973
 20
0.1603093559344545
 10
0.2581854101948047
 20
0.1600911459295288
 10
0.258130884474544
 20
0.159654728624916
 10
0.2582399376265887
 20
0.1587818913104527
 10
0.2587306725319813
 20
0.1586727863079899
 10
0.2594395103184157
 20
0.1588909963129156
 10
0.260202875536635
 20
0.1591637574664529
 10
0.2606936104420268
 20
0.1590000986101389
 10
0.2609662407548534
 20
0.1582363662981375
 10
0.2609662407548534
 20
0.1578545001421373
 10
0.2608571893143321
 20
0.1568725605304489
 10
0.2611843453474194
 20
0.1568725605304489
  0
LWPOLYLINE
  5
DB
330
2
100
AcDbEntity
  8
Profilo
  6
Continuous
370
     0
100
AcDbPolyline
 90
        6
 70
   128
 43
0.0
 10
0.254804793288842
 20
0.1564906943744487
 10
0.2558407888198879
 20
0.1566543505255241
 10
0.2568222586306723
 20
0.1568180066765986
 10
0.2575310981286309
 20
0.157090767830136
 10
0.2580218330340227
 20
0.1574180828375246
 10
0.2584580422191547
 20
0.1577999489935257
  0
LWPOLYLINE
  5
DC
330
2
100
AcDbEntity
  8
Profilo
  6
Continuous
370
     0
100
AcDbPolyline
 90
        4
 70
   128
 43
0.0
 10
0.2540414280706236
 20
0.1578545001421373
 10
0.2547778590412515
 20
0.1582799991013098
 10
0.2561679465644986
 20
0.1594910697686019
 10
0.2565496283178457
 20
0.159872935924603
  0
CIRCLE
  5
DD
330
2
100
AcDbEntity
  8
Profilo
  6
Continuous
370
     0
100
AcDbCircle
 10
0.252207256641958
 20
0.1560097542429654
 30
0.0
 40
0.0006930229282738
  0
CIRCLE
  5
DE
330
2
100
AcDbEntity
  8
Profilo
  6
Continuous
370
     0
100
AcDbCircle
 10
0.2463530345161955
 20
0.1567716442870667
 30
0.0
 40
0.000740587731585
  0
LWPOLYLINE
  5
DF
330
2
100
AcDbEntity
  8
Profilo
  6
Continuous
370
     0
100
AcDbPolyline
 90
       51
 70
   128
 43
0.0
 10
0.2546403664570855
 20
0.1366335762779206
 10
0.2549995954194302
 20
0.1370886578584848
 10
0.2546861162603913
 20
0.1378921788141744
 10
0.2536921594341657
 20
0.1381151843386806
 10
0.2529517325524575
 20
0.137640890597423
 10
0.2530148976224551
 20
0.1363877780834292
 10
0.2539274027381089
 20
0.1356144492467907
 10
0.2551336949690406
 20
0.1355113903386153
 10
0.2565985403059259
 20
0.1356944716508787
 10
0.2578552358507953
 20
0.1367120370575717
 10
0.2586806965306485
 20
0.1377111808221562
 10
0.2595702937470634
 20
0.1395585336937394
 10
0.2597222103299501
 20
0.1408771108459822
 10
0.2597624659275441
 20
0.1422446772522393
 10
0.259639351643026
 20
0.1436040114561589
 10
0.2593121408345278
 20
0.1446799504076898
 10
0.2584948175057404
 20
0.1457311817726493
 10
0.2572198675722659
 20
0.1471963198527927
 10
0.2556346541990406
 20
0.148318090766366
 10
0.2545235453281409
 20
0.1486990549908323
 10
0.2529685413658245
 20
0.1492215106364515
 10
0.2513810513517189
 20
0.1493053546821231
 10
0.2489387286594102
 20
0.1490183817084144
 10
0.2472180766009375
 20
0.1484946754958226
 10
0.246058471542365
 20
0.1476715218639265
 10
0.2454329200644507
 20
0.1460013425548062
 10
0.245199553207968
 20
0.1441324475802114
 10
0.2453171748599401
 20
0.1428820800342659
 10
0.2461262593080031
 20
0.1419942973053642
 10
0.2470140493546469
 20
0.1417113171648688
 10
0.2478144253146859
 20
0.1420793919180102
 10
0.2477132815603531
 20
0.1430028594900315
 10
0.2471494881760841
 20
0.1433567915892263
 10
0.2468227452655303
 20
0.1433403216086096
 10
0.2465747078173692
 20
0.143928656918208
 10
0.24652802064501
 20
0.1448548694582786
 10
0.2468680255977251
 20
0.1456913302890393
 10
0.2476981413613759
 20
0.1465524986202101
 10
0.2494160471716713
 20
0.1471306868108856
 10
0.2508319285591283
 20
0.1472020564971247
 10
0.2526999422093736
 20
0.1469684860399928
 10
0.2543830834814564
 20
0.1460701383784645
 10
0.2559165863846966
 20
0.1448911432205685
 10
0.2567993516967395
 20
0.1436247208058997
 10
0.2574725277160665
 20
0.1421838724986258
 10
0.2575439316667893
 20
0.1407673113485742
 10
0.2574492196234088
 20
0.1393969972724601
 10
0.2567989513671318
 20
0.1382171665733208
 10
0.2561729302819196
 20
0.137639396110185
 10
0.2557537538144088
 20
0.1372905363057105
 10
0.2550458131206794
 20
0.137254851462591
  0
LWPOLYLINE
  5
E0
330
2
100
AcDbEntity
  8
Profilo
  6
Continuous
370
     0
100
AcDbPolyline
 90
        6
 70
   128
 43
0.0
 10
0.2480646702622258
 20
0.1490289438530684
 10
0.2472830488407054
 20
0.1493718959939073
 10
0.2465449004454208
 20
0.149935526504905
 10
0.2462396584577535
 20
0.1505755987383756
 10
0.2461929712853943
 20
0.1515018112784453
 10
0.2461655081226637
 20
0.1520466445683185
  0
LWPOLYLINE
  5
E1
330
2
100
AcDbEntity
  8
Profilo
  6
Continuous
370
     0
100
AcDbPolyline
 90
        9
 70
   128
 43
0.0
 10
0.2470340740234909
 20
0.1521450463798292
 10
0.2474619589790248
 20
0.1512380487022623
 10
0.2480829570389889
 20
0.1508323769773859
 10
0.248965252607545
 20
0.150658366110512
 10
0.2498910213385248
 20
0.1507050309119892
 10
0.2509636820539793
 20
0.1510868278897263
 10
0.2515897012936492
 20
0.1516646009685075
 10
0.2518290302537871
 20
0.1523321231409523
 10
0.2517905819621531
 20
0.1530948870449652
  0
LWPOLYLINE
  5
E2
330
2
100
AcDbEntity
  8
Profilo
  6
Continuous
370
     0
100
AcDbPolyline
 90
        6
 70
   128
 43
0.0
 10
0.2512121872638959
 20
0.1494060863497889
 10
0.2520587826345386
 20
0.1499403547931987
 10
0.2525296711451983
 20
0.1503464416299675
 10
0.2527474991824505
 20
0.1503574215883251
 10
0.252954809852554
 20
0.1494939259304834
 10
0.2530202516996207
 20
0.1492787375825827
  0
LWPOLYLINE
  5
E3
330
2
100
AcDbEntity
  8
Profilo
  6
Continuous
370
     0
100
AcDbPolyline
 90
       26
 70
   128
 43
0.0
 10
0.2544009006509207
 20
0.1489659803487674
 10
0.2547601279039118
 20
0.1494210618431685
 10
0.2547409037580943
 20
0.1498024437951754
 10
0.2548415797506716
 20
0.1499713824534922
 10
0.2550159347616872
 20
0.1497616840416892
 10
0.2553101897749095
 20
0.1493395450380056
 10
0.2554328361614824
 20
0.1490726197662336
 10
0.2557133597976222
 20
0.1489228933547725
 10
0.2559311878348736
 20
0.1489338733131301
 10
0.2561027964615221
 20
0.1487786595812185
 10
0.2564460155603607
 20
0.1484682295017497
 10
0.2570642672359578
 20
0.1481170424567656
 10
0.2574454650191325
 20
0.1481362573192685
 10
0.2580824712332481
 20
0.1484960971682628
 10
0.258117703669406
 20
0.1488802240883181
 10
0.2582700898595907
 20
0.1491063923945756
 10
0.258716729489832
 20
0.1489104189091778
 10
0.2592370515572189
 20
0.1483358085259855
 10
0.2598745273786334
 20
0.1476032395289953
 10
0.2603051585823455
 20
0.1466417598733448
 10
0.2603953172077758
 20
0.145936222915464
 10
0.2604227802343175
 20
0.1453913923273994
 10
0.2604584822777733
 20
0.1446831104014702
 10
0.2603060977969422
 20
0.1444569421813749
 10
0.2599276445525922
 20
0.1443832452546262
 10
0.2597098165153409
 20
0.1443722652962694
  0
LWPOLYLINE
  5
E4
330
2
100
AcDbEntity
  8
Profilo
  6
Continuous
370
     0
100
AcDbPolyline
 90
       24
 70
   128
 43
0.0
 10
0.2598933494854887
 20
0.1418143032582474
 10
0.260764661634495
 20
0.1418582230916753
 10
0.2617284091859997
 20
0.1422345301333155
 10
0.262463343298972
 20
0.1428177932343567
 10
0.2627543825929062
 20
0.1435425423529327
 10
0.2630861468193546
 20
0.1445424544353976
 10
0.2630284743819031
 20
0.1456866002914173
 10
0.2627557201553794
 20
0.1467652842109967
 10
0.2622623933527788
 20
0.1478874702364642
 10
0.2618102595168257
 20
0.1481924075918654
 10
0.260903247033718
 20
0.1488567697705289
 10
0.2598900660616759
 20
0.149461157247042
 10
0.2589368343041534
 20
0.1499593230336295
 10
0.258435736382584
 20
0.1501525514648158
 10
0.258359309406613
 20
0.1505856704268561
 10
0.2584242833557353
 20
0.151462891011103
 10
0.2589089033796663
 20
0.1515965625538399
 10
0.2596278276291344
 20
0.1514143139948482
 10
0.2604039564181086
 20
0.1511803285119851
 10
0.2608858300576726
 20
0.1513684847346143
 10
0.2611196663852635
 20
0.1521449735650332
 10
0.2611004422394469
 20
0.1525263555170401
 10
0.2609420956549597
 20
0.1535015600990958
 10
0.2612688368561609
 20
0.1535180299935493
  0
LWPOLYLINE
  5
E5
330
2
100
AcDbEntity
  8
Profilo
  6
Continuous
370
     0
100
AcDbPolyline
 90
        6
 70
   128
 43
0.0
 10
0.2548781498854906
 20
0.1535782485298019
 10
0.2559210706611454
 20
0.1534669546313191
 10
0.2569095348548249
 20
0.1533529157647878
 10
0.2576312070618247
 20
0.1531161853138755
 10
0.2581377976159402
 20
0.1528139902247151
 10
0.2585926778362604
 20
0.1524545681894217
  0
LWPOLYLINE
  5
E6
330
2
100
AcDbEntity
  8
Profilo
  6
Continuous
370
     0
100
AcDbPolyline
 90
        4
 70
   128
 43
0.0
 10
0.2541844101761426
 20
0.1521777422484746
 10
0.254941328092513
 20
0.1517898566897914
 10
0.2563906214731431
 20
0.1506503023118334
 10
0.2567910434021352
 20
0.1502881352223294
  0
CIRCLE
  5
E7
330
2
100
AcDbEntity
  8
Profilo
  6
Continuous
370
     0
100
AcDbCircle
 10
0.2522596951093823
 20
0.1539278120110919
 30
0.0
 40
0.0006930229282738
  0
CIRCLE
  5
E8
330
2
100
AcDbEntity
  8
Profilo
  6
Continuous
370
     0
100
AcDbCircle
 10
0.2464512516491697
 20
0.1528721711125985
 30
0.0
 40
0.000740587731585
  0
LWPOLYLINE
  5
E9
330
2
100
AcDbEntity
  8
Profilo
  6
Continuous
370
     0
100
AcDbPolyline
 90
       13
 70
   128
 43
0.0
 10
0.2514320562377386
 20
0.1564564027622589
 10
0.250845604372538
 20
0.1566397584652405
 10
0.250222498516971
 20
0.1567497697228383
 10
0.2495627386710366
 20
0.156603086242549
 10
0.2490495930750456
 20
0.1561997080243728
 10
0.2486843162758288
 20
0.1554401228440761
 10
0.2486097554597884
 20
0.1545128452958074
 10
0.2486830617289979
 20
0.1538161001170536
 10
0.249086247065412
 20
0.1531926939732052
 10
0.249855965459399
 20
0.1528259852724817
 10
0.250589031574542
 20
0.1528259852724817
 10
0.2512121357185866
 20
0.153046010492916
 10
0.251615322766525
 20
0.1533760496761859
  0
LWPOLYLINE
  5
EA
330
2
100
AcDbEntity
  8
Profilo
  6
Continuous
370
     0
100
AcDbPolyline
 90
        5
 70
   128
 43
0.0
 10
0.2550764719945227
 20
0.1551074379368614
 10
0.2569664733244663
 20
0.1551996757728679
 10
0.2589947657648699
 20
0.1551074379368614
 10
0.2604237921625485
 20
0.1551074379368614
 10
0.2610230599167977
 20
0.1550613190188578
  0
LWPOLYLINE
  5
EB
330
2
100
AcDbEntity
  8
Profilo
  6
Continuous
370
     0
100
AcDbPolyline
 90
       13
 70
   128
 43
0.0
 10
0.2611843453474194
 20
0.1568725605304489
 10
0.261841837424525
 20
0.1568113409671919
 10
0.2624783496447975
 20
0.1565088519400074
 10
0.2630352999769416
 20
0.1560790002509508
 10
0.2631626013940818
 20
0.1556173051911868
 10
0.26325807874058
 20
0.1549486458058812
 10
0.2631785151409265
 20
0.1543595853790055
 10
0.2629557346657647
 20
0.1539615743554176
 10
0.2626056527734619
 20
0.1534361979647171
 10
0.2620646161881635
 20
0.1532769946373772
 10
0.2614758417853775
 20
0.1532769946373772
 10
0.2612212355280488
 20
0.1533565963010476
 10
0.2609420956549597
 20
0.1535015600990958
  0
LWPOLYLINE
  5
EC
330
2
100
AcDbEntity
  8
Profilo
  6
Continuous
370
     0
100
AcDbPolyline
 90
        2
 70
   128
 43
0.0
 10
0.2107709557844546
 20
0.1875383103484139
 10
0.2131253660450112
 20
0.1875383103484139
  0
ARC
  5
ED
330
2
100
AcDbEntity
  8
Profilo
  6
Continuous
370
     0
100
AcDbCircle
 10
0.2127504631747297
 20
0.1539743133268437
 30
0.0
 40
0.0346428294790008
100
AcDbArc
 50
201.9119357550579
 51
250.973704117056
  0
LWPOLYLINE
  5
EE
330
2
100
AcDbEntity
  8
Profilo
  6
Continuous
370
     0
100
AcDbPolyline
 90
        2
 70
   128
 43
0.0
 10
0.1791864661531595
 20
0.1519948059365687
 10
0.1791864661531595
 20
0.1543492161971253
  0
ARC
  5
EF
330
2
100
AcDbEntity
  8
Profilo
  6
Continuous
370
     0
100
AcDbCircle
 10
0.2127504631747297
 20
0.1539743133268437
 30
0.0
 40
0.0346428294790008
100
AcDbArc
 50
291.9119357550579
 51
340.9737041170625
  0
LWPOLYLINE
  5
F0
330
2
100
AcDbEntity
  8
Profilo
  6
Continuous
370
     0
100
AcDbPolyline
 90
        2
 70
   128
 43
0.0
 10
0.2147299705650048
 20
0.1204103163052735
 10
0.2123755603044481
 20
0.1204103163052735
  0
ARC
  5
F1
330
2
100
AcDbEntity
  8
Profilo
  6
Continuous
370
     0
100
AcDbCircle
 10
0.2127504631747297
 20
0.1539743133268437
 30
0.0
 40
0.0346428294790008
100
AcDbArc
 50
21.91193575505794
 51
70.97370411705601
  0
LWPOLYLINE
  5
F2
330
2
100
AcDbEntity
  8
Profilo
  6
Continuous
370
     0
100
AcDbPolyline
 90
        2
 70
   128
 43
0.0
 10
0.2463144601962999
 20
0.1559538207171188
 10
0.2463144601962999
 20
0.1535994104565622
  0
LWPOLYLINE
  5
F3
330
2
100
AcDbEntity
  8
Profilo
  6
Continuous
370
     0
100
AcDbPolyline
 90
       14
 70
   128
 43
0.0
 10
0.2306608834895256
 20
0.1990444644858463
 10
0.2352815132124857
 20
0.1968240757661753
 10
0.2420347398124536
 20
0.1928273770976817
 10
0.2462999362717062
 20
0.1898076486443129
 10
0.2468330875198872
 20
0.1890971232955646
 10
0.2468330875198872
 20
0.1882977835618659
 10
0.2474550950550658
 20
0.1883865996583406
 10
0.2483436768617155
 20
0.1879425208874922
 10
0.2492322613736039
 20
0.1868767345758936
 10
0.2514537172428473
 20
0.1839458222189986
 10
0.2539417473835617
 20
0.1806596471877299
 10
0.2568740697802208
 20
0.175685976592589
 10
0.2583846618272878
 20
0.1726662481392193
 10
0.2589178103702301
 20
0.170978752575348
  0
LWPOLYLINE
  5
F4
330
2
100
AcDbEntity
  8
Profilo
  6
Continuous
370
     0
100
AcDbPolyline
 90
      208
 70
   128
 43
0.0
 10
0.2455562173193597
 20
0.1900414564663148
 10
0.2439611839356808
 20
0.1901334337469608
 10
0.2434090554344614
 20
0.1894589342594018
 10
0.2430102950596125
 20
0.1890603683253026
 10
0.2424581692636327
 20
0.188600481922076
 10
0.2418753660550428
 20
0.1880179614266865
 10
0.2413539122611941
 20
0.1878646670999598
 10
0.2405870689241045
 20
0.1878646670999598
 10
0.2397282041701454
 20
0.187803348342355
 10
0.2392987717931663
 20
0.1878340068653953
 10
0.2389306861256861
 20
0.1881405972303719
 10
0.2387466432919469
 20
0.1886618006796808
 10
0.2387773179993158
 20
0.1891523456059486
 10
0.2382865362075972
 20
0.1894895944939664
 10
0.2376730609968781
 20
0.1891523456059486
 10
0.2377344104116175
 20
0.1883552103147034
 10
0.2378877785379878
 20
0.1878953256230001
 10
0.2383785576244668
 20
0.1872821448930461
 10
0.2389306861256861
 20
0.1868835772474234
 10
0.2391760756689261
 20
0.1867302829206968
 10
0.2393601185026661
 20
0.1861171021907436
 10
0.2400349404228852
 20
0.1859944663870573
 10
0.2405563969219744
 20
0.1858105118257661
 10
0.2405563969219744
 20
0.1853506271340629
 10
0.2401883112544942
 20
0.1852586498534178
 10
0.2396361827532758
 20
0.18507469700365
 10
0.2392680970857957
 20
0.18507469700365
 10
0.2387159712898159
 20
0.1857798533027258
 10
0.2382558642054671
 20
0.1863623755096387
 10
0.2378571038306172
 20
0.186914237481988
 10
0.2373356500367685
 20
0.1876193937810638
 10
0.2365994814070487
 20
0.1881405972303719
 10
0.2358326353647204
 20
0.188600481922076
 10
0.2351578134445005
 20
0.188600481922076
 10
0.2344523168169117
 20
0.1886618006796808
 10
0.2343602954000412
 20
0.1879566426690816
 10
0.2348204024843909
 20
0.1872208278469655
 10
0.2352498348613701
 20
0.1865463283594065
 10
0.2355258991119797
 20
0.1859944663870573
 10
0.2361700490300687
 20
0.18507469700365
 10
0.2361393743226989
 20
0.1846761293580273
 10
0.2356485952362191
 20
0.1848600839193185
 10
0.2350657920276309
 20
0.1853812856571032
 10
0.2346363596506509
 20
0.185871830583371
 10
0.2343602954000412
 20
0.1861477624253073
 10
0.2340842311494315
 20
0.1865769885939711
 10
0.2341149058568013
 20
0.1871901676124009
 10
0.2340228844399317
 20
0.1880792801842913
 10
0.2335627773555828
 20
0.1883245517916631
 10
0.2330413235617332
 20
0.1881405972303719
 10
0.2327652620163623
 20
0.1878340068653953
 10
0.2323358269341436
 20
0.1881099387073316
 10
0.2321824588077741
 20
0.1885085063529542
 10
0.2318450478476637
 20
0.1889070722870526
 10
0.2310782045105741
 20
0.1894895944939664
 10
0.2305567507167254
 20
0.189796184858943
 10
0.2298512540891358
 20
0.1898268433819833
 10
0.2294218217121566
 20
0.189796184858943
 10
0.2290230613373076
 20
0.1893362984557155
 10
0.2290230613373076
 20
0.1886618006796808
 10
0.2294218217121566
 20
0.1883552103147034
 10
0.2297899073796359
 20
0.1885085063529542
 10
0.230065968925006
 20
0.1888150950064075
 10
0.2304647292998549
 20
0.1888150950064075
 10
0.2311088765127052
 20
0.1882019159879767
 10
0.2313542687611838
 20
0.187711371061709
 10
0.2317530264307941
 20
0.1872821448930461
 10
0.2319370692645333
 20
0.1869448960050283
 10
0.2319677439719039
 20
0.1864543510787614
 10
0.232397176348883
 20
0.1858105118257661
 10
0.2331640196859726
 20
0.1858105118257661
 10
0.2335627773555828
 20
0.1858105118257661
 10
0.234145580564171
 20
0.1851360140497314
 10
0.234575012941151
 20
0.1847681066386734
 10
0.2336241267703214
 20
0.1844921747967371
 10
0.2327959340184933
 20
0.1839096543013475
 10
0.2327652620163623
 20
0.183081860487062
 10
0.2328572807279932
 20
0.1824073627110264
 10
0.2333480625197117
 20
0.1828059286451257
 10
0.2344829915242814
 20
0.1828672474027305
 10
0.2364767852828093
 20
0.1824993399916724
 10
0.2378264318284871
 20
0.1825299985147127
 10
0.2389613608330559
 20
0.1827446115990442
 10
0.2397282041701454
 20
0.1833271320944337
 10
0.2404030260903653
 20
0.1837563582630967
 10
0.2405870689241045
 20
0.1832044962907474
 10
0.2397588788775151
 20
0.182284726907341
 10
0.2393907932100359
 20
0.1818555007386781
 10
0.2385319284560767
 20
0.1818555007386781
 10
0.237642388994747
 20
0.181610227419782
 10
0.2373356500367685
 20
0.1809663881667877
 10
0.2372436286198989
 20
0.1802612318677118
 10
0.2369982390766581
 20
0.1798626642220892
 10
0.2366301534091788
 20
0.1794334380534263
 10
0.2368755456576583
 20
0.178973553361723
 10
0.2373663247441373
 20
0.1784830084354553
 10
0.2377650824137476
 20
0.1782990555856875
 10
0.2383478856223367
 20
0.1785136686700189
 10
0.2384705790413373
 20
0.1789428948386819
 10
0.2385626004582069
 20
0.1791575079230133
 10
0.2389920328351869
 20
0.1792188249690948
 10
0.2395441613364053
 20
0.1792188249690948
 10
0.2398509002943847
 20
0.1793414607727811
 10
0.2400962898376246
 20
0.1798013471760086
 10
0.2402189832566253
 20
0.180199913110107
 10
0.2402189832566253
 20
0.1807517750824562
 10
0.240249657963995
 20
0.1810583654474328
 10
0.2404030260903653
 20
0.1814875916160957
 10
0.2408631331747142
 20
0.1819781365423635
 10
0.2412618908443245
 20
0.1824380212340676
 10
0.241568629802303
 20
0.1826219757953579
 10
0.2421207583035223
 20
0.1825913155607942
 10
0.2424581692636327
 20
0.1825299985147127
 10
0.2418753660550428
 20
0.1815489103737006
 10
0.2413845869685629
 20
0.1805678222326884
 10
0.2410778507158231
 20
0.1797093698953626
 10
0.2406484156336044
 20
0.178084442501356
 10
0.2408631331747142
 20
0.1766128094340761
 10
0.2414766083854334
 20
0.1756623798161051
 10
0.2419367154697822
 20
0.1750798593207156
 10
0.2421215184757399
 20
0.1748264699566983
 10
0.2424896041432192
 20
0.1753783319290475
 10
0.2426123002674585
 20
0.1761448069857273
 10
0.2426429722695886
 20
0.1765740331543911
 10
0.2429803832296991
 20
0.1766966689580766
 10
0.2433177941898086
 20
0.1760834899396467
 10
0.2436858798572878
 20
0.1757462393401056
 10
0.2437165545646576
 20
0.1751943773677563
 10
0.2438392506888969
 20
0.1746118568723668
 10
0.2442993550680079
 20
0.1739986761424127
 10
0.2448208088618566
 20
0.1738760403387264
 10
0.245372937363076
 20
0.1738760403387264
 10
0.246047759283295
 20
0.1738453818156861
 10
0.246293148826535
 20
0.1739066988617676
 10
0.2467839306182544
 20
0.1734161556470232
 10
0.2470906668709942
 20
0.1729869294783602
 10
0.2471826882878647
 20
0.1724044072714473
 10
0.2469986454541246
 20
0.172189794187115
 10
0.2465385410750145
 20
0.172281771467761
 10
0.2462318021170351
 20
0.1718525452990981
 10
0.2468452773277543
 20
0.1713620020843537
 10
0.2473667311216039
 20
0.1713313418497891
 10
0.2479188596228232
 20
0.1717299094954118
 10
0.2479495343301929
 20
0.172281771467761
 10
0.2477348167890832
 20
0.1733854971239829
 10
0.2473360591194738
 20
0.1737840630580812
 10
0.2467839306182544
 20
0.1741826307037039
 10
0.2465385410750145
 20
0.1743972437880353
 10
0.2465078663676448
 20
0.1750104245179894
 10
0.2463851702434054
 20
0.1754703092096926
 10
0.2458637164495558
 20
0.1758995353783556
 10
0.2453115906535761
 20
0.175960852424437
 10
0.244698115442856
 20
0.1759915126590016
 10
0.2440539655247671
 20
0.1762061257433322
 10
0.2435631864382872
 20
0.1768806235193677
 10
0.2431030793539384
 20
0.1774018269686758
 10
0.242796340395959
 20
0.1781376435023162
 10
0.2428883618128295
 20
0.1783829151096879
 10
0.2436552078551577
 20
0.1778003946142984
 10
0.2443300297753768
 20
0.1776164400530072
 10
0.2451582198219671
 20
0.177156555361304
 10
0.2458330444474248
 20
0.177156555361304
 10
0.2463238235339047
 20
0.177156555361304
 10
0.2468146053256242
 20
0.1768806235193677
 10
0.2473667311216039
 20
0.1760221711820419
 10
0.2478268382059536
 20
0.1765127161083096
 10
0.2476427953722136
 20
0.1773098496880306
 10
0.2472440377026033
 20
0.1778617116603799
 10
0.2464158449507752
 20
0.1785362094364146
 10
0.2456796763210554
 20
0.1788734600359557
 10
0.2448821582765961
 20
0.1791187316433284
 10
0.2441153122342679
 20
0.1795479578119913
 10
0.2435325117309184
 20
0.1798852067000082
 10
0.2431337540613081
 20
0.180314432868672
 10
0.2430110579370688
 20
0.1810195908792712
 10
0.2431030793539384
 20
0.1819087017396373
 10
0.2431337540613081
 20
0.1822766091506954
 10
0.2434098156066782
 20
0.18215397334701
 10
0.2435018370235478
 20
0.1825525409926317
 10
0.2436858798572878
 20
0.1834416518529988
 10
0.2440539655247671
 20
0.1835949478912487
 10
0.2445140726091168
 20
0.183104402964981
 10
0.2445754193186176
 20
0.1824299051889463
 10
0.2445754193186176
 20
0.1813874982903293
 10
0.2447594621523568
 20
0.1806516817566889
 10
0.2452502412388366
 20
0.1803757516262768
 10
0.2454036120704457
 20
0.18083563631798
 10
0.2457103483231855
 20
0.1806210232336486
 10
0.2462624768244048
 20
0.1796092748580719
 10
0.2468146053256242
 20
0.1792413674470138
 10
0.2473360591194738
 20
0.1791493901663687
 10
0.2485016601261727
 20
0.1791493901663687
 10
0.2488083990841521
 20
0.1798852067000082
 10
0.2486550309577817
 20
0.1804064101493171
 10
0.2483789667071721
 20
0.1805290459530026
 10
0.2479495343301929
 20
0.1801611385419454
 10
0.247550773955344
 20
0.1800998197843405
 10
0.2469372987446239
 20
0.1805597044760437
 10
0.246477191660275
 20
0.1810195908792712
 10
0.246293148826535
 20
0.181632769897701
 10
0.2463238235339047
 20
0.1823379279083003
 10
0.2463851702434054
 20
0.1832270387686673
 10
0.2467532559108847
 20
0.1836562649373302
 10
0.2473360591194738
 20
0.1841774683866383
 10
0.2473974058289736
 20
0.1846373530783424
 10
0.2477348167890832
 20
0.1850972394815699
 10
0.2485323348335424
 20
0.1858023957806448
 10
0.2488697457936519
 20
0.186936779959907
  0
LWPOLYLINE
  5
F5
330
2
100
AcDbEntity
  8
Profilo
  6
Continuous
370
     0
100
AcDbPolyline
 90
        2
 70
   128
 43
0.0
 10
0.2427212673027219
 20
0.1785941393772038
 10
0.2424512249145876
 20
0.1801750515176493
  0
LWPOLYLINE
  5
F6
330
2
100
AcDbEntity
  8
Profilo
  6
Continuous
370
     0
100
AcDbPolyline
 90
        2
 70
   128
 43
0.0
 10
0.2414482141947156
 20
0.1833754330032006
 10
0.2462703842386074
 20
0.1879639320482823
  0
LWPOLYLINE
  5
F7
330
2
100
AcDbEntity
  8
Profilo
  6
Continuous
370
     0
100
AcDbPolyline
 90
        3
 70
   128
 43
0.0
 10
0.2399822748260008
 20
0.1840694917829658
 10
0.2381305602306318
 20
0.1839923739506005
 10
0.2367803537004376
 20
0.1842237274476973
  0
LWPOLYLINE
  5
F8
330
2
100
AcDbEntity
  8
Profilo
  6
Continuous
370
     0
100
AcDbPolyline
 90
        3
 70
   128
 43
0.0
 10
0.2381691369417258
 20
0.184647873814184
 10
0.2373975918988933
 20
0.1855347271748634
 10
0.2365874674397299
 20
0.1865372555725674
  0
LWPOLYLINE
  5
F9
330
2
100
AcDbEntity
  8
Profilo
  6
Continuous
370
     0
100
AcDbPolyline
 90
        7
 70
   128
 43
0.0
 10
0.2406804375500988
 20
0.1883046365025377
 10
0.2379830732942978
 20
0.1905167945050031
 10
0.2365998087409926
 20
0.1913463529001657
 10
0.234870730754601
 20
0.1925215620529158
 10
0.2333491392049167
 20
0.1933511204480783
 10
0.2323116907899376
 20
0.1939041599486954
 10
0.2310667532330106
 20
0.1945263296008285
  0
LWPOLYLINE
  5
FA
330
2
100
AcDbEntity
  8
Profilo
  6
Continuous
370
     0
100
AcDbPolyline
 90
        6
 70
   128
 43
0.0
 10
0.2420637021034049
 20
0.1889959345946653
 10
0.2389513568584685
 20
0.1913463529001657
 10
0.2365306465954229
 20
0.1930746015535319
 10
0.2344557497654656
 20
0.1943189408578
 10
0.2327958339246428
 20
0.1953558897075153
 10
0.2321042016479897
 20
0.1956324086020616
  0
LWPOLYLINE
  5
FB
330
2
100
AcDbEntity
  8
Profilo
  6
Continuous
370
     0
100
AcDbPolyline
 90
        5
 70
   128
 43
0.0
 10
0.2429628235220049
 20
0.1901711437474155
 10
0.2397121539859289
 20
0.1926598223559507
 10
0.237222278872075
 20
0.1941115504032472
 10
0.2348015659037916
 20
0.1956324086020616
 10
0.2325191826371251
 20
0.1968767479063288
  0
LWPOLYLINE
  5
FC
330
2
100
AcDbEntity
  8
Profilo
  6
Continuous
370
     0
100
AcDbPolyline
 90
        4
 70
   128
 43
0.0
 10
0.2537522805452117
 20
0.1746860394416817
 10
0.2515390567188762
 20
0.1784881857944785
 10
0.2497408138816752
 20
0.181253383297561
 10
0.2477350819025255
 20
0.1837420601945719
  0
LWPOLYLINE
  5
FD
330
2
100
AcDbEntity
  8
Profilo
  6
Continuous
370
     0
100
AcDbPolyline
 90
        4
 70
   128
 43
0.0
 10
0.2523690159919065
 20
0.1742021300925834
 10
0.2511932432857888
 20
0.1762068976404961
 10
0.2498791408780525
 20
0.1784190556429616
 10
0.2490491843102618
 20
0.1794560044926768
  0
LWPOLYLINE
  5
FE
330
2
100
AcDbEntity
  8
Profilo
  6
Continuous
370
     0
100
AcDbPolyline
 90
        2
 70
   128
 43
0.0
 10
0.2482192250372297
 20
0.180700343796944
 10
0.2466976361927859
 20
0.1827051113448576
  0
LWPOLYLINE
  5
FF
330
2
100
AcDbEntity
  8
Profilo
  6
Continuous
370
     0
100
AcDbPolyline
 90
        5
 70
   128
 43
0.0
 10
0.2554121963860345
 20
0.175031688487746
 10
0.2534756265524554
 20
0.1782807953399267
 10
0.2516773837152544
 20
0.1809077325399734
 10
0.2499483057288618
 20
0.1828433716478924
 10
0.2484267141791785
 20
0.1847790090442872
  0
LWPOLYLINE
  5
100
330
2
100
AcDbEntity
  8
Profilo
  6
Continuous
370
     0
100
AcDbPolyline
 90
       14
 70
   128
 43
0.0
 10
0.1676803120157271
 20
0.1718847336416397
 10
0.1699007007353981
 20
0.1765053633645998
 10
0.1738973994038917
 20
0.1832585899645677
 10
0.1769171278572605
 20
0.1875237864238203
 10
0.1776276532060088
 20
0.1880569376720013
 10
0.1784269929397075
 20
0.1880569376720013
 10
0.1783381768432328
 20
0.1886789452071799
 10
0.1787822556140812
 20
0.1895675270138296
 10
0.1798480419256798
 20
0.1904561115257181
 10
0.1827789542825748
 20
0.1926775673949622
 10
0.1860651293138436
 20
0.1951655975356766
 10
0.1910387999089844
 20
0.1980979199323357
 10
0.1940585283623541
 20
0.1996085119794028
 10
0.1957460239262254
 20
0.2001416605223442
  0
LWPOLYLINE
  5
101
330
2
100
AcDbEntity
  8
Profilo
  6
Continuous
370
     0
100
AcDbPolyline
 90
      208
 70
   128
 43
0.0
 10
0.1766833200352578
 20
0.1867800674714738
 10
0.1765913427546126
 20
0.1851850340877948
 10
0.1772658422421716
 20
0.1846329055865755
 10
0.1776644081762708
 20
0.1842341452117265
 10
0.1781242945794974
 20
0.1836820194157468
 10
0.1787068150748869
 20
0.1830992162071577
 10
0.1788601094016136
 20
0.1825777624133081
 10
0.1788601094016136
 20
0.1818109190762186
 10
0.1789214281592184
 20
0.1809520543222595
 10
0.1788907696361781
 20
0.1805226219452803
 10
0.1785841792712015
 20
0.1801545362778011
 10
0.1780629758218926
 20
0.179970493444061
 10
0.1775724308956248
 20
0.1800011681514298
 10
0.177235182007607
 20
0.1795103863597122
 10
0.1775724308956248
 20
0.1788969111489921
 10
0.17836956618687
 20
0.1789582605637315
 10
0.1788294508785733
 20
0.1791116286901019
 10
0.1794426316085274
 20
0.1796024077765818
 10
0.17984119925415
 20
0.1801545362778011
 10
0.1799944935808766
 20
0.1803999258210401
 10
0.1806076743108298
 20
0.1805839686547802
 10
0.1807303101145161
 20
0.1812587905749993
 10
0.1809142646758073
 20
0.1817802470740885
 10
0.1813741493675105
 20
0.1817802470740885
 10
0.1814661266481556
 20
0.1814121614066083
 10
0.1816500794979234
 20
0.1808600329053899
 10
0.1816500794979234
 20
0.1804919472379097
 10
0.1809449231988476
 20
0.17993982144193
 10
0.1803624009919347
 20
0.1794797143575811
 10
0.1798105390195854
 20
0.1790809539827313
 10
0.1791053827205096
 20
0.1785595001888825
 10
0.1785841792712015
 20
0.1778233315591627
 10
0.1781242945794974
 20
0.1770564855168345
 10
0.1781242945794974
 20
0.1763816635966145
 10
0.1780629758218926
 20
0.1756761669690258
 10
0.1787681338324918
 20
0.1755841455521562
 10
0.1795039486546079
 20
0.176044252636505
 10
0.1801784481421669
 20
0.1764736850134841
 10
0.1807303101145161
 20
0.1767497492640938
 10
0.1816500794979234
 20
0.1773938991821827
 10
0.1820486471435461
 20
0.1773632244748139
 10
0.1818646925822549
 20
0.176872445388334
 10
0.1813434908444702
 20
0.176289642179745
 10
0.1808529459182024
 20
0.1758602098027658
 10
0.1805770140762661
 20
0.1755841455521562
 10
0.1801477879076023
 20
0.1753080813015465
 10
0.1795346088891725
 20
0.1753387560089153
 10
0.1786454963172821
 20
0.1752467345920458
 10
0.1784002247099103
 20
0.1747866275076969
 10
0.1785841792712015
 20
0.1742651737138473
 10
0.1788907696361781
 20
0.1739891121684772
 10
0.1786148377942418
 20
0.1735596770862576
 10
0.1782162701486192
 20
0.1734063089598882
 10
0.1778177042145208
 20
0.1730688979997786
 10
0.177235182007607
 20
0.1723020546626891
 10
0.1769285916426304
 20
0.1717806008688395
 10
0.1768979331195901
 20
0.1710751042412507
 10
0.1769285916426304
 20
0.1706456718642707
 10
0.1773884780458579
 20
0.1702469114894217
 10
0.1780629758218926
 20
0.1702469114894217
 10
0.17836956618687
 20
0.1706456718642707
 10
0.1782162701486192
 20
0.17101375753175
 10
0.1779096814951659
 20
0.1712898190771209
 10
0.1779096814951659
 20
0.171688579451969
 10
0.1785228605135967
 20
0.1723327266648192
 10
0.1790134054398644
 20
0.1725781189132988
 10
0.1794426316085274
 20
0.1729768765829082
 10
0.1797798804965451
 20
0.1731609194166482
 10
0.180270425422812
 20
0.173191594124018
 10
0.1809142646758073
 20
0.1736210265009971
 10
0.1809142646758073
 20
0.1743878698380866
 10
0.1809142646758073
 20
0.1747866275076969
 10
0.181588762451842
 20
0.175369430716286
 10
0.1819566698629
 20
0.1757988630932651
 10
0.1822326017048363
 20
0.1748479769224355
 10
0.1828151222002259
 20
0.1740197841706074
 10
0.1836429160145114
 20
0.1739891121684772
 10
0.184317413790547
 20
0.1740811308801081
 10
0.1839188478564477
 20
0.1745719126718267
 10
0.1838575290988429
 20
0.1757068416763955
 10
0.184225436509901
 20
0.1777006354349234
 10
0.1841947779868607
 20
0.1790502819806011
 10
0.1839801649025292
 20
0.1801852109851699
 10
0.1833976444071397
 20
0.1809520543222595
 10
0.1829684182384768
 20
0.1816268762424794
 10
0.183520280210826
 20
0.1818109190762186
 10
0.1844400495942324
 20
0.1809827290296292
 10
0.1848692757628954
 20
0.1806146433621499
 10
0.1848692757628954
 20
0.1797557786081908
 10
0.1851145490817914
 20
0.1788662391468619
 10
0.1857583883347857
 20
0.1785595001888825
 10
0.1864635446338616
 20
0.178467478772013
 10
0.1868621122794842
 20
0.1782220892287721
 10
0.1872913384481472
 20
0.1778540035612929
 10
0.1877512231398504
 20
0.1780993958097724
 10
0.188241768066119
 20
0.1785901748962523
 10
0.1884257209158858
 20
0.1789889325658617
 10
0.1882111078315545
 20
0.1795717357744507
 10
0.1877818816628916
 20
0.1796944291934513
 10
0.1875672685785601
 20
0.1797864506103209
 10
0.1875059515324786
 20
0.1802158829873009
 10
0.1875059515324786
 20
0.1807680114885194
 10
0.1873833157287923
 20
0.1810747504464997
 10
0.1869234293255657
 20
0.1813201399897387
 10
0.1865248633914664
 20
0.1814428334087393
 10
0.1859730014191172
 20
0.1814428334087393
 10
0.1856664110541406
 20
0.1814735081161091
 10
0.1852371848854777
 20
0.1816268762424794
 10
0.1847466399592099
 20
0.1820869833268283
 10
0.1842867552675058
 20
0.1824857409964385
 10
0.1841028007062155
 20
0.1827924799544179
 10
0.1841334609407792
 20
0.1833446084556364
 10
0.1841947779868607
 20
0.1836820194157468
 10
0.1851758661278728
 20
0.1830992162071577
 10
0.186156954268885
 20
0.1826084371206779
 10
0.1870154066062108
 20
0.1823017008679381
 10
0.1886403340002174
 20
0.1818722657857185
 10
0.1901119670674973
 20
0.1820869833268283
 10
0.1910623966854683
 20
0.1827004585375475
 10
0.1916449171808578
 20
0.1831605656218972
 10
0.1918983065448752
 20
0.183345368627854
 10
0.1913464445725259
 20
0.1837134542953332
 10
0.1905799695158461
 20
0.1838361504195735
 10
0.1901507433471823
 20
0.1838668224217036
 10
0.1900281075434969
 20
0.1842042333818131
 10
0.1906412865619267
 20
0.1845416443419227
 10
0.1909785371614677
 20
0.1849097300094019
 10
0.1915303991338171
 20
0.1849404047167716
 10
0.1921129196292066
 20
0.1850631008410118
 10
0.1927261003591607
 20
0.185523205220122
 10
0.192848736162847
 20
0.1860446590139707
 10
0.192848736162847
 20
0.18659678751519
 10
0.1928793946858873
 20
0.1872716094354091
 10
0.1928180776398058
 20
0.1875169989786499
 10
0.1933086208545502
 20
0.1880077807703685
 10
0.1937378470232132
 20
0.1883145170231083
 10
0.1943203692301261
 20
0.1884065384399788
 10
0.1945349823144584
 20
0.1882224956062387
 10
0.1944430050338124
 20
0.1877623912271286
 10
0.1948722312024753
 20
0.1874556522691492
 10
0.1953627744172197
 20
0.1880691274798692
 10
0.1953934346517843
 20
0.188590581273718
 10
0.1949948670061616
 20
0.1891427097749373
 10
0.1944430050338124
 20
0.189173384482307
 10
0.1933392793775905
 20
0.1889586669411972
 10
0.1929407134434922
 20
0.1885599092715878
 10
0.1925421457978695
 20
0.1880077807703685
 10
0.1923275327135381
 20
0.1877623912271286
 10
0.191714351983584
 20
0.1877317165197588
 10
0.1912544672918808
 20
0.1876090203955195
 10
0.1908252411232179
 20
0.1870875666016699
 10
0.1907639240771364
 20
0.1865354408056902
 10
0.1907332638425727
 20
0.185921965594971
 10
0.1905186507582413
 20
0.1852778156768821
 10
0.1898441529822057
 20
0.1847870365904022
 10
0.1893229495328976
 20
0.1843269295060524
 10
0.1885871329992572
 20
0.184020190548073
 10
0.1883418613918854
 20
0.1841122119649435
 10
0.188924381887275
 20
0.1848790580072718
 10
0.1891083364485662
 20
0.1855538799274908
 10
0.1895682211402694
 20
0.1863820699740811
 10
0.1895682211402694
 20
0.1870568945995389
 10
0.1895682211402694
 20
0.1875476736860188
 10
0.1898441529822057
 20
0.1880384554777382
 10
0.1907026053195315
 20
0.188590581273718
 10
0.1902120603932638
 20
0.1890506883580677
 10
0.1894149268135428
 20
0.1888666455243276
 10
0.1888630648411935
 20
0.1884678878547173
 10
0.1881885670651588
 20
0.1876396951028892
 10
0.1878513164656177
 20
0.1869035264731694
 10
0.1876060448582451
 20
0.1861060084287102
 10
0.1871768186895821
 20
0.1853391623863819
 10
0.1868395698015652
 20
0.1847563618830325
 10
0.1864103436329014
 20
0.1843576042134222
 10
0.1857051856223022
 20
0.1842349080891828
 10
0.1848160747619361
 20
0.1843269295060524
 10
0.184448167350878
 20
0.1843576042134222
 10
0.1845708031545634
 20
0.1846336657587922
 10
0.1841722355089417
 20
0.1847256871756627
 10
0.1832831246485747
 20
0.1849097300094019
 10
0.1831298286103247
 20
0.1852778156768821
 10
0.1836203735365924
 20
0.1857379227612309
 10
0.1842948713126271
 20
0.1857992694707317
 10
0.1853372782112441
 20
0.1857992694707317
 10
0.1860730947448845
 20
0.1859833123044708
 10
0.1863490248752966
 20
0.1864740913909507
 10
0.1858891401835934
 20
0.1866274622225598
 10
0.1861037532679248
 20
0.1869341984753005
 10
0.1871155016435015
 20
0.1874863269765189
 10
0.1874834090545596
 20
0.1880384554777382
 10
0.1875753863352048
 20
0.1885599092715878
 10
0.1875753863352048
 20
0.1897255102782868
 10
0.1868395698015652
 20
0.1900322492362661
 10
0.1863183663522563
 20
0.1898788811098958
 10
0.1861957305485709
 20
0.1896028168592861
 10
0.186563637959628
 20
0.189173384482307
 10
0.1866249567172329
 20
0.188774624107458
 10
0.1861650720255297
 20
0.1881611488967388
 10
0.1857051856223022
 20
0.1877010418123891
 10
0.1850920066038724
 20
0.1875169989786499
 10
0.1843868485932731
 20
0.1875476736860188
 10
0.1834977377329061
 20
0.1876090203955195
 10
0.1830685115642432
 20
0.1879771060629988
 10
0.1825473081149351
 20
0.1885599092715878
 10
0.182087423423231
 20
0.1886212559810877
 10
0.1816275370200044
 20
0.1889586669411972
 10
0.1809223807209286
 20
0.1897561849856565
 10
0.1797879965416664
 20
0.190093595945766
  0
LWPOLYLINE
  5
102
330
2
100
AcDbEntity
  8
Profilo
  6
Continuous
370
     0
100
AcDbPolyline
 90
        2
 70
   128
 43
0.0
 10
0.1881306371243696
 20
0.183945117454836
 10
0.1865497249839241
 20
0.1836750750667017
  0
LWPOLYLINE
  5
103
330
2
100
AcDbEntity
  8
Profilo
  6
Continuous
370
     0
100
AcDbPolyline
 90
        2
 70
   128
 43
0.0
 10
0.1833493434983728
 20
0.1826720643468297
 10
0.1787608444532911
 20
0.1874942343907214
  0
LWPOLYLINE
  5
104
330
2
100
AcDbEntity
  8
Profilo
  6
Continuous
370
     0
100
AcDbPolyline
 90
        3
 70
   128
 43
0.0
 10
0.1826552847186076
 20
0.1812061249781148
 10
0.1827324025509729
 20
0.1793544103827459
 10
0.1825010490538761
 20
0.1780042038525517
  0
LWPOLYLINE
  5
105
330
2
100
AcDbEntity
  8
Profilo
  6
Continuous
370
     0
100
AcDbPolyline
 90
        3
 70
   128
 43
0.0
 10
0.1820769026873894
 20
0.1793929870938399
 10
0.18119004932671
 20
0.1786214420510083
 10
0.180187520929006
 20
0.177811317591844
  0
LWPOLYLINE
  5
106
330
2
100
AcDbEntity
  8
Profilo
  6
Continuous
370
     0
100
AcDbPolyline
 90
        7
 70
   128
 43
0.0
 10
0.1784201399990357
 20
0.1819042877022138
 10
0.1762079819965703
 20
0.1792069234464119
 10
0.1753784236014078
 20
0.1778236588931067
 10
0.1742032144486576
 20
0.176094580906715
 10
0.1733736560534951
 20
0.1745729893570308
 10
0.1728206165528781
 20
0.1735355409420517
 10
0.1721984469007449
 20
0.1722906033851256
  0
LWPOLYLINE
  5
107
330
2
100
AcDbEntity
  8
Profilo
  6
Continuous
370
     0
100
AcDbPolyline
 90
        6
 70
   128
 43
0.0
 10
0.1777288419069081
 20
0.1832875522555189
 10
0.1753784236014078
 20
0.1801752070105825
 10
0.1736501749480415
 20
0.1777544967475378
 10
0.1724058356437734
 20
0.1756795999175796
 10
0.1713688867940581
 20
0.1740196840767568
 10
0.1710923678995118
 20
0.1733280518001038
  0
LWPOLYLINE
  5
108
330
2
100
AcDbEntity
  8
Profilo
  6
Continuous
370
     0
100
AcDbPolyline
 90
        5
 70
   128
 43
0.0
 10
0.1765536327541579
 20
0.1841866736741199
 10
0.1740649541456227
 20
0.180936004138044
 10
0.1726132260983262
 20
0.17844612902419
 10
0.1710923678995118
 20
0.1760254160559057
 10
0.1698480285952446
 20
0.1737430327892392
  0
LWPOLYLINE
  5
109
330
2
100
AcDbEntity
  8
Profilo
  6
Continuous
370
     0
100
AcDbPolyline
 90
        4
 70
   128
 43
0.0
 10
0.1920387370598916
 20
0.1949761306973258
 10
0.1882365907070949
 20
0.1927629068709903
 10
0.1854713932040124
 20
0.1909646640337893
 10
0.1829827163070015
 20
0.1889589320546404
  0
LWPOLYLINE
  5
10A
330
2
100
AcDbEntity
  8
Profilo
  6
Continuous
370
     0
100
AcDbPolyline
 90
        4
 70
   128
 43
0.0
 10
0.19252264640899
 20
0.1935928661440206
 10
0.1905178788610773
 20
0.1924170934379029
 10
0.1883057208586119
 20
0.1911029910301675
 10
0.1872687720088966
 20
0.1902730344623759
  0
LWPOLYLINE
  5
10B
330
2
100
AcDbEntity
  8
Profilo
  6
Continuous
370
     0
100
AcDbPolyline
 90
        2
 70
   128
 43
0.0
 10
0.1860244327046294
 20
0.1894430751893447
 10
0.1840196651567159
 20
0.1879214863449
  0
LWPOLYLINE
  5
10C
330
2
100
AcDbEntity
  8
Profilo
  6
Continuous
370
     0
100
AcDbPolyline
 90
        5
 70
   128
 43
0.0
 10
0.1916930880138274
 20
0.1966360465381486
 10
0.1884439811616467
 20
0.1946994767045694
 10
0.1858170439616
 20
0.1929012338673685
 10
0.183881404853681
 20
0.1911721558809759
 10
0.1819457674572862
 20
0.1896505643312926
  0
LWPOLYLINE
  5
10D
330
2
100
AcDbEntity
  8
Profilo
  6
Continuous
370
     0
100
AcDbPolyline
 90
       14
 70
   128
 43
0.0
 10
0.1948400428599337
 20
0.1089041621678411
 10
0.1902194131369728
 20
0.1111245508875122
 10
0.1834661865370057
 20
0.1151212495560058
 10
0.1792009900777531
 20
0.1181409780093755
 10
0.1786678388295722
 20
0.1188515033581229
 10
0.1786678388295722
 20
0.1196508430918216
 10
0.1780458312943935
 20
0.1195620269953469
 10
0.1771572494877438
 20
0.1200061057661953
 10
0.1762686649758554
 20
0.1210718920777939
 10
0.1740472091066112
 20
0.1240028044346889
 10
0.1715591789658968
 20
0.1272889794659576
 10
0.1686268565692377
 20
0.1322626500610985
 10
0.1671162645221706
 20
0.1352823785144682
 10
0.1665831159792293
 20
0.1369698740783404
  0
LWPOLYLINE
  5
10E
330
2
100
AcDbEntity
  8
Profilo
  6
Continuous
370
     0
100
AcDbPolyline
 90
      208
 70
   128
 43
0.0
 10
0.1799447090300996
 20
0.1179071701873727
 10
0.1815397424137786
 20
0.1178151929067276
 10
0.1820918709149979
 20
0.1184896923942856
 10
0.1824906312898469
 20
0.1188882583283849
 10
0.1830427570858266
 20
0.1193481447316124
 10
0.1836255602944157
 20
0.1199306652270019
 10
0.1841470140882653
 20
0.1200839595537285
 10
0.1849138574253548
 20
0.1200839595537285
 10
0.1857727221793139
 20
0.1201452783113334
 10
0.1862021545562931
 20
0.1201146197882922
 10
0.1865702402237723
 20
0.1198080294233156
 10
0.1867542830575124
 20
0.1192868259740066
 10
0.1867236083501427
 20
0.1187962810477389
 10
0.1872143901418612
 20
0.118459032159722
 10
0.1878278653525813
 20
0.1187962810477389
 10
0.1877665159378419
 20
0.1195934163389841
 10
0.1876131478114715
 20
0.1200533010306873
 10
0.1871223687249917
 20
0.1206664817606414
 10
0.1865702402237723
 20
0.1210650494062641
 10
0.1863248506805333
 20
0.1212183437329907
 10
0.1861408078467932
 20
0.1218315244629448
 10
0.1854659859265741
 20
0.1219541602666302
 10
0.184944529427485
 20
0.1221381148279214
 10
0.184944529427485
 20
0.1225979995196255
 10
0.1853126150949651
 20
0.1226899768002706
 10
0.1858647435961835
 20
0.1228739296500375
 10
0.1862328292636637
 20
0.1228739296500375
 10
0.1867849550596434
 20
0.1221687733509617
 10
0.1872450621439923
 20
0.1215862511440487
 10
0.1876438225188421
 20
0.1210343891716995
 10
0.1881652763126909
 20
0.1203292328726236
 10
0.1889014449424107
 20
0.1198080294233156
 10
0.1896682909847388
 20
0.1193481447316124
 10
0.1903431129049588
 20
0.1193481447316124
 10
0.1910486095325476
 20
0.1192868259740066
 10
0.1911406309494172
 20
0.1199919839846067
 10
0.1906805238650684
 20
0.1207277988067229
 10
0.1902510914880893
 20
0.1214022982942818
 10
0.1899750272374796
 20
0.1219541602666302
 10
0.1893308773193907
 20
0.1228739296500375
 10
0.1893615520267595
 20
0.1232724972956601
 10
0.1898523311132394
 20
0.123088542734369
 10
0.1904351343218285
 20
0.1225673409965843
 10
0.1908645666988076
 20
0.1220767960703165
 10
0.1911406309494172
 20
0.1218008642283802
 10
0.1914166952000269
 20
0.1213716380597173
 10
0.1913860204926581
 20
0.1207584590412866
 10
0.1914780419095277
 20
0.1198693464693971
 10
0.1919381489938765
 20
0.1196240748620244
 10
0.1924596027877261
 20
0.1198080294233156
 10
0.1927356643330962
 20
0.1201146197882922
 10
0.1931650994153158
 20
0.1198386879463559
 10
0.1933184675416852
 20
0.1194401203007332
 10
0.1936558785017948
 20
0.1190415543666349
 10
0.1944227218388843
 20
0.118459032159722
 10
0.1949441756327339
 20
0.1181524417947445
 10
0.1956496722603227
 20
0.1181217832717042
 10
0.1960791046373027
 20
0.1181524417947445
 10
0.1964778650121517
 20
0.118612328197972
 10
0.1964778650121517
 20
0.1192868259740066
 10
0.1960791046373027
 20
0.1195934163389841
 10
0.1957110189698235
 20
0.1194401203007332
 10
0.1954349574244525
 20
0.1191335316472809
 10
0.1950361970496044
 20
0.1191335316472809
 10
0.1943920498367542
 20
0.1197467106657107
 10
0.1941466575882746
 20
0.1202372555919785
 10
0.1937478999186653
 20
0.1206664817606414
 10
0.1935638570849252
 20
0.1210037306486592
 10
0.1935331823775555
 20
0.121494275574927
 10
0.1931037500005754
 20
0.1221381148279214
 10
0.1923369066634868
 20
0.1221381148279214
 10
0.1919381489938765
 20
0.1221381148279214
 10
0.1913553457852875
 20
0.122812612603956
 10
0.1909259134083083
 20
0.123180520015015
 10
0.1918767995791371
 20
0.1234564518569513
 10
0.192704992330966
 20
0.1240389723523408
 10
0.1927356643330962
 20
0.1248667661666264
 10
0.1926436456214653
 20
0.1255412639426611
 10
0.1921528638297467
 20
0.1251426980085618
 10
0.1910179348251779
 20
0.125081379250957
 10
0.18902414106665
 20
0.1254492866620159
 10
0.1876744945209723
 20
0.1254186281389747
 10
0.1865395655164035
 20
0.1252040150546433
 10
0.1857727221793139
 20
0.1246214945592537
 10
0.185097900259094
 20
0.1241922683905908
 10
0.1849138574253548
 20
0.1247441303629401
 10
0.1857420474719442
 20
0.1256638997463474
 10
0.1861101331394235
 20
0.1260931259150103
 10
0.1869689978933826
 20
0.1260931259150103
 10
0.1878585373547115
 20
0.1263383992339054
 10
0.1881652763126909
 20
0.1269822384869007
 10
0.1882572977295605
 20
0.1276873947859757
 10
0.1885026872728004
 20
0.1280859624315983
 10
0.1888707729402805
 20
0.1285151886002612
 10
0.188625380691801
 20
0.1289750732919653
 10
0.1881346016053211
 20
0.1294656182182331
 10
0.1877358439357117
 20
0.129649571068
 10
0.1871530407271227
 20
0.1294349579836685
 10
0.1870303473081221
 20
0.1290057318150056
 10
0.1869383258912525
 20
0.1287911187306742
 10
0.1865088935142725
 20
0.1287298016845927
 10
0.185956765013054
 20
0.1287298016845927
 10
0.1856500260550737
 20
0.1286071658809064
 10
0.1854046365118347
 20
0.1281472794776798
 10
0.1852819430928341
 20
0.1277487135435805
 10
0.1852819430928341
 20
0.1271968515712313
 10
0.1852512683854643
 20
0.1268902612062547
 10
0.185097900259094
 20
0.1264610350375918
 10
0.1846377931747452
 20
0.125970490111324
 10
0.1842390355051349
 20
0.1255106054196208
 10
0.1839322965471555
 20
0.1253266508583296
 10
0.1833801680459361
 20
0.1253573110928942
 10
0.1830427570858266
 20
0.1254186281389747
 10
0.1836255602944157
 20
0.1263997162799869
 10
0.1841163393808955
 20
0.1273808044209991
 10
0.1844230756336354
 20
0.1282392567583249
 10
0.1848525107158541
 20
0.1298641841523315
 10
0.1846377931747452
 20
0.1313358172196114
 10
0.184024317964026
 20
0.1322862468375833
 10
0.1835642108796762
 20
0.1328687673329728
 10
0.1833794078737194
 20
0.1331221566969892
 10
0.1830113222062402
 20
0.1325702947246409
 10
0.182888626082
 20
0.1318038196679602
 10
0.1828579540798698
 20
0.1313745934992972
 10
0.1825205431197603
 20
0.1312519576956109
 10
0.1821831321596508
 20
0.1318651367140416
 10
0.1818150464921715
 20
0.1322023873135819
 10
0.1817843717848018
 20
0.1327542492859312
 10
0.1816616756605616
 20
0.1333367697813216
 10
0.1812015712814514
 20
0.1339499505112748
 10
0.1806801174876027
 20
0.1340725863149611
 10
0.1801279889863834
 20
0.1340725863149611
 10
0.1794531670661643
 20
0.1341032448380014
 10
0.1792077775229235
 20
0.1340419277919208
 10
0.1787169957312049
 20
0.1345324710066643
 10
0.1784102594784651
 20
0.1349616971753272
 10
0.1783182380615946
 20
0.135544219382241
 10
0.1785022808953347
 20
0.1357588324665725
 10
0.1789623852744449
 20
0.1356668551859265
 10
0.1792691242324242
 20
0.1360960813545903
 10
0.1786556490217042
 20
0.1365866245693338
 10
0.1781341952278554
 20
0.1366172848038983
 10
0.1775820667266361
 20
0.1362187171582757
 10
0.1775513920192664
 20
0.1356668551859265
 10
0.1777661095603762
 20
0.1345631295297055
 10
0.1781648672299856
 20
0.1341645635956062
 10
0.1787169957312049
 20
0.1337659959499836
 10
0.1789623852744449
 20
0.1335513828656522
 10
0.1789930599818146
 20
0.132938202135699
 10
0.1791157561060539
 20
0.1324783174439948
 10
0.1796372098999035
 20
0.1320490912753319
 10
0.1801893356958832
 20
0.1319877742292513
 10
0.1808028109066024
 20
0.1319571139946868
 10
0.1814469608246914
 20
0.1317425009103553
 10
0.1819377399111712
 20
0.1310680031343198
 10
0.1823978469955201
 20
0.1305467996850117
 10
0.1827045859535004
 20
0.1298109831513722
 10
0.1826125645366299
 20
0.1295657115439995
 10
0.1818457184943016
 20
0.1301482320393891
 10
0.1811708965740817
 20
0.1303321866006802
 10
0.1803427065274923
 20
0.1307920712923835
 10
0.1796678819020336
 20
0.1307920712923835
 10
0.1791771028155547
 20
0.1307920712923835
 10
0.1786863210238352
 20
0.1310680031343198
 10
0.1781341952278554
 20
0.1319264554716465
 10
0.1776740881435057
 20
0.1314359105453778
 10
0.1778581309772458
 20
0.1306387769656568
 10
0.1782568886468561
 20
0.1300869149933076
 10
0.1790850813986842
 20
0.1294124172172729
 10
0.179821250028404
 20
0.1290751666177318
 10
0.1806187680728633
 20
0.1288298950103591
 10
0.1813856141151915
 20
0.1284006688416971
 10
0.181968414618541
 20
0.1280634199536793
 10
0.1823671722881512
 20
0.1276341937850164
 10
0.1824898684123906
 20
0.1269290357744172
 10
0.1823978469955201
 20
0.1260399249140501
 10
0.1823671722881512
 20
0.1256720175029921
 10
0.1820911107427803
 20
0.1257946533066784
 10
0.1819990893259107
 20
0.1253960856610558
 10
0.1818150464921715
 20
0.1245069748006887
 10
0.1814469608246914
 20
0.1243536787624387
 10
0.1809868537403425
 20
0.1248442236887065
 10
0.1809255070308418
 20
0.1255187214647421
 10
0.1809255070308418
 20
0.1265611283633582
 10
0.1807414641971026
 20
0.1272969448969986
 10
0.1802506851106227
 20
0.1275728750274115
 10
0.1800973142790136
 20
0.1271129903357074
 10
0.179790578026273
 20
0.1273276034200389
 10
0.1792384495250545
 20
0.1283393517956156
 10
0.1786863210238352
 20
0.1287072592066737
 10
0.1781648672299856
 20
0.1287992364873188
 10
0.1769992662232866
 20
0.1287992364873188
 10
0.1766925272653073
 20
0.1280634199536793
 10
0.1768458953916776
 20
0.1275422165043704
 10
0.1771219596422873
 20
0.1274195807006849
 10
0.1775513920192664
 20
0.127787488111743
 10
0.1779501523941154
 20
0.1278488068693478
 10
0.1785636276048346
 20
0.1273889221776437
 10
0.1790237346891834
 20
0.1269290357744172
 10
0.1792077775229235
 20
0.1263158567559864
 10
0.1791771028155547
 20
0.1256106987453872
 10
0.1791157561060539
 20
0.1247215878850202
 10
0.1787476704385746
 20
0.1242923617163582
 10
0.1781648672299856
 20
0.1237711582670492
 10
0.1781035205204857
 20
0.1233112735753451
 10
0.1777661095603762
 20
0.1228513871721185
 10
0.1769685915159169
 20
0.1221462308730427
 10
0.1766311805558074
 20
0.1210118466937805
  0
LWPOLYLINE
  5
10F
330
2
100
AcDbEntity
  8
Profilo
  6
Continuous
370
     0
100
AcDbPolyline
 90
        2
 70
   128
 43
0.0
 10
0.1827796590467374
 20
0.1293544872764837
 10
0.1830497014348718
 20
0.1277735751360381
  0
LWPOLYLINE
  5
110
330
2
100
AcDbEntity
  8
Profilo
  6
Continuous
370
     0
100
AcDbPolyline
 90
        2
 70
   128
 43
0.0
 10
0.1840527121547437
 20
0.1245731936504878
 10
0.179230542110852
 20
0.1199846946054052
  0
LWPOLYLINE
  5
111
330
2
100
AcDbEntity
  8
Profilo
  6
Continuous
370
     0
100
AcDbPolyline
 90
        3
 70
   128
 43
0.0
 10
0.1855186515234586
 20
0.1238791348707217
 10
0.1873703661188275
 20
0.123956252703087
 10
0.1887205726490218
 20
0.1237248992059902
  0
LWPOLYLINE
  5
112
330
2
100
AcDbEntity
  8
Profilo
  6
Continuous
370
     0
100
AcDbPolyline
 90
        3
 70
   128
 43
0.0
 10
0.1873317894077335
 20
0.1233007528395044
 10
0.1881033344505651
 20
0.1224138994788241
 10
0.1889134589097294
 20
0.1214113710811201
  0
LWPOLYLINE
  5
113
330
2
100
AcDbEntity
  8
Profilo
  6
Continuous
370
     0
100
AcDbPolyline
 90
        7
 70
   128
 43
0.0
 10
0.1848204887993596
 20
0.1196439901511498
 10
0.1875178530551615
 20
0.1174318321486844
 10
0.1889011176084667
 20
0.1166022737535218
 10
0.1906301955948584
 20
0.1154270646007717
 10
0.1921517871445417
 20
0.1145975062056092
 10
0.1931892355595217
 20
0.114044466704993
 10
0.1944341731164478
 20
0.113422297052859
  0
LWPOLYLINE
  5
114
330
2
100
AcDbEntity
  8
Profilo
  6
Continuous
370
     0
100
AcDbPolyline
 90
        6
 70
   128
 43
0.0
 10
0.1834372242460545
 20
0.1189526920590221
 10
0.1865495694909909
 20
0.1166022737535218
 10
0.1889702797540356
 20
0.1148740251001555
 10
0.1910451765839938
 20
0.1136296857958875
 10
0.1927050924248165
 20
0.1125927369461722
 10
0.1933967247014696
 20
0.1123162180516267
  0
LWPOLYLINE
  5
115
330
2
100
AcDbEntity
  8
Profilo
  6
Continuous
370
     0
100
AcDbPolyline
 90
        5
 70
   128
 43
0.0
 10
0.1825381028274535
 20
0.117777482906272
 10
0.1857887723635294
 20
0.1152888042977368
 10
0.1882786474773834
 20
0.1138370762504403
 10
0.1906993604456677
 20
0.1123162180516267
 10
0.1929817437123342
 20
0.1110718787473587
  0
LWPOLYLINE
  5
116
330
2
100
AcDbEntity
  8
Profilo
  6
Continuous
370
     0
100
AcDbPolyline
 90
        4
 70
   128
 43
0.0
 10
0.1717486458042476
 20
0.1332625872120058
 10
0.1739618696305831
 20
0.1294604408592089
 10
0.1757601124677841
 20
0.1266952433561274
 10
0.177765844446933
 20
0.1242065664591155
  0
LWPOLYLINE
  5
117
330
2
100
AcDbEntity
  8
Profilo
  6
Continuous
370
     0
100
AcDbPolyline
 90
        4
 70
   128
 43
0.0
 10
0.1731319103575519
 20
0.133746496561104
 10
0.1743076830636705
 20
0.1317417290131914
 10
0.1756217854714059
 20
0.1295295710107259
 10
0.1764517420391976
 20
0.1284926221610106
  0
LWPOLYLINE
  5
118
330
2
100
AcDbEntity
  8
Profilo
  6
Continuous
370
     0
100
AcDbPolyline
 90
        2
 70
   128
 43
0.0
 10
0.1772817013122288
 20
0.1272482828567435
 10
0.1788032901566734
 20
0.1252435153088308
  0
LWPOLYLINE
  5
119
330
2
100
AcDbEntity
  8
Profilo
  6
Continuous
370
     0
100
AcDbPolyline
 90
        5
 70
   128
 43
0.0
 10
0.1700887299634248
 20
0.1329169381659415
 10
0.1720252997970031
 20
0.1296678313137617
 10
0.173823542634205
 20
0.127040894113715
 10
0.1755526206205975
 20
0.1251052550057959
 10
0.1770742121702808
 20
0.1231696176094003
  0
LWPOLYLINE
  5
11A
330
2
100
AcDbEntity
  8
Profilo
  6
Continuous
370
     0
100
AcDbPolyline
 90
       14
 70
   128
 43
0.0
 10
0.2578206143337323
 20
0.1360638930120478
 10
0.2556002256140613
 20
0.1314432632890877
 10
0.2516035269455676
 20
0.1246900366891198
 10
0.2485837984921979
 20
0.1204248402298672
 10
0.2478732731434505
 20
0.1198916889816862
 10
0.2470739334097518
 20
0.1198916889816862
 10
0.2471627495062265
 20
0.1192696814465076
 10
0.2467186707353781
 20
0.1183810996398579
 10
0.2456528844237795
 20
0.1174925151279694
 10
0.2427219720668845
 20
0.1152710592587262
 10
0.2394357970356158
 20
0.1127830291180117
 10
0.2344621264404749
 20
0.1098507067213518
 10
0.2314423979871052
 20
0.1083401146742856
 10
0.229754902423233
 20
0.1078069661313433
  0
LWPOLYLINE
  5
11B
330
2
100
AcDbEntity
  8
Profilo
  6
Continuous
370
     0
100
AcDbPolyline
 90
      208
 70
   128
 43
0.0
 10
0.2488176063142007
 20
0.1211685591822137
 10
0.2489095835948458
 20
0.1227635925658926
 10
0.2482350841072878
 20
0.123315721067112
 10
0.2478365181731885
 20
0.1237144814419609
 10
0.2473766317699619
 20
0.1242666072379407
 10
0.2467941112745715
 20
0.1248494104465306
 10
0.2466408169478449
 20
0.1253708642403793
 10
0.2466408169478449
 20
0.1261377075774689
 10
0.24657949819024
 20
0.126996572331428
 10
0.2466101567132812
 20
0.1274260047084071
 10
0.2469167470782578
 20
0.1277940903758873
 10
0.2474379505275659
 20
0.1279781332096265
 10
0.2479284954538345
 20
0.1279474585022576
 10
0.2482657443418514
 20
0.1284382402939762
 10
0.2479284954538345
 20
0.1290517155046954
 10
0.2471313601625893
 20
0.1289903660899559
 10
0.2466714754708861
 20
0.1288369979635856
 10
0.246058294740932
 20
0.1283462188771057
 10
0.2456597270953094
 20
0.1277940903758873
 10
0.2455064327685827
 20
0.1275487008326473
 10
0.2448932520386287
 20
0.1273646579989073
 10
0.2447706162349432
 20
0.1266898360786882
 10
0.2445866616736521
 20
0.126168379579599
 10
0.244126776981948
 20
0.126168379579599
 10
0.2440347997013028
 20
0.1265364652470792
 10
0.2438508468515359
 20
0.1270885937482976
 10
0.2438508468515359
 20
0.1274566794157778
 10
0.2445560031506118
 20
0.1280088052117575
 10
0.2451385253575247
 20
0.1284689122961063
 10
0.2456903873298739
 20
0.1288676726709562
 10
0.2463955436289498
 20
0.1293891264648049
 10
0.2469167470782578
 20
0.1301252950945247
 10
0.2473766317699619
 20
0.130892141136853
 10
0.2473766317699619
 20
0.1315669630570729
 10
0.2474379505275659
 20
0.1322724596846617
 10
0.2467327925169667
 20
0.1323644811015322
 10
0.2459969776948505
 20
0.1319043740171825
 10
0.2453224782072916
 20
0.1314749416402033
 10
0.2447706162349432
 20
0.1311988773895937
 10
0.2438508468515359
 20
0.1305547274715048
 10
0.2434522792059133
 20
0.1305854021788745
 10
0.2436362337672044
 20
0.1310761812653535
 10
0.2441574355049891
 20
0.1316589844739425
 10
0.2446479804312569
 20
0.1320884168509225
 10
0.2449239122731932
 20
0.1323644811015322
 10
0.2453531384418561
 20
0.1326405453521419
 10
0.2459663174602868
 20
0.1326098706447721
 10
0.2468554300321764
 20
0.1327018920616417
 10
0.247100701639549
 20
0.1331619991459906
 10
0.2469167470782578
 20
0.1336834529398402
 10
0.2466101567132812
 20
0.1339595144852111
 10
0.2468860885552175
 20
0.1343889495674299
 10
0.2472846562008402
 20
0.1345423176937993
 10
0.2476832221349385
 20
0.1348797286539097
 10
0.2482657443418514
 20
0.1356465719909984
 10
0.2485723347068289
 20
0.136168025784848
 10
0.2486029932298692
 20
0.1368735224124377
 10
0.2485723347068289
 20
0.1373029547894168
 10
0.2481124483036015
 20
0.1377017151642658
 10
0.2474379505275668
 20
0.1377017151642658
 10
0.2471313601625893
 20
0.1373029547894168
 10
0.2472846562008402
 20
0.1369348691219375
 10
0.2475912448542925
 20
0.1366588075765674
 10
0.2475912448542925
 20
0.1362600472017185
 10
0.2469780658358627
 20
0.1356158999888682
 10
0.2464875209095949
 20
0.1353705077403896
 10
0.246058294740932
 20
0.1349717500707793
 10
0.2457210458529142
 20
0.1347877072370401
 10
0.2452305009266464
 20
0.1347570325296695
 10
0.2445866616736521
 20
0.1343276001526904
 10
0.2445866616736521
 20
0.1335607568156009
 10
0.2445866616736521
 20
0.1331619991459906
 10
0.2439121638976174
 20
0.1325791959374015
 10
0.2435442564865584
 20
0.1321497635604224
 10
0.2432683246446221
 20
0.133100649731252
 10
0.2426858041492326
 20
0.1339288424830801
 10
0.241858010334947
 20
0.1339595144852111
 10
0.2411835125589123
 20
0.1338674957735803
 10
0.2415820784930116
 20
0.1333767139818617
 10
0.2416433972506164
 20
0.132241784977292
 10
0.2412754898395575
 20
0.1302479912187641
 10
0.2413061483625987
 20
0.1288983446730864
 10
0.2415207614469301
 20
0.1277634156685176
 10
0.2421032819423197
 20
0.126996572331428
 10
0.2425325081109826
 20
0.1263217504112081
 10
0.2419806461386333
 20
0.1261377075774689
 10
0.241060876755226
 20
0.1269658976240583
 10
0.2406316505865631
 20
0.1273339832915376
 10
0.2406316505865631
 20
0.1281928480454967
 10
0.240386377267668
 20
0.1290823875068264
 10
0.2397425380146727
 20
0.1293891264648049
 10
0.2390373817155977
 20
0.1294811478816745
 10
0.2386388140699751
 20
0.1297265374249153
 10
0.2382095879013122
 20
0.1300946230923946
 10
0.2377497032096081
 20
0.1298492308439151
 10
0.2372591582833403
 20
0.1293584517574361
 10
0.2370752054335734
 20
0.1289596940878258
 10
0.2372898185179049
 20
0.1283768908792368
 10
0.2377190446865678
 20
0.1282541974602361
 10
0.2379336577708992
 20
0.1281621760433665
 10
0.2379949748169807
 20
0.1277327436663865
 10
0.2379949748169807
 20
0.1271806151651681
 10
0.238117610620667
 20
0.1268738762071887
 10
0.2385774970238936
 20
0.1266284866639488
 10
0.2389760629579929
 20
0.1265057932449481
 10
0.2395279249303421
 20
0.1265057932449481
 10
0.2398345152953187
 20
0.1264751185375784
 10
0.2402637414639817
 20
0.1263217504112081
 10
0.2407542863902494
 20
0.1258616433268592
 10
0.2412141710819526
 20
0.1254628856572489
 10
0.2413981256432438
 20
0.1251561466992704
 10
0.2413674654086793
 20
0.1246040181980511
 10
0.2413061483625987
 20
0.1242666072379407
 10
0.2403250602215865
 20
0.1248494104465306
 10
0.2393439720805743
 20
0.1253401895330096
 10
0.2384855197432485
 20
0.1256469257857494
 10
0.2368605923492419
 20
0.126076360867969
 10
0.235388959281962
 20
0.1258616433268592
 10
0.2344385296639901
 20
0.12524816811614
 10
0.2338560091686006
 20
0.1247880610317912
 10
0.2336026198045842
 20
0.1246032580258335
 10
0.2341544817769325
 20
0.1242351723583542
 10
0.2349209568336132
 20
0.1241124762341149
 10
0.2353501830022762
 20
0.1240818042319848
 10
0.2354728188059625
 20
0.1237443932718744
 10
0.2348596397875318
 20
0.1234069823117648
 10
0.2345223891879915
 20
0.1230388966442856
 10
0.2339705272156423
 20
0.1230082219369158
 10
0.2333880067202527
 20
0.1228855258126765
 10
0.2327748259902986
 20
0.1224254214335655
 10
0.2326521901866123
 20
0.1219039676397168
 10
0.2326521901866123
 20
0.1213518391384974
 10
0.232621531663572
 20
0.1206770172182784
 10
0.2326828487096526
 20
0.1204316276750384
 10
0.2321923054949091
 20
0.119940845883319
 10
0.2317630793262462
 20
0.1196341096305792
 10
0.2311805571193324
 20
0.1195420882137087
 10
0.2309659440350009
 20
0.1197261310474488
 10
0.2310579213156469
 20
0.1201862354265589
 10
0.2306286951469831
 20
0.1204929743845383
 10
0.2301381519322396
 20
0.1198794991738191
 10
0.2301074916976751
 20
0.1193580453799695
 10
0.2305060593432977
 20
0.1188059168787502
 10
0.2310579213156469
 20
0.1187752421713805
 10
0.2321616469718679
 20
0.1189899597124903
 10
0.2325602129059672
 20
0.1193887173820997
 10
0.2329587805515898
 20
0.119940845883319
 10
0.2331733936359213
 20
0.1201862354265589
 10
0.2337865743658745
 20
0.1202169101339287
 10
0.2342464590575786
 20
0.120339606258168
 10
0.2346756852262415
 20
0.1208610600520176
 10
0.2347370022723221
 20
0.1214131858479973
 10
0.2347676625068866
 20
0.1220266610587174
 10
0.2349822755912181
 20
0.1226708109768063
 10
0.2356567733672537
 20
0.1231615900632862
 10
0.2361779768165617
 20
0.123621697147635
 10
0.2369137933502012
 20
0.1239284361056144
 10
0.2371590649575739
 20
0.123836414688744
 10
0.2365765444621843
 20
0.1230695686464157
 10
0.2363925899008932
 20
0.1223947467261967
 10
0.23593270520919
 20
0.1215665566796064
 10
0.23593270520919
 20
0.1208917320541486
 10
0.23593270520919
 20
0.1204009529676687
 10
0.2356567733672537
 20
0.1199101711759493
 10
0.2347983210299269
 20
0.1193580453799695
 10
0.2352888659561956
 20
0.1188979382956198
 10
0.2360859995359166
 20
0.1190819811293599
 10
0.2366378615082658
 20
0.1194807387989701
 10
0.2373123592843005
 20
0.1203089315507982
 10
0.2376496098838416
 20
0.1210451001805181
 10
0.2378948814912143
 20
0.1218426182249773
 10
0.2383241076598763
 20
0.1226094642673056
 10
0.2386613565478941
 20
0.123192264770655
 10
0.239090582716557
 20
0.1235910224402653
 10
0.2397957407271563
 20
0.1237137185645046
 10
0.2406848515875233
 20
0.123621697147635
 10
0.2410527589985814
 20
0.1235910224402653
 10
0.240930123194895
 20
0.1233149608948952
 10
0.2413286908405177
 20
0.1232229394780256
 10
0.2422178017008847
 20
0.1230388966442856
 10
0.2423710977391347
 20
0.1226708109768063
 10
0.2418805528128669
 20
0.1222107038924566
 10
0.2412060550368313
 20
0.1221493571829558
 10
0.2401636481382152
 20
0.1221493571829558
 10
0.2394278316045748
 20
0.1219653143492166
 10
0.2391519014741619
 20
0.1214745352627368
 10
0.239611786165866
 20
0.1213211644311277
 10
0.2393971730815345
 20
0.1210144281783879
 10
0.2383854247059578
 20
0.1204622996771686
 10
0.2380175172948997
 20
0.1199101711759493
 10
0.2379255400142546
 20
0.1193887173820997
 10
0.2379255400142546
 20
0.1182231163754007
 10
0.2386613565478941
 20
0.1179163774174213
 10
0.2391825599972031
 20
0.1180697455437917
 10
0.2393051958008885
 20
0.1183458097944013
 10
0.2389372883898304
 20
0.1187752421713805
 10
0.2388759696322256
 20
0.1191740025462294
 10
0.2393358543239297
 20
0.1197874777569486
 10
0.2397957407271563
 20
0.1202475848412984
 10
0.240408919745587
 20
0.1204316276750384
 10
0.2411140777561862
 20
0.1204009529676687
 10
0.2420031886165532
 20
0.120339606258168
 10
0.2424324147852153
 20
0.1199715205906887
 10
0.2429536182345242
 20
0.1193887173820997
 10
0.2434135029262283
 20
0.1193273706725998
 10
0.2438733893294549
 20
0.1189899597124903
 10
0.2445785456285308
 20
0.118192441668031
 10
0.2457129298077929
 20
0.1178550307079215
  0
LWPOLYLINE
  5
11C
330
2
100
AcDbEntity
  8
Profilo
  6
Continuous
370
     0
100
AcDbPolyline
 90
        2
 70
   128
 43
0.0
 10
0.2373702892250897
 20
0.1240035091988515
 10
0.2389512013655353
 20
0.1242735515869858
  0
LWPOLYLINE
  5
11D
330
2
100
AcDbEntity
  8
Profilo
  6
Continuous
370
     0
100
AcDbPolyline
 90
        2
 70
   128
 43
0.0
 10
0.2421515828510856
 20
0.1252765623068578
 10
0.2467400818961682
 20
0.1204543922629661
  0
LWPOLYLINE
  5
11E
330
2
100
AcDbEntity
  8
Profilo
  6
Continuous
370
     0
100
AcDbPolyline
 90
        3
 70
   128
 43
0.0
 10
0.2428456416308518
 20
0.1267425016755727
 10
0.2427685237984865
 20
0.1285942162709416
 10
0.2429998772955832
 20
0.1299444228011358
  0
LWPOLYLINE
  5
11F
330
2
100
AcDbEntity
  8
Profilo
  6
Continuous
370
     0
100
AcDbPolyline
 90
        3
 70
   128
 43
0.0
 10
0.2434240236620691
 20
0.1285556395598476
 10
0.2443108770227493
 20
0.1293271846026801
 10
0.2453134054204533
 20
0.1301373090618435
  0
LWPOLYLINE
  5
120
330
2
100
AcDbEntity
  8
Profilo
  6
Continuous
370
     0
100
AcDbPolyline
 90
        7
 70
   128
 43
0.0
 10
0.2470807863504236
 20
0.1260443389514737
 10
0.2492929443528891
 20
0.1287417032072756
 10
0.2501225027480516
 20
0.1301249677605808
 10
0.2512977119008017
 20
0.1318540457469725
 10
0.2521272702959643
 20
0.1333756372966567
 10
0.2526803097965804
 20
0.1344130857116358
 10
0.2533024794487144
 20
0.1356580232685628
  0
LWPOLYLINE
  5
121
330
2
100
AcDbEntity
  8
Profilo
  6
Continuous
370
     0
100
AcDbPolyline
 90
        6
 70
   128
 43
0.0
 10
0.2477720844425513
 20
0.1246610743981685
 10
0.2501225027480516
 20
0.127773419643105
 10
0.2518507514014179
 20
0.1301941299061505
 10
0.2530950907056859
 20
0.1322690267361078
 10
0.2541320395554012
 20
0.1339289425769307
 10
0.2544085584499476
 20
0.1346205748535837
  0
LWPOLYLINE
  5
122
330
2
100
AcDbEntity
  8
Profilo
  6
Continuous
370
     0
100
AcDbPolyline
 90
        5
 70
   128
 43
0.0
 10
0.2489472935953014
 20
0.1237619529795685
 10
0.2514359722038366
 20
0.1270126225156435
 10
0.2528877002511332
 20
0.1295024976294975
 10
0.2544085584499476
 20
0.1319232105977818
 10
0.2556528977542147
 20
0.1342055938644483
  0
LWPOLYLINE
  5
123
330
2
100
AcDbEntity
  8
Profilo
  6
Continuous
370
     0
100
AcDbPolyline
 90
        4
 70
   128
 43
0.0
 10
0.2334621892895676
 20
0.1129724959563617
 10
0.2372643356423645
 20
0.1151857197826972
 10
0.2400295331454461
 20
0.1169839626198982
 10
0.2425182100424579
 20
0.118989694599048
  0
LWPOLYLINE
  5
124
330
2
100
AcDbEntity
  8
Profilo
  6
Continuous
370
     0
100
AcDbPolyline
 90
        4
 70
   128
 43
0.0
 10
0.2329782799404694
 20
0.1143557605096669
 10
0.2349830474883821
 20
0.1155315332157846
 10
0.2371952054908475
 20
0.1168456356235209
 10
0.2382321543405628
 20
0.1176755921913116
  0
LWPOLYLINE
  5
125
330
2
100
AcDbEntity
  8
Profilo
  6
Continuous
370
     0
100
AcDbPolyline
 90
        2
 70
   128
 43
0.0
 10
0.2394764936448299
 20
0.1185055514643428
 10
0.2414812611927426
 20
0.1200271403087875
  0
LWPOLYLINE
  5
126
330
2
100
AcDbEntity
  8
Profilo
  6
Continuous
370
     0
100
AcDbPolyline
 90
        5
 70
   128
 43
0.0
 10
0.2338078383356319
 20
0.1113125801155389
 10
0.2370569451878117
 20
0.113249149949118
 10
0.2396838823878584
 20
0.115047392786319
 10
0.2416195214957775
 20
0.1167764707727116
 10
0.2435551588921732
 20
0.1182980623223949
  0
LWPOLYLINE
  5
127
330
2
100
AcDbEntity
  8
Profilo
  6
Continuous
370
     0
100
AcDbPolyline
 90
       13
 70
   129
 43
0.0
 10
0.2134686879527881
 20
0.1563684918688816
 10
0.2123246936916365
 20
0.1566420087509565
 10
0.2108923155205258
 20
0.1561647777671172
 10
0.210223872554357
 20
0.1554966571281809
 10
0.210032890782051
 20
0.1537786314055424
 10
0.2101283830208234
 20
0.1522514970495242
 10
0.2110832999980714
 20
0.1514879298715156
 10
0.2126111677027149
 20
0.151106147138273
 10
0.2139480536350533
 20
0.1512970385048943
 10
0.2148074810787677
 20
0.1524423884161455
 10
0.2151894473286184
 20
0.1533014021332274
 10
0.2151894473286184
 20
0.1547330899501723
 10
0.2142345303513713
 20
0.1558784415729469
  0
LWPOLYLINE
  5
128
330
2
100
AcDbEntity
  8
Profilo
  6
Continuous
370
     0
100
AcDbPolyline
 90
       35
 70
   128
 43
0.0
 10
0.2097417908119274
 20
0.1551944414176386
 10
0.2087079944698786
 20
0.1551944414176386
 10
0.2076741981278289
 20
0.1553823136565512
 10
0.2067343845010747
 20
0.1558519951095952
 10
0.20560660814897
 20
0.1564156135378573
 10
0.2054186454236195
 20
0.1570731672298139
 10
0.2055126254336745
 20
0.1576837532899228
 10
0.2060295236046994
 20
0.1582473700066605
 10
0.2066404017857801
 20
0.1584822115889443
 10
0.2073452653873951
 20
0.158529179220792
 10
0.2079561435684749
 20
0.1581064653995957
 10
0.2081910962988538
 20
0.1574489117076391
 10
0.2086610044648502
 20
0.1567443903838356
 10
0.2092248926409035
 20
0.156556518144923
 10
0.2097887808169558
 20
0.1565095488015519
 10
0.2102116989779248
 20
0.156556518144923
 10
0.2103512622686205
 20
0.1570306546940129
 10
0.2102116989779248
 20
0.1574489117076391
 10
0.2097417908119274
 20
0.1579655625040533
 10
0.2092248926409035
 20
0.1583413069818785
 10
0.2087079944698786
 20
0.158529179220792
 10
0.2080501262837695
 20
0.1586700838278568
 10
0.207580218117773
 20
0.1589518930419883
 10
0.2076272081228014
 20
0.1593276375198135
 10
0.2077681808431244
 20
0.1596564143657918
 10
0.2081441062938263
 20
0.1601730634506827
 10
0.2084730417394998
 20
0.1607836495107916
 10
0.2089899399105246
 20
0.1609715217497042
 10
0.2096478108018724
 20
0.1610184910930753
 10
0.2103526716982478
 20
0.1608775864860105
 10
0.2106816071439213
 20
0.1601260958188358
 10
0.2110575325946231
 20
0.1590927976490531
 10
0.2111985026097065
 20
0.1581534347429659
 10
0.211292485325002
 20
0.1571201348616608
 10
0.211292485325002
 20
0.1567443903838356
  0
LWPOLYLINE
  5
129
330
2
100
AcDbEntity
  8
Profilo
  6
Continuous
370
     0
100
AcDbPolyline
 90
       35
 70
   128
 43
0.0
 10
0.2115303350839348
 20
0.1509656409640415
 10
0.2115303350839348
 20
0.1499318446219927
 10
0.2113424628450222
 20
0.148898048279943
 10
0.2108727813919782
 20
0.1479582346531888
 10
0.2103091629637162
 20
0.1468304583010841
 10
0.2096516092717595
 20
0.1466424955757336
 10
0.2090410232116506
 20
0.1467364755857895
 10
0.2084774064949129
 20
0.1472533737568135
 10
0.2082425649126292
 20
0.1478642519378942
 10
0.2081955972807814
 20
0.1485691155395091
 10
0.2086183111019777
 20
0.149179993720589
 10
0.2092758647939343
 20
0.1494149464509687
 10
0.2099803861177378
 20
0.1498848546169652
 10
0.2101682583566504
 20
0.1504487427930176
 10
0.2102152277000215
 20
0.1510126309690699
 10
0.2101682583566504
 20
0.1514355491300389
 10
0.2096941218075605
 20
0.1515751124207346
 10
0.2092758647939343
 20
0.1514355491300389
 10
0.2087592139975201
 20
0.1509656409640415
 10
0.2083834695196949
 20
0.1504487427930176
 10
0.2081955972807814
 20
0.1499318446219927
 10
0.2080546926737166
 20
0.1492739764358845
 10
0.2077728834595851
 20
0.148804068269888
 10
0.2073971389817599
 20
0.1488510582749155
 10
0.2070683621357816
 20
0.1489920309952385
 10
0.2065517130508907
 20
0.1493679564459404
 10
0.2059411269907818
 20
0.1496968918916138
 10
0.2057532547518692
 20
0.1502137900626387
 10
0.2057062854084981
 20
0.1508716609539865
 10
0.2058471900155629
 20
0.1515765218503618
 10
0.2065986806827376
 20
0.1519054572960353
 10
0.2076319788525203
 20
0.1522813827467372
 10
0.2085713417586075
 20
0.1524223527618215
 10
0.2096046416399127
 20
0.1525163354771161
 10
0.2099803861177378
 20
0.1525163354771161
  0
LWPOLYLINE
  5
12A
330
2
100
AcDbEntity
  8
Profilo
  6
Continuous
370
     0
100
AcDbPolyline
 90
       35
 70
   128
 43
0.0
 10
0.215759135537531
 20
0.1527541852360489
 10
0.2167929318795807
 20
0.1527541852360489
 10
0.2178267282216304
 20
0.1525663129971363
 10
0.2187665418483846
 20
0.1520966315440922
 10
0.2198943182004893
 20
0.1515330131158302
 10
0.2200822809258398
 20
0.1508754594238745
 10
0.2199883009157839
 20
0.1502648733637656
 10
0.21947140274476
 20
0.1497012566470269
 10
0.2188605245636792
 20
0.1494664150647432
 10
0.2181556609620643
 20
0.1494194474328964
 10
0.2175447827809844
 20
0.1498421612540927
 10
0.2173098300506047
 20
0.1504997149460484
 10
0.2168399218846082
 20
0.1512042362698528
 10
0.2162760337085559
 20
0.1513921085087654
 10
0.2157121455325035
 20
0.1514390778521356
 10
0.2152892273715345
 20
0.1513921085087654
 10
0.2151496640808388
 20
0.1509179719596755
 10
0.2152892273715345
 20
0.1504997149460484
 10
0.215759135537531
 20
0.1499830641496341
 10
0.2162760337085559
 20
0.1496073196718089
 10
0.2167929318795807
 20
0.1494194474328964
 10
0.2174508000656889
 20
0.1492785428258306
 10
0.2179207082316854
 20
0.1489967336116992
 10
0.2178737182266579
 20
0.148620989133874
 10
0.2177327455063349
 20
0.1482922122878957
 10
0.2173568200556331
 20
0.1477755632030048
 10
0.2170278846099596
 20
0.1471649771428959
 10
0.2165109864389347
 20
0.1469771049039833
 10
0.2158531155475869
 20
0.1469301355606122
 10
0.2151482546512116
 20
0.1470710401676779
 10
0.2148193192055381
 20
0.1478225308348525
 10
0.2144433937548362
 20
0.1488558290046343
 10
0.2143024237397519
 20
0.1497951919107215
 10
0.2142084410244573
 20
0.1508284917920267
 10
0.2142084410244573
 20
0.1512042362698528
  0
LWPOLYLINE
  5
12B
330
2
100
AcDbEntity
  8
Profilo
  6
Continuous
370
     0
100
AcDbPolyline
 90
       35
 70
   128
 43
0.0
 10
0.2139705912655245
 20
0.156982985689646
 10
0.2139705912655245
 20
0.1580167820316948
 10
0.2141584635044371
 20
0.1590505783737445
 10
0.2146281449574812
 20
0.1599903920004987
 10
0.2151917633857432
 20
0.1611181683526034
 10
0.2158493170776989
 20
0.1613061310779539
 10
0.2164599031378087
 20
0.1612121510678989
 10
0.2170235198545465
 20
0.160695252896874
 10
0.2172583614368302
 20
0.1600843747157933
 10
0.2173053290686779
 20
0.1593795111141784
 10
0.2168826152474808
 20
0.1587686329330985
 10
0.216225061555525
 20
0.1585336802027196
 10
0.2155205402317206
 20
0.1580637720367232
 10
0.215332667992808
 20
0.1574998838606699
 10
0.2152856986494378
 20
0.1569359956846176
 10
0.215332667992808
 20
0.1565130775236486
 10
0.2158068045418979
 20
0.1563735142329529
 10
0.216225061555525
 20
0.1565130775236486
 10
0.2167417123519393
 20
0.156982985689646
 10
0.2171174568297645
 20
0.1574998838606699
 10
0.2173053290686779
 20
0.1580167820316948
 10
0.2174462336757428
 20
0.1586746502178039
 10
0.2177280428898742
 20
0.1591445583837995
 10
0.2181037873676994
 20
0.159097568378772
 10
0.2184325642136777
 20
0.158956595658449
 10
0.2189492132985686
 20
0.1585806702077471
 10
0.2195597993586775
 20
0.1582517347620736
 10
0.2197476715975901
 20
0.1577348365910488
 10
0.2197946409409612
 20
0.157076965699701
 10
0.2196537363338955
 20
0.1563721048033256
 10
0.2189022456667209
 20
0.1560431693576522
 10
0.2178689474969391
 20
0.1556672439069503
 10
0.2169295845908519
 20
0.1555262738918669
 10
0.2158962847095467
 20
0.1554322911765714
 10
0.2155205402317206
 20
0.1554322911765714
  0
LWPOLYLINE
  5
12C
330
2
100
AcDbEntity
  8
Profilo
  6
Continuous
370
     0
100
AcDbPolyline
 90
        8
 70
   128
 43
0.0
 10
0.2101756219078583
 20
0.1610447013661641
 10
0.2105017655466705
 20
0.1618922632785414
 10
0.2112518905054597
 20
0.1621530515592727
 10
0.2120998585558926
 20
0.1623812404491515
 10
0.2129478293115643
 20
0.1623812404491515
 10
0.213730568634235
 20
0.1622834456996388
 10
0.2143828532066199
 20
0.1618270662083588
 10
0.215132978165409
 20
0.1611750955065302
  0
LWPOLYLINE
  5
12D
330
2
100
AcDbEntity
  8
Profilo
  6
Continuous
370
     0
100
AcDbPolyline
 90
        5
 70
   128
 43
0.0
 10
0.212328159103061
 20
0.1571002828989106
 10
0.2122955447391794
 20
0.1586324131924458
 10
0.212328159103061
 20
0.1597407616740311
 10
0.212426002194704
 20
0.160653520656591
 10
0.2124912309224662
 20
0.1614684831781149
  0
LWPOLYLINE
  5
12E
330
2
100
AcDbEntity
  8
Profilo
  6
Continuous
370
     0
100
AcDbPolyline
 90
        3
 70
   128
 43
0.0
 10
0.2129804436754459
 20
0.1570676835080572
 10
0.2133065846090185
 20
0.1588280026914711
 10
0.2136327255425912
 20
0.1596755646038476
  0
LWPOLYLINE
  5
12F
330
2
100
AcDbEntity
  8
Profilo
  6
Continuous
370
     0
100
AcDbPolyline
 90
        8
 70
   128
 43
0.0
 10
0.2056800751354093
 20
0.1513994720599724
 10
0.204832513223032
 20
0.1517256156987846
 10
0.2045717249423007
 20
0.1524757406575737
 10
0.2043435360524219
 20
0.1533237087080067
 10
0.2043435360524219
 20
0.1541716794636784
 10
0.2044413308019346
 20
0.1549544187863491
 10
0.2048977102932146
 20
0.1556067033587339
 10
0.2055496809950432
 20
0.1563568283175231
  0
LWPOLYLINE
  5
130
330
2
100
AcDbEntity
  8
Profilo
  6
Continuous
370
     0
100
AcDbPolyline
 90
        5
 70
   128
 43
0.0
 10
0.2096244936026628
 20
0.1535520092551751
 10
0.2080923633091276
 20
0.1535193948912935
 10
0.2069840148275424
 20
0.1535520092551751
 10
0.2060712558449824
 20
0.1536498523468189
 10
0.2052562933234585
 20
0.1537150810745812
  0
LWPOLYLINE
  5
131
330
2
100
AcDbEntity
  8
Profilo
  6
Continuous
370
     0
100
AcDbPolyline
 90
        3
 70
   128
 43
0.0
 10
0.2096570929935162
 20
0.1542042938275599
 10
0.2078967738101023
 20
0.1545304347611326
 10
0.2070492118977258
 20
0.1548565756947061
  0
LWPOLYLINE
  5
132
330
2
100
AcDbEntity
  8
Profilo
  6
Continuous
370
     0
100
AcDbPolyline
 90
        8
 70
   128
 43
0.0
 10
0.215325304441601
 20
0.1469039252875234
 10
0.2149991608027888
 20
0.146056363375146
 10
0.2142490358439997
 20
0.1457955750944148
 10
0.2134010677935667
 20
0.1455673862045369
 10
0.212553097037895
 20
0.1455673862045369
 10
0.2117703577152243
 20
0.1456651809540487
 10
0.2111180731428395
 20
0.1461215604453286
 10
0.2103679481840504
 20
0.1467735311471573
  0
LWPOLYLINE
  5
133
330
2
100
AcDbEntity
  8
Profilo
  6
Continuous
370
     0
100
AcDbPolyline
 90
        5
 70
   128
 43
0.0
 10
0.2131727672463983
 20
0.1508483437547777
 10
0.2132053816102799
 20
0.1493162134612417
 10
0.2131727672463983
 20
0.1482078649796573
 10
0.2130749241547545
 20
0.1472951059970965
 10
0.2130096954269922
 20
0.1464801434755726
  0
LWPOLYLINE
  5
134
330
2
100
AcDbEntity
  8
Profilo
  6
Continuous
370
     0
100
AcDbPolyline
 90
        3
 70
   128
 43
0.0
 10
0.2125204826740135
 20
0.1508809431456303
 10
0.2121943417404408
 20
0.1491206239622172
 10
0.2118682008068673
 20
0.1482730620498399
  0
LWPOLYLINE
  5
135
330
2
100
AcDbEntity
  8
Profilo
  6
Continuous
370
     0
100
AcDbPolyline
 90
        8
 70
   128
 43
0.0
 10
0.21982085121405
 20
0.1565491545937151
 10
0.2206684131264274
 20
0.1562230109549029
 10
0.2209292014071587
 20
0.1554728859961137
 10
0.2211573902970374
 20
0.1546249179456808
 10
0.2211573902970374
 20
0.1537769471900091
 10
0.2210595955475247
 20
0.1529942078673384
 10
0.2206032160562448
 20
0.1523419232949535
 10
0.2199512453544161
 20
0.1515917983361644
  0
LWPOLYLINE
  5
136
330
2
100
AcDbEntity
  8
Profilo
  6
Continuous
370
     0
100
AcDbPolyline
 90
        5
 70
   128
 43
0.0
 10
0.2158764327467966
 20
0.1543966173985124
 10
0.2174085630403317
 20
0.154429231762394
 10
0.218516911521917
 20
0.1543966173985124
 10
0.2194296705044769
 20
0.1542987743068694
 10
0.2202446330260008
 20
0.1542335455791072
  0
LWPOLYLINE
  5
137
330
2
100
AcDbEntity
  8
Profilo
  6
Continuous
370
     0
100
AcDbPolyline
 90
        3
 70
   128
 43
0.0
 10
0.2158438333559431
 20
0.1537443328261275
 10
0.217604152539357
 20
0.1534181918925549
 10
0.2184517144517335
 20
0.1530920509589823
  0
LWPOLYLINE
  5
138
330
2
100
AcDbEntity
  8
Profilo
  6
Continuous
370
     0
100
AcDbPolyline
 90
       11
 70
   128
 43
0.0
 10
0.2063375800141725
 20
0.1593547429197682
 10
0.2040092969538787
 20
0.1611728397183668
 10
0.2018265314157761
 20
0.1627000408238069
 10
0.1999348009220541
 20
0.1644454149827584
 10
0.199425488241767
 20
0.1658998917370272
 10
0.1998620408083396
 20
0.1666271301141625
 10
0.2009534235773904
 20
0.166481683123345
 10
0.2026268791404455
 20
0.1649544820179048
 10
0.2045913670426425
 20
0.1632091078589534
 10
0.2065558576500781
 20
0.1612455640695373
 10
0.2072106851473185
 20
0.1605183256924029
  0
LWPOLYLINE
  5
139
330
2
100
AcDbEntity
  8
Profilo
  6
Continuous
370
     0
100
AcDbPolyline
 90
       38
 70
   128
 43
0.0
 10
0.21164897633724
 20
0.1625545938329894
 10
0.2117944938594303
 20
0.1642999662804175
 10
0.2120127714953368
 20
0.1655362716926983
 10
0.2115034588150488
 20
0.166263511781357
 10
0.2109941461347609
 20
0.1658998917370272
 10
0.2109941461347609
 20
0.1652453777110633
 10
0.2104848334544729
 20
0.1647363089643935
 10
0.209757245843518
 20
0.1647363089643935
 10
0.2079382754635122
 20
0.1654635490530513
 10
0.2068468926944604
 20
0.1663362344210041
 10
0.2067013751722693
 20
0.1679361598776138
 10
0.2067741325807451
 20
0.1693906383434068
 10
0.2067741325807451
 20
0.1708451150976765
 10
0.2067741325807451
 20
0.1719359735191398
 10
0.206046544969791
 20
0.1725177649054576
 10
0.2059737848560756
 20
0.1728813832382622
 10
0.2064103374226491
 20
0.1735358989757504
 10
0.2066286150585548
 20
0.1743358617040552
 10
0.2068468926944604
 20
0.1748449287392016
 10
0.2075017228969396
 20
0.1752812714231785
 10
0.2080837929857033
 20
0.1753539957743489
 10
0.2085203455522759
 20
0.1754267184139951
 10
0.2091751757547542
 20
0.1754267184139951
 10
0.2093206932769454
 20
0.1752085470720072
 10
0.2096117283213277
 20
0.1747722043880312
 10
0.2102665585238059
 20
0.1748449287392016
 10
0.2104848334544729
 20
0.1755721671163369
 10
0.2101210410016148
 20
0.1762994054934713
 10
0.2085931056659904
 20
0.177244816924118
 10
0.2071379277388419
 20
0.1771720925729466
 10
0.2056827498116942
 20
0.1770266438706057
 10
0.2043730921119755
 20
0.1759357871606658
 10
0.2028451540711125
 20
0.175135824432361
 10
0.2018265314157761
 20
0.1739722416597263
 10
0.2010989410995816
 20
0.1725177649054576
 10
0.2007351486467235
 20
0.1698997053785532
 10
0.2007351486467235
 20
0.16880884695709
 10
0.2006623885330089
 20
0.1680088842287842
  0
LWPOLYLINE
  5
13A
330
2
100
AcDbEntity
  8
Profilo
  6
Continuous
370
     0
100
AcDbPolyline
 90
       39
 70
   128
 43
0.0
 10
0.2006623885330089
 20
0.1720814205099573
 10
0.200153075852721
 20
0.1726632118962742
 10
0.2000803184442452
 20
0.173026831940604
 10
0.1992799707195758
 20
0.172808660598616
 10
0.1993527308332903
 20
0.1736086216153975
 10
0.1987706580392878
 20
0.1741176886505439
 10
0.1978975529061417
 20
0.1737540703177384
 10
0.1976792752702361
 20
0.1725904875451037
 10
0.1975337577480449
 20
0.1715723534748109
 10
0.1973882402258538
 20
0.1708451150976765
 10
0.1968789275455667
 20
0.170990562088494
 10
0.1968061701370909
 20
0.1720086978703102
 10
0.1966606526148997
 20
0.1731722789314215
 10
0.1960785798208964
 20
0.1740449660108968
 10
0.195569269845848
 20
0.1744085843437023
 10
0.1949871970518455
 20
0.1744085843437023
 10
0.1950599571655609
 20
0.1736813459665679
 10
0.1946234045989874
 20
0.1736086216153975
 10
0.1940413345102236
 20
0.1736813459665679
 10
0.1934592617162212
 20
0.1736813459665679
 10
0.1930227091496486
 20
0.1736813459665679
 10
0.1927316741052663
 20
0.1728813832382622
 10
0.1922223614249783
 20
0.1724450405542862
 10
0.1923678789471694
 20
0.1718632491679693
 10
0.1924406390608848
 20
0.1712814577816525
 10
0.1923678789471694
 20
0.170990562088494
 10
0.1918585662668815
 20
0.170699668106859
 10
0.1921496040165025
 20
0.1698997053785532
 10
0.1926589139915518
 20
0.1697542566762123
 10
0.1940413345102236
 20
0.1696088096853948
 10
0.194550644485272
 20
0.1691724652898955
 10
0.1938958142827938
 20
0.1689542939479075
 10
0.1930227091496486
 20
0.168372504273114
 10
0.1924406390608848
 20
0.1673543684912969
 10
0.192804431513742
 20
0.1661907874301857
 10
0.1936047792384115
 20
0.166481683123345
 10
0.1941140919186994
 20
0.1664089587721736
 10
0.1949871970518455
 20
0.1656089960438688
 10
0.1947689221211786
 20
0.1653908247018808
  0
LWPOLYLINE
  5
13B
330
2
100
AcDbEntity
  8
Profilo
  6
Continuous
370
     0
100
AcDbPolyline
 90
       11
 70
   128
 43
0.0
 10
0.2073700335818052
 20
0.1475614301662865
 10
0.2055519367832066
 20
0.1452331471059928
 10
0.2040247356777665
 20
0.1430503815678902
 10
0.202279361518815
 20
0.1411586510741681
 10
0.2008248847645462
 20
0.140649338393881
 10
0.2000976463874109
 20
0.1410858909604536
 10
0.2002430933782284
 20
0.1421772737295054
 10
0.2017702944836686
 20
0.1438507292925596
 10
0.20351566864262
 20
0.1458152171947565
 10
0.2054792124320361
 20
0.1477797078021931
 10
0.2062064508091705
 20
0.1484345352994326
  0
LWPOLYLINE
  5
13C
330
2
100
AcDbEntity
  8
Profilo
  6
Continuous
370
     0
100
AcDbPolyline
 90
       38
 70
   128
 43
0.0
 10
0.204170182668584
 20
0.1528728264893541
 10
0.2024248102211559
 20
0.1530183440115452
 10
0.2011885048088751
 20
0.1532366216474509
 10
0.2004612647202164
 20
0.1527273089671629
 10
0.2008248847645462
 20
0.1522179962868749
 10
0.2014793987905101
 20
0.1522179962868749
 10
0.2019884675371799
 20
0.1517086836065869
 10
0.2019884675371799
 20
0.1509810959956329
 10
0.2012612274485221
 20
0.1491621256156262
 10
0.2003885420805693
 20
0.1480707428465745
 10
0.1987886166239596
 20
0.1479252253243833
 10
0.1973341381581666
 20
0.14799798273286
 10
0.1958796614038969
 20
0.14799798273286
 10
0.1947888029824336
 20
0.14799798273286
 10
0.1942070115961159
 20
0.1472703951219051
 10
0.1938433932633112
 20
0.1471976350081906
 10
0.193188877525823
 20
0.1476341875747632
 10
0.1923889147975182
 20
0.1478524652106688
 10
0.1918798477623718
 20
0.1480707428465745
 10
0.1914435050783949
 20
0.1487255730490536
 10
0.1913707807272245
 20
0.1493076431378174
 10
0.1912980580875783
 20
0.14974419570439
 10
0.1912980580875783
 20
0.1503990259068691
 10
0.1915162294295662
 20
0.1505445434290594
 10
0.1919525721135413
 20
0.1508355784734417
 10
0.1918798477623718
 20
0.15149040867592
 10
0.1911526093852365
 20
0.1517086836065869
 10
0.1904253710081021
 20
0.1513448911537288
 10
0.1894799595774554
 20
0.1498169558181054
 10
0.1895526839286268
 20
0.1483617778909568
 10
0.1896981326309677
 20
0.1469065999638083
 10
0.1907889893409076
 20
0.1455969422640896
 10
0.1915889520692124
 20
0.1440690042232265
 10
0.1927525348418471
 20
0.1430503815678902
 10
0.1942070115961159
 20
0.1423227912516957
 10
0.1968250711230202
 20
0.1419589987988375
 10
0.1979159295444834
 20
0.1419589987988375
 10
0.1987158922727892
 20
0.1418862386851231
  0
LWPOLYLINE
  5
13D
330
2
100
AcDbEntity
  8
Profilo
  6
Continuous
370
     0
100
AcDbPolyline
 90
       39
 70
   128
 43
0.0
 10
0.1946433559916161
 20
0.1418862386851231
 10
0.1940615646052992
 20
0.1413769260048351
 10
0.1936979445609694
 20
0.1413041685963593
 10
0.1939161159029574
 20
0.1405038208716899
 10
0.1931161548861759
 20
0.1405765809854044
 10
0.1926070878510295
 20
0.1399945081914019
 10
0.192970706183835
 20
0.1391214030582558
 10
0.1941342889564697
 20
0.1389031254223502
 10
0.1951524230267625
 20
0.138757607900159
 10
0.1958796614038969
 20
0.1386120903779687
 10
0.1957342144130794
 20
0.1381027776976807
 10
0.1947160786312632
 20
0.138030020289205
 10
0.1935524975701519
 20
0.1378845027670138
 10
0.1926798104906765
 20
0.1373024299730104
 10
0.1923161921578711
 20
0.1367931199979621
 10
0.1923161921578711
 20
0.1362110472039596
 10
0.1930434305350055
 20
0.136283807317675
 10
0.1931161548861759
 20
0.1358472547511024
 10
0.1930434305350055
 20
0.1352651846623386
 10
0.1930434305350055
 20
0.1346831118683353
 10
0.1930434305350055
 20
0.1342465593017627
 10
0.1938433932633112
 20
0.1339555242573803
 10
0.1942797359472872
 20
0.1334462115770932
 10
0.1948615273336041
 20
0.1335917290992835
 10
0.1954433187199209
 20
0.1336644892129989
 10
0.1957342144130794
 20
0.1335917290992835
 10
0.1960251083947144
 20
0.1330824164189955
 10
0.1968250711230202
 20
0.1333734541686166
 10
0.1969705198253611
 20
0.1338827641436658
 10
0.1971159668161786
 20
0.1352651846623386
 10
0.1975523112116779
 20
0.135774494637387
 10
0.1977704825536659
 20
0.1351196644349079
 10
0.1983522722284603
 20
0.1342465593017627
 10
0.1993704080102765
 20
0.1336644892129989
 10
0.2005339890713877
 20
0.134028281665857
 10
0.2002430933782284
 20
0.1348286293905264
 10
0.2003158177293998
 20
0.1353379420708135
 10
0.2011157804577046
 20
0.1362110472039596
 10
0.2013339517996926
 20
0.1359927722732926
  0
LWPOLYLINE
  5
13E
330
2
100
AcDbEntity
  8
Profilo
  6
Continuous
370
     0
100
AcDbPolyline
 90
       11
 70
   128
 43
0.0
 10
0.2191633463352869
 20
0.1485938837339192
 10
0.2214916293955806
 20
0.1467757869353207
 10
0.2236743949336832
 20
0.1452485858298814
 10
0.2255661254274053
 20
0.1435032116709299
 10
0.2260754381076924
 20
0.1420487349166602
 10
0.2256388855411198
 20
0.141321496539525
 10
0.224547502772068
 20
0.1414669435303434
 10
0.2228740472090138
 20
0.1429941446357826
 10
0.2209095593068169
 20
0.1447395187947341
 10
0.2189450686993803
 20
0.1467030625841502
 10
0.2182902412021408
 20
0.1474303009612846
  0
LWPOLYLINE
  5
13F
330
2
100
AcDbEntity
  8
Profilo
  6
Continuous
370
     0
100
AcDbPolyline
 90
       38
 70
   128
 43
0.0
 10
0.2138519500122193
 20
0.1453940328206981
 10
0.2137064324900282
 20
0.1436486603732708
 10
0.2134881548541225
 20
0.1424123549609891
 10
0.2139974675344105
 20
0.1416851148723314
 10
0.2145067802146985
 20
0.1420487349166602
 10
0.2145067802146985
 20
0.1427032489426242
 10
0.2150160928949865
 20
0.1432123176892949
 10
0.2157436805059405
 20
0.1432123176892949
 10
0.2175626508859472
 20
0.1424850776006362
 10
0.2186540336549989
 20
0.1416123922326843
 10
0.2187995511771901
 20
0.1400124667760737
 10
0.2187267937687134
 20
0.1385579883102806
 10
0.2187267937687134
 20
0.1371035115560119
 10
0.2187267937687134
 20
0.1360126531345477
 10
0.2194543813796683
 20
0.1354308617482308
 10
0.2195271414933828
 20
0.1350672434154253
 10
0.2190905889268102
 20
0.1344127276779371
 10
0.2188723112909046
 20
0.1336127649496323
 10
0.2186540336549989
 20
0.1331036979144858
 10
0.2179992034525198
 20
0.1326673552305099
 10
0.217417133363756
 20
0.1325946308793385
 10
0.2169805807971834
 20
0.1325219082396923
 10
0.2163257505947043
 20
0.1325219082396923
 10
0.2161802330725139
 20
0.1327400795816803
 10
0.2158891980281317
 20
0.1331764222656563
 10
0.2152343678256534
 20
0.1331036979144858
 10
0.2150160928949865
 20
0.1323764595373505
 10
0.2153798853478437
 20
0.1316492211602162
 10
0.216907820683468
 20
0.1307038097295704
 10
0.2183629986106166
 20
0.1307765340807409
 10
0.2198181765377651
 20
0.1309219827830818
 10
0.2211278342374838
 20
0.1320128394930217
 10
0.2226557722783469
 20
0.1328128022213274
 10
0.2236743949336832
 20
0.1339763849939611
 10
0.2244019852498778
 20
0.1354308617482308
 10
0.224765777702735
 20
0.1380489212751342
 10
0.224765777702735
 20
0.1391397796965975
 10
0.2248385378164504
 20
0.1399397424249033
  0
LWPOLYLINE
  5
140
330
2
100
AcDbEntity
  8
Profilo
  6
Continuous
370
     0
100
AcDbPolyline
 90
       39
 70
   128
 43
0.0
 10
0.2248385378164504
 20
0.1358672061437302
 10
0.2253478504967374
 20
0.1352854147574133
 10
0.2254206079052141
 20
0.1349217947130844
 10
0.2262209556298835
 20
0.1351399660550724
 10
0.226148195516169
 20
0.13434000503829
 10
0.2267302683101715
 20
0.1338309380031436
 10
0.2276033734433176
 20
0.1341945563359491
 10
0.2278216510792232
 20
0.1353581391085837
 10
0.2279671686014144
 20
0.1363762731788766
 10
0.2281126861236047
 20
0.1371035115560119
 10
0.2286219988038927
 20
0.1369580645651943
 10
0.2286947562123684
 20
0.1359399287833772
 10
0.2288402737345596
 20
0.1347763477222669
 10
0.229422346528563
 20
0.1339036606427907
 10
0.2299316565036114
 20
0.1335400423099852
 10
0.2305137292976138
 20
0.1335400423099852
 10
0.2304409691838984
 20
0.1342672806871205
 10
0.230877521750471
 20
0.13434000503829
 10
0.2314595918392348
 20
0.1342672806871205
 10
0.2320416646332382
 20
0.1342672806871205
 10
0.2324782171998108
 20
0.1342672806871205
 10
0.2327692522441931
 20
0.1350672434154253
 10
0.2332785649244802
 20
0.1355035860994013
 10
0.2331330474022899
 20
0.1360853774857181
 10
0.2330602872885745
 20
0.1366671688720359
 10
0.2331330474022899
 20
0.1369580645651943
 10
0.2336423600825779
 20
0.1372489585468294
 10
0.2333513223329569
 20
0.1380489212751342
 10
0.2328420123579076
 20
0.1381943699774751
 10
0.2314595918392348
 20
0.1383398169682927
 10
0.2309502818641864
 20
0.1387761613637929
 10
0.2316051120666656
 20
0.1389943327057809
 10
0.2324782171998108
 20
0.1395761223805744
 10
0.2330602872885745
 20
0.1405942581623906
 10
0.2326964948357164
 20
0.1417578392235018
 10
0.231896147111047
 20
0.1414669435303434
 10
0.2313868344307599
 20
0.1415396678815138
 10
0.2305137292976138
 20
0.1423396306098187
 10
0.2307320042282808
 20
0.1425578019518067
  0
LWPOLYLINE
  5
141
330
2
100
AcDbEntity
  8
Profilo
  6
Continuous
370
     0
100
AcDbPolyline
 90
       11
 70
   128
 43
0.0
 10
0.2181308927676542
 20
0.160387196487401
 10
0.2199489895662527
 20
0.1627154795476947
 10
0.2214761906716929
 20
0.1648982450857973
 10
0.2232215648306444
 20
0.1667899755795193
 10
0.2246760415849132
 20
0.1672992882598064
 10
0.2254032799620484
 20
0.1668627356932338
 10
0.22525783297123
 20
0.165771352924183
 10
0.2237306318657908
 20
0.1640978973611279
 10
0.2219852577068393
 20
0.1621334094589309
 10
0.2200217139174232
 20
0.1601689188514953
 10
0.2192944755402888
 20
0.1595140913542549
  0
LWPOLYLINE
  5
142
330
2
100
AcDbEntity
  8
Profilo
  6
Continuous
370
     0
100
AcDbPolyline
 90
       38
 70
   128
 43
0.0
 10
0.2213307436808753
 20
0.1550758001643334
 10
0.2230761161283026
 20
0.1549302826421431
 10
0.2243124215405843
 20
0.1547120050062366
 10
0.2250396616292429
 20
0.1552213176865246
 10
0.2246760415849132
 20
0.1557306303668126
 10
0.2240215275589492
 20
0.1557306303668126
 10
0.2235124588122785
 20
0.1562399430471005
 10
0.2235124588122785
 20
0.1569675306580555
 10
0.2242396989009372
 20
0.1587865010380612
 10
0.2251123842688891
 20
0.159877883807113
 10
0.2267123097254997
 20
0.1600234013293041
 10
0.2281667881912928
 20
0.1599506439208284
 10
0.2296212649455624
 20
0.1599506439208284
 10
0.2307121233670257
 20
0.1599506439208284
 10
0.2312939147533426
 20
0.1606782315317824
 10
0.2316575330861481
 20
0.1607509916454978
 10
0.2323120488236363
 20
0.1603144390789243
 10
0.2331120115519412
 20
0.1600961614430186
 10
0.2336210785870876
 20
0.159877883807113
 10
0.2340574212710635
 20
0.1592230536046338
 10
0.2341301456222349
 20
0.1586409835158701
 10
0.2342028682618811
 20
0.1582044309492975
 10
0.2342028682618811
 20
0.1575496007468192
 10
0.2339846969198931
 20
0.1574040832246281
 10
0.2335483542359171
 20
0.1571130481802457
 10
0.2336210785870876
 20
0.1564582179777675
 10
0.2343483169642229
 20
0.1562399430471005
 10
0.2350755553413573
 20
0.1566037354999586
 10
0.236020966772003
 20
0.158131670835583
 10
0.2359482424208326
 20
0.1595868487627315
 10
0.2358027937184917
 20
0.1610420266898792
 10
0.2347119370085517
 20
0.1623516843895979
 10
0.233911974280246
 20
0.1638796224304609
 10
0.2327483915076123
 20
0.1648982450857973
 10
0.2312939147533426
 20
0.1656258354019918
 10
0.2286758552264392
 20
0.1659896278548499
 10
0.2275849968049759
 20
0.1659896278548499
 10
0.2267850340766702
 20
0.1660623879685644
  0
LWPOLYLINE
  5
143
330
2
100
AcDbEntity
  8
Profilo
  6
Continuous
370
     0
100
AcDbPolyline
 90
       39
 70
   128
 43
0.0
 10
0.2308575703578433
 20
0.1660623879685644
 10
0.2314393617441601
 20
0.1665717006488524
 10
0.2318029817884899
 20
0.1666444580573282
 10
0.2315848104465019
 20
0.1674448057819976
 10
0.2323847714632834
 20
0.1673720456682831
 10
0.2328938384984298
 20
0.1679541184622856
 10
0.2325302201656243
 20
0.1688272235954317
 10
0.2313666373929897
 20
0.1690455012313373
 10
0.2303485033226968
 20
0.1691910187535285
 10
0.2296212649455624
 20
0.1693365362757196
 10
0.2297667119363791
 20
0.1698458489560067
 10
0.2307848477181962
 20
0.1699186063644825
 10
0.2319484287793065
 20
0.1700641238866737
 10
0.2328211158587827
 20
0.170646196680677
 10
0.2331847341915882
 20
0.1711555066557254
 10
0.2331847341915882
 20
0.1717375794497279
 10
0.232457495814453
 20
0.1716648193360125
 10
0.2323847714632834
 20
0.172101371902586
 10
0.232457495814453
 20
0.1726834419913498
 10
0.232457495814453
 20
0.1732655147853522
 10
0.232457495814453
 20
0.1737020673519257
 10
0.2316575330861481
 20
0.1739931023963072
 10
0.2312211904021721
 20
0.1745024150765951
 10
0.2306393990158553
 20
0.174356897554404
 10
0.2300576076295384
 20
0.1742841374406886
 10
0.2297667119363791
 20
0.174356897554404
 10
0.229475817954744
 20
0.1748662102346919
 10
0.2286758552264392
 20
0.1745751724850709
 10
0.2285304065240983
 20
0.1740658625100216
 10
0.2283849595332807
 20
0.1726834419913498
 10
0.2279486151377805
 20
0.1721741320163014
 10
0.2277304437957925
 20
0.1728289622187796
 10
0.227148654120999
 20
0.1737020673519257
 10
0.2261305183391828
 20
0.1742841374406886
 10
0.2249669372780716
 20
0.1739203449878314
 10
0.22525783297123
 20
0.173119997263162
 10
0.2251851086200596
 20
0.172610684582874
 10
0.2243851458917547
 20
0.1717375794497279
 10
0.2241669745497667
 20
0.1719558543803948
  0
LWPOLYLINE
  5
144
330
2
100
AcDbEntity
  8
Profilo
  6
Continuous
370
     0
100
AcDbPolyline
 90
       42
 70
   128
 43
0.0
 10
0.200153075852721
 20
0.1633545565612943
 10
0.1980430704283329
 20
0.1642999662804175
 10
0.1958603048902303
 20
0.1648817576667344
 10
0.1948416795296544
 20
0.1649544820179048
 10
0.1931682266718389
 20
0.1646635863247464
 10
0.1923678789471694
 20
0.1637908992452711
 10
0.1912037387696418
 20
0.162481869481819
 10
0.1901123560005902
 20
0.1605910483320499
 10
0.1897485608424934
 20
0.1592820185685978
 10
0.189966838478399
 20
0.1568094077440353
 10
0.1904761484534483
 20
0.155282206638596
 10
0.1913492562918331
 20
0.1544822439102903
 10
0.1920040864943113
 20
0.1544822439102903
 10
0.1919313263805968
 20
0.1552094822874256
 10
0.1913492562918331
 20
0.155500377980584
 10
0.1910582212474507
 20
0.1563003407088889
 10
0.1911309786559264
 20
0.1574639217699992
 10
0.1914220137003088
 20
0.158045713156317
 10
0.1922951215386937
 20
0.158263884498305
 10
0.1929499490359332
 20
0.158263884498305
 10
0.1930227091496486
 20
0.1577548174631585
 10
0.1944051269630818
 20
0.157391199130353
 10
0.1953509922099423
 20
0.1573184747791826
 10
0.1962241000483271
 20
0.1575366461211706
 10
0.1969516876592812
 20
0.1581184375074874
 10
0.1975337577480449
 20
0.1586275045426338
 10
0.1984068655864297
 20
0.1590638472266098
 10
0.1990616930836693
 20
0.1590638472266098
 10
0.2002258359664364
 20
0.1587729515334514
 10
0.2008806661689146
 20
0.1583366088494754
 10
0.2012444586217728
 20
0.1577548174631585
 10
0.2017537713020598
 20
0.1570275790860233
 10
0.2018265314157761
 20
0.1562276163577184
 10
0.2020448063464422
 20
0.1555731023317545
 10
0.2010261836911058
 20
0.155500377980584
 10
0.2007351486467235
 20
0.1549185865942663
 10
0.2007351486467235
 20
0.1541913482171319
 10
0.2010261836911058
 20
0.153827728172803
 10
0.2016810138935849
 20
0.1536822811819854
 10
0.2024086015045389
 20
0.1537550055331559
 10
0.2028451540711125
 20
0.1545549665499374
 10
0.2027723966626358
 20
0.1548458622430958
  0
LWPOLYLINE
  5
145
330
2
100
AcDbEntity
  8
Profilo
  6
Continuous
370
     0
100
AcDbPolyline
 90
       61
 70
   128
 43
0.0
 10
0.2010158226249425
 20
0.156037897384793
 10
0.2000799829945834
 20
0.1568293795134407
 10
0.1992881216053066
 20
0.1572610976605299
 10
0.1977043961215135
 20
0.1571891452065234
 10
0.1972724695139851
 20
0.1561098515503237
 10
0.1972724695139851
 20
0.1551025103481324
 10
0.1970565075628408
 20
0.1545988397470358
 10
0.1966965700758527
 20
0.1545988397470358
 10
0.19604868151718
 20
0.1545988397470358
 10
0.1955447711995879
 20
0.1551025103481324
 10
0.1947529071050724
 20
0.1559659449307865
 10
0.19417700766694
 20
0.1567574270594342
 10
0.1938170701799529
 20
0.1572610976605299
 10
0.1934571326929648
 20
0.1566135221514203
 10
0.1934571326929648
 20
0.1556061809492281
 10
0.1934571326929648
 20
0.1548866512745878
 10
0.1930971952059768
 20
0.154742746366573
 10
0.1923773202320025
 20
0.1544549331274986
 10
0.192089369160316
 20
0.1540951691459401
 10
0.1915134697221845
 20
0.1538793100723955
 10
0.1910095566993537
 20
0.1539512642379263
 10
0.1905776300918254
 20
0.1543829806734912
 10
0.1901457061895357
 20
0.1548146988205804
 10
0.189137880143875
 20
0.1545988397470358
 10
0.1887779426568878
 20
0.1543110282194838
 10
0.1883460187545982
 20
0.1538793100723955
 10
0.1879860812676102
 20
0.1539512642379263
 10
0.1871942171730947
 20
0.1544549331274986
 10
0.1865463286144211
 20
0.1542390757654773
 10
0.1862583802479742
 20
0.1539512642379263
 10
0.1862583802479742
 20
0.1533036870172916
 10
0.1863303666632767
 20
0.1525122048886448
 10
0.1868342796861067
 20
0.1522963458151002
 10
0.1882020432187554
 20
0.1527280639621894
 10
0.1884899915852014
 20
0.1528000164161959
 10
0.1889165104195556
 20
0.1522142525835001
 10
0.1893886612288551
 20
0.1517174914033562
 10
0.1900017306536929
 20
0.1518646293795344
 10
0.1905056436765238
 20
0.1522243933610928
 10
0.1910815431146553
 20
0.1525122048886448
 10
0.1914414806016432
 20
0.152656111508182
 10
0.1921613555756185
 20
0.152656111508182
 10
0.1926652685984485
 20
0.1523682999806309
 10
0.1931691816212793
 20
0.1522963458151002
 10
0.1936011082288076
 20
0.1521524409070863
 10
0.1933851435724236
 20
0.1510731472508867
 10
0.1935291191082664
 20
0.1502097126682326
 10
0.1939610457157956
 20
0.1499219011406806
 10
0.19417700766694
 20
0.1502816651222391
 10
0.1945369451539272
 20
0.1510011947968802
 10
0.194824893520374
 20
0.1515768178519833
 10
0.1954727820790476
 20
0.1520085342875482
 10
0.1961926570530228
 20
0.1521524409070863
 10
0.1967685591963939
 20
0.1521524409070863
 10
0.1974884341703691
 20
0.1520085342875482
 10
0.1978483716573562
 20
0.1510731472508867
 10
0.1986402330466339
 20
0.1504975241957837
 10
0.1992161324847654
 20
0.1504975241957837
 10
0.199864021043439
 20
0.150569476649791
 10
0.200367934066269
 20
0.1510011947968802
 10
0.2006558851379554
 20
0.1516487703059898
  0
LWPOLYLINE
  5
146
330
2
100
AcDbEntity
  8
Profilo
  6
Continuous
370
     0
100
AcDbPolyline
 90
       42
 70
   128
 43
0.0
 10
0.2033702199402791
 20
0.1413769260048351
 10
0.2024248102211559
 20
0.139266920580447
 10
0.201843018834839
 20
0.1370841550423444
 10
0.2017702944836686
 20
0.1360655296817684
 10
0.202061190176827
 20
0.1343920768239529
 10
0.2029338772563023
 20
0.1335917290992835
 10
0.2042429070197544
 20
0.132427588921756
 10
0.2061337281695235
 20
0.1313362061527042
 10
0.2074427579329756
 20
0.1309724109946074
 10
0.2099153687575381
 20
0.1311906886305131
 10
0.2114425698629774
 20
0.1316999986055624
 10
0.2122425325912831
 20
0.1325731064439471
 10
0.2122425325912831
 20
0.1332279366464263
 10
0.2115152942141478
 20
0.1331551765327109
 10
0.2112243985209894
 20
0.1325731064439471
 10
0.2104244357926845
 20
0.1322820713995657
 10
0.2092608547315742
 20
0.1323548288080406
 10
0.2086790633452564
 20
0.1326458638524229
 10
0.2084608920032684
 20
0.1335189716908077
 10
0.2084608920032684
 20
0.1341737991880473
 10
0.2089699590384149
 20
0.1342465593017627
 10
0.2093335773712204
 20
0.1356289771151958
 10
0.2094063017223908
 20
0.1365748423620564
 10
0.2091881303804028
 20
0.1374479502004412
 10
0.208606338994086
 20
0.1381755378113952
 10
0.2080972719589396
 20
0.138757607900159
 10
0.2076609292749636
 20
0.1396307157385447
 10
0.2076609292749636
 20
0.1402855432357833
 10
0.207951824968122
 20
0.1414496861185505
 10
0.208388167652098
 20
0.1421045163210287
 10
0.2089699590384149
 20
0.1424683087738868
 10
0.2096971974155501
 20
0.1429776214541748
 10
0.210497160143855
 20
0.1430503815678902
 10
0.2111516741698189
 20
0.1432686564985562
 10
0.2112243985209894
 20
0.1422500338432199
 10
0.2118061899073071
 20
0.1419589987988375
 10
0.2125334282844415
 20
0.1419589987988375
 10
0.2128970483287704
 20
0.1422500338432199
 10
0.213042495319588
 20
0.142904864045699
 10
0.2129697709684175
 20
0.1436324516566539
 10
0.212169809951636
 20
0.1440690042232265
 10
0.2118789142584776
 20
0.1439962468147508
  0
LWPOLYLINE
  5
147
330
2
100
AcDbEntity
  8
Profilo
  6
Continuous
370
     0
100
AcDbPolyline
 90
       61
 70
   128
 43
0.0
 10
0.2106868791167804
 20
0.1422396727770566
 10
0.2098953969881327
 20
0.1413038331466975
 10
0.2094636788410435
 20
0.1405119717574207
 10
0.20953563129505
 20
0.1389282462736275
 10
0.2106149249512497
 20
0.1384963196660992
 10
0.211622266153441
 20
0.1384963196660992
 10
0.2121259367545376
 20
0.1382803577149548
 10
0.2121259367545376
 20
0.1379204202279677
 10
0.2121259367545376
 20
0.1372725316692941
 10
0.211622266153441
 20
0.136768621351702
 10
0.2107588315707869
 20
0.1359767572571865
 10
0.2099673494421392
 20
0.1354008578190541
 10
0.2094636788410435
 20
0.1350409203320669
 10
0.2101112543501531
 20
0.1346809828450789
 10
0.2111185955523454
 20
0.1346809828450789
 10
0.2118381252269856
 20
0.1346809828450789
 10
0.2119820301350004
 20
0.1343210453580917
 10
0.2122698433740748
 20
0.1336011703841166
 10
0.2126296073556333
 20
0.133313219312431
 10
0.2128454664291779
 20
0.1327373198742986
 10
0.2127735122636472
 20
0.1322334068514687
 10
0.2123417958280822
 20
0.1318014802439394
 10
0.211910077680993
 20
0.1313695563416498
 10
0.2121259367545376
 20
0.1303617302959891
 10
0.2124137482820896
 20
0.1300017928090019
 10
0.2128454664291779
 20
0.1295698689067123
 10
0.2127735122636472
 20
0.1292099314197251
 10
0.2122698433740748
 20
0.1284180673252088
 10
0.2124857007360961
 20
0.1277701787665352
 10
0.2127735122636472
 20
0.1274822304000883
 10
0.2134210894842818
 20
0.1274822304000883
 10
0.2142125716129286
 20
0.1275542168153908
 10
0.2144284306864732
 20
0.1280581298382216
 10
0.213996712539384
 20
0.1294258933708695
 10
0.2139247600853775
 20
0.1297138417373164
 10
0.2145105239180733
 20
0.1301403605716697
 10
0.2150072850982172
 20
0.1306125113809692
 10
0.214860147122039
 20
0.131225580805807
 10
0.2145003831404806
 20
0.1317294938286379
 10
0.2142125716129286
 20
0.1323053932667703
 10
0.2140686649933914
 20
0.1326653307537574
 10
0.2140686649933914
 20
0.1333852057277326
 10
0.2143564765209425
 20
0.1338891187505634
 10
0.2144284306864732
 20
0.1343930317733933
 10
0.2145723355944871
 20
0.1348249583809217
 10
0.2156516292506867
 20
0.1346089937245377
 10
0.2165150638333408
 20
0.1347529692603805
 10
0.2168028753608928
 20
0.1351848958679097
 10
0.2164431113793344
 20
0.1354008578190541
 10
0.2157235817046932
 20
0.1357607953060412
 10
0.2151479586495901
 20
0.1360487436724881
 10
0.2147162422140252
 20
0.1366966322311617
 10
0.2145723355944871
 20
0.1374165072051369
 10
0.2145723355944871
 20
0.137992409348508
 10
0.2147162422140252
 20
0.1387122843224832
 10
0.2156516292506867
 20
0.1390722218094712
 10
0.2162272523057898
 20
0.139864083198748
 10
0.2162272523057898
 20
0.1404399826368795
 10
0.2161552998517824
 20
0.1410878711955531
 10
0.2157235817046932
 20
0.141591784218383
 10
0.2150760061955836
 20
0.1418797352900695
  0
LWPOLYLINE
  5
148
330
2
100
AcDbEntity
  8
Profilo
  6
Continuous
370
     0
100
AcDbPolyline
 90
       42
 70
   128
 43
0.0
 10
0.2253478504967374
 20
0.1445940700923932
 10
0.2274578559211264
 20
0.1436486603732708
 10
0.2296406214592289
 20
0.1430668689869531
 10
0.230659246819805
 20
0.1429941446357826
 10
0.2323326996776205
 20
0.1432850403289411
 10
0.2331330474022899
 20
0.1441577274084172
 10
0.2342971875798174
 20
0.1454667571718685
 10
0.2353885703488692
 20
0.1473575783216375
 10
0.235752365506966
 20
0.1486666080850897
 10
0.2355340878710603
 20
0.1511392189096522
 10
0.2350247778960111
 20
0.1526664200150914
 10
0.2341516700576263
 20
0.1534663827433972
 10
0.2334968398551471
 20
0.1534663827433972
 10
0.2335695999688625
 20
0.1527391443662628
 10
0.2341516700576263
 20
0.1524482486731043
 10
0.2344427051020077
 20
0.1516482859447986
 10
0.2343699476935328
 20
0.1504847048836882
 10
0.2340789126491505
 20
0.1499029134973705
 10
0.2332058048107657
 20
0.1496847421553834
 10
0.2325509773135261
 20
0.1496847421553834
 10
0.2324782171998108
 20
0.1501938091905298
 10
0.2310957993863776
 20
0.1505574275233353
 10
0.230149934139517
 20
0.1506301518745058
 10
0.2292768263011322
 20
0.1504119805325178
 10
0.2285492386901782
 20
0.1498301891462
 10
0.2279671686014144
 20
0.1493211221110536
 10
0.2270940607630287
 20
0.1488847794270777
 10
0.2264392332657901
 20
0.1488847794270777
 10
0.225275090383023
 20
0.1491756751202361
 10
0.2246202601805447
 20
0.1496120178042121
 10
0.2242564677276866
 20
0.1501938091905298
 10
0.2237471550473986
 20
0.1509210475676642
 10
0.2236743949336832
 20
0.1517210102959691
 10
0.2234561200030172
 20
0.152375524321933
 10
0.2244747426583535
 20
0.1524482486731043
 10
0.224765777702735
 20
0.1530300400594212
 10
0.224765777702735
 20
0.1537572784365556
 10
0.2244747426583535
 20
0.1541208984808845
 10
0.2238199124558744
 20
0.154266345471702
 10
0.2230923248449195
 20
0.1541936211205316
 10
0.2226557722783469
 20
0.1533936601037501
 10
0.2227285296868227
 20
0.1531027644105917
  0
LWPOLYLINE
  5
149
330
2
100
AcDbEntity
  8
Profilo
  6
Continuous
370
     0
100
AcDbPolyline
 90
       61
 70
   128
 43
0.0
 10
0.2244851037245168
 20
0.1519107292688945
 10
0.2254209433548759
 20
0.1511192471402468
 10
0.2262128047441527
 20
0.1506875289931576
 10
0.227796530227945
 20
0.150759481447165
 10
0.2282284568354742
 20
0.1518387751033637
 10
0.2282284568354742
 20
0.152846116305556
 10
0.2284444187866186
 20
0.1533497869066517
 10
0.2288043562736066
 20
0.1533497869066517
 10
0.2294522448322793
 20
0.1533497869066517
 10
0.2299561551498714
 20
0.152846116305556
 10
0.2307480192443869
 20
0.151982681722901
 10
0.2313239186825193
 20
0.1511911995942533
 10
0.2316838561695065
 20
0.1506875289931576
 10
0.2320437936564945
 20
0.1513351045022672
 10
0.2320437936564945
 20
0.1523424457044594
 10
0.2320437936564945
 20
0.1530619753791006
 10
0.2324037311434817
 20
0.1532058802871144
 10
0.2331236061174569
 20
0.1534936935261898
 10
0.2334115571891424
 20
0.1538534575077482
 10
0.2339874566272748
 20
0.1540693165812928
 10
0.2344913696501047
 20
0.1539973624157621
 10
0.234923296257634
 20
0.1535656459801963
 10
0.2353552201599236
 20
0.1531339278331071
 10
0.2363630462055843
 20
0.1533497869066517
 10
0.2367229836925715
 20
0.1536375984342036
 10
0.2371549075948611
 20
0.1540693165812928
 10
0.2375148450818483
 20
0.1539973624157621
 10
0.2383067091763646
 20
0.1534936935261889
 10
0.2389545977350382
 20
0.1537095508882101
 10
0.2392425461014851
 20
0.1539973624157621
 10
0.2392425461014851
 20
0.1546449396363959
 10
0.2391705596861826
 20
0.1554364217650436
 10
0.2386666466633518
 20
0.1556522808385882
 10
0.2372988831307039
 20
0.155220562691499
 10
0.237010934764257
 20
0.1551486102374916
 10
0.2365844159299038
 20
0.1557343740701874
 10
0.2361122651206042
 20
0.1562311352503313
 10
0.2354991956957664
 20
0.1560839972741531
 10
0.2349952826729356
 20
0.1557242332925947
 10
0.2344193832348032
 20
0.1554364217650436
 10
0.234059445747816
 20
0.1552925151455055
 10
0.2333395707738408
 20
0.1552925151455055
 10
0.23283565775101
 20
0.1555803266730574
 10
0.2323317447281801
 20
0.1556522808385882
 10
0.2318998181206517
 20
0.155796185746602
 10
0.2321157827770357
 20
0.1568754794028008
 10
0.2319718072411929
 20
0.1577389139854558
 10
0.2315398806336637
 20
0.1580267255130069
 10
0.2313239186825193
 20
0.1576669615314484
 10
0.2309639811955322
 20
0.1569474318568081
 10
0.2306760328290853
 20
0.1563718088017051
 10
0.2300281442704117
 20
0.1559400923661393
 10
0.2293082692964365
 20
0.155796185746602
 10
0.2287323671530654
 20
0.155796185746602
 10
0.2280124921790902
 20
0.1559400923661393
 10
0.2276525546921022
 20
0.1568754794028008
 10
0.2268606933028254
 20
0.1574511024579038
 10
0.2262847938646939
 20
0.1574511024579038
 10
0.2256369053060203
 20
0.1573791500038965
 10
0.2251329922831904
 20
0.1569474318568081
 10
0.2248450412115039
 20
0.1562998563476977
  0
LWPOLYLINE
  5
14A
330
2
100
AcDbEntity
  8
Profilo
  6
Continuous
370
     0
100
AcDbPolyline
 90
       42
 70
   128
 43
0.0
 10
0.2221307064091802
 20
0.1665717006488524
 10
0.2230761161283026
 20
0.1686817060732405
 10
0.2236579075146203
 20
0.1708644716113431
 10
0.2237306318657908
 20
0.171883096971919
 10
0.2234397361726323
 20
0.1735565498297346
 10
0.2225670490931562
 20
0.174356897554404
 10
0.2212580193297049
 20
0.1755210377319315
 10
0.2193671981799359
 20
0.1766124205009832
 10
0.2180581684164837
 20
0.1769762156590801
 10
0.2155855575919212
 20
0.1767579380231744
 10
0.214058356486482
 20
0.1762486280481251
 10
0.2132583937581762
 20
0.1753755202097403
 10
0.2132583937581762
 20
0.1747206900072621
 10
0.2139856321353106
 20
0.1747934501209766
 10
0.2142765278284691
 20
0.1753755202097403
 10
0.2150764905567748
 20
0.1756665552541227
 10
0.2162400716178852
 20
0.1755937978456469
 10
0.2168218630042029
 20
0.1753027628012645
 10
0.2170400343461909
 20
0.1744296549628798
 10
0.2170400343461909
 20
0.1737748274656402
 10
0.2165309673110436
 20
0.1737020673519257
 10
0.2161673489782381
 20
0.1723196495384916
 10
0.2160946246270676
 20
0.1713737842916311
 10
0.2163127959690556
 20
0.1705006764532463
 10
0.2168945873553734
 20
0.1697730888422922
 10
0.2174036543905198
 20
0.1691910187535285
 10
0.2178399970744957
 20
0.1683179109151437
 10
0.2178399970744957
 20
0.1676630834179041
 10
0.2175491013813373
 20
0.166498940535137
 10
0.2171127586973613
 20
0.1658441103326588
 10
0.2165309673110436
 20
0.1654803178798007
 10
0.2158037289339092
 20
0.1649710051995136
 10
0.2150037662056043
 20
0.1648982450857973
 10
0.2143492521796404
 20
0.1646799701551312
 10
0.2142765278284691
 20
0.1656985928104676
 10
0.2136947364421522
 20
0.1659896278548499
 10
0.2129674980650178
 20
0.1659896278548499
 10
0.2126038780206889
 20
0.1656985928104676
 10
0.2124584310298714
 20
0.1650437626079885
 10
0.2125311553810418
 20
0.1643161749970344
 10
0.2133311163978233
 20
0.1638796224304609
 10
0.2136220120909817
 20
0.1639523798389376
  0
LWPOLYLINE
  5
14B
330
2
100
AcDbEntity
  8
Profilo
  6
Continuous
370
     0
100
AcDbPolyline
 90
       61
 70
   128
 43
0.0
 10
0.2148140472326789
 20
0.1657089538766309
 10
0.2156055293613266
 20
0.16664479350699
 10
0.2160372475084158
 20
0.1674366548962668
 10
0.2159652950544084
 20
0.1690203803800599
 10
0.2148860013982097
 20
0.1694523069875883
 10
0.2138786601960174
 20
0.1694523069875883
 10
0.2133749895949217
 20
0.1696682689387326
 10
0.2133749895949217
 20
0.1700282064257207
 10
0.2133749895949217
 20
0.1706760949843934
 10
0.2138786601960174
 20
0.1711800053019855
 10
0.2147420947786724
 20
0.171971869396501
 10
0.2155335769073201
 20
0.1725477688346334
 10
0.2160372475084158
 20
0.1729077063216205
 10
0.2153896719993062
 20
0.1732676438086086
 10
0.214382330797114
 20
0.1732676438086086
 10
0.2136628011224728
 20
0.1732676438086086
 10
0.213518896214459
 20
0.1736275812955966
 10
0.2132310829753845
 20
0.1743474562695709
 10
0.2128713189938252
 20
0.1746354073412574
 10
0.2126554599202806
 20
0.1752113067793889
 10
0.2127274140858113
 20
0.1757152198022197
 10
0.2131591305213771
 20
0.176147146409748
 10
0.2135908486684663
 20
0.1765790703120377
 10
0.2133749895949217
 20
0.1775868963576984
 10
0.2130871780673698
 20
0.1779468338446856
 10
0.2126554599202806
 20
0.1783787577469752
 10
0.2127274140858113
 20
0.1787386952339632
 10
0.2132310829753845
 20
0.1795305593284787
 10
0.2130152256133633
 20
0.1801784478871523
 10
0.2127274140858113
 20
0.1804663962535992
 10
0.2120798368651775
 20
0.1804663962535992
 10
0.2112883547365298
 20
0.1803944098382967
 10
0.2110724956629852
 20
0.1798904968154668
 10
0.2115042138100744
 20
0.178522733282818
 10
0.2115761662640818
 20
0.1782347849163719
 10
0.210990402431386
 20
0.1778082660820178
 10
0.2104936412512421
 20
0.1773361152727183
 10
0.2106407792274203
 20
0.1767230458478804
 10
0.2110005432089788
 20
0.1762191328250496
 10
0.2112883547365298
 20
0.1756432333869181
 10
0.211432261356068
 20
0.1752832958999301
 10
0.211432261356068
 20
0.1745634209259549
 10
0.211144449828516
 20
0.174059507903125
 10
0.2110724956629852
 20
0.1735555948802941
 10
0.2109285907549714
 20
0.1731236682727658
 10
0.2098492970987726
 20
0.1733396329291498
 10
0.2089858625161185
 20
0.173195657393307
 10
0.2086980509885665
 20
0.1727637307857778
 10
0.209057814970125
 20
0.1725477688346334
 10
0.2097773446447653
 20
0.1721878313476462
 10
0.2103529676998692
 20
0.1718998829811994
 10
0.2107846841354342
 20
0.1712519944225258
 10
0.2109285907549714
 20
0.1705321194485506
 10
0.2109285907549714
 20
0.1699562173051795
 10
0.2107846841354342
 20
0.1692363423312052
 10
0.2098492970987726
 20
0.1688764048442172
 10
0.2092736740436696
 20
0.1680845434549395
 10
0.2092736740436696
 20
0.167508644016808
 10
0.209345626497677
 20
0.1668607554581344
 10
0.2097773446447653
 20
0.1663568424353045
 10
0.2104249201538757
 20
0.166068891363618
  0
CIRCLE
  5
14C
102
{ACAD_REACTORS
330
151
102
}
330
2
100
AcDbEntity
  8
Sezione
  6
ACAD_ISO10W100
 62
     3
 48
0.001
100
AcDbCircle
 10
0.2127504631747297
 20
0.1539743133268437
 30
0.0
 40
0.0512141525100651
  0
DIMENSION
  5
14F
102
{ACAD_XDICTIONARY
360
150
102
}
102
{ACAD_REACTORS
330
151
102
}
330
2
100
AcDbEntity
  8
Sezione
  6
ACAD_ISO10W100
100
AcDbDimension
  2
*D3
 10
0.1747785735100222
 20
0.1196082688553671
 30
0.0
 11
0.2673752248453093
 21
0.193853436768907
 31
0.0
 70
    35
  1
d 410 mm
 71
     5
 42
0.1024283050201304
  3
Bovelacci
100
AcDbDiametricDimension
 15
0.2507223528394369
 25
0.1883403577983203
 35
0.0
 40
0.0
1001
ACAD
1000
DSTYLE
1002
{
1070
    77
1070
     3
1070
   288
1070
     1
1002
}
1001
ACAD_DSTYLE_DIMFLIPARROW_WHICH_SYMBOL
1070
   386
1070
     2
  0
TEXT
  5
23F
330
2
100
AcDbEntity
  8
Text
  6
ACAD_ISO10W100
100
AcDbText
 10
0.2433961010562065
 20
0.0802117610844516
 30
0.0
 40
0.005
  1
scala 1 : 4
  7
style1
100
AcDbText
  0
ENDSEC
  0
SECTION
  2
OBJECTS
  0
DICTIONARY
  5
9
330
0
100
AcDbDictionary
281
     1
  3
ACAD_2007HEADERVARS_RT
350
208
  3
ACAD_COLOR
350
184
  3
ACAD_GROUP
350
17F
  3
ACAD_LAYOUT
350
164
  3
ACAD_MATERIAL
350
B
  3
ACAD_MLINESTYLE
350
180
  3
ACAD_PLOTSETTINGS
350
181
  3
ACAD_PLOTSTYLENAME
350
8
  3
ACAD_TABLESTYLE
350
185
  3
ACAD_VISUALSTYLE
350
17A
  3
ACDBHEADERROUNDTRIPXREC
350
244
  3
AcDbVariableDictionary
350
18B
  3
DWGPROPS
350
243
  0
DICTIONARY
  5
16E
330
16D
100
AcDbDictionary
280
     1
281
     1
  3
ACAD_LAYERSTATES
360
16F
  0
DICTIONARY
  5
3
330
2
100
AcDbDictionary
280
     1
281
     1
  3
ACAD_SORTENTS
360
18A
  0
DICTIONARY
  5
245
330
18
100
AcDbDictionary
280
     1
281
     1
  3
ACAD_MTEXT_RT
360
246
  0
DICTIONARY
  5
150
330
14F
100
AcDbDictionary
280
     1
281
     1
  3
ACAD_DIMASSOC
360
151
  0
DICTIONARY
  5
208
102
{ACAD_REACTORS
330
9
102
}
330
9
100
AcDbDictionary
281
     1
  3
DIMFXL
350
209
  0
DICTIONARY
  5
184
102
{ACAD_REACTORS
330
9
102
}
330
9
100
AcDbDictionary
281
     1
  0
DICTIONARY
  5
17F
102
{ACAD_REACTORS
330
9
102
}
330
9
100
AcDbDictionary
281
     1
  0
DICTIONARY
  5
164
102
{ACAD_REACTORS
330
9
102
}
330
9
100
AcDbDictionary
281
     1
  3
Layout1
350
168
  3
Layout2
350
16C
  3
Model
350
163
  0
DICTIONARY
  5
B
102
{ACAD_REACTORS
330
9
102
}
330
9
100
AcDbDictionary
281
     1
  3
ByBlock
350
183
  3
ByLayer
350
182
  3
Global
350
A
  0
DICTIONARY
  5
180
102
{ACAD_REACTORS
330
9
102
}
330
9
100
AcDbDictionary
281
     1
  3
Standard
350
186
  0
DICTIONARY
  5
181
102
{ACAD_REACTORS
330
9
102
}
330
9
100
AcDbDictionary
281
     1
  0
ACDBDICTIONARYWDFLT
  5
8
102
{ACAD_REACTORS
330
9
102
}
330
9
100
AcDbDictionary
281
     1
  3
Normal
350
7
100
AcDbDictionaryWithDefault
340
7
  0
DICTIONARY
  5
185
102
{ACAD_REACTORS
330
9
102
}
330
9
100
AcDbDictionary
281
     1
  3
Standard
350
187
  0
DICTIONARY
  5
17A
102
{ACAD_REACTORS
330
9
102
}
330
9
100
AcDbDictionary
281
     1
  3
2dWireframe
350
179
  3
3D Hidden
350
1BD
  3
3dWireframe
350
189
  3
Basic
350
1BC
  3
Brighten
350
1C0
  3
ColorChange
350
1C4
  3
Conceptual
350
1BE
  3
Dim
350
1BF
  3
Facepattern
350
1C3
  3
Flat
350
1B8
  3
FlatWithEdges
350
1B9
  3
Gouraud
350
1BA
  3
GouraudWithEdges
350
1BB
  3
Linepattern
350
1C2
  3
Realistic
350
188
  3
Thicken
350
1C1
  0
DICTIONARY
  5
244
102
{ACAD_REACTORS
330
9
102
}
330
9
100
AcDbDictionary
281
     1
  0
DICTIONARY
  5
18B
102
{ACAD_REACTORS
330
9
102
}
330
9
100
AcDbDictionary
281
     1
  3
CTABLESTYLE
350
18C
  3
DIMASSOC
350
190
  3
HIDETEXT
350
18F
  3
INDEXCTL
350
18E
  3
PROJECTNAME
350
241
  3
SORTENTS
350
18D
  0
XRECORD
  5
243
102
{ACAD_REACTORS
330
9
102
}
330
9
100
AcDbXrecord
280
     1
  1
DWGPROPS COOKIE
  2

  3

  4

  6

  7

  8
Mario
  9

300
=
301
=
302
=
303
=
304
=
305
=
306
=
307
=
308
=
309
=
 40
0.0705065625
 41
2454297.625402373
 42
2454305.910353727
  1

 90
        0
  0
DICTIONARY
  5
16F
102
{ACAD_REACTORS
330
16E
102
}
330
16E
100
AcDbDictionary
281
     1
  0
SORTENTSTABLE
  5
18A
102
{ACAD_REACTORS
330
3
102
}
330
3
100
AcDbSortentsTable
330
2
331
15
  5
11
331
13
  5
D
331
24
  5
18
331
11
  5
15
331
22
  5
23
331
D
  5
13
331
1E
  5
1F
331
1C
  5
1D
331
18
  5
1C
331
16
  5
12
331
14
  5
10
331
12
  5
16
331
23
  5
24
331
21
  5
22
331
10
  5
14
331
1F
  5
21
331
1D
  5
1E
  0
XRECORD
  5
246
102
{ACAD_REACTORS
330
245
102
}
330
245
100
AcDbXrecord
280
     1
 40
7955300.0
  1
{\fTimes New Roman|b0|i0|c238|p18;\H1.6x;\C4;Bovelacci\P\pt0.09;\H0.4375x;\T0.95;via del Commercio, 5  47100 Forli - Italy  \fTimes New Roman|b0|i0|c0|p18;\P\fTimes New Roman|b0|i0|c238|p18;tel.+39-0543721386  fax +39-0543721127\fTimes New Roman|b0|i
  1
0|c0|p18; \fTimes New Roman|b0|i0|c238|p18;www.bovelacci.it\fTimes New Roman|b0|i0|c0|p18; \fTimes New Roman|b0|i0|c238|p18;e-mail: bovelacci@bovelacci\fTimes New Roman|b0|i0|c0|p18;.it}
  0
DIMASSOC
  5
151
102
{ACAD_REACTORS
330
150
102
}
330
150
100
AcDbDimAssoc
330
14F
 90
        2
 70
     0
 71
     0
  1
AcDbOsnapPointRef
 72
     3
331
14C
 73
     2
 91
        0
 40
0.0
 10
0.0
 20
0.0
 30
0.0
 75
     0
  0
XRECORD
  5
209
102
{ACAD_REACTORS
330
208
102
}
330
208
100
AcDbXrecord
280
     1
 40
0.18
  0
LAYOUT
  5
168
102
{ACAD_XDICTIONARY
360
249
102
}
102
{ACAD_REACTORS
330
164
102
}
330
164
100
AcDbPlotSettings
  1

  2
C:\Documents and Settings\All Users\Dati applicazioni\Autodesk\ADT 2006\enu\Plotters\Default Windows System Printer.pc3
  4

  6

 40
0.0
 41
0.0
 42
0.0
 43
0.0
 44
0.0
 45
0.0
 46
0.0
 47
0.0
 48
0.0
 49
0.0
140
0.0
141
0.0
142
1.0
143
1.0
 70
   688
 72
     0
 73
     0
 74
     5
  7

 75
    16
147
1.0
148
0.0
149
0.0
100
AcDbLayout
  1
Layout1
 70
     1
 71
     1
 10
0.0
 20
0.0
 11
420.0
 21
297.0
 12
0.0
 22
0.0
 32
0.0
 14
1.000000000000000E+20
 24
1.000000000000000E+20
 34
1.000000000000000E+20
 15
-1.000000000000000E+20
 25
-1.000000000000000E+20
 35
-1.000000000000000E+20
146
0.0
 13
0.0
 23
0.0
 33
0.0
 16
1.0
 26
0.0
 36
0.0
 17
0.0
 27
1.0
 37
0.0
 76
     0
330
165
  0
LAYOUT
  5
16C
102
{ACAD_XDICTIONARY
360
24B
102
}
102
{ACAD_REACTORS
330
164
102
}
330
164
100
AcDbPlotSettings
  1

  2
C:\Documents and Settings\All Users\Dati applicazioni\Autodesk\ADT 2006\enu\Plotters\Default Windows System Printer.pc3
  4

  6

 40
0.0
 41
0.0
 42
0.0
 43
0.0
 44
0.0
 45
0.0
 46
0.0
 47
0.0
 48
0.0
 49
0.0
140
0.0
141
0.0
142
1.0
143
1.0
 70
   688
 72
     0
 73
     0
 74
     5
  7

 75
    16
147
1.0
148
0.0
149
0.0
100
AcDbLayout
  1
Layout2
 70
     1
 71
     2
 10
0.0
 20
0.0
 11
12.0
 21
9.0
 12
0.0
 22
0.0
 32
0.0
 14
0.0
 24
0.0
 34
0.0
 15
0.0
 25
0.0
 35
0.0
146
0.0
 13
0.0
 23
0.0
 33
0.0
 16
1.0
 26
0.0
 36
0.0
 17
0.0
 27
1.0
 37
0.0
 76
     0
330
169
  0
LAYOUT
  5
163
102
{ACAD_XDICTIONARY
360
247
102
}
102
{ACAD_REACTORS
330
164
102
}
330
164
100
AcDbPlotSettings
  1

  2
C:\Documents and Settings\All Users\Dati applicazioni\Autodesk\ADT 2006\enu\Plotters\Default Windows System Printer.pc3
  4

  6

 40
0.0
 41
0.0
 42
0.0
 43
0.0
 44
0.0
 45
0.0
 46
0.0
 47
0.0
 48
0.0
 49
0.0
140
0.0
141
0.0
142
1.0
143
1.0
 70
  1712
 72
     0
 73
     0
 74
     0
  7

 75
     0
147
1.0
148
0.0
149
0.0
100
AcDbLayout
  1
Model
 70
     1
 71
     0
 10
0.0
 20
0.0
 11
12.0
 21
9.0
 12
0.0
 22
0.0
 32
0.0
 14
0.0
 24
0.0
 34
0.0
 15
0.0
 25
0.0
 35
0.0
146
0.0
 13
0.0
 23
0.0
 33
0.0
 16
1.0
 26
0.0
 36
0.0
 17
0.0
 27
1.0
 37
0.0
 76
     0
330
2
  0
MATERIAL
  5
183
102
{ACAD_XDICTIONARY
360
1B0
102
}
102
{ACAD_REACTORS
330
B
102
}
330
B
100
AcDbMaterial
  1
ByBlock
  0
MATERIAL
  5
182
102
{ACAD_XDICTIONARY
360
1AE
102
}
102
{ACAD_REACTORS
330
B
102
}
330
B
100
AcDbMaterial
  1
ByLayer
  0
MATERIAL
  5
A
102
{ACAD_XDICTIONARY
360
193
102
}
102
{ACAD_REACTORS
330
B
102
}
330
B
100
AcDbMaterial
  1
Global
  0
MLINESTYLE
  5
186
102
{ACAD_REACTORS
330
180
102
}
330
180
100
AcDbMlineStyle
  2
STANDARD
 70
     0
  3

 62
   256
 51
90.0
 52
90.0
 71
     2
 49
0.5
 62
   256
  6
BYLAYER
 49
-0.5
 62
   256
  6
BYLAYER
  0
ACDBPLACEHOLDER
  5
7
102
{ACAD_REACTORS
330
8
102
}
330
8
  0
TABLESTYLE
  5
187
102
{ACAD_XDICTIONARY
360
21A
102
}
102
{ACAD_REACTORS
330
185
102
}
330
185
100
AcDbTableStyle
  3
Standard
 70
     0
 71
     0
 40
1.5
 41
1.5
280
     0
281
     0
  7
Standard
140
4.5
170
     2
 62
     0
 63
     7
283
     0
274
    -2
284
     1
 64
     0
275
    -2
285
     1
 65
     0
276
    -2
286
     1
 66
     0
277
    -2
287
     1
 67
     0
278
    -2
288
     1
 68
     0
279
    -2
289
     1
 69
     0
  7
Standard
140
6.0
170
     5
 62
     0
 63
     7
283
     0
274
    -2
284
     1
 64
     0
275
    -2
285
     1
 65
     0
276
    -2
286
     1
 66
     0
277
    -2
287
     1
 67
     0
278
    -2
288
     1
 68
     0
279
    -2
289
     1
 69
     0
  7
Standard
140
4.5
170
     5
 62
     0
 63
     7
283
     0
274
    -2
284
     1
 64
     0
275
    -2
285
     1
 65
     0
276
    -2
286
     1
 66
     0
277
    -2
287
     1
 67
     0
278
    -2
288
     1
 68
     0
279
    -2
289
     1
 69
     0
  0
VISUALSTYLE
  5
179
102
{ACAD_REACTORS
330
17A
102
}
330
17A
100
AcDbVisualStyle
  2
2dWireframe
 70
     4
 71
     0
 72
     2
 73
     0
 90
        0
 40
-0.6
 41
-30.0
 62
     5
 63
     7
 74
     1
 91
        4
 64
     7
 65
   257
 75
     1
175
     1
 42
1.0
 92
        0
 66
   257
 43
1.0
 76
     1
 77
     6
 78
     2
 67
     7
 79
     5
170
     0
171
     0
290
     0
174
     0
 93
        1
 44
0.0
173
     0
291
     0
 45
0.0
1001
ACAD
1000
AcDbSavedByObjectVersion
1070
     0
1000
AcDbSavedByObjectVersion
1070
     0
1000
AcDbSavedByObjectVersion
1070
     0
1001
ACAD
1000
AcRTDxfName
1000
VISUALSTYLE
  0
VISUALSTYLE
  5
1BD
102
{ACAD_REACTORS
330
17A
102
}
330
17A
100
AcDbVisualStyle
  2
3D Hidden
 70
     6
 71
     1
 72
     2
 73
     2
 90
        0
 40
-0.6
 41
-30.0
 62
     5
 63
     7
 74
     2
 91
        2
 64
     7
 65
   257
 75
     2
175
     1
 42
40.0
 92
        0
 66
   257
 43
1.0
 76
     1
 77
     6
 78
     2
 67
     7
 79
     3
170
     0
171
     0
290
     0
174
     0
 93
        1
 44
0.0
173
     0
291
     0
 45
0.0
1001
ACAD
1000
AcDbSavedByObjectVersion
1070
     0
1000
AcDbSavedByObjectVersion
1070
     0
1001
ACAD
1000
AcRTDxfName
1000
VISUALSTYLE
  0
VISUALSTYLE
  5
189
102
{ACAD_REACTORS
330
17A
102
}
330
17A
100
AcDbVisualStyle
  2
3dWireframe
 70
     5
 71
     0
 72
     2
 73
     0
 90
        0
 40
-0.6
 41
-30.0
 62
     5
 63
     7
 74
     1
 91
        4
 64
     7
 65
   257
 75
     1
175
     1
 42
1.0
 92
        0
 66
   257
 43
1.0
 76
     1
 77
     6
 78
     2
 67
     7
 79
     5
170
     0
171
     0
290
     0
174
     0
 93
        1
 44
0.0
173
     0
291
     0
 45
0.0
1001
ACAD
1000
AcDbSavedByObjectVersion
1070
     0
1000
AcDbSavedByObjectVersion
1070
     0
1000
AcDbSavedByObjectVersion
1070
     0
1001
ACAD
1000
AcRTDxfName
1000
VISUALSTYLE
  0
VISUALSTYLE
  5
1BC
102
{ACAD_REACTORS
330
17A
102
}
330
17A
100
AcDbVisualStyle
  2
Basic
 70
     7
 71
     1
 72
     0
 73
     1
 90
        0
 40
-0.6
 41
-30.0
 62
     5
 63
     7
 74
     0
 91
        4
 64
     7
 65
   257
 75
     1
175
     1
 42
1.0
 92
        8
 66
     7
 43
1.0
 76
     1
 77
     6
 78
     2
 67
     7
 79
     5
170
     0
171
     0
290
     0
174
     0
 93
        1
 44
0.0
173
     0
291
     1
 45
0.0
1001
ACAD
1000
AcDbSavedByObjectVersion
1070
     0
1000
AcDbSavedByObjectVersion
1070
     0
1001
ACAD
1000
AcRTDxfName
1000
VISUALSTYLE
  0
VISUALSTYLE
  5
1C0
102
{ACAD_REACTORS
330
17A
102
}
330
17A
100
AcDbVisualStyle
  2
Brighten
 70
    12
 71
     2
 72
     2
 73
     0
 90
        0
 40
-0.6
 41
-30.0
 62
     5
 63
     7
 74
     1
 91
        4
 64
     7
 65
   257
 75
     1
175
     1
 42
1.0
 92
        8
 66
     7
 43
1.0
 76
     1
 77
     6
 78
     2
 67
     7
 79
     5
170
     0
171
     0
290
     0
174
     0
 93
        1
 44
50.0
173
     0
291
     1
 45
0.0
1001
ACAD
1000
AcDbSavedByObjectVersion
1070
     0
1000
AcDbSavedByObjectVersion
1070
     0
1001
ACAD
1000
AcRTDxfName
1000
VISUALSTYLE
  0
VISUALSTYLE
  5
1C4
102
{ACAD_REACTORS
330
17A
102
}
330
17A
100
AcDbVisualStyle
  2
ColorChange
 70
    16
 71
     2
 72
     2
 73
     3
 90
        0
 40
-0.6
 41
-30.0
 62
     5
 63
     8
 74
     1
 91
        4
 64
     7
 65
   257
 75
     1
175
     1
 42
1.0
 92
        8
 66
     8
 43
1.0
 76
     1
 77
     6
 78
     2
 67
     7
 79
     5
170
     0
171
     0
290
     0
174
     0
 93
        1
 44
0.0
173
     0
291
     1
 45
0.0
1001
ACAD
1000
AcDbSavedByObjectVersion
1070
     0
1000
AcDbSavedByObjectVersion
1070
     0
1001
ACAD
1000
AcRTDxfName
1000
VISUALSTYLE
  0
VISUALSTYLE
  5
1BE
102
{ACAD_REACTORS
330
17A
102
}
330
17A
100
AcDbVisualStyle
  2
Conceptual
 70
     9
 71
     3
 72
     2
 73
     0
 90
        0
 40
-0.6
 41
-30.0
 62
     5
 63
     7
 74
     2
 91
        2
 64
     7
 65
   257
 75
     1
175
     1
 42
40.0
 92
        8
 66
     7
 43
1.0
 76
     1
 77
     6
 78
     2
 67
     7
 79
     3
170
     0
171
     0
290
     0
174
     0
 93
        1
 44
0.0
173
     0
291
     0
 45
0.0
1001
ACAD
1000
AcDbSavedByObjectVersion
1070
     0
1000
AcDbSavedByObjectVersion
1070
     0
1001
ACAD
1000
AcRTDxfName
1000
VISUALSTYLE
  0
VISUALSTYLE
  5
1BF
102
{ACAD_REACTORS
330
17A
102
}
330
17A
100
AcDbVisualStyle
  2
Dim
 70
    11
 71
     2
 72
     2
 73
     0
 90
        0
 40
-0.6
 41
-30.0
 62
     5
 63
     7
 74
     1
 91
        4
 64
     7
 65
   257
 75
     1
175
     1
 42
1.0
 92
        8
 66
     7
 43
1.0
 76
     1
 77
     6
 78
     2
 67
     7
 79
     5
170
     0
171
     0
290
     0
174
     0
 93
        1
 44
-50.0
173
     0
291
     1
 45
0.0
1001
ACAD
1000
AcDbSavedByObjectVersion
1070
     0
1000
AcDbSavedByObjectVersion
1070
     0
1001
ACAD
1000
AcRTDxfName
1000
VISUALSTYLE
  0
VISUALSTYLE
  5
1C3
102
{ACAD_REACTORS
330
17A
102
}
330
17A
100
AcDbVisualStyle
  2
Facepattern
 70
    15
 71
     2
 72
     2
 73
     0
 90
        0
 40
-0.6
 41
-30.0
 62
     5
 63
     7
 74
     1
 91
        4
 64
     7
 65
   257
 75
     1
175
     1
 42
1.0
 92
        8
 66
     7
 43
1.0
 76
     1
 77
     6
 78
     2
 67
     7
 79
     5
170
     0
171
     0
290
     0
174
     0
 93
        1
 44
0.0
173
     0
291
     1
 45
0.0
1001
ACAD
1000
AcDbSavedByObjectVersion
1070
     0
1000
AcDbSavedByObjectVersion
1070
     0
1001
ACAD
1000
AcRTDxfName
1000
VISUALSTYLE
  0
VISUALSTYLE
  5
1B8
102
{ACAD_REACTORS
330
17A
102
}
330
17A
100
AcDbVisualStyle
  2
Flat
 70
     0
 71
     2
 72
     1
 73
     1
 90
        2
 40
-0.6
 41
30.0
 62
     5
 63
     7
 74
     0
 91
        4
 64
     7
 65
   257
 75
     1
175
     1
 42
1.0
 92
        8
 66
     7
 43
1.0
 76
     1
 77
     6
 78
     2
 67
     7
 79
     5
170
     0
171
     0
290
     0
174
     0
 93
       13
 44
0.0
173
     0
291
     1
 45
0.0
1001
ACAD
1000
AcDbSavedByObjectVersion
1070
     0
1000
AcDbSavedByObjectVersion
1070
     0
1001
ACAD
1000
AcRTDxfName
1000
VISUALSTYLE
  0
VISUALSTYLE
  5
1B9
102
{ACAD_REACTORS
330
17A
102
}
330
17A
100
AcDbVisualStyle
  2
FlatWithEdges
 70
     1
 71
     2
 72
     1
 73
     1
 90
        2
 40
-0.6
 41
30.0
 62
     5
 63
     7
 74
     1
 91
        4
 64
     7
 65
   257
 75
     1
175
     1
 42
1.0
 92
        0
 66
   257
 43
1.0
 76
     1
 77
     6
 78
     2
 67
     7
 79
     5
170
     0
171
     0
290
     0
174
     0
 93
       13
 44
0.0
173
     0
291
     1
 45
0.0
1001
ACAD
1000
AcDbSavedByObjectVersion
1070
     0
1000
AcDbSavedByObjectVersion
1070
     0
1001
ACAD
1000
AcRTDxfName
1000
VISUALSTYLE
  0
VISUALSTYLE
  5
1BA
102
{ACAD_REACTORS
330
17A
102
}
330
17A
100
AcDbVisualStyle
  2
Gouraud
 70
     2
 71
     2
 72
     2
 73
     1
 90
        2
 40
-0.6
 41
30.0
 62
     5
 63
     7
 74
     0
 91
        4
 64
     7
 65
   257
 75
     1
175
     1
 42
1.0
 92
        0
 66
     7
 43
1.0
 76
     1
 77
     6
 78
     2
 67
     7
 79
     5
170
     0
171
     0
290
     0
174
     0
 93
       13
 44
0.0
173
     0
291
     1
 45
0.0
1001
ACAD
1000
AcDbSavedByObjectVersion
1070
     0
1000
AcDbSavedByObjectVersion
1070
     0
1001
ACAD
1000
AcRTDxfName
1000
VISUALSTYLE
  0
VISUALSTYLE
  5
1BB
102
{ACAD_REACTORS
330
17A
102
}
330
17A
100
AcDbVisualStyle
  2
GouraudWithEdges
 70
     3
 71
     2
 72
     2
 73
     1
 90
        2
 40
-0.6
 41
30.0
 62
     5
 63
     7
 74
     1
 91
        4
 64
     7
 65
   257
 75
     1
175
     1
 42
1.0
 92
        0
 66
   257
 43
1.0
 76
     1
 77
     6
 78
     2
 67
     7
 79
     5
170
     0
171
     0
290
     0
174
     0
 93
       13
 44
0.0
173
     0
291
     1
 45
0.0
1001
ACAD
1000
AcDbSavedByObjectVersion
1070
     0
1000
AcDbSavedByObjectVersion
1070
     0
1001
ACAD
1000
AcRTDxfName
1000
VISUALSTYLE
  0
VISUALSTYLE
  5
1C2
102
{ACAD_REACTORS
330
17A
102
}
330
17A
100
AcDbVisualStyle
  2
Linepattern
 70
    14
 71
     2
 72
     2
 73
     0
 90
        0
 40
-0.6
 41
-30.0
 62
     5
 63
     7
 74
     1
 91
        4
 64
     7
 65
   257
 75
     7
175
     7
 42
1.0
 92
        8
 66
     7
 43
1.0
 76
     1
 77
     6
 78
     2
 67
     7
 79
     5
170
     0
171
     0
290
     0
174
     0
 93
        1
 44
0.0
173
     0
291
     1
 45
0.0
1001
ACAD
1000
AcDbSavedByObjectVersion
1070
     0
1000
AcDbSavedByObjectVersion
1070
     0
1001
ACAD
1000
AcRTDxfName
1000
VISUALSTYLE
  0
VISUALSTYLE
  5
188
102
{ACAD_REACTORS
330
17A
102
}
330
17A
100
AcDbVisualStyle
  2
Realistic
 70
     8
 71
     2
 72
     2
 73
     0
 90
        0
 40
-0.6
 41
-30.0
 62
     5
 63
     7
 74
     1
 91
        0
 64
     7
 65
   257
 75
     1
175
     1
 42
1.0
 92
        8
 66
     8
 43
1.0
 76
     1
 77
     6
 78
     2
 67
     7
 79
     5
170
     0
171
     0
290
     0
174
     0
 93
       13
 44
0.0
173
     0
291
     0
 45
0.0
1001
ACAD
1000
AcDbSavedByObjectVersion
1070
     0
1000
AcDbSavedByObjectVersion
1070
     0
1000
AcDbSavedByObjectVersion
1070
     0
1001
ACAD
1000
AcRTDxfName
1000
VISUALSTYLE
  0
VISUALSTYLE
  5
1C1
102
{ACAD_REACTORS
330
17A
102
}
330
17A
100
AcDbVisualStyle
  2
Thicken
 70
    13
 71
     2
 72
     2
 73
     0
 90
        0
 40
-0.6
 41
-30.0
 62
     5
 63
     7
 74
     1
 91
        4
 64
     7
 65
   257
 75
     1
175
     1
 42
1.0
 92
       12
 66
     7
 43
1.0
 76
     1
 77
     6
 78
     2
 67
     7
 79
     5
170
     0
171
     0
290
     0
174
     0
 93
        1
 44
0.0
173
     0
291
     1
 45
0.0
1001
ACAD
1000
AcDbSavedByObjectVersion
1070
     0
1000
AcDbSavedByObjectVersion
1070
     0
1001
ACAD
1000
AcRTDxfName
1000
VISUALSTYLE
  0
DICTIONARYVAR
  5
18C
102
{ACAD_REACTORS
330
18B
102
}
330
18B
100
DictionaryVariables
280
     0
  1
STANDARD
  0
DICTIONARYVAR
  5
190
102
{ACAD_REACTORS
330
18B
102
}
330
18B
100
DictionaryVariables
280
     0
  1
2
  0
DICTIONARYVAR
  5
18F
102
{ACAD_REACTORS
330
18B
102
}
330
18B
100
DictionaryVariables
280
     0
  1
1
  0
DICTIONARYVAR
  5
18E
102
{ACAD_REACTORS
330
18B
102
}
330
18B
100
DictionaryVariables
280
     0
  1
0
  0
DICTIONARYVAR
  5
241
102
{ACAD_REACTORS
330
18B
102
}
330
18B
100
DictionaryVariables
280
     0
  1

  0
DICTIONARYVAR
  5
18D
102
{ACAD_REACTORS
330
18B
102
}
330
18B
100
DictionaryVariables
280
     0
  1
127
  0
DICTIONARY
  5
249
330
168
100
AcDbDictionary
280
     1
281
     1
  3
ACAD_XREC_ROUNDTRIP
360
24A
  0
DICTIONARY
  5
24B
330
16C
100
AcDbDictionary
280
     1
281
     1
  3
ACAD_XREC_ROUNDTRIP
360
24C
  0
DICTIONARY
  5
247
330
163
100
AcDbDictionary
280
     1
281
     1
  3
ACAD_XREC_ROUNDTRIP
360
248
  0
DICTIONARY
  5
1B0
330
183
100
AcDbDictionary
280
     1
281
     1
  3
ACAD_XREC_ROUNDTRIP
360
1B1
  0
DICTIONARY
  5
1AE
330
182
100
AcDbDictionary
280
     1
281
     1
  3
ACAD_XREC_ROUNDTRIP
360
1AF
  0
DICTIONARY
  5
193
330
A
100
AcDbDictionary
280
     1
281
     1
  3
ACAD_XREC_ROUNDTRIP
360
194
  0
DICTIONARY
  5
21A
330
187
100
AcDbDictionary
280
     1
281
     1
  3
ACAD_XREC_ROUNDTRIP
360
21B
  0
XRECORD
  5
24A
102
{ACAD_REACTORS
330
249
102
}
330
249
100
AcDbXrecord
280
     1
102
SHADEPLOT
 70
     0
102
SHADEPLOTRESLEVEL
 70
     2
102
SHADEPLOTCUSTOMDPI
 70
   300
  0
XRECORD
  5
24C
102
{ACAD_REACTORS
330
24B
102
}
330
24B
100
AcDbXrecord
280
     1
102
SHADEPLOT
 70
     0
102
SHADEPLOTRESLEVEL
 70
     2
102
SHADEPLOTCUSTOMDPI
 70
   300
  0
XRECORD
  5
248
102
{ACAD_REACTORS
330
247
102
}
330
247
100
AcDbXrecord
280
     1
102
SHADEPLOT
 70
     0
102
SHADEPLOTRESLEVEL
 70
     2
102
SHADEPLOTCUSTOMDPI
 70
   300
  0
XRECORD
  5
1B1
102
{ACAD_REACTORS
330
1B0
102
}
330
1B0
100
AcDbXrecord
280
     1
102
MATERIAL
148
0.0
149
0.0
149
0.0
 93
        0
 94
       63
282
     0
 72
     1
 77
     1
171
     1
175
     1
179
     1
273
     0
  0
XRECORD
  5
1AF
102
{ACAD_REACTORS
330
1AE
102
}
330
1AE
100
AcDbXrecord
280
     1
102
MATERIAL
148
0.0
149
0.0
149
0.0
 93
        0
 94
       63
282
     0
 72
     1
 77
     1
171
     1
175
     1
179
     1
273
     0
  0
XRECORD
  5
194
102
{ACAD_REACTORS
330
193
102
}
330
193
100
AcDbXrecord
280
     1
102
MATERIAL
148
0.0
149
0.0
149
0.0
 93
        0
 94
       63
282
     0
 72
     1
 77
     1
171
     1
175
     1
179
     1
273
     0
  0
XRECORD
  5
21B
102
{ACAD_REACTORS
330
21A
102
}
330
21A
100
AcDbXrecord
280
     1
102
ACAD_ROUNDTRIP_PRE2007_TABLESTYLE
 90
        4
 91
        0
  1

 92
        4
 93
        0
  2

 94
        4
 95
        0
  3

  0
ENDSEC
  0
EOF
