  0
SECTION
  2
HEADER
  9
$ACADVER
  1
AC1015
  9
$ACADMAINTVER
 70
    20
  9
$DWGCODEPAGE
  3
ANSI_1252
  9
$INSBASE
 10
0.0
 20
0.0
 30
0.0
  9
$EXTMIN
 10
0.0149999999999999
 20
-0.1099574535881219
 30
0.0
  9
$EXTMAX
 10
1.106786549277235
 20
0.6791217612350078
 30
0.0
  9
$LIMMIN
 10
0.0
 20
0.0
  9
$LIMMAX
 10
1.0
 20
0.5
  9
$ORTHOMODE
 70
     0
  9
$REGENMODE
 70
     1
  9
$FILLMODE
 70
     1
  9
$QTEXTMODE
 70
     0
  9
$MIRRTEXT
 70
     0
  9
$LTSCALE
 40
1.0
  9
$ATTMODE
 70
     1
  9
$TEXTSIZE
 40
0.008
  9
$TRACEWID
 40
1.0
  9
$TEXTSTYLE
  7
style1
  9
$CLAYER
  8
Sezione
  9
$CELTYPE
  6
ACAD_ISO10W100
  9
$CECOLOR
 62
   256
  9
$CELTSCALE
 40
1.0
  9
$DISPSILH
 70
     0
  9
$DIMSCALE
 40
0.001
  9
$DIMASZ
 40
1.5
  9
$DIMEXO
 40
0.0625
  9
$DIMDLI
 40
0.38
  9
$DIMRND
 40
0.0
  9
$DIMDLE
 40
0.0
  9
$DIMEXE
 40
0.18
  9
$DIMTP
 40
0.0
  9
$DIMTM
 40
0.0
  9
$DIMTXT
 40
3.0
  9
$DIMCEN
 40
0.0
  9
$DIMTSZ
 40
0.0
  9
$DIMTOL
 70
     0
  9
$DIMLIM
 70
     0
  9
$DIMTIH
 70
     1
  9
$DIMTOH
 70
     1
  9
$DIMSE1
 70
     0
  9
$DIMSE2
 70
     0
  9
$DIMTAD
 70
     0
  9
$DIMZIN
 70
     0
  9
$DIMBLK
  1
ArchTick
  9
$DIMASO
 70
     1
  9
$DIMSHO
 70
     1
  9
$DIMPOST
  1

  9
$DIMAPOST
  1

  9
$DIMALT
 70
     0
  9
$DIMALTD
 70
     2
  9
$DIMALTF
 40
25.4
  9
$DIMLFAC
 40
1.0
  9
$DIMTOFL
 70
     0
  9
$DIMTVP
 40
0.0
  9
$DIMTIX
 70
     0
  9
$DIMSOXD
 70
     0
  9
$DIMSAH
 70
     0
  9
$DIMBLK1
  1

  9
$DIMBLK2
  1

  9
$DIMSTYLE
  2
Bovelacci
  9
$DIMCLRD
 70
     5
  9
$DIMCLRE
 70
     5
  9
$DIMCLRT
 70
     4
  9
$DIMTFAC
 40
1.0
  9
$DIMGAP
 40
2.0
  9
$DIMJUST
 70
     0
  9
$DIMSD1
 70
     0
  9
$DIMSD2
 70
     0
  9
$DIMTOLJ
 70
     1
  9
$DIMTZIN
 70
     0
  9
$DIMALTZ
 70
     0
  9
$DIMALTTZ
 70
     0
  9
$DIMUPT
 70
     0
  9
$DIMDEC
 70
     2
  9
$DIMTDEC
 70
     2
  9
$DIMALTU
 70
     2
  9
$DIMALTTD
 70
     2
  9
$DIMTXSTY
  7
ROMANS
  9
$DIMAUNIT
 70
     0
  9
$DIMADEC
 70
     0
  9
$DIMALTRND
 40
0.0
  9
$DIMAZIN
 70
     0
  9
$DIMDSEP
 70
    46
  9
$DIMATFIT
 70
     3
  9
$DIMFRAC
 70
     0
  9
$DIMLDRBLK
  1

  9
$DIMLUNIT
 70
     2
  9
$DIMLWD
 70
    -2
  9
$DIMLWE
 70
    -2
  9
$DIMTMOVE
 70
     2
  9
$LUNITS
 70
     2
  9
$LUPREC
 70
     2
  9
$SKETCHINC
 40
1.0
  9
$FILLETRAD
 40
0.0
  9
$AUNITS
 70
     0
  9
$AUPREC
 70
     0
  9
$MENU
  1
.
  9
$ELEVATION
 40
0.0
  9
$PELEVATION
 40
0.0
  9
$THICKNESS
 40
0.0
  9
$LIMCHECK
 70
     0
  9
$CHAMFERA
 40
0.0
  9
$CHAMFERB
 40
0.0
  9
$CHAMFERC
 40
0.0
  9
$CHAMFERD
 40
0.0
  9
$SKPOLY
 70
     0
  9
$TDCREATE
 40
2454297.625402373
  9
$TDUCREATE
 40
2454297.542069039
  9
$TDUPDATE
 40
2454306.968533704
  9
$TDUUPDATE
 40
2454306.885200371
  9
$TDINDWG
 40
0.2353494097
  9
$TDUSRTIMER
 40
0.2353474074
  9
$USRTIMER
 70
     1
  9
$ANGBASE
 50
0.0
  9
$ANGDIR
 70
     0
  9
$PDMODE
 70
     0
  9
$PDSIZE
 40
0.0
  9
$PLINEWID
 40
0.0
  9
$SPLFRAME
 70
     0
  9
$SPLINETYPE
 70
     6
  9
$SPLINESEGS
 70
     8
  9
$HANDSEED
  5
2A66
  9
$SURFTAB1
 70
     6
  9
$SURFTAB2
 70
     6
  9
$SURFTYPE
 70
     6
  9
$SURFU
 70
     6
  9
$SURFV
 70
     6
  9
$UCSBASE
  2

  9
$UCSNAME
  2

  9
$UCSORG
 10
0.0
 20
0.0
 30
0.0
  9
$UCSXDIR
 10
1.0
 20
0.0
 30
0.0
  9
$UCSYDIR
 10
0.0
 20
1.0
 30
0.0
  9
$UCSORTHOREF
  2

  9
$UCSORTHOVIEW
 70
     0
  9
$UCSORGTOP
 10
0.0
 20
0.0
 30
0.0
  9
$UCSORGBOTTOM
 10
0.0
 20
0.0
 30
0.0
  9
$UCSORGLEFT
 10
0.0
 20
0.0
 30
0.0
  9
$UCSORGRIGHT
 10
0.0
 20
0.0
 30
0.0
  9
$UCSORGFRONT
 10
0.0
 20
0.0
 30
0.0
  9
$UCSORGBACK
 10
0.0
 20
0.0
 30
0.0
  9
$PUCSBASE
  2

  9
$PUCSNAME
  2

  9
$PUCSORG
 10
0.0
 20
0.0
 30
0.0
  9
$PUCSXDIR
 10
1.0
 20
0.0
 30
0.0
  9
$PUCSYDIR
 10
0.0
 20
1.0
 30
0.0
  9
$PUCSORTHOREF
  2

  9
$PUCSORTHOVIEW
 70
     0
  9
$PUCSORGTOP
 10
0.0
 20
0.0
 30
0.0
  9
$PUCSORGBOTTOM
 10
0.0
 20
0.0
 30
0.0
  9
$PUCSORGLEFT
 10
0.0
 20
0.0
 30
0.0
  9
$PUCSORGRIGHT
 10
0.0
 20
0.0
 30
0.0
  9
$PUCSORGFRONT
 10
0.0
 20
0.0
 30
0.0
  9
$PUCSORGBACK
 10
0.0
 20
0.0
 30
0.0
  9
$USERI1
 70
     0
  9
$USERI2
 70
     0
  9
$USERI3
 70
     0
  9
$USERI4
 70
     0
  9
$USERI5
 70
     0
  9
$USERR1
 40
0.0
  9
$USERR2
 40
0.0
  9
$USERR3
 40
0.0
  9
$USERR4
 40
0.0
  9
$USERR5
 40
0.0
  9
$WORLDVIEW
 70
     1
  9
$SHADEDGE
 70
     3
  9
$SHADEDIF
 70
    70
  9
$TILEMODE
 70
     1
  9
$MAXACTVP
 70
    64
  9
$PINSBASE
 10
0.0
 20
0.0
 30
0.0
  9
$PLIMCHECK
 70
     0
  9
$PEXTMIN
 10
1.000000000000000E+20
 20
1.000000000000000E+20
 30
1.000000000000000E+20
  9
$PEXTMAX
 10
-1.000000000000000E+20
 20
-1.000000000000000E+20
 30
-1.000000000000000E+20
  9
$PLIMMIN
 10
0.0
 20
0.0
  9
$PLIMMAX
 10
420.0
 20
297.0
  9
$UNITMODE
 70
     0
  9
$VISRETAIN
 70
     1
  9
$PLINEGEN
 70
     0
  9
$PSLTSCALE
 70
     1
  9
$TREEDEPTH
 70
  3020
  9
$CMLSTYLE
  2
Standard
  9
$CMLJUST
 70
     0
  9
$CMLSCALE
 40
20.0
  9
$PROXYGRAPHICS
 70
     1
  9
$MEASUREMENT
 70
     1
  9
$CELWEIGHT
370
    -1
  9
$ENDCAPS
280
     0
  9
$JOINSTYLE
280
     0
  9
$LWDISPLAY
290
     0
  9
$INSUNITS
 70
     4
  9
$HYPERLINKBASE
  1

  9
$STYLESHEET
  1

  9
$XEDIT
290
     1
  9
$CEPSNTYPE
380
     0
  9
$PSTYLEMODE
290
     1
  9
$FINGERPRINTGUID
  2
{904A8C64-524F-4709-A9C6-320D2C273A6D}
  9
$VERSIONGUID
  2
{6C2DF045-368F-49E5-980D-33E0CB93B9C4}
  9
$EXTNAMES
290
     1
  9
$PSVPSCALE
 40
0.0
  9
$OLESTARTUP
290
     0
  0
ENDSEC
  0
SECTION
  2
CLASSES
  0
CLASS
  1
ACDBDICTIONARYWDFLT
  2
AcDbDictionaryWithDefault
  3
ObjectDBX Classes
 90
        0
280
     0
281
     0
  0
CLASS
  1
TABLESTYLE
  2
AcDbTableStyle
  3
ObjectDBX Classes
 90
     2047
280
     0
281
     0
  0
CLASS
  1
SORTENTSTABLE
  2
AcDbSortentsTable
  3
ObjectDBX Classes
 90
        0
280
     0
281
     0
  0
CLASS
  1
DICTIONARYVAR
  2
AcDbDictionaryVar
  3
ObjectDBX Classes
 90
        0
280
     0
281
     0
  0
CLASS
  1
ACDBPLACEHOLDER
  2
AcDbPlaceHolder
  3
ObjectDBX Classes
 90
        0
280
     0
281
     0
  0
CLASS
  1
LAYOUT
  2
AcDbLayout
  3
ObjectDBX Classes
 90
        0
280
     0
281
     0
  0
CLASS
  1
DIMASSOC
  2
AcDbDimAssoc
  3
"AcDbDimAssoc|Product Desc:     AcDim ARX App For Dimension|Company:          Autodesk, Inc.|WEB Address:      www.autodesk.com"
 90
        0
280
     0
281
     0
  0
CLASS
  1
MATERIAL
  2
AcDbMaterial
  3
ObjectDBX Classes
 90
        0
280
     0
281
     0
  0
CLASS
  1
VISUALSTYLE
  2
AcDbVisualStyle
  3
ObjectDBX Classes
 90
     4095
280
     0
281
     0
  0
ENDSEC
  0
SECTION
  2
TABLES
  0
TABLE
  2
VPORT
  5
177
330
0
100
AcDbSymbolTable
 70
     8
  0
VPORT
  5
2A5B
330
177
100
AcDbSymbolTableRecord
100
AcDbViewportTableRecord
  2
*Active
 70
     0
 10
0.0
 20
0.0
 11
1.0
 21
1.0
 12
0.2161615747593983
 22
0.1487905230683113
 13
0.0
 23
0.0
 14
10.0
 24
10.0
 15
10.0
 25
10.0
 16
0.0
 26
0.0
 36
1.0
 17
0.0
 27
0.0
 37
0.0
 40
0.2768644943048901
 41
1.546526867627784
 42
50.0
 43
0.0
 44
0.0
 50
0.0
 51
0.0
 71
     0
 72
  1000
 73
     1
 74
     3
 75
     0
 76
     0
 77
     0
 78
     0
281
     0
 65
     1
110
0.0
120
0.0
130
0.0
111
1.0
121
0.0
131
0.0
112
0.0
122
1.0
132
0.0
 79
     0
146
0.0
  0
ENDTAB
  0
TABLE
  2
LTYPE
  5
172
330
0
100
AcDbSymbolTable
 70
     3
  0
LTYPE
  5
173
330
172
100
AcDbSymbolTableRecord
100
AcDbLinetypeTableRecord
  2
ByBlock
 70
     0
  3

 72
    65
 73
     0
 40
0.0
  0
LTYPE
  5
174
330
172
100
AcDbSymbolTableRecord
100
AcDbLinetypeTableRecord
  2
ByLayer
 70
     0
  3

 72
    65
 73
     0
 40
0.0
  0
LTYPE
  5
C
330
172
100
AcDbSymbolTableRecord
100
AcDbLinetypeTableRecord
  2
Continuous
 70
     0
  3
Solid line
 72
    65
 73
     0
 40
0.0
  0
LTYPE
  5
14E
330
172
100
AcDbSymbolTableRecord
100
AcDbLinetypeTableRecord
  2
ACAD_ISO10W100
 70
     0
  3
ISO dash dot __ . __ . __ . __ . __ . __ . __ .
 72
    65
 73
     4
 40
18.0
 49
12.0
 74
     0
 49
-3.0
 74
     0
 49
0.0
 74
     0
 49
-3.0
 74
     0
  0
ENDTAB
  0
TABLE
  2
LAYER
  5
16D
102
{ACAD_XDICTIONARY
360
16E
102
}
330
0
100
AcDbSymbolTable
 70
     7
  0
LAYER
  5
6
330
16D
100
AcDbSymbolTableRecord
100
AcDbLayerTableRecord
  2
0
 70
     0
 62
     7
  6
Continuous
370
    -3
390
7
  0
LAYER
  5
15F
330
16D
100
AcDbSymbolTableRecord
100
AcDbLayerTableRecord
  2
Defpoints
 70
     0
 62
     7
  6
Continuous
290
     0
370
    -3
390
7
  0
LAYER
  5
28
330
16D
100
AcDbSymbolTableRecord
100
AcDbLayerTableRecord
  2
Profilo
 70
     0
 62
     1
  6
Continuous
370
    -3
390
7
1001
AcAecLayerStandard
1000

1000

  0
LAYER
  5
14D
330
16D
100
AcDbSymbolTableRecord
100
AcDbLayerTableRecord
  2
Sezione
 70
     0
 62
     2
  6
Continuous
370
    -3
390
7
1001
AcAecLayerStandard
1000

1000

  0
LAYER
  5
E
330
16D
100
AcDbSymbolTableRecord
100
AcDbLayerTableRecord
  2
Table
 70
     0
 62
     3
  6
Continuous
370
    -3
390
7
1001
AcAecLayerStandard
1000

1000

  0
LAYER
  5
19
330
16D
100
AcDbSymbolTableRecord
100
AcDbLayerTableRecord
  2
Text
 70
     0
 62
     4
  6
Continuous
370
    -3
390
7
1001
AcAecLayerStandard
1000

1000

  0
LAYER
  5
256
330
16D
100
AcDbSymbolTableRecord
100
AcDbLayerTableRecord
  2
Bovelacci
 70
     0
 62
     9
  6
Continuous
370
    -3
390
7
1001
AcAecLayerStandard
1000

1000

  0
ENDTAB
  0
TABLE
  2
STYLE
  5
170
330
0
100
AcDbSymbolTable
 70
     3
  0
STYLE
  5
1A
330
170
100
AcDbSymbolTableRecord
100
AcDbTextStyleTableRecord
  2
Standard
 70
     0
 40
0.0
 41
1.0
 50
0.0
 71
     0
 42
2.5
  3
txt
  4

  0
STYLE
  5
20
330
170
100
AcDbSymbolTableRecord
100
AcDbTextStyleTableRecord
  2
ROMANS
 70
     0
 40
0.0
 41
1.0
 50
0.0
 71
     0
 42
2.5
  3
romans
  4

  0
STYLE
  5
26
330
170
100
AcDbSymbolTableRecord
100
AcDbTextStyleTableRecord
  2
style1
 70
     0
 40
0.0
 41
1.0
 50
0.0
 71
     0
 42
0.008
  3
TIMES.TTF
  4

1001
ACAD
1000
Times New Roman
1071
       18
  0
ENDTAB
  0
TABLE
  2
VIEW
  5
175
330
0
100
AcDbSymbolTable
 70
     3
  0
ENDTAB
  0
TABLE
  2
UCS
  5
176
330
0
100
AcDbSymbolTable
 70
     0
  0
ENDTAB
  0
TABLE
  2
APPID
  5
17B
330
0
100
AcDbSymbolTable
 70
    11
  0
APPID
  5
1B
330
17B
100
AcDbSymbolTableRecord
100
AcDbRegAppTableRecord
  2
ACAD
 70
     0
  0
APPID
  5
157
330
17B
100
AcDbSymbolTableRecord
100
AcDbRegAppTableRecord
  2
ACAD_DSTYLE_DIMJOGGED_JOGANGLE_SYMBOL
 70
     0
  0
APPID
  5
F
330
17B
100
AcDbSymbolTableRecord
100
AcDbRegAppTableRecord
  2
AcAecLayerStandard
 70
     0
  0
APPID
  5
19C
330
17B
100
AcDbSymbolTableRecord
100
AcDbRegAppTableRecord
  2
ACAD_DSTYLE_DIMFLIPARROW_WHICH_SYMBOL
 70
     0
  0
APPID
  5
1A7
330
17B
100
AcDbSymbolTableRecord
100
AcDbRegAppTableRecord
  2
ACAD_DSTYLE_DIMEXT_LENGTH
 70
     0
  0
APPID
  5
1D2
330
17B
100
AcDbSymbolTableRecord
100
AcDbRegAppTableRecord
  2
ACAD_EXEMPT_FROM_CAD_STANDARDS
 70
     0
  0
APPID
  5
1D3
330
17B
100
AcDbSymbolTableRecord
100
AcDbRegAppTableRecord
  2
ACAD_DSTYLE_DIM_LINETYPE
 70
     0
  0
APPID
  5
1D4
330
17B
100
AcDbSymbolTableRecord
100
AcDbRegAppTableRecord
  2
ACAD_DSTYLE_DIM_EXT1_LINETYPE
 70
     0
  0
APPID
  5
1D5
330
17B
100
AcDbSymbolTableRecord
100
AcDbRegAppTableRecord
  2
ACAD_DSTYLE_DIM_EXT2_LINETYPE
 70
     0
  0
APPID
  5
25C
330
17B
100
AcDbSymbolTableRecord
100
AcDbRegAppTableRecord
  2
ACAD_PSEXT
 70
     0
  0
APPID
  5
21C6
330
17B
100
AcDbSymbolTableRecord
100
AcDbRegAppTableRecord
  2
DCO15
 70
     0
  0
ENDTAB
  0
TABLE
  2
DIMSTYLE
  5
17C
330
0
100
AcDbSymbolTable
 70
     8
100
AcDbDimStyleTable
 71
     2
340
156
340
17D
  0
DIMSTYLE
105
17D
330
17C
100
AcDbSymbolTableRecord
100
AcDbDimStyleTableRecord
  2
ISO-25
 70
     0
 41
2.5
 42
0.625
 43
3.75
 44
1.25
 73
     0
 74
     0
 77
     1
 78
     8
140
2.5
141
2.5
143
0.03937007874016
147
0.625
171
     3
172
     1
271
     2
272
     2
274
     3
278
    44
283
     0
284
     8
340
1A
  0
DIMSTYLE
105
156
102
{ACAD_REACTORS
330
2A3C
102
}
330
17C
100
AcDbSymbolTableRecord
100
AcDbDimStyleTableRecord
  2
Bovelacci
 70
     0
 40
0.001
 41
1.5
140
3.0
141
0.0
147
2.0
176
     5
177
     5
178
     4
271
     2
272
     2
279
     2
340
20
342
152
1001
ACAD_DSTYLE_DIMJOGGED_JOGANGLE_SYMBOL
1070
   384
1040
0.7853981633974483
1001
ACAD_DSTYLE_DIMEXT_LENGTH
1070
   378
1040
0.18
  0
DIMSTYLE
105
257
330
17C
100
AcDbSymbolTableRecord
100
AcDbDimStyleTableRecord
  2
Dim 1-100
 70
     0
 40
0.1
 41
1.5
 42
0.0
 43
5.0
 44
1.25
 45
0.005
 46
1.25
 73
     0
 74
     0
 77
     1
 78
     9
140
2.0
141
2.5
147
1.0
172
     1
174
     1
179
     2
279
     2
289
     2
340
20
342
152
  0
DIMSTYLE
105
258
330
17C
100
AcDbSymbolTableRecord
100
AcDbDimStyleTableRecord
  2
Standard
 70
     0
 42
0.0
 73
     0
 74
     0
 77
     1
271
     2
272
     2
340
20
  0
DIMSTYLE
105
259
330
17C
100
AcDbSymbolTableRecord
100
AcDbDimStyleTableRecord
  2
Dim 1-50
 70
     0
 40
0.05
 41
1.5
 42
0.0
 43
5.0
 44
1.25
 45
0.005
 46
1.25
 73
     0
 74
     0
 77
     1
 78
     9
140
2.0
141
2.5
147
1.0
172
     1
174
     1
179
     2
279
     2
289
     2
340
20
342
152
  0
DIMSTYLE
105
25A
330
17C
100
AcDbSymbolTableRecord
100
AcDbDimStyleTableRecord
  2
Dim 1-200
 70
     0
 40
0.2
 41
1.5
 42
0.0
 43
5.0
 44
1.25
 45
0.005
 46
1.25
 73
     0
 74
     0
 77
     1
 78
     9
140
2.0
141
2.5
147
1.0
172
     1
174
     1
179
     2
271
     2
272
     2
279
     2
289
     2
340
20
342
152
  0
DIMSTYLE
105
25B
330
17C
100
AcDbSymbolTableRecord
100
AcDbDimStyleTableRecord
  2
AEC Scale - Italiano
 70
     0
 41
1.0
 42
10.0
 43
10.0
 44
10.0
 73
     0
 74
     0
 75
     1
 76
     1
 77
     1
140
10.0
141
1.0
147
10.0
173
     1
271
     0
272
     0
279
     2
340
1A
343
251
344
24B
  0
ENDTAB
  0
TABLE
  2
BLOCK_RECORD
  5
1
330
0
100
AcDbSymbolTable
 70
    31
  0
BLOCK_RECORD
  5
2
102
{ACAD_XDICTIONARY
360
3
102
}
330
1
100
AcDbSymbolTableRecord
100
AcDbBlockTableRecord
  2
*Model_Space
340
163
  0
BLOCK_RECORD
  5
165
330
1
100
AcDbSymbolTableRecord
100
AcDbBlockTableRecord
  2
*Paper_Space
340
168
  0
BLOCK_RECORD
  5
169
330
1
100
AcDbSymbolTableRecord
100
AcDbBlockTableRecord
  2
*Paper_Space0
340
16C
  0
BLOCK_RECORD
  5
152
330
1
100
AcDbSymbolTableRecord
100
AcDbBlockTableRecord
  2
_ArchTick
340
0
310
2800000020000000200000000100080000000000000400000000000000000000000000000000000000000000000080000080000000808000800000008000800080800000C0C0C000C0DCC000F0CAA6000020400000206000002080000020A0000020C0000020E00000400000004020000040400000406000004080000040A0
310
000040C0000040E00000600000006020000060400000606000006080000060A0000060C0000060E00000800000008020000080400000806000008080000080A0000080C0000080E00000A0000000A0200000A0400000A0600000A0800000A0A00000A0C00000A0E00000C0000000C0200000C0400000C0600000C0800000C0
310
A00000C0C00000C0E00000E0000000E0200000E0400000E0600000E0800000E0A00000E0C00000E0E00040000000400020004000400040006000400080004000A0004000C0004000E00040200000402020004020400040206000402080004020A0004020C0004020E000404000004040200040404000404060004040800040
310
40A0004040C0004040E00040600000406020004060400040606000406080004060A0004060C0004060E00040800000408020004080400040806000408080004080A0004080C0004080E00040A0000040A0200040A0400040A0600040A0800040A0A00040A0C00040A0E00040C0000040C0200040C0400040C0600040C08000
310
40C0A00040C0C00040C0E00040E0000040E0200040E0400040E0600040E0800040E0A00040E0C00040E0E00080000000800020008000400080006000800080008000A0008000C0008000E00080200000802020008020400080206000802080008020A0008020C0008020E00080400000804020008040400080406000804080
310
008040A0008040C0008040E00080600000806020008060400080606000806080008060A0008060C0008060E00080800000808020008080400080806000808080008080A0008080C0008080E00080A0000080A0200080A0400080A0600080A0800080A0A00080A0C00080A0E00080C0000080C0200080C0400080C0600080C0
310
800080C0A00080C0C00080C0E00080E0000080E0200080E0400080E0600080E0800080E0A00080E0C00080E0E000C0000000C0002000C0004000C0006000C0008000C000A000C000C000C000E000C0200000C0202000C0204000C0206000C0208000C020A000C020C000C020E000C0400000C0402000C0404000C0406000C0
310
408000C040A000C040C000C040E000C0600000C0602000C0604000C0606000C0608000C060A000C060C000C060E000C0800000C0802000C0804000C0806000C0808000C080A000C080C000C080E000C0A00000C0A02000C0A04000C0A06000C0A08000C0A0A000C0A0C000C0A0E000C0C00000C0C02000C0C04000C0C06000
310
C0C08000C0C0A000F0FBFF00A4A0A000808080000000FF0000FF000000FFFF00FF000000FF00FF00FFFF0000FFFFFF00000000FF000000000000000000000000000000000000000000000000000000000000FF00FF00000000000000000000000000000000000000000000000000000000FF000000FF000000000000000000
310
0000000000000000000000000000000000FF0000000000FF0000000000000000000000000000000000000000000000000000FF0000000000FF0000000000000000000000000000000000000000000000000000FF0000000000FF0000000000000000000000000000000000000000000000000000FF0000000000FF00000000
310
00000000000000000000000000000000000000000000FF0000000000FF0000000000000000000000000000000000000000000000000000FF0000000000FF0000000000000000000000000000000000000000000000000000FF0000000000FF0000000000000000000000000000000000000000000000000000FF0000000000
310
FF0000000000000000000000000000000000000000000000000000FF0000000000FF0000000000000000000000000000000000000000000000000000FF0000000000FF0000000000000000000000000000000000000000000000000000FF0000000000FF0000000000000000000000000000000000000000000000000000FF
310
0000000000FF0000000000000000000000000000000000000000000000000000FF0000000000FF0000000000000000000000000000000000000000000000000000FF0000000000FF0000000000000000000000000000000000000000000000000000FF0000000000FF00000000000000000000000000000000000000000000
310
00000000FF0000000000FF0000000000000000000000000000000000000000000000000000FF0000000000FF0000000000000000000000000000000000000000000000000000FF0000000000FF0000000000000000000000000000000000000000000000000000FF0000000000FF0000000000000000000000000000000000
310
000000000000000000FF0000000000FF0000000000000000000000000000000000000000000000000000FF0000000000FF0000000000000000000000000000000000000000000000000000FF0000000000FF0000000000000000000000000000000000000000000000000000FF0000000000FF000000000000000000000000
310
0000000000000000000000000000FF0000000000FF0000000000000000000000000000000000000000000000000000FF0000000000FF0000000000000000000000000000000000000000000000000000FF0000000000FF0000000000000000000000000000000000000000000000000000FF000000FF000000000000000000
310
00000000000000000000000000000000000000FF00FF000000000000000000000000000000000000000000000000000000000000FF000000
102
{BLKREFS
331
6DD
331
847
331
9CD
331
A12
331
BBC
331
CB8
331
F31
331
11A1
331
12E0
331
1533
331
1534
331
153F
331
1540
331
1844
331
1B9F
331
1D11
331
1E8A
331
21AC
331
2410
331
242E
331
276C
331
27AA
331
2A57
102
}
  0
BLOCK_RECORD
  5
24B
330
1
100
AcDbSymbolTableRecord
100
AcDbBlockTableRecord
  2
_Arrivo
340
0
310
2800000020000000200000000100080000000000000400000000000000000000000000000000000000000000000080000080000000808000800000008000800080800000C0C0C000C0DCC000F0CAA6000020400000206000002080000020A0000020C0000020E00000400000004020000040400000406000004080000040A0
310
000040C0000040E00000600000006020000060400000606000006080000060A0000060C0000060E00000800000008020000080400000806000008080000080A0000080C0000080E00000A0000000A0200000A0400000A0600000A0800000A0A00000A0C00000A0E00000C0000000C0200000C0400000C0600000C0800000C0
310
A00000C0C00000C0E00000E0000000E0200000E0400000E0600000E0800000E0A00000E0C00000E0E00040000000400020004000400040006000400080004000A0004000C0004000E00040200000402020004020400040206000402080004020A0004020C0004020E000404000004040200040404000404060004040800040
310
40A0004040C0004040E00040600000406020004060400040606000406080004060A0004060C0004060E00040800000408020004080400040806000408080004080A0004080C0004080E00040A0000040A0200040A0400040A0600040A0800040A0A00040A0C00040A0E00040C0000040C0200040C0400040C0600040C08000
310
40C0A00040C0C00040C0E00040E0000040E0200040E0400040E0600040E0800040E0A00040E0C00040E0E00080000000800020008000400080006000800080008000A0008000C0008000E00080200000802020008020400080206000802080008020A0008020C0008020E00080400000804020008040400080406000804080
310
008040A0008040C0008040E00080600000806020008060400080606000806080008060A0008060C0008060E00080800000808020008080400080806000808080008080A0008080C0008080E00080A0000080A0200080A0400080A0600080A0800080A0A00080A0C00080A0E00080C0000080C0200080C0400080C0600080C0
310
800080C0A00080C0C00080C0E00080E0000080E0200080E0400080E0600080E0800080E0A00080E0C00080E0E000C0000000C0002000C0004000C0006000C0008000C000A000C000C000C000E000C0200000C0202000C0204000C0206000C0208000C020A000C020C000C020E000C0400000C0402000C0404000C0406000C0
310
408000C040A000C040C000C040E000C0600000C0602000C0604000C0606000C0608000C060A000C060C000C060E000C0800000C0802000C0804000C0806000C0808000C080A000C080C000C080E000C0A00000C0A02000C0A04000C0A06000C0A08000C0A0A000C0A0C000C0A0E000C0C00000C0C02000C0C04000C0C06000
310
C0C08000C0C0A000F0FBFF00A4A0A000808080000000FF0000FF000000FFFF00FF000000FF00FF00FFFF0000FFFFFF00000000000000000000000000000000000000000000000000000000000000000000000000000000000000FF0000000000000000000000000000000000000000000000000000000000000000FF000000
310
00000000000000000000000000000000000000000000000000000000FF0000000000000000000000000000000000000000000000000000000000000000FF00000000000000000000000000000000000000000000000000000000000000FF0000000000000000000000000000000000000000000000000000000000000000FF
310
0000000000000000000000000000000000000000000000000000000000000000FF00000000000000000000000000000000000000000000000000000000000000FF0000000000000000000000000000000000000000000000000000000000000000FF0000000000000000000000000000000000000000000000000000000000
310
0000FF0000000000000000000000000000000000000000000000000000000000000000FF00000000000000000000000000000000000000000000000000000000000000FF0000000000000000000000000000000000000000000000000000000000000000FF0000FF0000000000000000000000000000000000000000000000
310
000000000000FFFF000000000000000000000000000000000000000000000000000000000000FFFF00000000000000000000000000000000000000000000000000000000FFFFFFFFFFFF00000000000000000000000000000000000000000000000000000000FFFF0000000000000000000000000000000000000000000000
310
000000000000FF0000FF000000000000000000000000000000000000000000000000000000FF00000000000000000000000000000000000000000000000000000000000000FF000000000000000000000000000000000000000000000000000000000000FF0000000000000000000000000000000000000000000000000000
310
0000000000FF000000000000000000000000000000000000000000000000000000000000FF00000000000000000000000000000000000000000000000000000000000000FF000000000000000000000000000000000000000000000000000000000000FF000000000000000000000000000000000000000000000000000000
310
000000FF00000000000000000000000000000000000000000000000000000000000000FF000000000000000000000000000000000000000000000000000000000000FF00000000000000000000000000000000000000000000000000000000000000FF00000000000000000000000000000000000000000000000000000000
310
0000FF0000000000000000000000000000000000000000000000000000000000000000000000000000000000000000000000000000000000
  0
BLOCK_RECORD
  5
251
330
1
100
AcDbSymbolTableRecord
100
AcDbBlockTableRecord
  2
_Partenza
340
0
310
2800000020000000200000000100080000000000000400000000000000000000000000000000000000000000000080000080000000808000800000008000800080800000C0C0C000C0DCC000F0CAA6000020400000206000002080000020A0000020C0000020E00000400000004020000040400000406000004080000040A0
310
000040C0000040E00000600000006020000060400000606000006080000060A0000060C0000060E00000800000008020000080400000806000008080000080A0000080C0000080E00000A0000000A0200000A0400000A0600000A0800000A0A00000A0C00000A0E00000C0000000C0200000C0400000C0600000C0800000C0
310
A00000C0C00000C0E00000E0000000E0200000E0400000E0600000E0800000E0A00000E0C00000E0E00040000000400020004000400040006000400080004000A0004000C0004000E00040200000402020004020400040206000402080004020A0004020C0004020E000404000004040200040404000404060004040800040
310
40A0004040C0004040E00040600000406020004060400040606000406080004060A0004060C0004060E00040800000408020004080400040806000408080004080A0004080C0004080E00040A0000040A0200040A0400040A0600040A0800040A0A00040A0C00040A0E00040C0000040C0200040C0400040C0600040C08000
310
40C0A00040C0C00040C0E00040E0000040E0200040E0400040E0600040E0800040E0A00040E0C00040E0E00080000000800020008000400080006000800080008000A0008000C0008000E00080200000802020008020400080206000802080008020A0008020C0008020E00080400000804020008040400080406000804080
310
008040A0008040C0008040E00080600000806020008060400080606000806080008060A0008060C0008060E00080800000808020008080400080806000808080008080A0008080C0008080E00080A0000080A0200080A0400080A0600080A0800080A0A00080A0C00080A0E00080C0000080C0200080C0400080C0600080C0
310
800080C0A00080C0C00080C0E00080E0000080E0200080E0400080E0600080E0800080E0A00080E0C00080E0E000C0000000C0002000C0004000C0006000C0008000C000A000C000C000C000E000C0200000C0202000C0204000C0206000C0208000C020A000C020C000C020E000C0400000C0402000C0404000C0406000C0
310
408000C040A000C040C000C040E000C0600000C0602000C0604000C0606000C0608000C060A000C060C000C060E000C0800000C0802000C0804000C0806000C0808000C080A000C080C000C080E000C0A00000C0A02000C0A04000C0A06000C0A08000C0A0A000C0A0C000C0A0E000C0C00000C0C02000C0C04000C0C06000
310
C0C08000C0C0A000F0FBFF00A4A0A000808080000000FF0000FF000000FFFF00FF000000FF00FF00FFFF0000FFFFFF0000000000000000000000000000000000000000000000000000000000000000000000000000000000000000000000000000000000000000000000000000000000000000000000000000000000000000
310
000000000000000000000000000000000000000000000000000000000000000000000000000000000000000000000000000000000000000000000000000000000000000000000000000000000000000000000000000000000000000000000000000000000000000000000000000000000000FFFFFFFFFFFFFFFFFFFFFFFFFF
310
FFFFFFFFFFFFFFFFFFFFFFFFFFFFFFFFFF0000000000000000000000000000000000000000000000000000000000000000000000000000000000000000000000000000000000000000000000000000000000000000000000000000000000000000000000000000000000000000000000000000000000000000000000000000
310
00000000000000000000000000000000000000000000000000000000000000000000000000000000000000000000000000000000000000000000000000000000000000000000000000000000000000000000000000000000000000000000000000000000000000000000000000000000000000000000000000000000000000
310
00000000000000000000000000000000000000000000000000000000000000000000000000000000000000000000000000000000000000000000000000000000000000000000000000000000000000000000000000000000000000000000000000000000000000000000000000000000000000000000000000000000000000
310
00000000000000000000000000000000000000000000000000000000000000000000000000000000000000000000000000000000000000000000000000000000000000000000000000000000000000000000000000000000000000000000000000000000000000000000000000000000000000000000000000000000000000
310
000000000000000000000000000000000000000000000000000000000000000000000000000000000000000000000000000000000000000000000000000000000000000000000000000000000000000000000000000000FFFFFFFFFFFFFFFFFFFFFFFFFFFFFFFFFFFFFFFFFFFFFFFFFFFFFFFFFFFF00000000000000000000
310
00000000000000000000000000000000000000000000000000000000000000000000000000000000000000000000000000000000000000000000000000000000000000000000000000000000000000000000000000000000000000000000000000000000000000000000000000000000000000000000000000000000000000
310
0000000000000000000000000000000000000000000000000000000000000000000000000000000000000000000000000000000000000000
  0
BLOCK_RECORD
  5
12F0
102
{ACAD_XDICTIONARY
360
1378
102
}
330
1
100
AcDbSymbolTableRecord
100
AcDbBlockTableRecord
  2
A$C06B82C3B
340
0
1001
ACAD
1000
DesignCenter Data
1002
{
1070
     1
1070
     4
1002
}
  0
BLOCK_RECORD
  5
2192
330
1
100
AcDbSymbolTableRecord
100
AcDbBlockTableRecord
  2
*D20
340
0
  0
BLOCK_RECORD
  5
23F6
330
1
100
AcDbSymbolTableRecord
100
AcDbBlockTableRecord
  2
*D22
340
0
  0
BLOCK_RECORD
  5
2414
330
1
100
AcDbSymbolTableRecord
100
AcDbBlockTableRecord
  2
*D23
340
0
  0
BLOCK_RECORD
  5
2752
330
1
100
AcDbSymbolTableRecord
100
AcDbBlockTableRecord
  2
*D25
340
0
  0
BLOCK_RECORD
  5
2790
330
1
100
AcDbSymbolTableRecord
100
AcDbBlockTableRecord
  2
*D27
340
0
  0
BLOCK_RECORD
  5
2A3D
330
1
100
AcDbSymbolTableRecord
100
AcDbBlockTableRecord
  2
*D30
340
0
  0
ENDTAB
  0
ENDSEC
  0
SECTION
  2
BLOCKS
  0
BLOCK
  5
5
330
2
100
AcDbEntity
  8
0
100
AcDbBlockBegin
  2
*Model_Space
 70
     0
 10
0.0
 20
0.0
 30
0.0
  3
*Model_Space
  1

  0
ENDBLK
  5
162
330
2
100
AcDbEntity
  8
0
100
AcDbBlockEnd
  0
BLOCK
  5
166
330
165
100
AcDbEntity
 67
     1
  8
0
100
AcDbBlockBegin
  2
*Paper_Space
 70
     0
 10
0.0
 20
0.0
 30
0.0
  3
*Paper_Space
  1

  0
ENDBLK
  5
167
330
165
100
AcDbEntity
 67
     1
  8
0
100
AcDbBlockEnd
  0
BLOCK
  5
16A
330
169
100
AcDbEntity
 67
     1
  8
0
100
AcDbBlockBegin
  2
*Paper_Space0
 70
     0
 10
0.0
 20
0.0
 30
0.0
  3
*Paper_Space0
  1

  0
ENDBLK
  5
16B
330
169
100
AcDbEntity
 67
     1
  8
0
100
AcDbBlockEnd
  0
BLOCK
  5
153
330
152
100
AcDbEntity
  8
0
 62
     1
100
AcDbBlockBegin
  2
_ArchTick
 70
     0
 10
0.0
 20
0.0
 30
0.0
  3
_ArchTick
  1

  0
LWPOLYLINE
  5
154
330
152
100
AcDbEntity
  8
0
  6
ByBlock
 62
     0
100
AcDbPolyline
 90
        2
 70
     0
 43
0.15
 10
-0.5
 20
-0.5
 10
0.5
 20
0.5
  0
ENDBLK
  5
155
330
152
100
AcDbEntity
  8
0
 62
     1
100
AcDbBlockEnd
  0
BLOCK
  5
24C
330
24B
100
AcDbEntity
  8
0
100
AcDbBlockBegin
  2
_Arrivo
 70
     0
 10
0.0
 20
0.0
 30
0.0
  3
_Arrivo
  1

  0
LINE
  5
24D
330
24B
100
AcDbEntity
  8
0
  6
ByBlock
 62
     0
370
    -2
100
AcDbLine
 10
0.025
 20
-0.0433012701891858
 30
0.0
 11
-0.15
 21
0.2598076211353328
 31
0.0
  0
LINE
  5
24E
330
24B
100
AcDbEntity
  8
0
  6
ByBlock
 62
     0
370
    -2
100
AcDbLine
 10
0.025
 20
0.0433012701892585
 30
0.0
 11
-0.15
 21
-0.2598076211353328
 31
0.0
  0
LINE
  5
24F
330
24B
100
AcDbEntity
  8
0
  6
ByBlock
 62
     0
370
    -2
100
AcDbLine
 10
-0.05
 20
0.0
 30
0.0
 11
0.05
 21
0.0
 31
0.0
  0
ENDBLK
  5
250
330
24B
100
AcDbEntity
  8
0
100
AcDbBlockEnd
  0
BLOCK
  5
252
330
251
100
AcDbEntity
  8
0
100
AcDbBlockBegin
  2
_Partenza
 70
     0
 10
0.0
 20
0.0
 30
0.0
  3
_Partenza
  1

  0
LINE
  5
253
330
251
100
AcDbEntity
  8
0
  6
ByBlock
 62
     0
370
    -2
100
AcDbLine
 10
-0.05
 20
0.05
 30
0.0
 11
0.1
 21
0.05
 31
0.0
  0
LINE
  5
254
330
251
100
AcDbEntity
  8
0
  6
ByBlock
 62
     0
370
    -2
100
AcDbLine
 10
-0.05
 20
-0.05
 30
0.0
 11
0.1
 21
-0.05
 31
0.0
  0
ENDBLK
  5
255
330
251
100
AcDbEntity
  8
0
100
AcDbBlockEnd
  0
BLOCK
  5
137A
330
12F0
100
AcDbEntity
  8
0
100
AcDbBlockBegin
  2
A$C06B82C3B
 70
     0
 10
0.0
 20
0.0
 30
0.0
  3
A$C06B82C3B
  1

  0
CIRCLE
  5
12F1
330
12F0
100
AcDbEntity
  8
0
  6
Continuous
370
     0
100
AcDbCircle
 10
0.2100000128891679
 20
0.2099999738693725
 30
0.0
 40
0.190353501069441
  0
CIRCLE
  5
12F2
330
12F0
100
AcDbEntity
  8
0
  6
Continuous
370
     0
100
AcDbCircle
 10
0.2100000128891679
 20
0.2099999738693725
 30
0.0
 40
0.1762215365181566
  0
CIRCLE
  5
12F3
330
12F0
100
AcDbEntity
  8
0
  6
Continuous
370
     0
100
AcDbCircle
 10
0.2100000128891679
 20
0.2099999738693725
 30
0.0
 40
0.21
  0
CIRCLE
  5
12F4
330
12F0
100
AcDbEntity
  8
0
  6
Continuous
370
     0
100
AcDbCircle
 10
0.2100000128891679
 20
0.2099999738693725
 30
0.0
 40
0.0142627512571157
  0
LWPOLYLINE
  5
12F5
330
12F0
100
AcDbEntity
  8
0
  6
Continuous
370
     0
100
AcDbPolyline
 90
        9
 70
   128
 43
0.0
 10
0.1775311812878222
 20
0.3976650651396838
 10
0.1764864628582323
 20
0.4056706834829508
 10
0.1761382233816988
 20
0.4103696324400321
 10
0.1803170857085234
 20
0.4112398089736118
 10
0.1837994576907427
 20
0.4117619192180122
 10
0.1895453862704066
 20
0.4121099855071914
 10
0.1904159735701895
 20
0.4081071763355571
 10
0.1911124525232495
 20
0.4014938375631835
 10
0.1912865722615144
 20
0.3997534917031107
  0
LWPOLYLINE
  5
12F6
330
12F0
100
AcDbEntity
  8
0
  6
Continuous
370
     0
100
AcDbPolyline
 90
        9
 70
   128
 43
0.0
 10
0.1528075761770253
 20
0.3916629494312022
 10
0.1507051347651398
 20
0.3994578902112717
 10
0.1497336938595133
 20
0.4040684969610541
 10
0.1537592870569284
 20
0.4054878971706746
 10
0.1571409970490407
 20
0.4064695036392223
 10
0.16278926481694
 20
0.4075803216289931
 10
0.1641856065386555
 20
0.4037292655001839
 10
0.165757342939834
 20
0.3972677658804766
 10
0.1661618744936568
 20
0.3955661561667387
  0
LWPOLYLINE
  5
12F7
330
12F0
100
AcDbEntity
  8
0
  6
Continuous
370
     0
100
AcDbPolyline
 90
        9
 70
   128
 43
0.0
 10
0.1291045714542669
 20
0.3824190536201452
 10
0.125981925176891
 20
0.3898642159341286
 10
0.1244046182281479
 20
0.3943042040899378
 10
0.1282051054901778
 20
0.3962474987452306
 10
0.1314258067972602
 20
0.3976710846472411
 10
0.1368756202812626
 20
0.3995248317642605
 10
0.1387727986738127
 20
0.3958942508661245
 10
0.1411917448497917
 20
0.3896998960128765
 10
0.1418194693440142
 20
0.3880673877111267
  0
LWPOLYLINE
  5
12F8
330
12F0
100
AcDbEntity
  8
0
  6
Continuous
370
     0
100
AcDbPolyline
 90
        9
 70
   128
 43
0.0
 10
0.1068451478003673
 20
0.3700983352462508
 10
0.1027580203542904
 20
0.377060859996277
 10
0.1006029944423012
 20
0.381250997864285
 10
0.1041105559837199
 20
0.3836835088260901
 10
0.107112775114647
 20
0.3855236702374185
 10
0.1122668822640236
 20
0.3880872663204648
 10
0.114631042134043
 20
0.3847419484551419
 10
0.1178540319330068
 20
0.3789252767774531
 10
0.1186937476091571
 20
0.3773910020370134
  0
LWPOLYLINE
  5
12F9
330
12F0
100
AcDbEntity
  8
0
  6
Continuous
370
     0
100
AcDbPolyline
 90
        9
 70
   128
 43
0.0
 10
0.0864265251577585
 20
0.3549206578207862
 10
0.0814478514290862
 20
0.3612762985877466
 10
0.0787535630423015
 20
0.3651418130584325
 10
0.0819056063443036
 20
0.3680201321110097
 10
0.0846357686275638
 20
0.3702440313076742
 10
0.0894021942781293
 20
0.3734717289239135
 10
0.0921911471367345
 20
0.3704713713679606
 10
0.0961606662293661
 20
0.3651361815097225
 10
0.0971973883413106
 20
0.3637275194996814
  0
LWPOLYLINE
  5
12FA
330
12F0
100
AcDbEntity
  8
0
  6
Continuous
370
     0
100
AcDbPolyline
 90
        9
 70
   128
 43
0.0
 10
0.0682130743312257
 20
0.337156867356974
 10
0.0624316988705971
 20
0.3427922075808123
 10
0.0592462276491048
 20
0.3462641184568724
 10
0.0619865044242971
 20
0.3495368819285396
 10
0.064395890049262
 20
0.3521048333766892
 10
0.0686895772223686
 20
0.3559390341856954
 10
0.0718535541397181
 20
0.353337178390781
 10
0.0764987663637768
 20
0.3485786769414041
 10
0.0777139945808614
 20
0.3473207652687016
  0
LWPOLYLINE
  5
12FB
330
12F0
100
AcDbEntity
  8
0
  6
Continuous
370
     0
100
AcDbPolyline
 90
        9
 70
   128
 43
0.0
 10
0.0525298147822575
 20
0.317123959116472
 10
0.0460489063717269
 20
0.3219384360173922
 10
0.0424290971249412
 20
0.3249547869669911
 10
0.0447087070693506
 20
0.3285635923160619
 10
0.0467543204924645
 20
0.3314297708612716
 10
0.0504986482387864
 20
0.3358020534587726
 10
0.0539811879718392
 20
0.3336451296031946
 10
0.0592191994051312
 20
0.3295482321337743
 10
0.0605912479510415
 20
0.3284635182620121
  0
LWPOLYLINE
  5
12FC
330
12F0
100
AcDbEntity
  8
0
  6
Continuous
370
     0
100
AcDbPolyline
 90
        9
 70
   128
 43
0.0
 10
0.0396566146490436
 20
0.2951794208214213
 10
0.0325918252527302
 20
0.2990871199450691
 10
0.0286022735624165
 20
0.3015940841140523
 10
0.0303805369825838
 20
0.3054745321235792
 10
0.0320258741838479
 20
0.3085877907418073
 10
0.0351540248860473
 20
0.313420131641271
 10
0.038892981430763
 20
0.3117466300823306
 10
0.0446303196351749
 20
0.3083844458252667
 10
0.0461347042711004
 20
0.3074922864991834
  0
LWPOLYLINE
  5
12FD
330
12F0
100
AcDbEntity
  8
0
  6
Continuous
370
     0
100
AcDbPolyline
 90
        9
 70
   128
 43
0.0
 10
0.0298231964929343
 20
0.2717148532775742
 10
0.022300597444989
 20
0.2746460416405103
 10
0.0180124969555706
 20
0.2765988821938929
 10
0.0192576806986295
 20
0.2806817261772174
 10
0.0204733805967159
 20
0.2839865086946673
 10
0.0229295323313998
 20
0.2891926746582598
 10
0.0268581839196642
 20
0.2880324590709211
 10
0.0329924659590155
 20
0.2854649862839338
 10
0.0346023409054901
 20
0.284781302107838
  0
LWPOLYLINE
  5
12FE
330
12F0
100
AcDbEntity
  8
0
  6
Continuous
370
     0
100
AcDbPolyline
 90
        9
 70
   128
 43
0.0
 10
0.0232050378938844
 20
0.2471489822486337
 10
0.0153588701525287
 20
0.2490513527250826
 10
0.0108487421188315
 20
0.2504152211769259
 10
0.0115386258513901
 20
0.2546276026864387
 10
0.0123029942528099
 20
0.2580649351807942
 10
0.0140433169340923
 20
0.2635520220535614
 10
0.0180915566852349
 20
0.2629257965124676
 10
0.0245133161512108
 20
0.2611988518082633
 10
0.026199953151675
 20
0.2607358431424771
  0
LWPOLYLINE
  5
12FF
330
12F0
100
AcDbEntity
  8
0
  6
Continuous
370
     0
100
AcDbPolyline
 90
        9
 70
   128
 43
0.0
 10
0.0199202400488829
 20
0.2219201862850895
 10
0.0118905186633356
 20
0.2227597910288317
 10
0.0072388464269686
 20
0.2235103491142993
 10
0.0073611191574763
 20
0.2277770981021714
 10
0.0076605158899987
 20
0.2312856412936401
 10
0.0086539534183991
 20
0.2369557318803448
 10
0.0127495403981612
 20
0.2368746713951122
 10
0.0193441808409602
 20
0.2360190721428505
 10
0.0210774818181818
 20
0.2357850013879812
  0
LWPOLYLINE
  5
1300
330
12F0
100
AcDbEntity
  8
0
  6
Continuous
370
     0
100
AcDbPolyline
 90
        9
 70
   128
 43
0.0
 10
0.0200274202532853
 20
0.1964786738485902
 10
0.0119574357919063
 20
0.1962405300930818
 10
0.0072472285541245
 20
0.1963643840853599
 10
0.0067997083228093
 20
0.2006093603148233
 10
0.0066287906446511
 20
0.2041265041670321
 10
0.0068576151039394
 20
0.2098784155668287
 10
0.0109274634656415
 20
0.2103439666637374
 10
0.0175773033703273
 20
0.2103749810523432
 10
0.0193263375273069
 20
0.2103740252065567
  0
LWPOLYLINE
  5
1301
330
12F0
100
AcDbEntity
  8
0
  6
Continuous
370
     0
100
AcDbPolyline
 90
        9
 70
   128
 43
0.0
 10
0.0235246658738148
 20
0.1712784493312895
 10
0.0155584274004923
 20
0.1699668067574897
 10
0.0108737389210418
 20
0.1694617464791505
 10
0.0098644117370306
 20
0.1736091982488226
 10
0.0092262296782088
 20
0.1770721792464087
 10
0.0086863576904932
 20
0.1828032684641005
 10
0.0126578408936986
 20
0.1838071233727962
 10
0.0192442137096371
 20
0.1847241979497713
 10
0.0209777694904076
 20
0.1849563740701594
  0
LWPOLYLINE
  5
1302
330
12F0
100
AcDbEntity
  8
0
  6
Continuous
370
     0
100
AcDbPolyline
 90
        9
 70
   128
 43
0.0
 10
0.0303495684795116
 20
0.1467692113367
 10
0.0226292337085319
 20
0.1444074762374114
 10
0.0180536623643093
 20
0.1432825145010863
 10
0.0165005396951159
 20
0.1472584304358832
 10
0.0154064816295865
 20
0.1506054516009047
 10
0.0141075472232721
 20
0.1562134472136325
 10
0.0179097940561377
 20
0.1577376921194879
 10
0.0243151658043921
 20
0.1595244616672797
 10
0.026002307864978
 20
0.1599856265654722
  0
LWPOLYLINE
  5
1303
330
12F0
100
AcDbEntity
  8
0
  6
Continuous
370
     0
100
AcDbPolyline
 90
        9
 70
   128
 43
0.0
 10
0.0403803375216967
 20
0.1233883277974694
 10
0.0330436760099459
 20
0.1200186453914895
 10
0.0286588729799853
 20
0.1182938571660177
 10
0.0265896703364348
 20
0.1220272869518908
 10
0.0250592597562971
 20
0.1251986206123643
 10
0.0230244424466406
 20
0.1305834478055612
 10
0.026589601724357
 20
0.1326008825221212
 10
0.0326996683943328
 20
0.1352254620958213
 10
0.0343102896446936
 20
0.1359073862732849
  0
LWPOLYLINE
  5
1304
330
12F0
100
AcDbEntity
  8
0
  6
Continuous
370
     0
100
AcDbPolyline
 90
        9
 70
   128
 43
0.0
 10
0.0534379736891814
 20
0.1015530311342623
 10
0.0466159083351414
 20
0.0972355334839552
 10
0.0425001205333935
 20
0.0949416976560773
 10
0.0399517628856785
 20
0.0983660181500525
 10
0.0380123100039924
 20
0.1013050717816775
 10
0.0352779211540905
 20
0.1063706381865117
 10
0.0385423725248834
 20
0.1088452615434665
 10
0.0442480998321102
 20
0.1122608154584021
 10
0.0457534586978738
 20
0.1131513299620365
  0
LWPOLYLINE
  5
1305
330
12F0
100
AcDbEntity
  8
0
  6
Continuous
370
     0
100
AcDbPolyline
 90
        9
 70
   128
 43
0.0
 10
0.0692894631552114
 20
0.081652972733318
 10
0.0631037338767477
 20
0.0764647056865364
 10
0.0593304076340395
 20
0.0736427558109441
 10
0.056348370484752
 20
0.0766968599326816
 10
0.0540344848841379
 20
0.0793511860537741
 10
0.0506493197277926
 20
0.0840070965177483
 10
0.0535548089796194
 20
0.086894748802667
 10
0.0587543780851227
 20
0.0910403264183107
 10
0.060127611401672
 20
0.0921235399957024
  0
LWPOLYLINE
  5
1306
330
12F0
100
AcDbEntity
  8
0
  6
Continuous
370
     0
100
AcDbPolyline
 90
        9
 70
   128
 43
0.0
 10
0.0876519357147423
 20
0.0640432696082431
 10
0.0822129269973645
 20
0.0580768179133493
 10
0.0788493974098898
 20
0.0547771117524256
 10
0.0754868952826087
 20
0.057406498941523
 10
0.0728398683064242
 20
0.0597287310395682
 10
0.06886433519605
 20
0.0638919007301499
 10
0.071359013804372
 20
0.0671410517195987
 10
0.0759596382742877
 20
0.0719426751051913
 10
0.077176240660556
 20
0.0731992577843865
  0
LWPOLYLINE
  5
1307
330
12F0
100
AcDbEntity
  8
0
  6
Continuous
370
     0
100
AcDbPolyline
 90
        9
 70
   128
 43
0.0
 10
0.1081977126099254
 20
0.0490381673284865
 10
0.1036024836930558
 20
0.0424000024573239
 10
0.1007087730259819
 20
0.0386814233456825
 10
0.0970258098508303
 20
0.0408391721254553
 10
0.0940928777581753
 20
0.0427878699136528
 10
0.0895979201763062
 20
0.0463840069690864
 10
0.0916372705422645
 20
0.0499366754866841
 10
0.0955568521239343
 20
0.0553086595591541
 10
0.0965951132815128
 20
0.0567161875924782
  0
LWPOLYLINE
  5
1308
330
12F0
100
AcDbEntity
  8
0
  6
Continuous
370
     0
100
AcDbPolyline
 90
        9
 70
   128
 43
0.0
 10
0.1305601539653373
 20
0.036905432299708
 10
0.1268907068178535
 20
0.0297140124616639
 10
0.1245184534065906
 20
0.0256429185316467
 10
0.1205807517486761
 20
0.0272905238240036
 10
0.117414252782229
 20
0.0288309127441533
 10
0.1124800833534003
 20
0.0317958440134926
 10
0.1140277132214002
 20
0.0355886326053785
 10
0.1171963068886441
 20
0.0414351141816898
 10
0.1180376990225795
 20
0.0429684701980388
  0
LWPOLYLINE
  5
1309
330
12F0
100
AcDbEntity
  8
0
  6
Continuous
370
     0
100
AcDbPolyline
 90
        9
 70
   128
 43
0.0
 10
0.1543402014852084
 20
0.0278615734659269
 10
0.1516620174783902
 20
0.0202452297183768
 10
0.1498535542412646
 20
0.015894269737613
 10
0.1457313824799584
 20
0.0170023299870774
 10
0.1423878228887893
 20
0.0181069217624099
 10
0.1371024919833523
 20
0.0203877379769111
 10
0.1381307838617331
 20
0.0243529642408102
 10
0.140491845985494
 20
0.0305696127187289
 10
0.1411213544332241
 20
0.0322014339436673
  0
LWPOLYLINE
  5
130A
330
12F0
100
AcDbEntity
  8
0
  6
Continuous
370
     0
100
AcDbPolyline
 90
        9
 70
   128
 43
0.0
 10
0.1791134996581895
 20
0.0220679787022835
 10
0.1774743710490867
 20
0.0141626248798392
 10
0.1762619700554033
 20
0.009609441832259
 10
0.172028888443446
 20
0.0101581836774311
 10
0.1685679341276653
 20
0.0108072668415461
 10
0.1630257586008419
 20
0.0123632667818274
 10
0.163516362596674
 20
0.0164301711611241
 10
0.165027759967419
 20
0.0229060503012839
 10
0.1654341511357806
 20
0.0246072168463929
  0
LWPOLYLINE
  5
130B
330
12F0
100
AcDbEntity
  8
0
  6
Continuous
370
     0
100
AcDbPolyline
 90
        9
 70
   128
 43
0.0
 10
0.2044379683914918
 20
0.0196280348445885
 10
0.2038671454689655
 20
0.0115747421734937
 10
0.203272442043179
 20
0.0069005877184462
 10
0.1990039900222164
 20
0.0068802188480994
 10
0.1954874017935886
 20
0.0070622104965565
 10
0.1897872818989512
 20
0.0078656273068223
 10
0.189731443172306
 20
0.0119616357965189
 10
0.1903662048681447
 20
0.0185811833822491
 10
0.1905422266971115
 20
0.0203213378902305
  0
LWPOLYLINE
  5
130C
330
12F0
100
AcDbEntity
  8
0
  6
Continuous
370
     0
100
AcDbPolyline
 90
        9
 70
   128
 43
0.0
 10
0.22986169194062
 20
0.0205852827487849
 10
0.2303693610532491
 20
0.0125277624275402
 10
0.2304029676920827
 20
0.007816046962013
 10
0.2261753158895523
 20
0.0072269308591188
 10
0.2226658473483205
 20
0.0069385833466384
 10
0.2169095018604246
 20
0.0069750800348771
 10
0.2163082168547028
 20
0.011027099266439
 10
0.2160550155381386
 20
0.0176721893142524
 10
0.215997526914002
 20
0.0194202786866882
  0
LWPOLYLINE
  5
130D
330
12F0
100
AcDbEntity
  8
0
  6
Continuous
370
     0
100
AcDbPolyline
 90
        9
 70
   128
 43
0.0
 10
0.2549309833565445
 20
0.0249226403033464
 10
0.2565080851369821
 20
0.0170046789729704
 10
0.2571694021291755
 20
0.0123394831710666
 10
0.2530579930916446
 20
0.011192132626439
 10
0.2496182707870709
 20
0.0104385915212131
 10
0.2439084218275198
 20
0.0097075168031573
 10
0.242772420487892
 20
0.013643238397405
 10
0.2416357745424165
 20
0.0201952891179715
 10
0.2413458013510379
 20
0.0219201186585956
  0
LWPOLYLINE
  5
130E
330
12F0
100
AcDbEntity
  8
0
  6
Continuous
370
     0
100
AcDbPolyline
 90
        9
 70
   128
 43
0.0
 10
0.279198480540046
 20
0.0325627072599577
 10
0.2818168715696601
 20
0.0249256011279701
 10
0.2830940976978127
 20
0.0203901755192941
 10
0.2791722996169597
 20
0.0187050650305824
 10
0.2758637054750572
 20
0.0174997772914871
 10
0.270302245433804
 20
0.0160141772127993
 10
0.2686517997310887
 20
0.0197633681246447
 10
0.2666519926305249
 20
0.0261054580176356
 10
0.2661347094503768
 20
0.0277762481024339
  0
LWPOLYLINE
  5
130F
330
12F0
100
AcDbEntity
  8
0
  6
Continuous
370
     0
100
AcDbPolyline
 90
        9
 70
   128
 43
0.0
 10
0.302231129428975
 20
0.0433691464427799
 10
0.3058440844578101
 20
0.0361491798490334
 10
0.3077144275914101
 20
0.0318244592110197
 10
0.3040522250468989
 20
0.0296316596148181
 10
0.3009338010085116
 20
0.0279961336301095
 10
0.2956199742717409
 20
0.0257825187593887
 10
0.2934845364486058
 20
0.0292782745881883
 10
0.2906572547980417
 20
0.0352972289092168
 10
0.2899218925597218
 20
0.0368841642495425
  0
LWPOLYLINE
  5
1310
330
12F0
100
AcDbEntity
  8
0
  6
Continuous
370
     0
100
AcDbPolyline
 90
        9
 70
   128
 43
0.0
 10
0.3236179118582534
 20
0.0571491166885867
 10
0.3281609576182305
 20
0.0504751301079924
 10
0.3305910414397495
 20
0.0464382891828805
 10
0.3272537865227427
 20
0.0437769310399289
 10
0.3243811809387118
 20
0.0417403528095512
 10
0.3194098128704325
 20
0.0388382251566082
 10
0.3168274898654175
 20
0.0420181640567811
 10
0.3132231865728876
 20
0.047606574423396
 10
0.3122828678329625
 20
0.0490813361205084
  0
LWPOLYLINE
  5
1311
330
12F0
100
AcDbEntity
  8
0
  6
Continuous
370
     0
100
AcDbPolyline
 90
        9
 70
   128
 43
0.0
 10
0.3429771801887753
 20
0.0736567141018902
 10
0.3483692459206757
 20
0.0676478049830855
 10
0.3513157055267477
 20
0.0639708812928177
 10
0.3483629516302997
 20
0.0608884566022283
 10
0.3457874262153311
 20
0.0584871689129507
 10
0.341247230996494
 20
0.0549483170145031
 10
0.3382641044248018
 20
0.0577556929010416
 10
0.3339470983679469
 20
0.0628138339978594
 10
0.3328186031366051
 20
0.0641501048943365
  0
LWPOLYLINE
  5
1312
330
12F0
100
AcDbEntity
  8
0
  6
Continuous
370
     0
100
AcDbPolyline
 90
        9
 70
   128
 43
0.0
 10
0.3599634678185417
 20
0.092597360215775
 10
0.3661083319816427
 20
0.0873607576843405
 10
0.3695185877307985
 20
0.0841093660192787
 10
0.3670030268181463
 20
0.080660880722677
 10
0.3647705418842797
 20
0.0779377346102006
 10
0.3607425394061252
 20
0.0738253093622152
 10
0.3574118432320965
 20
0.076210024545917
 10
0.3524591714862737
 20
0.0806476337252348
 10
0.351162637787656
 20
0.0818215680352702
  0
LWPOLYLINE
  5
1313
330
12F0
100
AcDbEntity
  8
0
  6
Continuous
370
     0
100
AcDbPolyline
 90
        9
 70
   128
 43
0.0
 10
0.3742736540423976
 20
0.1136330587516294
 10
0.3810616613901345
 20
0.109262210103795
 10
0.3848748571877358
 20
0.106494371625228
 10
0.3828413795029597
 20
0.1027413640244283
 10
0.3809917737967261
 20
0.0997449540956445
 10
0.3775478438589026
 20
0.0951323418240957
 10
0.3739290144346725
 20
0.0970518410060119
 10
0.3684290575445175
 20
0.1007897290268964
 10
0.3669876220531911
 20
0.101780377864916
  0
LWPOLYLINE
  5
1314
330
12F0
100
AcDbEntity
  8
0
  6
Continuous
370
     0
100
AcDbPolyline
 90
        9
 70
   128
 43
0.0
 10
0.3856523732481598
 20
0.1363884271707327
 10
0.3929623916285969
 20
0.1329613303041679
 10
0.397110480905301
 20
0.1307264371553174
 10
0.3955953739058593
 20
0.1267358797598667
 10
0.394161653684911
 20
0.1235196770209405
 10
0.3913632532987456
 20
0.1184891899010889
 10
0.3875208687211184
 20
0.119909219572845
 10
0.3815717735476305
 20
0.1228806837350102
 10
0.3800111587140868
 20
0.1236703689490319
  0
LWPOLYLINE
  5
1315
330
12F0
100
AcDbEntity
  8
0
  6
Continuous
370
     0
100
AcDbPolyline
 90
        9
 70
   128
 43
0.0
 10
0.3938965719220313
 20
0.1604573953845633
 10
0.4015981538839987
 20
0.1580352069240405
 10
0.4060071138883891
 20
0.1563731408260942
 10
0.4050374146945827
 20
0.1522162452272528
 10
0.4040451647302242
 20
0.1488376428922517
 10
0.4019422314169035
 20
0.1434790500859257
 10
0.3979448591296943
 20
0.1443742697843877
 10
0.3916527874171862
 20
0.1465262842394672
 10
0.390000842450096
 20
0.1471009138781376
  0
LWPOLYLINE
  5
1316
330
12F0
100
AcDbEntity
  8
0
  6
Continuous
370
     0
100
AcDbPolyline
 90
        9
 70
   128
 43
0.0
 10
0.3988591321433716
 20
0.1854104520851418
 10
0.4068148427743025
 20
0.1840363960411206
 10
0.411405995510652
 20
0.1829768166029719
 10
0.4109990084275666
 20
0.1787277627011789
 10
0.4104659354439164
 20
0.1752470520088138
 10
0.409095996098241
 20
0.1696559777315904
 10
0.405014969304613
 20
0.1700104122400301
 10
0.3984922032218527
 20
0.1713045742390893
 10
0.396778407118294
 20
0.171653894022894
  0
LWPOLYLINE
  5
1317
330
12F0
100
AcDbEntity
  8
0
  6
Continuous
370
     0
100
AcDbPolyline
 90
        9
 70
   128
 43
0.0
 10
0.4004514969074649
 20
0.2108023093844959
 10
0.4085193663626754
 20
0.2105009058196359
 10
0.4132107826016415
 20
0.2100627212614583
 10
0.4133737703234104
 20
0.205797333524254
 10
0.4133093870204974
 20
0.2022766278392893
 10
0.4126968882425394
 20
0.1965528449440992
 10
0.4086050329623098
 20
0.1963601693703172
 10
0.4019679714245683
 20
0.1967733845618227
 10
0.4002229069166106
 20
0.1968911608709458
  0
LWPOLYLINE
  5
1318
330
12F0
100
AcDbEntity
  8
0
  6
Continuous
370
     0
100
AcDbPolyline
 90
        9
 70
   128
 43
0.0
 10
0.3986452504273749
 20
0.2361798489875753
 10
0.4066813073853019
 20
0.2369564764556298
 10
0.4113892686929575
 20
0.2371475061912473
 10
0.4121193226998301
 20
0.2329419005638513
 10
0.412524777999213
 20
0.229444026962641
 10
0.4126806498441767
 20
0.2236896764908476
 10
0.4086509853317608
 20
0.2229533291350236
 10
0.4020180668594157
 20
0.2224782236840959
 10
0.4002728746645446
 20
0.2223623547975073
  0
LWPOLYLINE
  5
1319
330
12F0
100
AcDbEntity
  8
0
  6
Continuous
370
     0
100
AcDbPolyline
 90
        9
 70
   128
 43
0.0
 10
0.3934726252143221
 20
0.2610902080989579
 10
0.4013334660481788
 20
0.2629310076643616
 10
0.4059739587434521
 20
0.2637478427636139
 10
0.40725805120438
 20
0.25967706837808
 10
0.4081261097466396
 20
0.2562644464979051
 10
0.4090475706777604
 20
0.2505822149700005
 10
0.4051520063918411
 20
0.249315335968145
 10
0.3986415955721725
 20
0.2479603881428094
 10
0.3969274186864453
 20
0.2476129417435366
  0
LWPOLYLINE
  5
131A
330
12F0
100
AcDbEntity
  8
0
  6
Continuous
370
     0
100
AcDbPolyline
 90
        9
 70
   128
 43
0.0
 10
0.3850259268877849
 20
0.2850888607701627
 10
0.3925712747066612
 20
0.2879609833210619
 10
0.3970614890874699
 20
0.2893890473422544
 10
0.3988767053420652
 20
0.2855257472639288
 10
0.4001918766019515
 20
0.2822592754230868
 10
0.4018624831270828
 20
0.2767505623953035
 10
0.398170535504633
 20
0.2749757592332145
 10
0.3918988107729504
 20
0.2727651481095137
 10
0.3902462387235061
 20
0.2721923243867845
  0
LWPOLYLINE
  5
131B
330
12F0
100
AcDbEntity
  8
0
  6
Continuous
370
     0
100
AcDbPolyline
 90
        9
 70
   128
 43
0.0
 10
0.3734558869794995
 20
0.3077475504757334
 10
0.3805510948728141
 20
0.311599742917167
 10
0.3848109029571631
 20
0.3136135520240071
 10
0.3871248504283606
 20
0.3100266669343128
 10
0.3888636651435817
 20
0.3069646354001883
 10
0.3912536052497017
 20
0.3017277439870085
 10
0.3878311571835091
 20
0.2994766880691611
 10
0.3819100376162261
 20
0.2964498620549669
 10
0.3803485605904377
 20
0.2956618830616833
  0
LWPOLYLINE
  5
131C
330
12F0
100
AcDbEntity
  8
0
  6
Continuous
370
     0
100
AcDbPolyline
 90
        9
 70
   128
 43
0.0
 10
0.3589689731257301
 20
0.3286619323610828
 10
0.3654874269405397
 20
0.3334254522276705
 10
0.3694408123522414
 20
0.3359890699489405
 10
0.3722121985925994
 20
0.332742607897277
 10
0.3743436275733707
 20
0.3299396586951371
 10
0.3774102527226723
 20
0.3250680413478939
 10
0.374318377879554
 20
0.3223809028204698
 10
0.3688535259956254
 20
0.3185918756977148
 10
0.3674110085880073
 20
0.317602802937678
  0
LWPOLYLINE
  5
131D
330
12F0
100
AcDbEntity
  8
0
  6
Continuous
370
     0
100
AcDbPolyline
 90
        9
 70
   128
 43
0.0
 10
0.3418237046473997
 20
0.3474587887859925
 10
0.3476490824209542
 20
0.3530486309528662
 10
0.3512254969036803
 20
0.3561163094695967
 10
0.3544048664600865
 20
0.3532682036481862
 10
0.3568908743057477
 20
0.3507743554729465
 10
0.3605794604997889
 20
0.3463549463186126
 10
0.3578733334595725
 20
0.3432796772322924
 10
0.352962269670332
 20
0.3387960642797445
 10
0.3516644536382003
 20
0.3376235477797902
  0
LWPOLYLINE
  5
131E
330
12F0
100
AcDbEntity
  8
0
  6
Continuous
370
     0
100
AcDbPolyline
 90
        9
 70
   128
 43
0.0
 10
0.3223260392666809
 20
0.3638026894022541
 10
0.3273543869946067
 20
0.3701191030035211
 10
0.3304900093471872
 20
0.3736360995199064
 10
0.3340206262945813
 20
0.3712371744446034
 10
0.3368168501362376
 20
0.3690969300760311
 10
0.3410615744670018
 20
0.3652085935756641
 10
0.3387894861308247
 20
0.3618000721801504
 10
0.3345198484859359
 20
0.3567018835771663
 10
0.3333898933871282
 20
0.3553668469220134
  0
LWPOLYLINE
  5
131F
330
12F0
100
AcDbEntity
  8
0
  6
Continuous
370
     0
100
AcDbPolyline
 90
        9
 70
   128
 43
0.0
 10
0.300823913284205
 20
0.3774019769161789
 10
0.3049654999821705
 20
0.3843322454014846
 10
0.3076043749494417
 20
0.3882357990313689
 10
0.3114232353447583
 20
0.3863288635769777
 10
0.314479776501706
 20
0.3845804157265338
 10
0.3192048917629506
 20
0.381292539337096
 10
0.3174073876010048
 20
0.3776115907774393
 10
0.3138553678853881
 20
0.3719898038204192
 10
0.3129134377954123
 20
0.3705160707708064
  0
LWPOLYLINE
  5
1320
330
12F0
100
AcDbEntity
  8
0
  6
Continuous
370
     0
100
AcDbPolyline
 90
        9
 70
   128
 43
0.0
 10
0.2777010326475207
 20
0.3880139717199053
 10
0.2808819516027867
 20
0.39543442428395
 10
0.2829769883984348
 20
0.3996548760203335
 10
0.287015944587452
 20
0.39827395949521
 10
0.2902782590103357
 20
0.3969485092562052
 10
0.2953994454082896
 20
0.3943197652097616
 10
0.2941086019249219
 20
0.3904320761002129
 10
0.2913375860145564
 20
0.3843870117105847
 10
0.2906004896981784
 20
0.3828008810676948
  0
LWPOLYLINE
  5
1321
330
12F0
100
AcDbEntity
  8
0
  6
Continuous
370
     0
100
AcDbPolyline
 90
        9
 70
   128
 43
0.0
 10
0.2533700257093798
 20
0.3954493025147609
 10
0.2555335133478351
 20
0.4032275210057427
 10
0.2570473259906123
 20
0.4076895567874033
 10
0.2612343027044481
 20
0.4068593016796563
 10
0.2646441743151087
 20
0.4059805017430076
 10
0.2700700441571691
 20
0.4040578000393414
 10
0.2693088964849259
 20
0.4000327462841593
 10
0.2673683332243755
 20
0.3936722787791691
 10
0.2668492241828311
 20
0.3920020550819014
  0
LWPOLYLINE
  5
1322
330
12F0
100
AcDbEntity
  8
0
  6
Continuous
370
     0
100
AcDbPolyline
 90
        9
 70
   128
 43
0.0
 10
0.228265079865011
 20
0.399575285646561
 10
0.2293725286984873
 20
0.4075724675712423
 10
0.2302781031659222
 20
0.4121964622639495
 10
0.234538383705928
 20
0.4119316844956434
 10
0.2380349632646919
 20
0.4115152170670396
 10
0.2436686917749888
 20
0.4103328683636019
 10
0.243450822612111
 20
0.4062422771424056
 10
0.2423753413987342
 20
0.3996799092153597
 10
0.2420834831451621
 20
0.3979553976451608
  0
LWPOLYLINE
  5
1323
330
12F0
100
AcDbEntity
  8
0
  6
Continuous
370
     0
100
AcDbPolyline
 90
        9
 70
   128
 43
0.0
 10
0.2028341934677478
 20
0.400318292848576
 10
0.202865841045579
 20
0.4083917283060519
 10
0.2031470173398482
 20
0.413095166614971
 10
0.2074045768988597
 20
0.4134005911516531
 10
0.2109254678606618
 20
0.4134538881022252
 10
0.2166665210204677
 20
0.4130329914396374
 10
0.2169958182473266
 20
0.4089498594496775
 10
0.2168046110688522
 20
0.4023026967117005
 10
0.2167452118207045
 20
0.4005546712183942
  0
LWPOLYLINE
  5
1324
330
12F0
100
AcDbEntity
  8
0
  6
Continuous
370
     0
100
AcDbPolyline
 90
        7
 70
   128
 43
0.0
 10
0.2204147824743643
 20
0.218646497073113
 10
0.2158801622524784
 20
0.215980357585483
 10
0.2124125195356576
 20
0.2154471340122104
 10
0.2094783541798257
 20
0.2154471340122104
 10
0.2065442002155322
 20
0.2170468119391167
 10
0.2044102679884965
 20
0.2191797206463857
 10
0.2030765574987114
 20
0.2213126293536547
  0
LWPOLYLINE
  5
1325
330
12F0
100
AcDbEntity
  8
0
  6
Continuous
370
     0
100
AcDbPolyline
 90
        7
 70
   128
 43
0.0
 10
0.2013534896854274
 20
0.2204147434545689
 10
0.2040196291730574
 20
0.215880123232683
 10
0.2045528527463318
 20
0.212412480515864
 10
0.2045528527463318
 20
0.2094783151600285
 10
0.2029531748194237
 20
0.2065441611957386
 10
0.2008202661121565
 20
0.2044102289686993
 10
0.1986873574048857
 20
0.2030765184789143
  0
LWPOLYLINE
  5
1326
330
12F0
100
AcDbEntity
  8
0
  6
Continuous
370
     0
100
AcDbPolyline
 90
        7
 70
   128
 43
0.0
 10
0.1995852433039715
 20
0.2013534506656338
 10
0.2041198635258574
 20
0.204019590153262
 10
0.2075875062426782
 20
0.2045528137265364
 10
0.2105216715985136
 20
0.2045528137265364
 10
0.2134558255628036
 20
0.2029531357996283
 10
0.2155897577898429
 20
0.2008202270923593
 10
0.2169234682796244
 20
0.1986873183850903
  0
LWPOLYLINE
  5
1327
330
12F0
100
AcDbEntity
  8
0
  6
Continuous
370
     0
100
AcDbPolyline
 90
        7
 70
   128
 43
0.0
 10
0.2186465360929084
 20
0.1995852042841761
 10
0.2159803966052784
 20
0.204119824506062
 10
0.215447173032004
 20
0.2075874672228828
 10
0.215447173032004
 20
0.2105216325787165
 10
0.2170468509589121
 20
0.2134557865430082
 10
0.2191797596661828
 20
0.2155897187700457
 10
0.2213126683734501
 20
0.2169234292598307
  0
LWPOLYLINE
  5
1328
330
12F0
100
AcDbEntity
  8
0
  6
Continuous
370
     0
100
AcDbPolyline
 90
       15
 70
   128
 43
0.0
 10
0.1964080050497898
 20
0.2173134309328421
 10
0.1905396857296644
 20
0.2162469765792067
 10
0.1873387759975635
 20
0.2167802001524812
 10
0.1841378776570081
 20
0.2199795632133838
 10
0.1841378776570081
 20
0.2245119996216456
 10
0.186005076899324
 20
0.2306441139568154
 10
0.1908064301059298
 20
0.2351765431579888
 10
0.1950742945600048
 20
0.2375760636518951
 10
0.1998756477666106
 20
0.2386425180055287
 10
0.2036100348597003
 20
0.238109294432256
 10
0.2073444219527864
 20
0.235976385724987
 10
0.2086781324425715
 20
0.2327770226640844
 10
0.2086781324425715
 20
0.2301108831764544
 10
0.2073444219527864
 20
0.22691152011555
 10
0.2052104897257507
 20
0.2239787688412846
  0
LWPOLYLINE
  5
1329
330
12F0
100
AcDbEntity
  8
0
  6
Continuous
370
     0
100
AcDbPolyline
 90
       15
 70
   128
 43
0.0
 10
0.1988443404822675
 20
0.1993331887644398
 10
0.198045188446283
 20
0.1934225329163368
 10
0.1965489271875995
 20
0.190543062003492
 10
0.1925170201160355
 20
0.1884874843357025
 10
0.1882064169352659
 20
0.1898880842117787
 10
0.1829514259358937
 20
0.1935588237594228
 10
0.1801245293463118
 20
0.1995257796625651
 10
0.1791612923905958
 20
0.2043262525732459
 10
0.1796307337650766
 20
0.2092221633464195
 10
0.1812918485944195
 20
0.212609001379727
 10
0.1844743543944709
 20
0.2155015095209798
 10
0.1879292686884532
 20
0.2157812860161456
 10
0.1904649180215152
 20
0.2149574036050943
 10
0.1930955539016636
 20
0.2127003119959383
 10
0.195225344788728
 20
0.2097645518620599
  0
LWPOLYLINE
  5
132A
330
12F0
100
AcDbEntity
  8
0
  6
Continuous
370
     0
100
AcDbPolyline
 90
       15
 70
   128
 43
0.0
 10
0.216697436013721
 20
0.1960940810603642
 10
0.2220718522134319
 20
0.1935075492040674
 10
0.2243480216316165
 20
0.1911947147370405
 10
0.225057064362467
 20
0.1867249348109272
 10
0.2223929650847367
 20
0.1830581167307183
 10
0.2172780027942345
 20
0.1791946441998426
 10
0.2107295314125821
 20
0.1783499965561823
 10
0.2058663537806566
 20
0.1789173314831504
 10
0.2013551312992057
 20
0.1808767163932234
 10
0.1986473696298674
 20
0.1835031209854722
 10
0.1968798792906057
 20
0.1874236980367705
 10
0.1976814232627219
 20
0.1907959724809398
 10
0.1992485407341036
 20
0.1929529246358061
 10
0.2022080736098459
 20
0.1947573283665296
 10
0.2056582889940159
 20
0.1958756800952414
  0
LWPOLYLINE
  5
132B
330
12F0
100
AcDbEntity
  8
0
  6
Continuous
370
     0
100
AcDbPolyline
 90
       15
 70
   128
 43
0.0
 10
0.2252949204240835
 20
0.2120724445744262
 10
0.2294156443411737
 20
0.2163845358223533
 10
0.2323186556644501
 20
0.2178345964242218
 10
0.2367887752431557
 20
0.2171276981754424
 10
0.2394528745208859
 20
0.2134608800952353
 10
0.2415466449735497
 20
0.2074023832089064
 10
0.2403263636749173
 20
0.2009134063534645
 10
0.2382839915607739
 20
0.1964635657106566
 10
0.2350264613619437
 20
0.1927786214089515
 10
0.2316918577875135
 20
0.1910149906818627
 10
0.2274169828830139
 20
0.1905455324138252
 10
0.2244574500072751
 20
0.1923499361445486
 10
0.2228903325358935
 20
0.1945068882994149
 10
0.2220887885637737
 20
0.1978791627435843
 10
0.2220913480526363
 20
0.2015061022571842
  0
LWPOLYLINE
  5
132C
330
12F0
100
AcDbEntity
  8
0
  6
Continuous
370
     0
100
AcDbPolyline
 90
       15
 70
   128
 43
0.0
 10
0.2127553624759777
 20
0.225186724014792
 10
0.2099276937152865
 20
0.2304382748249001
 10
0.2094456839646099
 20
0.2336472960296287
 10
0.2114993270671768
 20
0.2376801888114084
 10
0.2158099302479499
 20
0.2390807886874846
 10
0.2222189138428412
 20
0.2391999042218771
 10
0.2280132099061021
 20
0.2360341436166617
 10
0.2316141321538119
 20
0.2327166559279181
 10
0.2341120902530029
 20
0.2284798501927394
 10
0.2347589535743388
 20
0.2247634618675462
 10
0.2338844259249662
 20
0.2205527436503019
 10
0.2312537900448213
 20
0.2182956520411458
 10
0.2287181407117593
 20
0.2174717696300945
 10
0.2252632264177734
 20
0.2177515461252604
 10
0.2218145928847086
 20
0.2188747662910923
  0
LWPOLYLINE
  5
132D
330
12F0
100
AcDbEntity
  8
0
  6
Continuous
370
     0
100
AcDbPolyline
 90
       18
 70
   128
 43
0.0
 10
0.22498831620792
 20
0.2423999114347648
 10
0.2335169823592658
 20
0.2504982489582836
 10
0.2467364126155509
 20
0.2662686896454875
 10
0.2591029694217681
 20
0.2837440389436914
 10
0.2693373710816935
 20
0.3012193954489835
 10
0.2799981923793382
 20
0.3174160632889365
 10
0.2855418299343313
 20
0.3259406207581197
 10
0.2893797205892028
 20
0.3310553610052995
 10
0.2919383181562978
 20
0.3323340424635503
 10
0.2940704846941351
 20
0.3314815881580504
 10
0.2940704846941351
 20
0.3293504523942978
 10
0.2936440536648774
 20
0.3272193094234588
 10
0.2898061630100059
 20
0.322530796329028
 10
0.2761603017244631
 20
0.3046292198780733
 10
0.2608087049303478
 20
0.2824653574854405
 10
0.2522800387789985
 20
0.2701047412273283
 10
0.2411927750605578
 20
0.2513507032637854
 10
0.2343698444177882
 20
0.2360064897293323
  0
LWPOLYLINE
  5
132E
330
12F0
100
AcDbEntity
  8
0
  6
Continuous
370
     0
100
AcDbPolyline
 90
       12
 70
   128
 43
0.0
 10
0.1669934114401492
 20
0.3297766795470487
 10
0.1721106065743392
 20
0.3412848342925709
 10
0.1814921347842038
 20
0.3523667690924324
 10
0.1908736629940683
 20
0.3583339636451122
 10
0.1994023291454212
 20
0.3621700152269529
 10
0.2049459553088688
 20
0.3634486966852055
 10
0.2083574263260246
 20
0.3634486966852055
 10
0.2156067879980554
 20
0.3613175609214529
 10
0.2283997872250758
 20
0.3540716777034341
 10
0.2347962754470423
 20
0.3493831718160915
 10
0.2433249415983916
 20
0.3374487827107302
 10
0.2463099701947478
 20
0.3323340424635503
  0
LWPOLYLINE
  5
132F
330
12F0
100
AcDbEntity
  8
0
  6
Continuous
370
     0
100
AcDbPolyline
 90
       39
 70
   128
 43
0.0
 10
0.1947115650404853
 20
0.2436785928930156
 10
0.1776542327377903
 20
0.2590228064274669
 10
0.166566980410888
 20
0.2760719357800099
 10
0.1631555093937322
 20
0.2858751819145304
 10
0.1644348138730542
 20
0.290989914954622
 10
0.166566980410888
 20
0.2935472850782119
 10
0.166566980410888
 20
0.2969571095073036
 10
0.1635819404229934
 20
0.2990882524781426
 10
0.1605969118266372
 20
0.3012193954489835
 10
0.1605969118266372
 20
0.3054816741835751
 10
0.1593176073473188
 20
0.307186582794575
 10
0.1571854522010234
 20
0.3123013230417566
 10
0.1588911763180576
 20
0.3157111474708465
 10
0.1623026473352169
 20
0.3165636017763482
 10
0.1657141069608272
 20
0.3161373746235973
 10
0.1682727045279257
 20
0.3140062388598448
 10
0.1695520090072442
 20
0.3178422904416873
 10
0.1691255779779865
 20
0.3221045691762789
 10
0.1712577445158203
 20
0.3246619392998688
 10
0.1755220775914949
 20
0.3250881664526179
 10
0.1768013706792715
 20
0.3233832578416163
 10
0.1785071061878511
 20
0.3276455365762078
 10
0.1806392727256884
 20
0.3302029066997978
 10
0.1844771633805599
 20
0.3331865039761386
 10
0.1857564678598784
 20
0.3319078153107995
 10
0.1895943699062954
 20
0.3344651854343894
 10
0.1955644270990042
 20
0.3348914125871402
 10
0.1998287601746788
 20
0.3336127311288894
 10
0.201534495683255
 20
0.3310553610052995
 10
0.201534495683255
 20
0.3267930822707079
 10
0.2023873577417738
 20
0.3250881664526179
 10
0.2019609267125162
 20
0.321678342023528
 10
0.2006816336247397
 20
0.3191209718999381
 10
0.2002551912039365
 20
0.3174160632889365
 10
0.2028137887710315
 20
0.3169898361361856
 10
0.2032402311918346
 20
0.3140062388598448
 10
0.2019609267125162
 20
0.3110226415835058
 10
0.1981230246660992
 20
0.307186582794575
 10
0.196417300549065
 20
0.3033505312127342
  0
LWPOLYLINE
  5
1330
330
12F0
100
AcDbEntity
  8
0
  6
Continuous
370
     0
100
AcDbPolyline
 90
       19
 70
   128
 43
0.0
 10
0.2062252597881908
 20
0.2423999114347648
 10
0.1972701626075839
 20
0.2543343005401244
 10
0.1930058295319057
 20
0.2632850923691468
 10
0.1891679388770342
 20
0.2743670199619199
 10
0.1878886343977157
 20
0.2841702660964405
 10
0.1895943699062954
 20
0.2935472850782119
 10
0.1925793985026516
 20
0.2999407067836444
 10
0.1976965936368415
 20
0.3042029927253242
 10
0.2036666622210923
 20
0.307186582794575
 10
0.2075045642675093
 20
0.3076128171544141
 10
0.2139010524894758
 20
0.306334128489075
 10
0.2177389545358927
 20
0.3016456226017343
 10
0.2228561496700827
 20
0.2935472850782119
 10
0.2258411896579808
 20
0.2816128959728505
 10
0.2258411896579808
 20
0.2730883385036691
 10
0.2241354541494012
 20
0.2620064037038077
 10
0.221150414161503
 20
0.2534818462346244
 10
0.2164596500565707
 20
0.2462359630166055
 10
0.2130481904309604
 20
0.2423999114347648
  0
LWPOLYLINE
  5
1331
330
12F0
100
AcDbEntity
  8
0
  6
Continuous
370
     0
100
AcDbPolyline
 90
       11
 70
   128
 43
0.0
 10
0.2087838573552858
 20
0.2492195602929463
 10
0.2057988287589296
 20
0.2522031575692853
 10
0.2049459553088688
 20
0.2568916706637161
 10
0.205372397729672
 20
0.2598752679400551
 10
0.2066516908174485
 20
0.2624326308565585
 10
0.2087838573552858
 20
0.2637113195218958
 10
0.2109160238931231
 20
0.2628588580093094
 10
0.2134746214602181
 20
0.2598752679400551
 10
0.2130481904309604
 20
0.255612981998377
 10
0.2130481904309604
 20
0.2509244761110345
 10
0.2117688859516384
 20
0.2496457874456954
  0
LWPOLYLINE
  5
1332
330
12F0
100
AcDbEntity
  8
0
  6
Continuous
370
     0
100
AcDbPolyline
 90
       11
 70
   128
 43
0.0
 10
0.2057988287589296
 20
0.2475146516819429
 10
0.2023873577417738
 20
0.2530556118747871
 10
0.2011080646539973
 20
0.2620064037038077
 10
0.2028137887710315
 20
0.2671211439509875
 10
0.2057988287589296
 20
0.2713834226855791
 10
0.2083574263260246
 20
0.2730883385036691
 10
0.2121953283724416
 20
0.2705309683800774
 10
0.2151803569687942
 20
0.2671211439509875
 10
0.2181653855651504
 20
0.2581703521219669
 10
0.2168860924773739
 20
0.2534818462346244
 10
0.2134746214602181
 20
0.2483671059874446
  0
LWPOLYLINE
  5
1333
330
12F0
100
AcDbEntity
  8
0
  6
Continuous
370
     0
100
AcDbPolyline
 90
        8
 70
   128
 43
0.0
 10
0.1968437315783227
 20
0.2632850923691468
 10
0.1981230246660992
 20
0.2701047412273283
 10
0.2023873577417738
 20
0.274793247114669
 10
0.2075045642675093
 20
0.2777768443910098
 10
0.2104895928638619
 20
0.2769243900855098
 10
0.2147539259395366
 20
0.2752194742674199
 10
0.2173125235066315
 20
0.2713834226855791
 10
0.2198711210737265
 20
0.2637113195218958
  0
LWPOLYLINE
  5
1334
330
12F0
100
AcDbEntity
  8
0
  6
Continuous
370
     0
100
AcDbPolyline
 90
       11
 70
   128
 43
0.0
 10
0.1959908581282619
 20
0.2683998254092383
 10
0.1976965936368415
 20
0.2816128959728505
 10
0.2002551912039365
 20
0.2867276362200322
 10
0.2032402311918346
 20
0.2897112334963712
 10
0.2066516908174485
 20
0.291842376467212
 10
0.2079309952967669
 20
0.291842376467212
 10
0.2104895928638619
 20
0.2905636878018729
 10
0.2139010524894758
 20
0.2871538633727812
 10
0.2160332190273131
 20
0.2828915846381896
 10
0.2190182590152112
 20
0.2773506172382589
 10
0.2202975521029877
 20
0.2709571955328283
  0
LWPOLYLINE
  5
1335
330
12F0
100
AcDbEntity
  8
0
  6
Continuous
370
     0
100
AcDbPolyline
 90
       12
 70
   128
 43
0.0
 10
0.1947115650404853
 20
0.2709571955328283
 10
0.1951379960697465
 20
0.2828915846381896
 10
0.1972701626075839
 20
0.2905636878018729
 10
0.2002551912039365
 20
0.2956784280490528
 10
0.2040930932503535
 20
0.2982357981726427
 10
0.2066516908174485
 20
0.2995144796308935
 10
0.2083574263260246
 20
0.2995144796308935
 10
0.2121953283724416
 20
0.2969571095073036
 10
0.2164596500565707
 20
0.290989914954622
 10
0.2185918165944081
 20
0.2863014090672813
 10
0.2207239831322454
 20
0.2799079873618506
 10
0.2207239831322454
 20
0.2752194742674199
  0
LWPOLYLINE
  5
1336
330
12F0
100
AcDbEntity
  8
0
  6
Continuous
370
     0
100
AcDbPolyline
 90
       48
 70
   128
 43
0.0
 10
0.2177389545358927
 20
0.3037767583654851
 10
0.2164596500565707
 20
0.3084652714599159
 10
0.2130481904309604
 20
0.3118750958890057
 10
0.2104895928638619
 20
0.3157111474708465
 10
0.2096367194138011
 20
0.3186947447471873
 10
0.2117688859516384
 20
0.3195471990526872
 10
0.2134746214602181
 20
0.3199734334125263
 10
0.2121953283724416
 20
0.3238094849943671
 10
0.2100631618346043
 20
0.3272193094234588
 10
0.2100631618346043
 20
0.3306291338525486
 10
0.2126217594016992
 20
0.3348914125871402
 10
0.2156067879980554
 20
0.3361701012524793
 10
0.2194446900444689
 20
0.3357438740997285
 10
0.2228561496700827
 20
0.3344651854343894
 10
0.22498831620792
 20
0.3323340424635503
 10
0.2262676206872385
 20
0.3323340424635503
 10
0.2266940517164961
 20
0.3340389582816403
 10
0.2279733448042727
 20
0.3353176397398911
 10
0.2305319537629131
 20
0.3336127311288894
 10
0.2335169823592658
 20
0.3259406207581197
 10
0.2347962754470423
 20
0.3259406207581197
 10
0.235222717867849
 20
0.3284979908817096
 10
0.2373548844056827
 20
0.3297766795470487
 10
0.2390606085227205
 20
0.3280717637289587
 10
0.2411927750605578
 20
0.3229570234817789
 10
0.2407663440312966
 20
0.3191209718999381
 10
0.2420456485106186
 20
0.3161373746235973
 10
0.2437513726276528
 20
0.3161373746235973
 10
0.2454571081362289
 20
0.3178422904416873
 10
0.2475892746740662
 20
0.3203996605652772
 10
0.2501478722411612
 20
0.3203996605652772
 10
0.2531329008375174
 20
0.3195471990526872
 10
0.254838636346097
 20
0.3144324660125956
 10
0.2535593432583205
 20
0.3105964144307549
 10
0.2522800387789985
 20
0.3097439529181667
 10
0.254838636346097
 20
0.308891498612665
 10
0.254838636346097
 20
0.3067603556418259
 10
0.2531329008375174
 20
0.3046292198780733
 10
0.2497214412119035
 20
0.3029243040599852
 10
0.2480157057033274
 20
0.3007931610891443
 10
0.2484421367325851
 20
0.2978095710198918
 10
0.2501478722411612
 20
0.2965308823545527
 10
0.2522800387789985
 20
0.2965308823545527
 10
0.2527064698082597
 20
0.2939735122309628
 10
0.251000745691222
 20
0.2863014090672813
 10
0.2471628436448086
 20
0.2730883385036691
 10
0.2437513726276528
 20
0.2641375466746467
 10
0.2403399130020389
 20
0.258596579274716
  0
LWPOLYLINE
  5
1337
330
12F0
100
AcDbEntity
  8
0
  6
Continuous
370
     0
100
AcDbPolyline
 90
        8
 70
   128
 43
0.0
 10
0.2283997872250758
 20
0.2573178978164652
 10
0.2330905513300117
 20
0.2722358769910791
 10
0.2335169823592658
 20
0.2841702660964405
 10
0.2326641203007504
 20
0.2973833366600544
 10
0.2292526492835947
 20
0.3101701800709158
 10
0.2254147472371777
 20
0.3182685175944364
 10
0.2185918165944081
 20
0.3250881664526179
 10
0.2151803569687942
 20
0.3272193094234588
  0
LWPOLYLINE
  5
1338
330
12F0
100
AcDbEntity
  8
0
  6
Continuous
370
     0
100
AcDbPolyline
 90
        7
 70
   128
 43
0.0
 10
0.1955644270990042
 20
0.2487933331401955
 10
0.1874622033684581
 20
0.2637113195218958
 10
0.1831978702927834
 20
0.2773506172382589
 10
0.1814921347842038
 20
0.291842376467212
 10
0.1831978702927834
 20
0.3050554470308242
 10
0.1878886343977157
 20
0.3148586931653465
 10
0.1938587029819665
 20
0.3229570234817789
  0
LWPOLYLINE
  5
1339
330
12F0
100
AcDbEntity
  8
0
  6
Continuous
370
     0
100
AcDbPolyline
 90
       11
 70
   128
 43
0.0
 10
0.2488685791533882
 20
0.321678342023528
 10
0.2475892746740662
 20
0.3293504523942978
 10
0.2475892746740662
 20
0.3344651854343894
 10
0.2484421367325851
 20
0.3391536985288184
 10
0.251000745691222
 20
0.3429897501106609
 10
0.2578236763339916
 20
0.3455471202342508
 10
0.2646466069767612
 20
0.3438422044161608
 10
0.2689109286608939
 20
0.340432379987071
 10
0.2727488307073074
 20
0.3361701012524793
 10
0.2727488307073074
 20
0.3267930822707079
 10
0.27061666416947
 20
0.3191209718999381
  0
LWPOLYLINE
  5
133A
330
12F0
100
AcDbEntity
  8
0
  6
Continuous
370
     0
100
AcDbPolyline
 90
        9
 70
   128
 43
0.0
 10
0.2727488307073074
 20
0.3319078153107995
 10
0.2787188992915617
 20
0.3374487827107302
 10
0.282130358917172
 20
0.3374487827107302
 10
0.2893797205892028
 20
0.338727464168981
 10
0.2962026512319724
 20
0.3374487827107302
 10
0.3013198577577079
 20
0.3327602768233877
 10
0.3025991508454844
 20
0.326366855117957
 10
0.3038784553248028
 20
0.3212521148707772
 10
0.2940704846941351
 20
0.3101701800709158
  0
LWPOLYLINE
  5
133B
330
12F0
100
AcDbEntity
  8
0
  6
Continuous
370
     0
100
AcDbPolyline
 90
        9
 70
   128
 43
0.0
 10
0.3004669843076471
 20
0.3152849203180974
 10
0.3047313173833217
 20
0.3144324660125956
 10
0.305584179441837
 20
0.3101701800709158
 10
0.309422081488254
 20
0.308891498612665
 10
0.3153921500725047
 20
0.3076128171544141
 10
0.3188036096981221
 20
0.3042029927253242
 10
0.3192300407273762
 20
0.2990882524781426
 10
0.3158185811017659
 20
0.292694830772712
 10
0.3115542480260913
 20
0.2897112334963712
  0
LWPOLYLINE
  5
133C
330
12F0
100
AcDbEntity
  8
0
  6
Continuous
370
     0
100
AcDbPolyline
 90
       18
 70
   128
 43
0.0
 10
0.1838174815823876
 20
0.2342668287332721
 10
0.1787510076896019
 20
0.24488059617277
 10
0.1678374559143378
 20
0.2623263556408446
 10
0.1550388873047694
 20
0.2794878299913179
 10
0.1415814396660089
 20
0.2946215065232671
 10
0.1294718681295208
 20
0.3097655957022418
 10
0.1230776104150699
 20
0.3176721414503998
 10
0.1193991768087414
 20
0.3229027340247352
 10
0.1189737286056029
 20
0.3257312392144893
 10
0.1204433365227224
 20
0.3274956272267993
 10
0.1224701670779495
 20
0.3268370700584793
 10
0.1243652300525539
 20
0.3257729506539206
 10
0.1276382975478362
 20
0.320674069513247
 10
0.1404469054433583
 20
0.3021641928677266
 10
0.1567820868979659
 20
0.2807149465608347
 10
0.1659022287555522
 20
0.2687840625575841
 10
0.1803122258575094
 20
0.2524441317063903
 10
0.192797038606816
 20
0.2412135163108893
  0
LWPOLYLINE
  5
133D
330
12F0
100
AcDbEntity
  8
0
  6
Continuous
370
     0
100
AcDbPolyline
 90
       12
 70
   128
 43
0.0
 10
0.0827958257359924
 20
0.2061113029022223
 10
0.0734322204347251
 20
0.2145342600700122
 10
0.0657917257802154
 20
0.2268811297905238
 10
0.0630156381669451
 20
0.2376474578528409
 10
0.0620028390933101
 20
0.246944106501477
 10
0.0624998154551406
 20
0.252611542589122
 10
0.0635540179752603
 20
0.2558560443301392
 10
0.0678210244855109
 20
0.2620920398189845
 10
0.0786655231064977
 20
0.2720198040431789
 10
0.0851011807472517
 20
0.2766543978506686
 10
0.0990869620540238
 20
0.281077712318174
 10
0.1048737936602286
 20
0.2823361015578722
  0
LWPOLYLINE
  5
133E
330
12F0
100
AcDbEntity
  8
0
  6
Continuous
370
     0
100
AcDbPolyline
 90
       39
 70
   128
 43
0.0
 10
0.1732453526040522
 20
0.2058670615442288
 10
0.1533811327744558
 20
0.1943861972546017
 10
0.133740297816626
 20
0.1891100643905261
 10
0.1233626541794237
 20
0.1888949323051161
 10
0.1188935808176232
 20
0.1916921625975796
 10
0.1171202529920343
 20
0.1945102443063095
 10
0.1138773172493259
 20
0.1955639380027332
 10
0.1109280517546018
 20
0.1933835556662764
 10
0.1079787897800592
 20
0.1912031841638182
 10
0.1039251218152621
 20
0.1925203007275691
 10
0.1019083305459887
 20
0.1918304556008418
 10
0.0963850513299036
 20
0.1913831972133994
 10
0.0936692133270718
 20
0.1940591309463304
 10
0.0939126836251027
 20
0.1975670555546784
 10
0.0953722487360871
 20
0.2006798350280299
 10
0.0981897294213105
 20
0.2024546487484748
 10
0.0949367543926449
 20
0.2048567447399438
 10
0.0907513119928751
 20
0.2057683012945706
 10
0.0889779841672862
 20
0.2085863830033005
 10
0.0898903694463016
 20
0.2127737161962386
 10
0.09190715719539
 20
0.2134635504889637
 10
0.0883805904906509
 20
0.2164029179232241
 10
0.086607262665062
 20
0.2192209996319576
 10
0.0849556664683036
 20
0.2237930328108621
 10
0.0865670984808773
 20
0.2246145871441403
 10
0.08532087191535
 20
0.2290549197233833
 10
0.0867603549342419
 20
0.234864492952827
 10
0.0892942046574347
 20
0.2385249804111069
 10
0.0922535094381125
 20
0.2393569604525201
 10
0.0963071774029132
 20
0.2380398438887674
 10
0.0981921975713824
 20
0.2383241159452556
 10
0.1013033588791181
 20
0.2368648622397043
 10
0.1033402390948304
 20
0.2348579113832265
 10
0.1048299255838607
 20
0.2339254948054439
 10
0.1060259418249032
 20
0.2362271542605416
 10
0.1089952894117196
 20
0.2357107428409115
 10
0.111437532218293
 20
0.233572069716768
 10
0.1138998639713051
 20
0.2287366006094213
 10
0.1170210680851795
 20
0.2259289554428268
  0
LWPOLYLINE
  5
133F
330
12F0
100
AcDbEntity
  8
0
  6
Continuous
370
     0
100
AcDbPolyline
 90
       19
 70
   128
 43
0.0
 10
0.1780193782822756
 20
0.2164221016596759
 10
0.1639018225405308
 20
0.2115932271830427
 10
0.1540713622554825
 20
0.2103035522120482
 10
0.1423458493703542
 20
0.2100780052525035
 10
0.1326270814281827
 20
0.2118906840467289
 10
0.1242361076822078
 20
0.2164105931391837
 10
0.1190780268728026
 20
0.2212251999962582
 10
0.1166056523136518
 20
0.2274090605646464
 10
0.1156129421864555
 20
0.2340089132300775
 10
0.1163935461761482
 20
0.2377906886409988
 10
0.1195862749285403
 20
0.2434789739178047
 10
0.1252312859594724
 20
0.2456802076705333
 10
0.1345145628923738
 20
0.248044425527107
 10
0.1467872695041769
 20
0.2471954382079584
 10
0.1548946054337783
 20
0.2445612050804549
 10
0.1649070504782841
 20
0.2395144480262345
 10
0.1720919583227314
 20
0.2340412731668397
 10
0.1775336769485172
 20
0.2273409903448158
 10
0.1801277798023299
 20
0.2229110943077117
  0
LWPOLYLINE
  5
1340
330
12F0
100
AcDbEntity
  8
0
  6
Continuous
370
     0
100
AcDbPolyline
 90
       11
 70
   128
 43
0.0
 10
0.1723241569268552
 20
0.2209628599412863
 10
0.1685641627302239
 20
0.2190459113061553
 10
0.1638415694099109
 20
0.2196836106784285
 10
0.1611357777333957
 20
0.2210111637843148
 10
0.1590989043720334
 20
0.2230181124136798
 10
0.1585416748795793
 20
0.2254410598214207
 10
0.1600112896510488
 20
0.2272054456066179
 10
0.163639502558361
 20
0.2287168364597338
 10
0.1675614029425389
 20
0.2269941576597425
 10
0.1720204370183857
 20
0.225545329662328
 10
0.1728412153807781
 20
0.223933502272839
  0
LWPOLYLINE
  5
1341
330
12F0
100
AcDbEntity
  8
0
  6
Continuous
370
     0
100
AcDbPolyline
 90
       11
 70
   128
 43
0.0
 10
0.1730231968060671
 20
0.217597083308739
 10
0.1666992279880119
 20
0.2160648324324654
 10
0.1577911957881106
 20
0.2176140991933639
 10
0.1534538864867514
 20
0.2208168808880622
 10
0.1503226466071012
 20
0.2249729391837061
 10
0.1494918254385737
 20
0.2279331580342365
 10
0.1531100059142822
 20
0.2307929489552869
 10
0.1572753662219597
 20
0.2325781861567542
 10
0.1667104996819191
 20
0.2326511702663652
 10
0.1707742104528549
 20
0.2299856622415675
 10
0.1745844149739746
 20
0.2251606188423576
  0
LWPOLYLINE
  5
1342
330
12F0
100
AcDbEntity
  8
0
  6
Continuous
370
     0
100
AcDbPolyline
 90
        8
 70
   128
 43
0.0
 10
0.1552573392105714
 20
0.2139536139621931
 10
0.149166791030062
 20
0.2172776813824235
 10
0.1460255083442767
 20
0.2227821311391125
 10
0.1447692424927886
 20
0.2285708660133991
 10
0.14650239927985
 20
0.2311463740439628
 10
0.1494416219684353
 20
0.2346751478414681
 10
0.1538805739521898
 20
0.2359231136001423
 10
0.1619678277896952
 20
0.2359856742287292
  0
LWPOLYLINE
  5
1343
330
12F0
100
AcDbEntity
  8
0
  6
Continuous
370
     0
100
AcDbPolyline
 90
       11
 70
   128
 43
0.0
 10
0.1501293866335586
 20
0.214723022541019
 10
0.1380901110338293
 20
0.2204283367635593
 10
0.1340163541225898
 20
0.2244422493105151
 10
0.1321012125760745
 20
0.2282031733051681
 10
0.1311285741664392
 20
0.2321062236076159
 10
0.1315239009915281
 20
0.2333229144689994
 10
0.1335306563090093
 20
0.2353611488296572
 10
0.1378277910516594
 20
0.2375519460402522
 10
0.1425403347114873
 20
0.2382626403561367
 10
0.1487325359489197
 20
0.2393893289961717
 10
0.1552083646282014
 20
0.2386303330643695
  0
LWPOLYLINE
  5
1344
330
12F0
100
AcDbEntity
  8
0
  6
Continuous
370
     0
100
AcDbPolyline
 90
       12
 70
   128
 43
0.0
 10
0.1473018598080315
 20
0.2142966133427322
 10
0.1360833557163445
 20
0.2183901024029016
 10
0.1294456277038662
 20
0.2227887235427133
 10
0.1255036452275995
 20
0.227208196098795
 10
0.1242574186620686
 20
0.2316485286780381
 10
0.1238319704589301
 20
0.2344770338677922
 10
0.1243590717189881
 20
0.2360992847383016
 10
0.1279772521946966
 20
0.2389590756593502
 10
0.1349701393279048
 20
0.2411707220591026
 10
0.1400880490987788
 20
0.2417497049413235
 10
0.1468274301681802
 20
0.2418018398617772
 10
0.1512864710983734
 20
0.2403530096372481
  0
LWPOLYLINE
  5
1345
330
12F0
100
AcDbEntity
  8
0
  6
Continuous
370
     0
100
AcDbPolyline
 90
       48
 70
   128
 43
0.0
 10
0.1232044554042488
 20
0.2463387648388533
 10
0.1183500876489667
 20
0.2465709042019988
 10
0.1140529529063201
 20
0.2443801069914055
 10
0.1096140009225621
 20
0.2431321412327296
 10
0.1065128789007801
 20
0.2432429926432338
 10
0.1063610223737186
 20
0.2455342263901983
 10
0.1064827506683841
 20
0.2472881909214841
 10
0.1024391255097221
 20
0.24725691602419
 10
0.0985373140719829
 20
0.2462827988409799
 10
0.0952943783292746
 20
0.2473364925374035
 10
0.0920313604944738
 20
0.2510869799899176
 10
0.091737679871958
 20
0.2543210474159121
 10
0.093329022938093
 20
0.2578393977323952
 10
0.095599327125516
 20
0.2606887521113066
 10
0.0982850402301168
 20
0.2620580035955111
 10
0.0986803670552092
 20
0.2632746944568947
 10
0.0971906701916474
 20
0.2642071024277879
 10
0.0963698951634235
 20
0.265818916756162
 10
0.0987820132577824
 20
0.2677254527442692
 10
0.1070010483846069
 20
0.2681935711548711
 10
0.1073963716895179
 20
0.2694102511822542
 10
0.1050959461240488
 20
0.2706060928544787
 10
0.1045387166315947
 20
0.2730290402622177
 10
0.1066872856700023
 20
0.2741244323369596
 10
0.1122105684062688
 20
0.2745717015584042
 10
0.1157270958250542
 20
0.2729807364191892
 10
0.1189599922818089
 20
0.273275445017811
 10
0.1194870900216855
 20
0.2748976850543183
 10
0.1183927199832162
 20
0.2770467838865969
 10
0.1166193921576272
 20
0.2798648655953286
 10
0.1174100422876272
 20
0.2822982364840918
 10
0.1191432059290349
 20
0.2848737422875409
 10
0.1245347073759823
 20
0.2849154537269722
 10
0.1277876859248294
 20
0.2825133685695036
 10
0.1282030981761757
 20
0.28103325261368
 10
0.1298044805282643
 20
0.2832032006351177
 10
0.1318313179378414
 20
0.282544641239685
 10
0.1333310472330069
 20
0.2802638332008538
 10
0.1338983195315961
 20
0.2764924943320697
 10
0.1353980556811116
 20
0.2742116840661293
 10
0.1383673928933966
 20
0.2736952640396062
 10
0.1401105993409395
 20
0.2749223783820121
 10
0.1407694750359667
 20
0.2769501892616493
 10
0.1433334529915555
 20
0.2765654784416807
 10
0.150102958959188
 20
0.2725724281449953
 10
0.1614833588638902
 20
0.2648393030428178
 10
0.1689418652387608
 20
0.2588288545135207
 10
0.1731574393911046
 20
0.2538721105146457
  0
LWPOLYLINE
  5
1346
330
12F0
100
AcDbEntity
  8
0
  6
Continuous
370
     0
100
AcDbPolyline
 90
        8
 70
   128
 43
0.0
 10
0.1706838359441853
 20
0.2421212417880927
 10
0.157945520465244
 20
0.2511923326431784
 10
0.146727016373557
 20
0.2552858217033442
 10
0.1338970906438241
 20
0.2585577650371231
 10
0.1206818773749596
 20
0.2592646152144731
 10
0.1117939237469691
 20
0.258117077385279
 10
0.1031996507414945
 20
0.2537354721300904
 10
0.1001186143319828
 20
0.2511495406185045
  0
LWPOLYLINE
  5
1347
330
12F0
100
AcDbEntity
  8
0
  6
Continuous
370
     0
100
AcDbPolyline
 90
        7
 70
   128
 43
0.0
 10
0.1686444944327547
 20
0.2082587232206769
 10
0.1519529214494674
 20
0.2051629618590596
 10
0.1376634270885723
 20
0.2053221148854813
 10
0.1233538437812384
 20
0.208178063895108
 10
0.1113145681815055
 20
0.2138833781176483
 10
0.1034406528894536
 20
0.2213739295416559
 10
0.097583535721018
 20
0.229554323865278
  0
LWPOLYLINE
  5
1348
330
12F0
100
AcDbEntity
  8
0
  6
Continuous
370
     0
100
AcDbPolyline
 90
       11
 70
   128
 43
0.0
 10
0.1157986206495813
 20
0.2814766907577049
 10
0.1081066832626369
 20
0.2826308123836085
 10
0.1032422830757476
 20
0.2842113518146885
 10
0.0990467910154926
 20
0.2864713020574694
 10
0.0961891428119195
 20
0.2900900889103219
 10
0.0958653408113577
 20
0.2973693523874541
 10
0.099595213629943
 20
0.3033314970737226
 10
0.1041558972425314
 20
0.3063334143025695
 10
0.1093955421624173
 20
0.3086663594889654
 10
0.1183136171684537
 20
0.30576870126702
 10
0.124951352035282
 20
0.3013700779000956
  0
LWPOLYLINE
  5
1349
330
12F0
100
AcDbEntity
  8
0
  6
Continuous
370
     0
100
AcDbPolyline
 90
        9
 70
   128
 43
0.0
 10
0.1134492169815644
 20
0.3073492406981
 10
0.110024296479402
 20
0.3147393664197384
 10
0.1110784954793402
 20
0.3179838573267552
 10
0.1121025731012288
 20
0.3252735442849115
 10
0.1154270729544251
 20
0.3313674026319546
 10
0.1214674108104461
 20
0.3347853272460685
 10
0.1279432394897313
 20
0.3340263313142646
 10
0.133202973356056
 20
0.3336624805174555
 10
0.140711690055415
 20
0.320910039953814
  0
LWPOLYLINE
  5
134A
330
12F0
100
AcDbEntity
  8
0
  6
Continuous
370
     0
100
AcDbPolyline
 90
        9
 70
   128
 43
0.0
 10
0.1378239100992644
 20
0.3285740142509183
 10
0.1399523937114146
 20
0.3323662131428602
 10
0.1442696174005
 20
0.3318602143702502
 10
0.1466716926887237
 20
0.3351151418194042
 10
0.1497326436719781
 20
0.3403978801481955
 10
0.1540297784146283
 20
0.3425886773587905
 10
0.1590259598908332
 20
0.3414136957097238
 10
0.1640522662652692
 20
0.3361935288435234
 10
0.1655720845068735
 20
0.331215924821489
  0
LWPOLYLINE
  5
134B
330
12F0
100
AcDbEntity
  8
0
  6
Continuous
370
     0
100
AcDbPolyline
 90
       18
 70
   128
 43
0.0
 10
0.1788300153113162
 20
0.1925977774099312
 10
0.167170096091116
 20
0.1910591089127073
 10
0.1472057198997376
 20
0.1860707405363317
 10
0.1269292126854573
 20
0.1792017656837785
 10
0.1083776509829555
 20
0.1710795356499783
 10
0.0902327028865635
 20
0.1642424296512903
 10
0.0807371967312136
 20
0.1606043861880763
 10
0.0746259090822718
 20
0.1587223299331377
 10
0.071804370065184
 20
0.1591917608195103
 10
0.0705804711702633
 20
0.1611346668859603
 10
0.0718331213428307
 20
0.1628587919361557
 10
0.0734307657012145
 20
0.1643322729468916
 10
0.0792915233156464
 20
0.1658695041917877
 10
0.1008535396291883
 20
0.1723313477482442
 10
0.1263008337746498
 20
0.1812388468901495
 10
0.1404660575762051
 20
0.186225771318421
 10
0.1604591892814468
 20
0.1948811766421023
 10
0.1749981585464652
 20
0.2032844881475579
  0
LWPOLYLINE
  5
134C
330
12F0
100
AcDbEntity
  8
0
  6
Continuous
370
     0
100
AcDbPolyline
 90
       12
 70
   128
 43
0.0
 10
0.1743901031662211
 20
0.0878199373629336
 10
0.1634858816986089
 20
0.0815174564328895
 10
0.1493822681013945
 20
0.0780663067749714
 10
0.1382850233907824
 20
0.0787530688988358
 10
0.1291304129881503
 20
0.0806626621633164
 10
0.1238939351079189
 20
0.0828866488362969
 10
0.1211339970792195
 20
0.0848918611888045
 10
0.1165217904607445
 20
0.0908770541183532
 10
0.1104310599724449
 20
0.1042586330592208
 10
0.1080120269124194
 20
0.1118114754436412
 10
0.10812704896788
 20
0.12647962323285
 10
0.1087184789913351
 20
0.1323720908012404
  0
LWPOLYLINE
  5
134D
330
12F0
100
AcDbEntity
  8
0
  6
Continuous
370
     0
100
AcDbPolyline
 90
       39
 70
   128
 43
0.0
 10
0.2025728314366937
 20
0.1737670745562685
 10
0.2073534007246991
 20
0.1513272966706011
 10
0.2063019494802347
 20
0.1310173378789016
 10
0.2032996840064633
 20
0.1210811328035248
 10
0.1992583402913368
 20
0.1176951831585366
 10
0.196030196884088
 20
0.1168794833140154
 10
0.1940259523717635
 20
0.1141208774030459
 10
0.1951882460420719
 20
0.1106421840398059
 10
0.196350530496435
 20
0.1071634973723459
 10
0.19384522591508
 20
0.1037152414412983
 10
0.1938780848417778
 20
0.1015839850950044
 10
0.1925966657031743
 20
0.0961928239626317
 10
0.1892124613924508
 20
0.0944368175321344
 10
0.1859514632947281
 20
0.0957523798645656
 10
0.1834420645164982
 20
0.0981024105313306
 10
0.1826247657755146
 20
0.1013304414980176
 10
0.1793350121639285
 20
0.0989789668831432
 10
0.1771746975321733
 20
0.0952800610819793
 10
0.1739465541249281
 20
0.0944643612374581
 10
0.1702461061625193
 20
0.0966260483201645
 10
0.170213256451774
 20
0.0987572979706766
 10
0.1663279828560711
 20
0.0963116482158828
 10
0.1630998394488223
 20
0.0954959483713633
 10
0.1582412062086682
 20
0.0953380229972787
 10
0.1579578214836772
 20
0.0971244601641867
 10
0.1533497090620805
 20
0.0973113664959229
 10
0.1482693013012763
 20
0.1004756530591013
 10
0.1455709734769215
 20
0.1040166401819622
 10
0.1456941889058711
 20
0.1070882022491055
 10
0.1481994934872261
 20
0.1105364581801531
 10
0.1485116379622972
 20
0.112417063791204
 10
0.150860872424225
 20
0.1149250198320537
 10
0.1533990267163219
 20
0.1162420261125909
 10
0.1547461460199244
 20
0.1173706695868475
 10
0.1529267271408905
 20
0.1192194005133782
 10
0.1543354424531529
 20
0.1218838379802083
 10
0.1571241359957156
 20
0.1235456625750011
 10
0.1624838427570729
 20
0.1243932371040408
 10
0.1661185771023063
 20
0.1264940685445754
  0
LWPOLYLINE
  5
134E
330
12F0
100
AcDbEntity
  8
0
  6
Continuous
370
     0
100
AcDbPolyline
 90
       19
 70
   128
 43
0.0
 10
0.1940096468212964
 20
0.1815691295584827
 10
0.1942396147154355
 20
0.1666503318991559
 10
0.1924283892098941
 20
0.1569024771036211
 10
0.1890195143662296
 20
0.145681153823789
 10
0.1842922899285177
 20
0.1369982047947857
 10
0.1774006474462126
 20
0.1304146432582111
 10
0.1712277495929299
 20
0.1269968122329192
 10
0.1645825429482634
 20
0.1265563623041945
 10
0.1579989457644259
 20
0.1276517055029202
 10
0.1546434835153967
 20
0.1295627368848499
 10
0.1502202101792633
 20
0.1343569791889596
 10
0.1498711168168327
 20
0.1404059223526719
 10
0.1504913023541547
 20
0.1499654268683645
 10
0.1550912121863064
 20
0.1613751129544756
 10
0.1601018213490128
 20
0.1682716248165707
 10
0.167995588205585
 20
0.1762344922239584
 10
0.175421145447391
 20
0.181376441603664
 10
0.1834750766202688
 20
0.1844813223034354
 10
0.1884897799798537
 20
0.185579547567718
  0
LWPOLYLINE
  5
134F
330
12F0
100
AcDbEntity
  8
0
  6
Continuous
370
     0
100
AcDbPolyline
 90
       11
 70
   128
 43
0.0
 10
0.1879312088830964
 20
0.1775558236530336
 10
0.188592433268429
 20
0.1733874869654954
 10
0.1865265835314957
 20
0.1690930937577359
 10
0.1844278698881325
 20
0.1669299694227035
 10
0.1818897198322524
 20
0.1656129689728231
 10
0.1794131665285476
 20
0.1658317441584227
 10
0.1781892718698436
 20
0.1677746560555295
 10
0.1778730331978906
 20
0.1716923370422929
 10
0.180723331965062
 20
0.1748899489338793
 10
0.183479166580927
 20
0.1786830298749659
 10
0.1852657399854393
 20
0.1789655544296042
  0
LWPOLYLINE
  5
1350
330
12F0
100
AcDbEntity
  8
0
  6
Continuous
370
     0
100
AcDbPolyline
 90
       11
 70
   128
 43
0.0
 10
0.1913482678842975
 20
0.1771805679065821
 10
0.1908513112280978
 20
0.1706926245929096
 10
0.1866251376434604
 20
0.1626993322797645
 10
0.1822388089584628
 20
0.1595640199784558
 10
0.1773185562980117
 20
0.1578703265297978
 10
0.1742464830101937
 20
0.1579949265754745
 10
0.1726447394751957
 20
0.1623197446889914
 10
0.1722340451243766
 20
0.1668329063865687
 10
0.1750802496946697
 20
0.1758288048759677
 10
0.1788710541593339
 20
0.1788699362067003
 10
0.1846373610746283
 20
0.1810026356359753
  0
LWPOLYLINE
  5
1351
330
12F0
100
AcDbEntity
  8
0
  6
Continuous
370
     0
100
AcDbPolyline
 90
        8
 70
   128
 43
0.0
 10
0.189323461231595
 20
0.1591583393262468
 10
0.1842800023581468
 20
0.1543930771146637
 10
0.178074249814383
 20
0.1531065082663207
 10
0.1721806282935247
 20
0.1537005458941518
 10
0.1702667494994081
 20
0.1561447517008396
 10
0.1678189559457834
 20
0.1600305696643964
 10
0.1680037815790776
 20
0.1646379065018948
 10
0.1704433817592097
 20
0.1723486742604016
  0
LWPOLYLINE
  5
1352
330
12F0
100
AcDbEntity
  8
0
  6
Continuous
370
     0
100
AcDbPolyline
 90
       11
 70
   128
 43
0.0
 10
0.1870070856963686
 20
0.1545191269391033
 10
0.177860668667229
 20
0.1448321344815202
 10
0.1727843508670794
 20
0.1421981286162292
 10
0.1686156883101688
 20
0.1415389101976885
 10
0.1646031050886378
 20
0.1418199849735621
 10
0.1635681260238897
 20
0.1425719412796979
 10
0.162249771450103
 20
0.1451103280569619
 10
0.1614940871496806
 20
0.149874139624659
 10
0.1622744327670879
 20
0.1545756516020784
 10
0.163116383609104
 20
0.1608129508762878
 10
0.1658393727504439
 20
0.1667372872985417
  0
LWPOLYLINE
  5
1353
330
12F0
100
AcDbEntity
  8
0
  6
Continuous
370
     0
100
AcDbPolyline
 90
       12
 70
   128
 43
0.0
 10
0.1865388711018667
 20
0.1516982214378579
 10
0.1791790232410122
 20
0.1422937477042563
 10
0.172944515183385
 20
0.1373401419086111
 10
0.1675232074336428
 20
0.1349567859134381
 10
0.1629150950120461
 20
0.1351436922451725
 10
0.1600935559949583
 20
0.1356131231315451
 10
0.1587135869806104
 20
0.1366157293077989
 10
0.1571118434456124
 20
0.1409405474213159
 10
0.1571693636892952
 20
0.1482746146201403
 10
0.158200239341216
 20
0.1533209516075988
 10
0.1602332393674039
 20
0.1597465944658704
 10
0.1629890782194891
 20
0.1635396812376139
  0
LWPOLYLINE
  5
1354
330
12F0
100
AcDbEntity
  8
0
  6
Continuous
370
     0
100
AcDbPolyline
 90
       48
 70
   128
 43
0.0
 10
0.1486184666442689
 20
0.1386817973024765
 10
0.1468976068569318
 20
0.1341367542245972
 10
0.1476532911573507
 20
0.1293729426569036
 10
0.1474684655240601
 20
0.1247656058194035
 10
0.1464047401613975
 20
0.1218505184824554
 10
0.1441787211284229
 20
0.1224141245087491
 10
0.1425482178433412
 20
0.123071899844307
 10
0.1413284131452989
 20
0.1192165193129444
 10
0.1410491275969185
 20
0.1152046573556031
 10
0.139044883084594
 20
0.1124460514446354
 10
0.1344696295896952
 20
0.1105017014300777
 10
0.1313030963867874
 20
0.1112217763559115
 10
0.1284486984430053
 20
0.113822463588578
 10
0.1264403639700191
 20
0.116862150106078
 10
0.1259680594148591
 20
0.119839537033302
 10
0.1249330803501074
 20
0.1205914933394378
 10
0.123585966026237
 20
0.1194628373387409
 10
0.1217994060739009
 20
0.1191803119189796
 10
0.120731568082455
 20
0.1220635245714074
 10
0.1228261825492076
 20
0.1300249480306892
 10
0.1217912127004083
 20
0.1307768976410432
 10
0.1199430290915586
 20
0.1289585983160535
 10
0.1174664757878503
 20
0.1291773735016494
 10
0.1170886403637254
 20
0.1315592788529365
 10
0.1183700502863764
 20
0.1369504466810909
 10
0.1209698147828177
 20
0.1398032277319814
 10
0.1216885501958806
 20
0.1429689649390475
 10
0.1203085903974852
 20
0.1439715644195196
 10
0.1179264970088631
 20
0.1435948647249603
 10
0.1146983536016144
 20
0.1427791648804408
 10
0.112628404688067
 20
0.1442830707969307
 10
0.1107145301301706
 20
0.1467272824342735
 10
0.1123409257661975
 20
0.1518677945616549
 10
0.1156306701618348
 20
0.1542192758723093
 10
0.1171667135318337
 20
0.1541569754169067
 10
0.1155978246873097
 20
0.1563505313534765
 10
0.1168504790960973
 20
0.1580746622343287
 10
0.1194830982830126
 20
0.1587961811082685
 10
0.1232451514700301
 20
0.1581702813223557
 10
0.1258777748931656
 20
0.1588918060269541
 10
0.1272864951851602
 20
0.1615562309673457
 10
0.126658120510573
 20
0.1635933180043718
 10
0.1249331615466218
 20
0.1648465740507454
 10
0.1260913560403231
 20
0.1671661798117547
 10
0.1319808649323981
 20
0.1723704421732979
 10
0.1428522409254888
 20
0.1808041785845091
 10
0.1508733223876213
 20
0.1860403089347926
 10
0.1568901501214803
 20
0.1885178400698866
  0
LWPOLYLINE
  5
1355
330
12F0
100
AcDbEntity
  8
0
  6
Continuous
370
     0
100
AcDbPolyline
 90
        8
 70
   128
 43
0.0
 10
0.1673015048935546
 20
0.1825340852577905
 10
0.1547380288632176
 20
0.173222348546659
 10
0.1473781810023666
 20
0.1638178748130556
 10
0.1403017128867745
 20
0.1526269764389791
 10
0.1355457329351921
 20
0.1402769904626737
 10
0.1338905775490779
 20
0.1314694355573369
 10
0.135401955365868
 20
0.1219418057261627
 10
0.1369092297698273
 20
0.1182124691885828
  0
LWPOLYLINE
  5
1356
330
12F0
100
AcDbEntity
  8
0
  6
Continuous
370
     0
100
AcDbPolyline
 90
        7
 70
   128
 43
0.0
 10
0.1988764826508955
 20
0.1701304625147237
 10
0.1966627469520716
 20
0.1532991903904843
 10
0.1920956868306618
 20
0.1397582546538611
 10
0.1849576134904609
 20
0.1270315689829963
 10
0.1758111964613213
 20
0.1173445765254115
 10
0.1662540850813627
 20
0.1121707457654057
 10
0.156664119010923
 20
0.1091281771823489
  0
LWPOLYLINE
  5
1357
330
12F0
100
AcDbEntity
  8
0
  6
Continuous
370
     0
100
AcDbPolyline
 90
       11
 70
   128
 43
0.0
 10
0.1129117844333258
 20
0.1424966461564611
 10
0.1094372101681777
 20
0.1355378221776515
 10
0.1064308455177958
 20
0.1313999162265258
 10
0.1029850267665147
 20
0.1281081291950183
 10
0.0986602940901733
 20
0.1265086108862814
 10
0.091637242805433
 20
0.1284500730046254
 10
0.0871195003382645
 20
0.133839796884672
 10
0.0856738361386462
 20
0.1391049081926052
 10
0.0850742127417021
 20
0.1448090263462784
 10
0.0905858862096558
 20
0.1523951940591086
 10
0.0968203985034996
 20
0.1573488056854088
  0
LWPOLYLINE
  5
1358
330
12F0
100
AcDbEntity
  8
0
  6
Continuous
370
     0
100
AcDbPolyline
 90
        9
 70
   128
 43
0.0
 10
0.0875795215592738
 20
0.1482572881079811
 10
0.0794927356959185
 20
0.1472836695851604
 10
0.0767328068831752
 20
0.1492888752418864
 10
0.0701163599885923
 20
0.1525154680911207
 10
0.0653480832506901
 20
0.1575603611304732
 10
0.0639640108235078
 20
0.164361260600323
 10
0.0666869999648512
 20
0.1702855970225751
 10
0.0686583897867017
 20
0.1751754651104935
 10
0.0831070025494647
 20
0.1783759582025119
  0
LWPOLYLINE
  5
1359
330
12F0
100
AcDbEntity
  8
0
  6
Continuous
370
     0
100
AcDbPolyline
 90
        9
 70
   128
 43
0.0
 10
0.0749257567710231
 20
0.1779978145598466
 10
0.0719768989121547
 20
0.1811939766726684
 10
0.0737922278305305
 20
0.1851435381746071
 10
0.0714388899557719
 20
0.1884338754273518
 10
0.0673605931170691
 20
0.1929774687264682
 10
0.0666049088166467
 20
0.1977412802941636
 10
0.0692662877536492
 20
0.2021298419460624
 10
0.0757841755565316
 20
0.2052970231012363
 10
0.0809878079622416
 20
0.2052042919094212
  0
LWPOLYLINE
  5
135A
330
12F0
100
AcDbEntity
  8
0
  6
Continuous
370
     0
100
AcDbPolyline
 90
       18
 70
   128
 43
0.0
 10
0.2169184262635859
 20
0.1749779701146341
 10
0.2147786737722086
 20
0.1634132532464356
 10
0.2133535624970122
 20
0.1428845125733548
 10
0.2136205604750216
 20
0.1214777782961356
 10
0.2156125124372465
 20
0.1013242875388513
 10
0.2165078893260599
 20
0.0819546344680031
 10
0.2170336014961229
 20
0.0717996542070285
 10
0.2169350516203785
 20
0.065405886898402
 10
0.2156166928103715
 20
0.0628675059517949
 10
0.2133906737773969
 20
0.0623038999255012
 10
0.2121380236048296
 20
0.0640280249756966
 10
0.2112303591456417
 20
0.0660028057266651
 10
0.2115794390559031
 20
0.0720517480252543
 10
0.2120968901081284
 20
0.0945552636186484
 10
0.2114890013571333
 20
0.121509647149999
 10
0.2111234492671592
 20
0.1365226199492486
 10
0.2090698871005898
 20
0.1582118854768843
 10
0.2055706515184567
 20
0.1746360330008087
  0
LWPOLYLINE
  5
135B
330
12F0
100
AcDbEntity
  8
0
  6
Continuous
370
     0
100
AcDbPolyline
 90
       12
 70
   128
 43
0.0
 10
0.3151960654972505
 20
0.1383772295288405
 10
0.3178204913106732
 20
0.1260591249328353
 10
0.316744473397911
 20
0.1115793274234686
 10
0.3126620865985465
 20
0.1012374416958845
 10
0.308017025289594
 20
0.0931209865893869
 10
0.3042837276164398
 20
0.0888280498561702
 10
0.3015237895877441
 20
0.0868228375036626
 10
0.2944062826241343
 20
0.0842858946745046
 10
0.2797975055450621
 20
0.0826284010589067
 10
0.2718668032533067
 20
0.0826617205566578
 10
0.2579521094862649
 20
0.0873038199748919
 10
0.2525308017365191
 20
0.0896871759700649
  0
LWPOLYLINE
  5
135C
330
12F0
100
AcDbEntity
  8
0
  6
Continuous
370
     0
100
AcDbPolyline
 90
       39
 70
   128
 43
0.0
 10
0.2421644225960406
 20
0.1917397229080641
 10
0.2649831967312011
 20
0.1893520417643515
 10
0.2839741990824365
 20
0.1820759297850465
 10
0.2924963406135994
 20
0.1761501494146848
 10
0.2944677261992261
 20
0.1712602871574233
 10
0.2942459516785796
 20
0.167938075220162
 10
0.2962501961909076
 20
0.1651794693091908
 10
0.2999177986787913
 20
0.1652099009107281
 10
0.3035853919507225
 20
0.1652403258164856
 10
0.306090696532074
 20
0.161792069885438
 10
0.3081277957348796
 20
0.1611647261514175
 10
0.3128591143694734
 20
0.1582800637202268
 10
0.313483399083406
 20
0.1545188583287835
 10
0.3112245211237336
 20
0.1518239959561977
 10
0.3082140622764733
 20
0.1501636153095109
 10
0.3048914631903585
 20
0.1503838344432164
 10
0.3061112586724519
 20
0.1465284472160721
 10
0.3089615532034031
 20
0.1433308411551426
 10
0.3087397786827566
 20
0.1400086292178795
 10
0.3055403907893712
 20
0.1371572921150967
 10
0.3035033008025216
 20
0.1377846425448972
 10
0.3046286363695252
 20
0.1333337804375975
 10
0.3044068618488787
 20
0.1300115685003326
 10
0.3030556575643466
 20
0.1253419320725583
 10
0.3012690841598378
 20
0.1256244566271949
 10
0.2996673406248398
 20
0.1212996385136797
 10
0.295087992933059
 20
0.1174457019304231
 10
0.2908864849016268
 20
0.1159736648677967
 10
0.2880033314439778
 20
0.1170400145824341
 10
0.2854980268626264
 20
0.1204882705134817
 10
0.2838059225891527
 20
0.121366276644057
 10
0.282146668026428
 20
0.1243755324251445
 10
0.2816784534319261
 20
0.1271964379263899
 10
0.2810213324594208
 20
0.1288263945324459
 10
0.2787008535113635
 20
0.1276673136259951
 10
0.2766021398679967
 20
0.1298304379610257
 10
0.2758834044549339
 20
0.1329961751680919
 10
0.2767335536501712
 20
0.1383554741423829
 10
0.2758587389017286
 20
0.1424615045438635
  0
LWPOLYLINE
  5
135D
330
12F0
100
AcDbEntity
  8
0
  6
Continuous
370
     0
100
AcDbPolyline
 90
       19
 70
   128
 43
0.0
 10
0.2320980577735625
 20
0.1860066179660826
 10
0.2463577414902041
 20
0.1816151684179701
 10
0.2550688028515395
 20
0.1768803378079244
 10
0.2646875152198902
 20
0.1701707255817837
 10
0.2714846977871055
 20
0.1629916891650502
 10
0.2756164022407042
 20
0.1544029152759662
 10
0.2769594223676997
 20
0.1474759726774586
 10
0.2753248333581801
 20
0.1410198990827744
 10
0.2722486566575277
 20
0.1350970057435034
 10
0.2693942629499624
 20
0.1324963126801819
 10
0.2634678009343112
 20
0.1297710320976186
 10
0.2576070383401507
 20
0.1313082508160796
 10
0.2487070571486463
 20
0.1348521316658129
 10
0.2392772511582954
 20
0.1427526927871429
 10
0.234266641995589
 20
0.1496492046492381
 10
0.2291328131677126
 20
0.1596172844091334
 10
0.2265371520841057
 20
0.1682683587536182
 10
0.2260730366662145
 20
0.1768875633791147
 10
0.2265781909321198
 20
0.1819961999568491
  0
LWPOLYLINE
  5
135E
330
12F0
100
AcDbEntity
  8
0
  6
Continuous
370
     0
100
AcDbPolyline
 90
       11
 70
   128
 43
0.0
 10
0.2340365978846677
 20
0.1789855002276557
 10
0.2382052512256294
 20
0.1783262751133349
 10
0.241651079192863
 20
0.1750344947776092
 10
0.2430597945051254
 20
0.1723700573107791
 10
0.243528004863407
 20
0.1695491576401906
 10
0.24255464023922
 20
0.1672614207330447
 10
0.2403286169700252
 20
0.1666978205374061
 10
0.236504957814887
 20
0.1676076896911897
 10
0.2343446389469115
 20
0.1713066013230104
 10
0.2315888043310466
 20
0.1750996822640971
 10
0.2318721890560376
 20
0.1768861194310087
  0
LWPOLYLINE
  5
135F
330
12F0
100
AcDbEntity
  8
0
  6
Continuous
370
     0
100
AcDbPolyline
 90
       11
 70
   128
 43
0.0
 10
0.2354494166097609
 20
0.1821193560544216
 10
0.2414662493233521
 20
0.1796418374457626
 10
0.247762362605588
 20
0.1731524443533274
 10
0.2493887716937912
 20
0.1680119330910727
 10
0.2494791281960467
 20
0.1628091146776356
 10
0.2484113036567734
 20
0.1599259028903326
 10
0.2438031912351768
 20
0.1597389965585982
 10
0.2393840078597051
 20
0.160743046682958
 10
0.2317079255631178
 20
0.1662298335991412
 10
0.2299870607960521
 20
0.1707748641505819
 10
0.2297406299381492
 20
0.1769179882848721
  0
LWPOLYLINE
  5
1360
330
12F0
100
AcDbEntity
  8
0
  6
Continuous
370
     0
100
AcDbPolyline
 90
        8
 70
   128
 43
0.0
 10
0.251963874873244
 20
0.1746244755852988
 10
0.2549373940490973
 20
0.1683553141530058
 10
0.254243310737067
 20
0.1620557211191737
 10
0.2518571181718343
 20
0.1566341216894819
 10
0.2489411192396638
 20
0.1555692159229522
 10
0.2444890769374943
 20
0.1544420097010199
 10
0.240164353477109
 20
0.1560415347055386
 10
0.2335848554698821
 20
0.1607444906310657
  0
LWPOLYLINE
  5
1361
330
12F0
100
AcDbEntity
  8
0
  6
Continuous
370
     0
100
AcDbPolyline
 90
       11
 70
   128
 43
0.0
 10
0.2556602286387743
 20
0.1709878760701908
 10
0.2620467076392146
 20
0.1592956712600983
 10
0.2629831276122658
 20
0.1536538535618259
 10
0.2623218940109808
 20
0.1494855101785059
 10
0.2608146196070251
 20
0.1457561736409278
 10
0.2597796405422734
 20
0.145004217334792
 10
0.2569580972889689
 20
0.1445347922790745
 10
0.2521939239638975
 20
0.145288192533318
 10
0.2479636604185948
 20
0.147483192417992
 10
0.2422918134183867
 20
0.1502113667274258
 10
0.2374988845794483
 20
0.1546318039289698
  0
LWPOLYLINE
  5
1362
330
12F0
100
AcDbEntity
  8
0
  6
Continuous
370
     0
100
AcDbPolyline
 90
       12
 70
   128
 43
0.0
 10
0.2581983829308712
 20
0.1696708697896536
 10
0.2648682508925226
 20
0.1597650963158141
 10
0.2676528410222545
 20
0.1523049784274253
 10
0.268244271045706
 20
0.1464125108590348
 10
0.266642527510708
 20
0.1420876927455179
 10
0.2653241687007011
 20
0.1395493117989108
 10
0.2639441996863532
 20
0.138546705622657
 10
0.2593360872647601
 20
0.1383597992909226
 10
0.2523787495971881
 20
0.1406808556958196
 10
0.2478979560173755
 20
0.1432206805905345
 10
0.2424150380632888
 20
0.1471398113560607
 10
0.2396591992112
 20
0.1509328981278042
  0
LWPOLYLINE
  5
1363
330
12F0
100
AcDbEntity
  8
0
  6
Continuous
370
     0
100
AcDbPolyline
 90
       48
 70
   128
 43
0.0
 10
0.2588596885127181
 20
0.1295841257658842
 10
0.2626505064295514
 20
0.1265429953002765
 10
0.2674146797546228
 20
0.1257895950460348
 10
0.2717394032150118
 20
0.1241900700415161
 10
0.2741831068079747
 20
0.1222775955766035
 10
0.2729592079130505
 20
0.1203346895101535
 10
0.2718297731694363
 20
0.1189872524932038
 10
0.2751195175650736
 20
0.1166357711825511
 10
0.2788487210413457
 20
0.1151304213179518
 10
0.2808529655536738
 20
0.1123718154069841
 10
0.2812883212214778
 20
0.1074196535594467
 10
0.2796249766980914
 20
0.104630616912063
 10
0.2762695186852824
 20
0.1027195796994764
 10
0.2727579955327783
 20
0.1017488549035246
 10
0.2697803821600431
 20
0.102219729738005
 10
0.2687454030952949
 20
0.1014677734318674
 10
0.2694025375199693
 20
0.099837817690938
 10
0.2691191577747105
 20
0.098051393050465
 10
0.2660470795071603
 20
0.0979267804783514
 10
0.259122587314117
 20
0.1023790923644156
 10
0.2580876174653177
 20
0.1016271427540598
 10
0.2592458027430631
 20
0.0993075302972688
 10
0.2582724381188797
 20
0.0970197933901247
 10
0.2558903539462065
 20
0.0973964997804639
 10
0.2511590260956602
 20
0.1002811555158747
 10
0.249249241498422
 20
0.1036352363070012
 10
0.2464605479558557
 20
0.105297060901794
 10
0.2450805881574602
 20
0.1042944614213219
 10
0.2447027435173865
 20
0.101912549374255
 10
0.2444809689967364
 20
0.0985903374369919
 10
0.2424110200831926
 20
0.097086431520502
 10
0.2394950169147982
 20
0.0960215315846292
 10
0.2351086832500684
 20
0.0991568313594993
 10
0.2338888785520297
 20
0.1030122118908618
 10
0.2344227933115306
 20
0.1044538240477344
 10
0.2318517843289562
 20
0.1036395681513209
 10
0.2305991299201722
 20
0.1053636990321731
 10
0.2307264487619562
 20
0.1080904302586241
 10
0.2324842532004254
 20
0.1114749417861613
 10
0.2326115678059892
 20
0.1142016788432673
 10
0.2305128676147952
 20
0.1163648040434246
 10
0.2283813042606901
 20
0.1163966787279431
 10
0.2266563452967425
 20
0.1151434226815712
 10
0.2248081709038416
 20
0.1169617287023445
 10
0.2216785816085611
 20
0.1241711900248336
 10
0.217017061572065
 20
0.1371166508812979
 10
0.2145158561673241
 20
0.1463632059365966
 10
0.2140188860589553
 20
0.1528511483851442
  0
LWPOLYLINE
  5
1364
330
12F0
100
AcDbEntity
  8
0
  6
Continuous
370
     0
100
AcDbPolyline
 90
        8
 70
   128
 43
0.0
 10
0.2229270606239524
 20
0.1609038532574764
 10
0.2279007208993029
 20
0.1460777926206198
 10
0.2345705888609544
 20
0.1361720191467821
 10
0.2430270167749455
 20
0.1259837202531795
 10
0.2533028727839195
 20
0.1176441589818875
 10
0.2611678841266283
 20
0.1133483285218019
 10
0.27069623999272
 20
0.1118415347090984
 10
0.2747088232142545
 20
0.1121226094849721
  0
LWPOLYLINE
  5
1365
330
12F0
100
AcDbEntity
  8
0
  6
Continuous
370
     0
100
AcDbPolyline
 90
        7
 70
   128
 43
0.0
 10
0.2444808115834398
 20
0.1871005113860455
 10
0.259804220662744
 20
0.1797939745009849
 10
0.2712711166399444
 20
0.1712660629498525
 10
0.2811691280088446
 20
0.1605445896314936
 10
0.2875556070092884
 20
0.1488523848214029
 10
0.2895229026342605
 20
0.1381642301356702
 10
0.2894530948202068
 20
0.1281034250146166
  0
LWPOLYLINE
  5
1366
330
12F0
100
AcDbEntity
  8
0
  6
Continuous
370
     0
100
AcDbPolyline
 90
       11
 70
   128
 43
0.0
 10
0.2441975800355287
 20
0.0968039061007389
 10
0.2497421124301766
 20
0.0913489947342026
 10
0.252748477080555
 20
0.0872110887830769
 10
0.2548143360334443
 20
0.0829167022710973
 10
0.254999152450786
 20
0.0783093587378172
 10
0.2509824700526408
 20
0.0722299848376924
 10
0.2444604788369276
 20
0.0695988726992702
 10
0.2390063256126567
 20
0.0698509732132759
 10
0.2333960930530061
 20
0.0710433669216979
 10
0.227884419585056
 20
0.0786295346345263
 10
0.2250998252191039
 20
0.0860896583535719
  0
LWPOLYLINE
  5
1367
330
12F0
100
AcDbEntity
  8
0
  6
Continuous
370
     0
100
AcDbPolyline
 90
        9
 70
   128
 43
0.0
 10
0.2308907842354344
 20
0.0744916286834005
 10
0.2293177962143034
 20
0.0664997736225814
 10
0.2265578674015565
 20
0.0644945679658555
 10
0.221444600714058
 20
0.0591990250563849
 10
0.2151731437690749
 20
0.0562230820772687
 10
0.2082774021101592
 20
0.0570083444895921
 10
0.2034844732712244
 20
0.0614287816911379
 10
0.1994431253198776
 20
0.0648147371667846
 10
0.200864142398192
 20
0.0795451912420511
  0
LWPOLYLINE
  5
1368
330
12F0
100
AcDbEntity
  8
0
  6
Continuous
370
     0
100
AcDbPolyline
 90
        9
 70
   128
 43
0.0
 10
0.1986956343929478
 20
0.0716475113211512
 10
0.1947446563960255
 20
0.0698306492484875
 10
0.1915493676792579
 20
0.0727776112699541
 10
0.1876928495974184
 20
0.0715562240774457
 10
0.1821113725516348
 20
0.0690815808385654
 10
0.1773471992265634
 20
0.0698349810928054
 10
0.1739958403903649
 20
0.0737222430044717
 10
0.1729978102129727
 20
0.0808998354730957
 10
0.1746940136630535
 20
0.0858201284667715
  0
LWPOLYLINE
  5
1369
330
12F0
100
AcDbEntity
  8
0
  6
Continuous
370
     0
100
AcDbPolyline
 90
       18
 70
   128
 43
0.0
 10
0.2454458250806297
 20
0.2057573816542586
 10
0.2557833045336473
 20
0.2001486620566659
 10
0.2748669135192046
 20
0.1924495709508473
 10
0.2953084345588195
 20
0.1860884564319409
 10
0.3150910902779351
 20
0.1817551441857841
 10
0.3337894117243571
 20
0.1766211462363927
 10
0.3436098258691054
 20
0.1739830667432418
 10
0.3496602063452485
 20
0.1719135574852899
 10
0.3516669548083833
 20
0.1698753208975176
 10
0.3515150982813253
 20
0.1675840871505531
 10
0.3494882677260982
 20
0.1669255299822349
 10
0.3473296558815555
 20
0.1666725305959282
 10
0.3416846415164549
 20
0.1688737512875455
 10
0.3204424275407014
 20
0.1763198452341701
 10
0.2946194374857427
 20
0.1840710712604405
 10
0.2802282900679245
 20
0.1883626742942823
 10
0.2589659871457357
 20
0.1931119722577019
 10
0.2422643713563133
 20
0.1948593421582742
  0
LWPOLYLINE
  5
136A
330
12F0
100
AcDbEntity
  8
0
  6
Continuous
370
     0
100
AcDbPolyline
 90
       12
 70
   128
 43
0.0
 10
0.3106246586062298
 20
0.2879147200058192
 10
0.3231508644274896
 20
0.2866041936185564
 10
0.3365894623821148
 20
0.28110633626547
 10
0.3451636532954971
 20
0.2740279372541909
 10
0.3514474579293676
 20
0.2671020988657311
 10
0.3543766309574714
 20
0.2622249313800697
 10
0.3554308334775911
 20
0.2589804296390508
 10
0.3556441788773945
 20
0.2514273198135672
 10
0.3527061885967555
 20
0.2370213534821239
 10
0.3502237780858195
 20
0.2294891036798035
 10
0.3415090023392793
 20
0.2176899311102183
 10
0.3375670198630125
 20
0.2132704585541347
  0
LWPOLYLINE
  5
136B
330
12F0
100
AcDbEntity
  8
0
  6
Continuous
370
     0
100
AcDbPolyline
 90
       39
 70
   128
 43
0.0
 10
0.2373058927685676
 20
0.2349474174452872
 10
0.2466281014776968
 20
0.2559115272298396
 10
0.2594166376556579
 20
0.2717246015123802
 10
0.2676858762526209
 20
0.2779984729090064
 10
0.2729456032645991
 20
0.2783623214787028
 10
0.276036682480246
 20
0.2771247814281637
 10
0.279279618222958
 20
0.2781784751245873
 10
0.280384027547381
 20
0.2816759762519094
 10
0.2814884403919855
 20
0.285173466545233
 10
0.2855421083567862
 20
0.2864905831089839
 10
0.2867682459758782
 20
0.2882341197050238
 10
0.2909737808422648
 20
0.2918424614088497
 10
0.2947438143248533
 20
0.2912739150687678
 10
0.2966087490670617
 20
0.2882928361950743
 10
0.2972575819559573
 20
0.2849166338543938
 10
0.2960214015307301
 20
0.2818247057973107
 10
0.3000650302095735
 20
0.2817934200660179
 10
0.3039869237394051
 20
0.2835160966388948
 10
0.3070780029550519
 20
0.2822785565883556
 10
0.308801120456156
 20
0.2783546462627466
 10
0.3075749793168825
 20
0.2766111205007089
 10
0.3121557485417412
 20
0.2763059861939521
 10
0.3152468277573916
 20
0.2750684461434112
 10
0.3192703708239612
 20
0.2723403774900266
 10
0.3184495924615689
 20
0.2707285501005394
 10
0.3220677729372774
 20
0.267868759179489
 10
0.3243179881782581
 20
0.2623226088173727
 10
0.3244196412351812
 20
0.2578718527571091
 10
0.3225145389746231
 20
0.2554593310575051
 10
0.3184608710098224
 20
0.2541422144937524
 10
0.3171029485812333
 20
0.2528042465137279
 10
0.3137282384035558
 20
0.2521561128264338
 10
0.3109007115780287
 20
0.2525825220247189
 10
0.3091474691786971
 20
0.2524612471331906
 10
0.3095327531976508
 20
0.2498961648107638
 10
0.3068269615211356
 20
0.248568611704874
 10
0.3035940650643845
 20
0.2488633203034975
 10
0.2987597794011911
 20
0.2513279746964425
 10
0.29458437980756
 20
0.2517648096028626
  0
LWPOLYLINE
  5
136C
330
12F0
100
AcDbEntity
  8
0
  6
Continuous
370
     0
100
AcDbPolyline
 90
       19
 70
   128
 43
0.0
 10
0.2396477217805177
 20
0.2236021087278566
 10
0.2482307230920853
 20
0.2358068413065695
 10
0.2554256805970212
 20
0.2426284098541238
 10
0.2647792466123313
 20
0.2497029647268665
 10
0.2737073609043215
 20
0.2539490252438572
 10
0.2831525371704195
 20
0.2552244325952895
 10
0.2901554671097593
 20
0.2543611776565839
 10
0.2957904421889062
 20
0.250811554669923
 10
0.3004728576163416
 20
0.2460556620757881
 10
0.3020642075368229
 20
0.2425373139864177
 10
0.3028247259142454
 20
0.2360587556534064
 10
0.2995516687934909
 20
0.2309598659058434
 10
0.2934309923805856
 20
0.2235906002073662
 10
0.2830031419390799
 20
0.2170637294244351
 10
0.2748958060094786
 20
0.2144294962969315
 10
0.2638291584448567
 20
0.2126272409837284
 10
0.2547993944301083
 20
0.2128319495881179
 10
0.2464586241542683
 20
0.2150540303028929
 10
0.2417561233005756
 20
0.2171131160798207
  0
LWPOLYLINE
  5
136D
330
12F0
100
AcDbEntity
  8
0
  6
Continuous
370
     0
100
AcDbPolyline
 90
       11
 70
   128
 43
0.0
 10
0.2469242433959344
 20
0.2232761252319424
 10
0.2488393884626312
 20
0.2270370383925915
 10
0.2530348770027011
 20
0.2292969994693763
 10
0.2560042245895175
 20
0.2298134108890082
 10
0.2588317445606982
 20
0.2293869994636104
 10
0.2607067254432103
 20
0.2277543251120786
 10
0.2605548620618023
 20
0.2254630891380014
 10
0.2585079494144828
 20
0.222107738213591
 10
0.2543225001603666
 20
0.2211961794318515
 10
0.2498634660845234
 20
0.219747351434437
 10
0.2482520340719496
 20
0.2205689057677151
  0
LWPOLYLINE
  5
136E
330
12F0
100
AcDbEntity
  8
0
  6
Continuous
370
     0
100
AcDbPolyline
 90
       11
 70
   128
 43
0.0
 10
0.2443803543867844
 20
0.2255882103951769
 10
0.2485959181646038
 20
0.2305449630009377
 10
0.2567133037546831
 20
0.234527589816599
 10
0.2621048085358026
 20
0.2344858914382843
 10
0.2670809045857503
 20
0.232964066270144
 10
0.2694930260142776
 20
0.2310575433431499
 10
0.2682467994487467
 20
0.2266172107639068
 10
0.2659262882710074
 20
0.2227245861695941
 10
0.2583360039409825
 20
0.2171197084834233
 10
0.2534816465602283
 20
0.2168875605133884
 10
0.2475630369988728
 20
0.2185515205962147
  0
LWPOLYLINE
  5
136F
330
12F0
100
AcDbEntity
  8
0
  6
Continuous
370
     0
100
AcDbPolyline
 90
        8
 70
   128
 43
0.0
 10
0.25661165755211
 20
0.2389783481039771
 10
0.2634928523424378
 20
0.2398690554694429
 10
0.269269637808339
 20
0.2372622617075848
 10
0.2736885112201826
 20
0.2333174913588181
 10
0.2738002035630593
 20
0.2302151375935999
 10
0.2734964836545899
 20
0.2256326678725582
 10
0.2706388319308353
 20
0.2220138918537078
 10
0.2641328783533261
 20
0.2172097107047701
  0
LWPOLYLINE
  5
1370
330
12F0
100
AcDbEntity
  8
0
  6
Continuous
370
     0
100
AcDbPolyline
 90
       11
 70
   128
 43
0.0
 10
0.2612125053488796
 20
0.2413700183873129
 10
0.2743059834687287
 20
0.2438308308688359
 10
0.279961040639968
 20
0.2429780016382619
 10
0.2837210383567807
 20
0.2410610421691306
 10
0.2868020747662925
 20
0.2384751106575464
 10
0.2871974015913814
 20
0.2372584197961629
 10
0.2867719465338965
 20
0.2344299123792961
 10
0.2845832097911263
 20
0.2301317277758539
 10
0.2811884175213564
 20
0.2267868003324658
 10
0.2768410724542214
 20
0.22223560550872
 10
0.2711558903847582
 20
0.2190432495221532
  0
LWPOLYLINE
  5
1371
330
12F0
100
AcDbEntity
  8
0
  6
Continuous
370
     0
100
AcDbPolyline
 90
       12
 70
   128
 43
0.0
 10
0.2632493855645883
 20
0.2433769692437906
 10
0.2747314385262136
 20
0.2466593382857027
 10
0.2826869179287534
 20
0.2470023376662418
 10
0.2884737495349583
 20
0.2457439484265418
 10
0.2920919300106668
 20
0.2428841575054932
 10
0.2940986784738016
 20
0.2408459209177227
 10
0.2946257797338596
 20
0.2392236700472132
 10
0.2933795531683288
 20
0.234783337467972
 10
0.2890221617748807
 20
0.2288837620171797
 10
0.2852220033940647
 20
0.2254071231401262
 10
0.2798003737147212
 20
0.2214036363013054
 10
0.275341332784528
 20
0.2199548060767782
  0
LWPOLYLINE
  5
1372
330
12F0
100
AcDbEntity
  8
0
  6
Continuous
370
     0
100
AcDbPolyline
 90
       48
 70
   128
 43
0.0
 10
0.3015784993487181
 20
0.2316184230741633
 10
0.3056422134538188
 20
0.2342839441600759
 10
0.307830950196589
 20
0.2385821287635146
 10
0.3106886019203436
 20
0.2422009047823685
 10
0.3132626191618897
 20
0.2439340178973825
 10
0.3147322270790091
 20
0.2421696298850744
 10
0.3156647013044598
 20
0.2406790926753413
 10
0.3189176798533069
 20
0.2430811778328117
 10
0.3215017399009845
 20
0.2461626824088689
 10
0.3247446756436964
 20
0.2472163761052926
 10
0.3295889937384935
 20
0.2461001217802821
 10
0.3317275234909438
 20
0.2436563274104966
 10
0.33250813433499
 20
0.2398745542266862
 10
0.3323462281474434
 20
0.2362349267915658
 10
0.3309782664329006
 20
0.2335485565164976
 10
0.3313735932579895
 20
0.2323318656551141
 10
0.3331268389914861
 20
0.2324531536077572
 10
0.3347382606295319
 20
0.2316316078813667
 10
0.3339074498355323
 20
0.2286713804239468
 10
0.3275332638386423
 20
0.2234616370387687
 10
0.3279285871435533
 20
0.2222449570113873
 10
0.3304925686193236
 20
0.2226296569973538
 10
0.3323675495018356
 20
0.220996982645822
 10
0.3312731759431848
 20
0.2188478946475456
 10
0.3270676445969762
 20
0.2152395421097157
 10
0.3232875683082525
 20
0.2144596969887562
 10
0.3208453255016792
 20
0.2123210238646127
 10
0.3213724232415558
 20
0.2106987838281053
 10
0.3235209958001448
 20
0.2096033809193649
 10
0.3266120750157917
 20
0.208365840868824
 10
0.3274027251457916
 20
0.2059324699800626
 10
0.327514410634322
 20
0.2028301139877317
 10
0.3231771117074942
 20
0.1996273236861405
 10
0.3191334865488286
 20
0.1996585985834347
 10
0.317927420647301
 20
0.2006118643503765
 10
0.3179073385552087
 20
0.1979150705942842
 10
0.3158805011456351
 20
0.1972565111988515
 10
0.3133265693303499
 20
0.1982202049010428
 10
0.3106508990318843
 20
0.2009378478462924
 10
0.3080969603622528
 20
0.2019015393213692
 10
0.3053911720199025
 20
0.2005739992765942
 10
0.3047021680924793
 20
0.1985566118779829
 10
0.3053610437875101
 20
0.1965288009983456
 10
0.3030606147018595
 20
0.1953329701601216
 10
0.2952369132544703
 20
0.1945843999364544
 10
0.2814845594395905
 20
0.1941513983345686
 10
0.2719176480244805
 20
0.1946299532873077
 10
0.2655936758722603
 20
0.19616219110247
  0
LWPOLYLINE
  5
1373
330
12F0
100
AcDbEntity
  8
0
  6
Continuous
370
     0
100
AcDbPolyline
 90
        8
 70
   128
 43
0.0
 10
0.2606878757590714
 20
0.2071227912270394
 10
0.2763252428880705
 20
0.2072715185453262
 10
0.2878072958496958
 20
0.2105538875872419
 10
0.3001101238395485
 20
0.2154480709575264
 10
0.3112169320681737
 20
0.2226439246169125
 10
0.3177329317859865
 20
0.2287965102880101
 10
0.3221104017513489
 20
0.2373928903288931
 10
0.3230830401609843
 20
0.2412959406313444
  0
LWPOLYLINE
  5
1374
330
12F0
100
AcDbEntity
  8
0
  6
Continuous
370
     0
100
AcDbPolyline
 90
        7
 70
   128
 43
0.0
 10
0.2424338486797453
 20
0.2357168390852227
 10
0.2541179720130984
 20
0.2480324230744397
 10
0.265771963593874
 20
0.2563028196194086
 10
0.2790273443810918
 20
0.2624032703700543
 10
0.2921208225009408
 20
0.2648640828515774
 10
0.3028937894430506
 20
0.2634322707387859
 10
0.3124406119117253
 20
0.2602569198028419
  0
LWPOLYLINE
  5
1375
330
12F0
100
AcDbEntity
  8
0
  6
Continuous
370
     0
100
AcDbPolyline
 90
       11
 70
   128
 43
0.0
 10
0.328223500174019
 20
0.2075442843084332
 10
0.3351247839107856
 20
0.2111317876571039
 10
0.339989184097675
 20
0.2127123270881839
 10
0.3447117738978065
 20
0.2133500372944592
 10
0.3491507294017389
 20
0.2121020607017829
 10
0.3536913344424164
 20
0.2064033388828417
 10
0.3541782646639468
 20
0.1993874982730368
 10
0.3522530767911149
 20
0.1942781936513409
 10
0.3493853857814031
 20
0.1893110153374451
 10
0.3404673107753666
 20
0.1864133571154997
 10
0.3325118245184804
 20
0.1860703555078497
  0
LWPOLYLINE
  5
1376
330
12F0
100
AcDbEntity
  8
0
  6
Continuous
370
     0
100
AcDbPolyline
 90
        9
 70
   128
 43
0.0
 10
0.345331710962256
 20
0.1879938965465797
 10
0.3524463367646575
 20
0.1840282770086538
 10
0.3535005357645957
 20
0.180783786101637
 10
0.3569568100527576
 20
0.1742843677454644
 10
0.3578491132396806
 20
0.1674002407964359
 10
0.3549713829440151
 20
0.1610846601874911
 10
0.3492862008745518
 20
0.1578923042009297
 10
0.3448171206584014
 20
0.1550950716813535
 10
0.3312467447486291
 20
0.1609984998775697
  0
LWPOLYLINE
  5
1377
330
12F0
100
AcDbEntity
  8
0
  6
Continuous
370
     0
100
AcDbPolyline
 90
        9
 70
   128
 43
0.0
 10
0.3380877788749572
 20
0.1564956088968507
 10
0.3385947980429229
 20
0.1521765642702526
 10
0.3348046720937176
 20
0.1500483254611335
 10
0.3347745507156681
 20
0.1460031294099977
 10
0.3354033050326528
 20
0.1399301224792228
 10
0.3332145682898826
 20
0.1356319378757806
 10
0.3284819356836124
 20
0.133645836208462
 10
0.3213472313093035
 20
0.1349146511562953
 10
0.3171919102875797
 20
0.138048290652808
  0
ENDBLK
  5
137B
330
12F0
100
AcDbEntity
  8
0
100
AcDbBlockEnd
  0
BLOCK
  5
2199
330
2192
100
AcDbEntity
  8
0
100
AcDbBlockBegin
  2
*D20
 70
     1
 10
0.0
 20
0.0
 30
0.0
  3
*D20
  1

  0
LINE
  5
21A9
330
2192
100
AcDbEntity
  8
Sezione
  6
ACAD_ISO10W100
 62
     5
370
    -2
100
AcDbLine
 10
0.2558514754556142
 20
0.211046886970545
 30
0.0
 11
0.2543514754556142
 21
0.211046886970545
 31
0.0
  0
LINE
  5
21AA
330
2192
100
AcDbEntity
  8
Sezione
  6
ACAD_ISO10W100
 62
     5
370
    -2
100
AcDbLine
 10
0.2543514754556142
 20
0.211046886970545
 30
0.0
 11
0.252220121576662
 21
0.2089356478456055
 31
0.0
  0
MTEXT
  5
21AB
330
2192
100
AcDbEntity
  8
Sezione
  6
ACAD_ISO10W100
 62
     4
100
AcDbMText
 10
0.2702800468841856
 20
0.211046886970545
 30
0.0
 40
0.003
 41
0.0
 71
     5
 72
     1
  1
\A1;d 500 mm
  7
ROMANS
 73
     1
 44
1.0
1001
ACAD
1000
MTEXTBEGIN
1070
    73
1070
     1
1070
    44
1040
1.0
1070
    74
1070
     0
1000
MTEXTEND
  0
INSERT
  5
21AC
330
2192
100
AcDbEntity
  8
Sezione
  6
ACAD_ISO10W100
 62
     5
370
    -2
100
AcDbBlockReference
  2
_ArchTick
 10
0.252220121576662
 20
0.2089356478456055
 30
0.0
 41
0.0015
 42
0.0015
 43
0.0015
 50
224.7283543638229
  0
POINT
  5
21AD
330
2192
100
AcDbEntity
  8
Defpoints
  6
ACAD_ISO10W100
 62
     0
100
AcDbPoint
 10
0.252220121576662
 20
0.2089356478456055
 30
0.0
  0
POINT
  5
21AE
330
2192
100
AcDbEntity
  8
Defpoints
  6
ACAD_ISO10W100
 62
     0
100
AcDbPoint
 10
0.1634137099536523
 20
0.1209673509731266
 30
0.0
  0
ENDBLK
  5
219A
330
2192
100
AcDbEntity
  8
0
100
AcDbBlockEnd
  0
BLOCK
  5
23FD
330
23F6
100
AcDbEntity
  8
0
100
AcDbBlockBegin
  2
*D22
 70
     1
 10
0.0
 20
0.0
 30
0.0
  3
*D22
  1

  0
LINE
  5
240D
330
23F6
100
AcDbEntity
  8
Sezione
  6
ACAD_ISO10W100
 62
     5
370
    -2
100
AcDbLine
 10
0.2631158902053683
 20
0.2072725814460036
 30
0.0
 11
0.2616158902053683
 21
0.2072725814460035
 31
0.0
  0
LINE
  5
240E
330
23F6
100
AcDbEntity
  8
Sezione
  6
ACAD_ISO10W100
 62
     5
370
    -2
100
AcDbLine
 10
0.2616158902053683
 20
0.2072725814460035
 30
0.0
 11
0.2592455289467454
 21
0.2054337265023988
 31
0.0
  0
MTEXT
  5
240F
330
23F6
100
AcDbEntity
  8
Sezione
  6
ACAD_ISO10W100
 62
     4
100
AcDbMText
 10
0.2710444616339398
 20
0.2072725814460036
 30
0.0
 40
0.003
 41
0.0
 71
     5
 72
     1
  1
\A1;\U+22050.13
  7
ROMANS
 73
     1
 44
1.0
1001
ACAD
1000
MTEXTBEGIN
1070
    73
1070
     1
1070
    44
1040
1.0
1070
    74
1070
     0
1000
MTEXTEND
  0
INSERT
  5
2410
330
23F6
100
AcDbEntity
  8
Sezione
  6
ACAD_ISO10W100
 62
     5
370
    -2
100
AcDbBlockReference
  2
_ArchTick
 10
0.2592455289467454
 20
0.2054337265023988
 30
0.0
 41
0.0015
 42
0.0015
 43
0.0015
 50
217.8032336898647
  0
POINT
  5
2411
330
23F6
100
AcDbEntity
  8
Defpoints
  6
ACAD_ISO10W100
 62
     0
100
AcDbPoint
 10
0.2592455289467454
 20
0.2054337265023988
 30
0.0
  0
POINT
  5
2412
330
23F6
100
AcDbEntity
  8
Defpoints
  6
ACAD_ISO10W100
 62
     0
100
AcDbPoint
 10
0.1585051754552694
 20
0.1272823913991999
 30
0.0
  0
ENDBLK
  5
23FE
330
23F6
100
AcDbEntity
  8
0
100
AcDbBlockEnd
  0
BLOCK
  5
241B
330
2414
100
AcDbEntity
  8
0
100
AcDbBlockBegin
  2
*D23
 70
     1
 10
0.0
 20
0.0
 30
0.0
  3
*D23
  1

  0
LINE
  5
242B
330
2414
100
AcDbEntity
  8
Sezione
  6
ACAD_ISO10W100
 62
     5
370
    -2
100
AcDbLine
 10
0.2676079008573378
 20
0.2007091560846723
 30
0.0
 11
0.2661079008573378
 21
0.2007091560846723
 31
0.0
  0
LINE
  5
242C
330
2414
100
AcDbEntity
  8
Sezione
  6
ACAD_ISO10W100
 62
     5
370
    -2
100
AcDbLine
 10
0.2661079008573378
 20
0.2007091560846723
 30
0.0
 11
0.2635356514795252
 21
0.1991652865505656
 31
0.0
  0
MTEXT
  5
242D
330
2414
100
AcDbEntity
  8
Sezione
  6
ACAD_ISO10W100
 62
     4
100
AcDbMText
 10
0.2820364722859093
 20
0.2007091560846723
 30
0.0
 40
0.003
 41
0.0
 71
     5
 72
     1
  1
\A1;d 510 mm
  7
ROMANS
 73
     1
 44
1.0
1001
ACAD
1000
MTEXTBEGIN
1070
    73
1070
     1
1070
    44
1040
1.0
1070
    74
1070
     0
1000
MTEXTEND
  0
INSERT
  5
242E
330
2414
100
AcDbEntity
  8
Sezione
  6
ACAD_ISO10W100
 62
     5
370
    -2
100
AcDbBlockReference
  2
_ArchTick
 10
0.2635356514795252
 20
0.1991652865505656
 30
0.0
 41
0.0015
 42
0.0015
 43
0.0015
 50
210.9722710083541
  0
POINT
  5
242F
330
2414
100
AcDbEntity
  8
Defpoints
  6
ACAD_ISO10W100
 62
     0
100
AcDbPoint
 10
0.2635356514795252
 20
0.1991652865505656
 30
0.0
  0
POINT
  5
2430
330
2414
100
AcDbEntity
  8
Defpoints
  6
ACAD_ISO10W100
 62
     0
100
AcDbPoint
 10
0.1542150529224896
 20
0.1335508313510331
 30
0.0
  0
ENDBLK
  5
241C
330
2414
100
AcDbEntity
  8
0
100
AcDbBlockEnd
  0
BLOCK
  5
2759
330
2752
100
AcDbEntity
  8
0
100
AcDbBlockBegin
  2
*D25
 70
     1
 10
0.0
 20
0.0
 30
0.0
  3
*D25
  1

  0
LINE
  5
2769
330
2752
100
AcDbEntity
  8
Sezione
  6
ACAD_ISO10W100
 62
     5
370
    -2
100
AcDbLine
 10
0.2636607640225997
 20
0.2055303332418715
 30
0.0
 11
0.2621607640225998
 21
0.2055303332418715
 31
0.0
  0
LINE
  5
276A
330
2752
100
AcDbEntity
  8
Sezione
  6
ACAD_ISO10W100
 62
     5
370
    -2
100
AcDbLine
 10
0.2621607640225998
 20
0.2055303332418715
 30
0.0
 11
0.2599242728201685
 21
0.2035308065225082
 31
0.0
  0
MTEXT
  5
276B
330
2752
100
AcDbEntity
  8
Sezione
  6
ACAD_ISO10W100
 62
     4
100
AcDbMText
 10
0.2780893354511711
 20
0.2055303332418715
 30
0.0
 40
0.003
 41
0.0
 71
     5
 72
     1
  1
\A1;d 530 mm
  7
ROMANS
 73
     1
 44
1.0
1001
ACAD
1000
MTEXTBEGIN
1070
    73
1070
     1
1070
    44
1040
1.0
1070
    74
1070
     0
1000
MTEXTEND
  0
INSERT
  5
276C
330
2752
100
AcDbEntity
  8
Sezione
  6
ACAD_ISO10W100
 62
     5
370
    -2
100
AcDbBlockReference
  2
_ArchTick
 10
0.2599242728201685
 20
0.2035308065225082
 30
0.0
 41
0.0015
 42
0.0015
 43
0.0015
 50
221.7981889599028
  0
POINT
  5
276D
330
2752
100
AcDbEntity
  8
Defpoints
  6
ACAD_ISO10W100
 62
     0
100
AcDbPoint
 10
0.2599242728201685
 20
0.2035308065225082
 30
0.0
  0
POINT
  5
276E
330
2752
100
AcDbEntity
  8
Defpoints
  6
ACAD_ISO10W100
 62
     0
100
AcDbPoint
 10
0.1611459113794554
 20
0.1152183764172968
 30
0.0
  0
ENDBLK
  5
275A
330
2752
100
AcDbEntity
  8
0
100
AcDbBlockEnd
  0
BLOCK
  5
2797
330
2790
100
AcDbEntity
  8
0
100
AcDbBlockBegin
  2
*D27
 70
     1
 10
0.0
 20
0.0
 30
0.0
  3
*D27
  1

  0
LINE
  5
27A7
330
2790
100
AcDbEntity
  8
Sezione
  6
ACAD_ISO10W100
 62
     5
370
    -2
100
AcDbLine
 10
0.2655197561718822
 20
0.2080882267431791
 30
0.0
 11
0.2640197561718822
 21
0.2080882267431791
 31
0.0
  0
LINE
  5
27A8
330
2790
100
AcDbEntity
  8
Sezione
  6
ACAD_ISO10W100
 62
     5
370
    -2
100
AcDbLine
 10
0.2640197561718822
 20
0.2080882267431791
 30
0.0
 11
0.2616948151979908
 21
0.2061922706603753
 31
0.0
  0
MTEXT
  5
27A9
330
2790
100
AcDbEntity
  8
Sezione
  6
ACAD_ISO10W100
 62
     4
100
AcDbMText
 10
0.2799483276004536
 20
0.2080882267431791
 30
0.0
 40
0.003
 41
0.0
 71
     5
 72
     1
  1
\A1;d 550 mm
  7
ROMANS
 73
     1
 44
1.0
1001
ACAD
1000
MTEXTBEGIN
1070
    73
1070
     1
1070
    44
1040
1.0
1070
    74
1070
     0
1000
MTEXTEND
  0
INSERT
  5
27AA
330
2790
100
AcDbEntity
  8
Sezione
  6
ACAD_ISO10W100
 62
     5
370
    -2
100
AcDbBlockReference
  2
_ArchTick
 10
0.2616948151979908
 20
0.2061922706603753
 30
0.0
 41
0.0015
 42
0.0015
 43
0.0015
 50
219.1967512286199
  0
POINT
  5
27AB
330
2790
100
AcDbEntity
  8
Defpoints
  6
ACAD_ISO10W100
 62
     0
100
AcDbPoint
 10
0.2616948151979908
 20
0.2061922706603753
 30
0.0
  0
POINT
  5
27AC
330
2790
100
AcDbEntity
  8
Defpoints
  6
ACAD_ISO10W100
 62
     0
100
AcDbPoint
 10
0.1551350205612993
 20
0.1192942835318685
 30
0.0
  0
ENDBLK
  5
2798
330
2790
100
AcDbEntity
  8
0
100
AcDbBlockEnd
  0
BLOCK
  5
2A44
330
2A3D
100
AcDbEntity
  8
0
100
AcDbBlockBegin
  2
*D30
 70
     1
 10
0.0
 20
0.0
 30
0.0
  3
*D30
  1

  0
LINE
  5
2A54
330
2A3D
100
AcDbEntity
  8
Sezione
  6
ACAD_ISO10W100
 62
     5
370
    -2
100
AcDbLine
 10
0.2706404821379488
 20
0.2103631079855691
 30
0.0
 11
0.2691404821379488
 21
0.2103631079855691
 31
0.0
  0
LINE
  5
2A55
330
2A3D
100
AcDbEntity
  8
Sezione
  6
ACAD_ISO10W100
 62
     5
370
    -2
100
AcDbLine
 10
0.2691404821379488
 20
0.2103631079855691
 30
0.0
 11
0.266850684080153
 21
0.2084248549436485
 31
0.0
  0
MTEXT
  5
2A56
330
2A3D
100
AcDbEntity
  8
Sezione
  6
ACAD_ISO10W100
 62
     4
100
AcDbMText
 10
0.2850690535665202
 20
0.2103631079855691
 30
0.0
 40
0.003
 41
0.0
 71
     5
 72
     1
  1
\A1;d 600 mm
  7
ROMANS
 73
     1
 44
1.0
1001
ACAD
1000
MTEXTBEGIN
1070
    73
1070
     1
1070
    44
1040
1.0
1070
    74
1070
     0
1000
MTEXTEND
  0
INSERT
  5
2A57
330
2A3D
100
AcDbEntity
  8
Sezione
  6
ACAD_ISO10W100
 62
     5
370
    -2
100
AcDbBlockReference
  2
_ArchTick
 10
0.266850684080153
 20
0.2084248549436485
 30
0.0
 41
0.0015
 42
0.0015
 43
0.0015
 50
220.2470248701781
  0
POINT
  5
2A58
330
2A3D
100
AcDbEntity
  8
Defpoints
  6
ACAD_ISO10W100
 62
     0
100
AcDbPoint
 10
0.266850684080153
 20
0.2084248549436485
 30
0.0
  0
POINT
  5
2A59
330
2A3D
100
AcDbEntity
  8
Defpoints
  6
ACAD_ISO10W100
 62
     0
100
AcDbPoint
 10
0.1523607811903642
 20
0.1115122028476156
 30
0.0
  0
ENDBLK
  5
2A45
330
2A3D
100
AcDbEntity
  8
0
100
AcDbBlockEnd
  0
ENDSEC
  0
SECTION
  2
ENTITIES
  0
LINE
  5
D
330
2
100
AcDbEntity
  8
Table
100
AcDbLine
 10
0.02
 20
0.02
 30
0.0
 11
0.4
 21
0.02
 31
0.0
  0
LINE
  5
10
330
2
100
AcDbEntity
  8
Table
100
AcDbLine
 10
0.4
 20
0.02
 30
0.0
 11
0.4
 21
0.2769999999999999
 31
0.0
  0
LINE
  5
11
330
2
100
AcDbEntity
  8
Table
100
AcDbLine
 10
0.4
 20
0.2769999999999999
 30
0.0
 11
0.02
 21
0.277
 31
0.0
  0
LINE
  5
12
330
2
100
AcDbEntity
  8
Table
100
AcDbLine
 10
0.02
 20
0.277
 30
0.0
 11
0.02
 21
0.02
 31
0.0
  0
LINE
  5
13
330
2
100
AcDbEntity
  8
Table
 62
     2
100
AcDbLine
 10
0.015
 20
0.015
 30
0.0
 11
0.4050000000000001
 21
0.015
 31
0.0
  0
LINE
  5
14
330
2
100
AcDbEntity
  8
Table
 62
     2
100
AcDbLine
 10
0.4050000000000001
 20
0.015
 30
0.0
 11
0.4050000000000001
 21
0.2819999999999998
 31
0.0
  0
LINE
  5
15
330
2
100
AcDbEntity
  8
Table
 62
     2
100
AcDbLine
 10
0.4050000000000001
 20
0.2819999999999998
 30
0.0
 11
0.0149999999999999
 21
0.282
 31
0.0
  0
LINE
  5
16
330
2
100
AcDbEntity
  8
Table
 62
     2
100
AcDbLine
 10
0.0149999999999999
 20
0.282
 30
0.0
 11
0.015
 21
0.015
 31
0.0
  0
LINE
  5
17
330
2
100
AcDbEntity
  8
Table
100
AcDbLine
 10
0.21
 20
0.2769999999999999
 30
0.0
 11
0.21
 21
0.2532994226089223
 31
0.0
  0
MTEXT
  5
18
102
{ACAD_XDICTIONARY
360
2A5E
102
}
330
2
100
AcDbEntity
  8
Text
100
AcDbMText
 10
0.305
 20
0.0471738284815141
 30
0.0
 40
0.005
 41
0.1900000000000001
 71
     2
 72
     5
  3
{\fTimes New Roman|b0|i0|c238|p18;\H1.6x;\C4;Bovelacci\P\H0.4375x;\T0.95;via del Commercio, 5  47100 Forli - Italy  \fTimes New Roman|b0|i0|c0|p18;\P\fTimes New Roman|b0|i0|c238|p18;tel.+39-0543721386  fax +39-0543721127\fTimes New Roman|b0|i0|c0|p18
  1
; \fTimes New Roman|b0|i0|c238|p18;www.bovelacci.it\fTimes New Roman|b0|i0|c0|p18; \fTimes New Roman|b0|i0|c238|p18;e-mail: bovelacci@bovelacci\fTimes New Roman|b0|i0|c0|p18;.it}
 73
     1
 44
1.0
1001
ACAD
1000
ACAD_MTEXT_DEFINED_HEIGHT_BEGIN
1070
    46
1040
0.0271738284815141
1000
ACAD_MTEXT_DEFINED_HEIGHT_END
1000
MTEXTBEGIN
1070
    73
1070
     1
1070
    44
1040
1.0
1070
    74
1070
     0
1000
MTEXTEND
  0
MTEXT
  5
1C
330
2
100
AcDbEntity
  8
Text
100
AcDbMText
 10
0.0219676065851835
 20
0.0500313976452307
 30
0.0
 40
0.002
 41
0.1863544980601608
 71
     1
 72
     5
  3
{\fArial|b0|i0|c0|p34;\H1.25x;Le caratteristiche tecniche indicate vengono fornite a titolo indicativo e potranno essere modificate senza preavviso. Non devono quindi essere considerate a scopo di specifica.\P\fArial|b0|i1|c0|p34;The given values are
  3
 indicative and can be changed without notice. They cannot be considered like a state.\PThis lealfet and designs embodied within are protected by copyright law and international treaties. Unauthorized repro- duction of the leaflet or any portion of i
  1
t or reproduction of any of the designs embodied therein may result in severe civil penalties and will be prosecuted to the maximum.\PAll right reserved, Bovelacci Forlì Italy.}
 73
     1
 44
1.0
1001
ACAD
1000
MTEXTBEGIN
1070
    73
1070
     1
1070
    44
1040
1.0
1070
    74
1070
     0
1000
MTEXTEND
  0
LINE
  5
1D
330
2
100
AcDbEntity
  8
Table
100
AcDbLine
 10
0.02
 20
0.0528099428524846
 30
0.0
 11
0.4
 21
0.0528099428524846
 31
0.0
  0
MTEXT
  5
1E
330
2
100
AcDbEntity
  8
Text
100
AcDbMText
 10
0.1133313047219695
 20
0.2610796890771976
 30
0.0
 40
0.003
 41
0.1103605678262056
 71
     2
 72
     5
  1
{\fTimes New Roman|b0|i0|c0|p18;Rosoni\fTimes New Roman|b0|i1|c0|p18;   Ceiling centres}
 73
     1
 44
1.0
1001
ACAD
1000
ACAD_MTEXT_DEFINED_HEIGHT_BEGIN
1070
    46
1040
0.0141952763113409
1000
ACAD_MTEXT_DEFINED_HEIGHT_END
1000
MTEXTBEGIN
1070
    73
1070
     1
1070
    44
1040
1.0
1070
    74
1070
     0
1000
MTEXTEND
  0
TEXT
  5
1F
330
2
100
AcDbEntity
  8
Text
100
AcDbText
 10
0.2180556919891047
 20
0.269976982173197
 30
0.0
 40
0.003
  1
Rosone - Ceiling centre : D 600 mm
  7
ROMANS
100
AcDbText
  0
TEXT
  5
21
330
2
100
AcDbEntity
  8
Text
100
AcDbText
 10
0.2184542410678115
 20
0.2576348370183962
 30
0.0
 40
0.003
  1
File : E - R60
  7
ROMANS
100
AcDbText
  0
LINE
  5
22
330
2
100
AcDbEntity
  8
Table
100
AcDbLine
 10
0.4
 20
0.2654452889427402
 30
0.0
 11
0.02
 21
0.2654452889427403
 31
0.0
  0
LINE
  5
23
330
2
100
AcDbEntity
  8
Table
100
AcDbLine
 10
0.4
 20
0.2532994226089223
 30
0.0
 11
0.02
 21
0.2532994226089225
 31
0.0
  0
LINE
  5
24
330
2
100
AcDbEntity
  8
Table
100
AcDbLine
 10
0.21
 20
0.0528099428524846
 30
0.0
 11
0.21
 21
0.02
 31
0.0
  0
TEXT
  5
25
330
2
100
AcDbEntity
  8
Text
100
AcDbText
 10
0.0947789320547719
 20
0.2687784133392506
 30
0.0
 40
0.005
  1
EUROSTYL
  7
style1
 72
     1
 11
0.1140561490699125
 21
0.2687784133392506
 31
0.0
100
AcDbText
  0
TEXT
  5
23F
330
2
100
AcDbEntity
  8
Text
  6
ACAD_ISO10W100
100
AcDbText
 10
0.2867708647101614
 20
0.087418603731841
 30
0.0
 40
0.005
  1
scala 1 : 4
  7
style1
100
AcDbText
  0
CIRCLE
  5
28FB
330
2
100
AcDbEntity
  8
Profilo
  6
Continuous
370
     0
100
AcDbCircle
 10
0.2096057326352586
 20
0.159968528895632
 30
0.0
 40
0.0388630188068849
  0
CIRCLE
  5
28FC
330
2
100
AcDbEntity
  8
Profilo
  6
Continuous
370
     0
100
AcDbCircle
 10
0.2096057326352586
 20
0.159968528895632
 30
0.0
 40
0.0055600981938898
  0
CIRCLE
  5
28FD
330
2
100
AcDbEntity
  8
Profilo
  6
Continuous
370
     0
100
AcDbCircle
 10
0.2096057326352586
 20
0.159968528895632
 30
0.0
 40
0.0496456069320627
  0
CIRCLE
  5
28FE
330
2
100
AcDbEntity
  8
Profilo
  6
Continuous
370
     0
100
AcDbCircle
 10
0.2096057326352586
 20
0.159968528895632
 30
0.0
 40
0.0669794751570168
  0
CIRCLE
  5
28FF
330
2
100
AcDbEntity
  8
Profilo
  6
Continuous
370
     0
100
AcDbCircle
 10
0.2096057326352586
 20
0.159968528895632
 30
0.0
 40
0.0686059630412379
  0
CIRCLE
  5
2900
330
2
100
AcDbEntity
  8
Profilo
  6
Continuous
370
     0
100
AcDbCircle
 10
0.2096057326352586
 20
0.159968528895632
 30
0.0
 40
0.071992172927608
  0
CIRCLE
  5
2901
102
{ACAD_REACTORS
330
2A4D
102
}
330
2
100
AcDbEntity
  8
Profilo
  6
Continuous
370
     0
100
AcDbCircle
 10
0.2096057326352586
 20
0.159968528895632
 30
0.0
 40
0.075
  0
LWPOLYLINE
  5
2902
330
2
100
AcDbEntity
  8
Profilo
  6
Continuous
370
     0
100
AcDbPolyline
 90
        2
 70
   128
 43
0.0
 10
0.2085232877098818
 20
0.1667926626582054
 10
0.2080625161482269
 20
0.173292946418307
  0
LWPOLYLINE
  5
2903
330
2
100
AcDbEntity
  8
Profilo
  6
Continuous
370
     0
100
AcDbPolyline
 90
        2
 70
   128
 43
0.0
 10
0.2091302800104927
 20
0.1667926626582054
 10
0.2082994327942594
 20
0.1733425335937466
  0
LWPOLYLINE
  5
2904
330
2
100
AcDbEntity
  8
Profilo
  6
Continuous
370
     0
100
AcDbPolyline
 90
       25
 70
   128
 43
0.0
 10
0.2054443080942271
 20
0.1416023893524094
 10
0.2056502626090651
 20
0.141248970993218
 10
0.2056980153198943
 20
0.1405330405394102
 10
0.2054115043334953
 20
0.139721654250241
 10
0.204970431126808
 20
0.1388994710287805
 10
0.2044217355087166
 20
0.1378391675269827
 10
0.2041108057923871
 20
0.1365229269697845
 10
0.2039986701916
 20
0.1347996891535394
 10
0.2041222128125725
 20
0.1328010043287679
 10
0.2046473210777272
 20
0.12839483236546
 10
0.205315843193604
 20
0.1243378992498171
 10
0.2055546014691721
 20
0.1236696983834899
 10
0.2058888625271106
 20
0.123431055455488
 10
0.2064618818606188
 20
0.1234787833731674
 10
0.2068916457009259
 20
0.123812883806331
 10
0.2072736594696952
 20
0.1249583721984641
 10
0.2082764426435105
 20
0.1276311739939719
 10
0.2096134868752642
 20
0.1320699371302598
 10
0.2100550219580587
 20
0.1343291960473897
 10
0.2102562125507688
 20
0.1368337069642844
 10
0.2100910034264022
 20
0.1383223861854057
 10
0.2097089896576328
 20
0.1392769595672163
 10
0.2097089896576328
 20
0.1400883458563846
 10
0.2098044924400032
 20
0.1409474617330344
 10
0.2099429576181549
 20
0.1413122931810313
  0
LWPOLYLINE
  5
2905
330
2
100
AcDbEntity
  8
Profilo
  6
Continuous
370
     0
100
AcDbPolyline
 90
        2
 70
   128
 43
0.0
 10
0.2067961429185573
 20
0.1416633905170419
 10
0.2063186263674193
 20
0.1284902898706217
  0
LWPOLYLINE
  5
2906
330
2
100
AcDbEntity
  8
Profilo
  6
Continuous
370
     0
100
AcDbPolyline
 90
        2
 70
   128
 43
0.0
 10
0.2083241927150482
 20
0.1414724755067193
 10
0.2067006401361887
 20
0.1286334752934628
  0
LWPOLYLINE
  5
2907
330
2
100
AcDbEntity
  8
Profilo
  6
Continuous
370
     0
100
AcDbPolyline
 90
        9
 70
   128
 43
0.0
 10
0.2084196954974185
 20
0.1278698169219747
 10
0.2094702313820647
 20
0.1250061001161444
 10
0.2103297590626788
 20
0.1235265129606488
 10
0.210759525542279
 20
0.1231924125274852
 10
0.2111415366717551
 20
0.1232401404451655
 10
0.2115235504405245
 20
0.1237174279709705
 10
0.2120488170632019
 20
0.1247674571881416
 10
0.2123830781211403
 20
0.1259129439104735
 10
0.2125740836858792
 20
0.1271538881379672
  0
LWPOLYLINE
  5
2908
330
2
100
AcDbEntity
  8
Profilo
  6
Continuous
370
     0
100
AcDbPolyline
 90
       25
 70
   128
 43
0.0
 10
0.2103396118957189
 20
0.1411511444556283
 10
0.2106300200828898
 20
0.1408630734858655
 10
0.2108614420959697
 20
0.1401838970817237
 10
0.2107946959592631
 20
0.1393260036100076
 10
0.2105814486339184
 20
0.1384176774562815
 10
0.2103258761054857
 20
0.1372514900442645
 10
0.2103662091864621
 20
0.1358996247641834
 10
0.2107039012796999
 20
0.1342060820235155
 10
0.2113405319857527
 20
0.1323074759158469
 10
0.2129881488407644
 20
0.1281873486411801
 10
0.2146839031729716
 20
0.1244416784249142
 10
0.215087469067743
 20
0.1238580411398728
 10
0.2154721057910734
 20
0.1237140429002854
 10
0.2160132470701935
 20
0.1239084528453309
 10
0.2163418955076711
 20
0.124342400149066
 10
0.2164144182610951
 20
0.1255477294095903
 10
0.2166912604183896
 20
0.1283889970759151
 10
0.2168339095363617
 20
0.1330225655373575
 10
0.2166756604404739
 20
0.1353191197621954
 10
0.2162217805060195
 20
0.1377903634961359
 10
0.2156769022115817
 20
0.1391855579350662
 10
0.2150608434751696
 20
0.1400087325787955
 10
0.2148508412505979
 20
0.1407924715506003
 10
0.2147207343037426
 20
0.1416470317025682
 10
0.2147600560683692
 20
0.142035269245621
  0
LWPOLYLINE
  5
2909
330
2
100
AcDbEntity
  8
Profilo
  6
Continuous
370
     0
100
AcDbPolyline
 90
        2
 70
   128
 43
0.0
 10
0.2116295958022359
 20
0.1415599476543494
 10
0.2145777995633576
 20
0.128712119149881
  0
LWPOLYLINE
  5
290A
330
2
100
AcDbEntity
  8
Profilo
  6
Continuous
370
     0
100
AcDbPolyline
 90
        2
 70
   128
 43
0.0
 10
0.2131549910051916
 20
0.1417710263044502
 10
0.2149097374141974
 20
0.1289492980866009
  0
LWPOLYLINE
  5
290B
330
2
100
AcDbEntity
  8
Profilo
  6
Continuous
370
     0
100
AcDbPolyline
 90
        9
 70
   128
 43
0.0
 10
0.2167678667149243
 20
0.1286565850101906
 10
0.2185237909064753
 20
0.1261623456827709
 10
0.2197369762263236
 20
0.1249556363705683
 10
0.2202385703233226
 20
0.1247441518834679
 10
0.2205952118451343
 20
0.1248891252675397
 10
0.220840677708718
 20
0.1254490220541295
 10
0.2210762787459309
 20
0.1265992213990594
 10
0.2211026763548652
 20
0.127792189735661
 10
0.220965993562826
 20
0.1290402856918564
  0
LWPOLYLINE
  5
290C
330
2
100
AcDbEntity
  8
Profilo
  6
Continuous
370
     0
100
AcDbPolyline
 90
       25
 70
   128
 43
0.0
 10
0.2151849030384053
 20
0.1419822732112352
 10
0.2155399740598739
 20
0.141779181191431
 10
0.2159392943474568
 20
0.1411830435865055
 10
0.2160968616993554
 20
0.1403371069546028
 10
0.216125972708166
 20
0.1394045387949087
 10
0.2161809401148528
 20
0.1382119412175846
 10
0.2165697873603186
 20
0.1369165785993951
 10
0.2173342939894912
 20
0.1353681430733704
 10
0.218440627450089
 20
0.1336990025514468
 10
0.2210984705291047
 20
0.1301456998303576
 10
0.2237058942222664
 20
0.1269665537486941
 10
0.2242467653874375
 20
0.1265072539614082
 10
0.2246555654191088
 20
0.1264677136522942
 10
0.2251279507599456
 20
0.1267955569082281
 10
0.2253330869466975
 20
0.1272997782909175
 10
0.2250911763789812
 20
0.1284828072226289
 10
0.2246232111842389
 20
0.1312989130637267
 10
0.2235617438867759
 20
0.1358115168170115
 10
0.2228144950265737
 20
0.1379888599743697
 10
0.2217364757324148
 20
0.1402584253488103
 10
0.2208490608232175
 20
0.1414650548102052
 10
0.2200409405039615
 20
0.1421007327242447
 10
0.2196352473593773
 20
0.142803413862947
 10
0.2192883972567166
 20
0.1435951814281046
 10
0.2192258958945384
 20
0.143980367319245
  0
LWPOLYLINE
  5
290D
330
2
100
AcDbEntity
  8
Profilo
  6
Continuous
370
     0
100
AcDbPolyline
 90
        2
 70
   128
 43
0.0
 10
0.2163251257556787
 20
0.1427110191816323
 10
0.2224981346148752
 20
0.1310640210996545
  0
LWPOLYLINE
  5
290E
330
2
100
AcDbEntity
  8
Profilo
  6
Continuous
370
     0
100
AcDbPolyline
 90
        2
 70
   128
 43
0.0
 10
0.2177439132028486
 20
0.1433097068309752
 10
0.2227573755318041
 20
0.1313790301976707
  0
LWPOLYLINE
  5
290F
330
2
100
AcDbEntity
  8
Profilo
  6
Continuous
370
     0
100
AcDbPolyline
 90
        9
 70
   128
 43
0.0
 10
0.2246279503308855
 20
0.1315772103287649
 10
0.2269695994974917
 20
0.1296224267679944
 10
0.2284537658819087
 20
0.12877083054453
 10
0.2289930047875185
 20
0.1286963743217943
 10
0.2292999721713326
 20
0.1289287134757139
 10
0.2293921620367808
 20
0.1295330634823554
 10
0.2293220416671918
 20
0.1307050487704797
 10
0.2290387768736966
 20
0.1318641999006862
 10
0.2285837204312774
 20
0.1330343919087437
  0
LWPOLYLINE
  5
2910
330
2
100
AcDbEntity
  8
Profilo
  6
Continuous
370
     0
100
AcDbPolyline
 90
       25
 70
   128
 43
0.0
 10
0.219649982938131
 20
0.1440391355680412
 10
0.2200455192905682
 20
0.1439348628837195
 10
0.2205855248349625
 20
0.1434623898706222
 10
0.2209566677208269
 20
0.1426860592620211
 10
0.2212261531966511
 20
0.1417928020752998
 10
0.2215879146005278
 20
0.1406550678867029
 10
0.222298776713307
 20
0.1395044847521471
 10
0.2234379980150415
 20
0.1382066797629535
 10
0.2249386394331477
 20
0.1368807539949583
 10
0.2284255811226249
 20
0.1341364275357779
 10
0.2317669825610263
 20
0.1317404591403954
 10
0.2324082995205195
 20
0.1314367973723402
 10
0.2328134038139474
 20
0.1315044096004223
 10
0.2331848409361786
 20
0.1319433441911399
 10
0.2332524851800809
 20
0.1324834777988177
 10
0.2327126270966367
 20
0.1335635849350687
 10
0.2315317456045292
 20
0.1361626159917033
 10
0.2293384991337991
 20
0.1402467285484731
 10
0.2280531742842161
 20
0.142156478300407
 10
0.2264244808637393
 20
0.1440696981857161
 10
0.2252550051993204
 20
0.1450055328658288
 10
0.2243098953615
 20
0.1454103936508441
 10
0.2237361586142669
 20
0.1459841303980773
 10
0.2231962026170976
 20
0.1466591477253167
 10
0.2230361374926591
 20
0.1470150321826151
  0
LWPOLYLINE
  5
2911
330
2
100
AcDbEntity
  8
Profilo
  6
Continuous
370
     0
100
AcDbPolyline
 90
        2
 70
   128
 43
0.0
 10
0.2205627401722868
 20
0.1450381614765408
 10
0.2295398737771844
 20
0.1353857174887662
  0
LWPOLYLINE
  5
2912
330
2
100
AcDbEntity
  8
Profilo
  6
Continuous
370
     0
100
AcDbPolyline
 90
        2
 70
   128
 43
0.0
 10
0.2217782318438065
 20
0.1459836585512019
 10
0.2297087509201297
 20
0.1357570893986268
  0
LWPOLYLINE
  5
2913
330
2
100
AcDbEntity
  8
Profilo
  6
Continuous
370
     0
100
AcDbPolyline
 90
        9
 70
   128
 43
0.0
 10
0.2314642946362802
 20
0.1364326570887992
 10
0.234232089256993
 20
0.1351505445639122
 10
0.2358860932195817
 20
0.1347120963044845
 10
0.2364262286935205
 20
0.1347797424146495
 10
0.2366626026194179
 20
0.1350836138090343
 10
0.2365952338997484
 20
0.1356912315815106
 10
0.2362241707106683
 20
0.1368051339522418
 10
0.2356505475423024
 20
0.1378514736421168
 10
0.234908128794039
 20
0.1388640150505222
  0
LWPOLYLINE
  5
2914
330
2
100
AcDbEntity
  8
Profilo
  6
Continuous
370
     0
100
AcDbPolyline
 90
       25
 70
   128
 43
0.0
 10
0.2234305637786239
 20
0.1471815597555552
 10
0.2238396103132661
 20
0.1471832124178333
 10
0.2244835006290216
 20
0.1468666022516085
 10
0.2250429262745236
 20
0.1462127833143387
 10
0.2255344212275304
 20
0.1454197111016879
 10
0.2261783231867632
 20
0.144414375006576
 10
0.2271627560886241
 20
0.1434869816948454
 10
0.2285990560138607
 20
0.1425282505077711
 10
0.2303917391567577
 20
0.1416358991435993
 10
0.2344701501430016
 20
0.139887570259306
 10
0.238317818340542
 20
0.1384380608368249
 10
0.2390158764033959
 20
0.1383107311356679
 10
0.2393896777704484
 20
0.1384808882393373
 10
0.2396348538480218
 20
0.1390010014978544
 10
0.2395603963056413
 20
0.1395402381177708
 10
0.2387593811426974
 20
0.1404438159421868
 10
0.2369460584754158
 20
0.1426486525429522
 10
0.2337704989538857
 20
0.146025948381778
 10
0.2320346908793201
 20
0.1475379584387048
 10
0.2299663160975896
 20
0.1489644500614415
 10
0.2285944775118299
 20
0.1495657143733646
 10
0.2275767858290202
 20
0.14971216743592
 10
0.2268741046903187
 20
0.1501178605805042
 10
0.2261778399075297
 20
0.1506301263544933
 10
0.2259311191945411
 20
0.1509324564403111
  0
LWPOLYLINE
  5
2915
330
2
100
AcDbEntity
  8
Profilo
  6
Continuous
370
     0
100
AcDbPolyline
 90
        2
 70
   128
 43
0.0
 10
0.224053652632557
 20
0.148382783637462
 10
0.235223134163396
 20
0.1413826918502383
  0
LWPOLYLINE
  5
2916
330
2
100
AcDbEntity
  8
Profilo
  6
Continuous
370
     0
100
AcDbPolyline
 90
        2
 70
   128
 43
0.0
 10
0.2249830147797059
 20
0.1496106560743102
 10
0.2352901388341483
 20
0.1417851181900091
  0
LWPOLYLINE
  5
2917
330
2
100
AcDbEntity
  8
Profilo
  6
Continuous
370
     0
100
AcDbPolyline
 90
        9
 70
   128
 43
0.0
 10
0.2368110140642848
 20
0.1428920346176025
 10
0.2398163335097024
 20
0.1423699669783775
 10
0.2415274574137808
 20
0.142374546207298
 10
0.2420316801161167
 20
0.1425796846797451
 10
0.242181352091675
 20
0.1429343799812403
 10
0.2419590158538011
 20
0.1435038573724927
 10
0.2413122971883542
 20
0.1444837662200757
 10
0.2404874071160862
 20
0.1453459881489125
 10
0.2395082206727658
 20
0.1461318759339869
  0
LWPOLYLINE
  5
2918
330
2
100
AcDbEntity
  8
Profilo
  6
Continuous
370
     0
100
AcDbPolyline
 90
       25
 70
   128
 43
0.0
 10
0.2262690052233097
 20
0.1511953947584998
 10
0.2266636860948022
 20
0.1513028601411752
 10
0.2273675811209813
 20
0.1511636892814276
 10
0.2280771655928749
 20
0.1506769386955759
 10
0.2287571754542498
 20
0.1500380980176749
 10
0.2296393371144148
 20
0.1492336720095346
 10
0.2308302533299479
 20
0.1485926688422327
 10
0.2324657504123785
 20
0.1480383474032993
 10
0.2344283068864264
 20
0.1476403827137369
 10
0.2388202502006194
 20
0.1470071971285464
 10
0.2429119729282082
 20
0.146602928350682
 10
0.2436192005910357
 20
0.1466606080251346
 10
0.243936225086285
 20
0.1469217140789742
 10
0.2440384317746865
 20
0.1474875611462509
 10
0.2438269466044872
 20
0.1479891526938883
 10
0.2428193622216593
 20
0.1486546238709685
 10
0.2404971733223192
 20
0.1503150100451857
 10
0.2365557098835215
 20
0.152755332035898
 10
0.234487711035699
 20
0.153766561411152
 10
0.2321206112159363
 20
0.1546091117246166
 10
0.2306398982413849
 20
0.154834830499128
 10
0.2296189787199566
 20
0.1547128953050369
 10
0.2288352397481518
 20
0.1549228975296086
 10
0.2280301154740588
 20
0.155237501684408
 10
0.2277135527813861
 20
0.1554656741030215
  0
LWPOLYLINE
  5
2919
330
2
100
AcDbEntity
  8
Profilo
  6
Continuous
370
     0
100
AcDbPolyline
 90
        2
 70
   128
 43
0.0
 10
0.2265599632213281
 20
0.1525169551913776
 10
0.2391606109702234
 20
0.1486462602918068
  0
LWPOLYLINE
  5
291A
330
2
100
AcDbEntity
  8
Profilo
  6
Continuous
370
     0
100
AcDbPolyline
 90
        2
 70
   128
 43
0.0
 10
0.2271398613496217
 20
0.1539435255129972
 10
0.2391211769112026
 20
0.1490523163714712
  0
LWPOLYLINE
  5
291B
330
2
100
AcDbEntity
  8
Profilo
  6
Continuous
370
     0
100
AcDbPolyline
 90
        9
 70
   128
 43
0.0
 10
0.2403037385217562
 20
0.1505151470112122
 10
0.243341775238196
 20
0.1507887023045053
 10
0.2449934088174711
 20
0.1512359969548906
 10
0.2454273568043042
 20
0.1515646479417298
 10
0.2454801269317329
 20
0.1519459952516999
 10
0.2451179750228395
 20
0.1524385233186202
 10
0.2442396736893212
 20
0.1532176594744691
 10
0.2432197316083805
 20
0.1538370046427057
 10
0.2420705074079358
 20
0.1543426818506368
  0
LWPOLYLINE
  5
291C
330
2
100
AcDbEntity
  8
Profilo
  6
Continuous
370
     0
100
AcDbPolyline
 90
       25
 70
   128
 43
0.0
 10
0.2279718721784821
 20
0.1558071043546005
 10
0.2283252905376717
 20
0.1560130588694386
 10
0.2290412209914812
 20
0.1560608115802686
 10
0.2298526072806496
 20
0.1557743005938687
 10
0.2306747905021101
 20
0.1553332273871823
 10
0.231735094003907
 20
0.1547845317690901
 10
0.2330513345611052
 20
0.1544736020527615
 10
0.2347745723773521
 20
0.1543614664519734
 10
0.2367732572021218
 20
0.1544850090729468
 10
0.2411794291654306
 20
0.1550101173381006
 10
0.2452363622810726
 20
0.1556786394539775
 10
0.2459045631473998
 20
0.1559173977295464
 10
0.2461432060754035
 20
0.1562516587874849
 10
0.2460954781577232
 20
0.1568246781209923
 10
0.2457613777245587
 20
0.1572544419613002
 10
0.2446158893324256
 20
0.1576364557300686
 10
0.2419430875369187
 20
0.1586392389038839
 10
0.2375043244006299
 20
0.1599762831356377
 10
0.2352450654835
 20
0.1604178182184312
 10
0.2327405545666053
 20
0.1606190088111414
 10
0.2312518753454849
 20
0.1604537996867765
 10
0.2302973019636735
 20
0.1600717859180071
 10
0.2294859156745051
 20
0.1600717859180071
 10
0.2286267997978562
 20
0.1601672887003766
 10
0.2282619683498584
 20
0.1603057538785284
  0
LWPOLYLINE
  5
291D
330
2
100
AcDbEntity
  8
Profilo
  6
Continuous
370
     0
100
AcDbPolyline
 90
        2
 70
   128
 43
0.0
 10
0.2279108710138487
 20
0.1571589391789307
 10
0.2410839716602698
 20
0.1566814226277928
  0
LWPOLYLINE
  5
291E
330
2
100
AcDbEntity
  8
Profilo
  6
Continuous
370
     0
100
AcDbPolyline
 90
        2
 70
   128
 43
0.0
 10
0.2281017860241704
 20
0.1586869889754225
 10
0.240940786237427
 20
0.1570634363965612
  0
LWPOLYLINE
  5
291F
330
2
100
AcDbEntity
  8
Profilo
  6
Continuous
370
     0
100
AcDbPolyline
 90
        9
 70
   128
 43
0.0
 10
0.2417044446089168
 20
0.158782491757792
 10
0.2445681614147453
 20
0.1598330276424382
 10
0.2460477485702409
 20
0.1606925553230531
 10
0.2463818490034054
 20
0.1611223218026525
 10
0.2463341210857251
 20
0.1615043329321295
 10
0.2458568335599192
 20
0.1618863467008988
 10
0.244806804342749
 20
0.1624116133235753
 10
0.2436613176204162
 20
0.1627458743815137
 10
0.2424203733929243
 20
0.1629368799462518
  0
LWPOLYLINE
  5
2920
330
2
100
AcDbEntity
  8
Profilo
  6
Continuous
370
     0
100
AcDbPolyline
 90
       25
 70
   128
 43
0.0
 10
0.2284231170752623
 20
0.1607024081560932
 10
0.2287111880450251
 20
0.1609928163432632
 10
0.229390364449166
 20
0.161224238356344
 10
0.2302482579208839
 20
0.1611574922196374
 10
0.2311565840746091
 20
0.1609442448942919
 10
0.232322771486627
 20
0.1606886723658591
 10
0.2336746367667072
 20
0.1607290054468355
 10
0.2353681795073751
 20
0.1610666975400734
 10
0.2372667856150429
 20
0.161703328246127
 10
0.2413869128897105
 20
0.1633509451011387
 10
0.2451325831059773
 20
0.165046699433345
 10
0.2457162203910169
 20
0.1654502653281164
 10
0.2458602186306052
 20
0.1658349020514477
 10
0.2456658086855597
 20
0.1663760433305669
 10
0.2452318613818246
 20
0.1667046917680454
 10
0.2440265321212994
 20
0.1667772145214694
 10
0.2411852644549764
 20
0.1670540566787639
 10
0.2365516959935331
 20
0.167196705796736
 10
0.2342551417686952
 20
0.1670384567008473
 10
0.2317838980347556
 20
0.1665845767663938
 10
0.2303887035958244
 20
0.1660396984719552
 10
0.2295655289520951
 20
0.165423639735543
 10
0.2287817899802903
 20
0.1652136375109714
 10
0.2279272298283224
 20
0.1650835305641169
 10
0.2275389922852696
 20
0.1651228523287426
  0
LWPOLYLINE
  5
2921
330
2
100
AcDbEntity
  8
Profilo
  6
Continuous
370
     0
100
AcDbPolyline
 90
        2
 70
   128
 43
0.0
 10
0.2280143138765403
 20
0.1619923920626102
 10
0.2408621423810096
 20
0.1649405958237311
  0
LWPOLYLINE
  5
2922
330
2
100
AcDbEntity
  8
Profilo
  6
Continuous
370
     0
100
AcDbPolyline
 90
        2
 70
   128
 43
0.0
 10
0.2278032352264404
 20
0.163517787265565
 10
0.2406249634442897
 20
0.1652725336745708
  0
LWPOLYLINE
  5
2923
330
2
100
AcDbEntity
  8
Profilo
  6
Continuous
370
     0
100
AcDbPolyline
 90
        9
 70
   128
 43
0.0
 10
0.2409176765207
 20
0.1671306629752977
 10
0.2434119158481188
 20
0.1688865871668496
 10
0.2446186251603223
 20
0.170099772486697
 10
0.2448301096474218
 20
0.1706013665836951
 10
0.2446851362633509
 20
0.1709580081055086
 10
0.2441252394767602
 20
0.1712034739690924
 10
0.2429750401318312
 20
0.1714390750063052
 10
0.2417820717952296
 20
0.1714654726152387
 10
0.2405339758390351
 20
0.1713287898231994
  0
LWPOLYLINE
  5
2924
330
2
100
AcDbEntity
  8
Profilo
  6
Continuous
370
     0
100
AcDbPolyline
 90
       25
 70
   128
 43
0.0
 10
0.2275919883196554
 20
0.1655476992987778
 10
0.2277950803394596
 20
0.1659027703202473
 10
0.2283912179443842
 20
0.1663020906078302
 10
0.2292371545762869
 20
0.1664596579597288
 10
0.230169722735981
 20
0.1664887689685394
 10
0.2313623203133051
 20
0.1665437363752253
 10
0.2326576829314956
 20
0.166932583620692
 10
0.2342061184575193
 20
0.1676970902498637
 10
0.2358752589794438
 20
0.1688034237104625
 10
0.239428561700533
 20
0.1714612667894781
 10
0.2426077077821965
 20
0.1740686904826398
 10
0.2430670075694824
 20
0.17460956164781
 10
0.2431065478785964
 20
0.1750183616794822
 10
0.2427787046226616
 20
0.175490747020319
 10
0.2422744832399722
 20
0.1756958832070718
 10
0.2410914543082608
 20
0.1754539726393546
 10
0.2382753484671639
 20
0.1749860074446114
 10
0.23376274471388
 20
0.1739245401471503
 10
0.2315854015565218
 20
0.1731772912869462
 10
0.2293158361820794
 20
0.1720992719927882
 10
0.2281092067206863
 20
0.1712118570835909
 10
0.2274735288066459
 20
0.1704037367643358
 10
0.2267708476679427
 20
0.1699980436197516
 10
0.2259790801027869
 20
0.169651193517091
 10
0.2255938942116447
 20
0.1695886921549119
  0
LWPOLYLINE
  5
2925
330
2
100
AcDbEntity
  8
Profilo
  6
Continuous
370
     0
100
AcDbPolyline
 90
        2
 70
   128
 43
0.0
 10
0.2268632423492583
 20
0.1666879220160522
 10
0.2385102404312352
 20
0.1728609308752495
  0
LWPOLYLINE
  5
2926
330
2
100
AcDbEntity
  8
Profilo
  6
Continuous
370
     0
100
AcDbPolyline
 90
        2
 70
   128
 43
0.0
 10
0.2262645546999145
 20
0.1681067094632229
 10
0.2381952313332199
 20
0.1731201717921784
  0
LWPOLYLINE
  5
2927
330
2
100
AcDbEntity
  8
Profilo
  6
Continuous
370
     0
100
AcDbPolyline
 90
        9
 70
   128
 43
0.0
 10
0.2379970512021249
 20
0.1749907465912599
 10
0.2399518347628962
 20
0.1773323957578651
 10
0.2408034309863606
 20
0.1788165621422812
 10
0.2408778872090963
 20
0.1793558010478919
 10
0.2406455480551767
 20
0.1796627684317069
 10
0.2400411980485352
 20
0.1797549582971533
 10
0.2388692127604109
 20
0.1796848379275661
 10
0.2377100616302044
 20
0.179401573134071
 10
0.2365398696221469
 20
0.1789465166916517
  0
LWPOLYLINE
  5
2928
330
2
100
AcDbEntity
  8
Profilo
  6
Continuous
370
     0
100
AcDbPolyline
 90
       25
 70
   128
 43
0.0
 10
0.2255351259628494
 20
0.1700127791985044
 10
0.2256393986471711
 20
0.1704083155509417
 10
0.2261118716602684
 20
0.1709483210953359
 10
0.2268882022688686
 20
0.1713194639812012
 10
0.2277814594555899
 20
0.1715889494570255
 10
0.2289191936441878
 20
0.1719507108609021
 10
0.2300697767787444
 20
0.1726615729736813
 10
0.2313675817679371
 20
0.1738007942754158
 10
0.2326935075359323
 20
0.175301435693522
 10
0.2354378339951136
 20
0.1787883773829992
 10
0.2378338023904952
 20
0.1821297788213998
 10
0.2381374641585513
 20
0.1827710957808939
 10
0.2380698519304683
 20
0.1831762000743217
 10
0.2376309173397516
 20
0.1835476371965521
 10
0.2370907837320729
 20
0.1836152814404552
 10
0.2360106765958228
 20
0.1830754233570102
 10
0.2334116455391864
 20
0.1818945418649036
 10
0.2293275329824166
 20
0.1797012953941734
 10
0.2274177832304836
 20
0.1784159705445895
 10
0.2255045633451754
 20
0.1767872771241136
 10
0.2245687286650618
 20
0.1756178014596947
 10
0.2241638678800456
 20
0.1746726916218734
 10
0.2235901311328142
 20
0.1740989548746403
 10
0.2229151138055748
 20
0.1735589988774719
 10
0.2225592293482755
 20
0.1733989337530326
  0
LWPOLYLINE
  5
2929
330
2
100
AcDbEntity
  8
Profilo
  6
Continuous
370
     0
100
AcDbPolyline
 90
        2
 70
   128
 43
0.0
 10
0.224536100054349
 20
0.1709255364326602
 10
0.2341885440421244
 20
0.1799026700375578
  0
LWPOLYLINE
  5
292A
330
2
100
AcDbEntity
  8
Profilo
  6
Continuous
370
     0
100
AcDbPolyline
 90
        2
 70
   128
 43
0.0
 10
0.2235906029796887
 20
0.172141028104179
 10
0.2338171721322638
 20
0.1800715471805032
  0
LWPOLYLINE
  5
292B
330
2
100
AcDbEntity
  8
Profilo
  6
Continuous
370
     0
100
AcDbPolyline
 90
        9
 70
   128
 43
0.0
 10
0.2331416044420905
 20
0.1818270908966537
 10
0.2344237169669793
 20
0.1845948855173664
 10
0.2348621652264061
 20
0.1862488894799543
 10
0.234794519116242
 20
0.1867890249538939
 10
0.2344906477218554
 20
0.1870253988797923
 10
0.23388302994938
 20
0.1869580301601228
 10
0.2327691275786488
 20
0.1865869669710427
 10
0.2317227878887738
 20
0.1860133438026767
 10
0.2307102464803684
 20
0.1852709250544133
  0
LWPOLYLINE
  5
292C
330
2
100
AcDbEntity
  8
Profilo
  6
Continuous
370
     0
100
AcDbPolyline
 90
       25
 70
   128
 43
0.0
 10
0.2223927017753354
 20
0.1737933600389973
 10
0.2223910491130564
 20
0.1742024065736396
 10
0.222707659279283
 20
0.1748462968893951
 10
0.2233614782165528
 20
0.1754057225348979
 10
0.2241545504292027
 20
0.1758972174879047
 10
0.2251598865243146
 20
0.1765411194471375
 10
0.2260872798360452
 20
0.1775255523489975
 10
0.2270460110231195
 20
0.1789618522742342
 10
0.2279383623872913
 20
0.1807545354171311
 10
0.2296866912715846
 20
0.184832946403376
 10
0.2311362006940648
 20
0.1886806146009154
 10
0.2312635303952227
 20
0.1893786726637702
 10
0.2310933732915533
 20
0.1897524740308227
 10
0.2305732600330362
 20
0.1899976501083962
 10
0.2300340234131198
 20
0.1899231925660147
 10
0.2291304455887047
 20
0.1891221774030718
 10
0.2269256089879384
 20
0.1873088547357892
 10
0.2235483131491126
 20
0.1841332952142591
 10
0.2220363030921867
 20
0.1823974871396945
 10
0.2206098114694491
 20
0.1803291123579631
 10
0.220008547157526
 20
0.1789572737722033
 10
0.2198620940949706
 20
0.1779395820893945
 10
0.2194564009503864
 20
0.1772369009506922
 10
0.2189441351763982
 20
0.176540636167904
 10
0.2186418050905804
 20
0.1762939154549154
  0
LWPOLYLINE
  5
292D
330
2
100
AcDbEntity
  8
Profilo
  6
Continuous
370
     0
100
AcDbPolyline
 90
        2
 70
   128
 43
0.0
 10
0.2211914778934286
 20
0.1744164488929305
 10
0.2281915696806514
 20
0.1855859304237703
  0
LWPOLYLINE
  5
292E
330
2
100
AcDbEntity
  8
Profilo
  6
Continuous
370
     0
100
AcDbPolyline
 90
        2
 70
   128
 43
0.0
 10
0.2199636054565804
 20
0.1753458110400794
 10
0.2277891433408815
 20
0.1856529350945226
  0
LWPOLYLINE
  5
292F
330
2
100
AcDbEntity
  8
Profilo
  6
Continuous
370
     0
100
AcDbPolyline
 90
        9
 70
   128
 43
0.0
 10
0.2266822269132881
 20
0.1871738103246591
 10
0.2272042945525122
 20
0.1901791297700759
 10
0.2271997153235926
 20
0.1918902536741551
 10
0.2269945768511455
 20
0.1923944763764902
 10
0.2266398815496494
 20
0.1925441483520484
 10
0.2260704041583988
 20
0.1923218121141754
 10
0.225090495310814
 20
0.1916750934487276
 10
0.2242282733819781
 20
0.1908502033764596
 10
0.2234423855969037
 20
0.1898710169331401
  0
LWPOLYLINE
  5
2930
330
2
100
AcDbEntity
  8
Profilo
  6
Continuous
370
     0
100
AcDbPolyline
 90
       25
 70
   128
 43
0.0
 10
0.2183788667723899
 20
0.176631801483684
 10
0.2182714013897154
 20
0.1770264823551765
 10
0.2184105722494639
 20
0.1777303773813547
 10
0.2188973228353138
 20
0.1784399618532483
 10
0.2195361635132148
 20
0.1791199717146241
 10
0.220340589521356
 20
0.1800021333747883
 10
0.2209815926886588
 20
0.1811930495903204
 10
0.2215359141275904
 20
0.1828285466727519
 10
0.2219338788171537
 20
0.1847911031468008
 10
0.2225670644023442
 20
0.1891830464609929
 10
0.2229713331802095
 20
0.1932747691885816
 10
0.222913653505756
 20
0.1939819968514082
 10
0.2226525474519164
 20
0.1942990213466575
 10
0.2220867003846397
 20
0.1944012280350591
 10
0.2215851088370023
 20
0.1941897428648606
 10
0.2209196376599213
 20
0.1931821584820336
 10
0.219259251485704
 20
0.1908599695826926
 10
0.2168189294949926
 20
0.1869185061438949
 10
0.2158077001197377
 20
0.1848505072960724
 10
0.2149651498062731
 20
0.1824834074763097
 10
0.2147394310317626
 20
0.1810026945017584
 10
0.2148613662258537
 20
0.1799817749803309
 10
0.214651364001282
 20
0.1791980360085261
 10
0.2143367598464817
 20
0.1783929117344331
 10
0.2141085874278691
 20
0.1780763490417596
  0
LWPOLYLINE
  5
2931
330
2
100
AcDbEntity
  8
Profilo
  6
Continuous
370
     0
100
AcDbPolyline
 90
        2
 70
   128
 43
0.0
 10
0.2170573063395121
 20
0.1769227594817015
 10
0.2209280012390838
 20
0.1895234072305978
  0
LWPOLYLINE
  5
2932
330
2
100
AcDbEntity
  8
Profilo
  6
Continuous
370
     0
100
AcDbPolyline
 90
        2
 70
   128
 43
0.0
 10
0.2156307360178925
 20
0.1775026576099951
 10
0.2205219451594186
 20
0.189483973171576
  0
LWPOLYLINE
  5
2933
330
2
100
AcDbEntity
  8
Profilo
  6
Continuous
370
     0
100
AcDbPolyline
 90
        9
 70
   128
 43
0.0
 10
0.2190591145196784
 20
0.1906665347821305
 10
0.2187855592263844
 20
0.1937045714985694
 10
0.2183382645759991
 20
0.1953562050778445
 10
0.2180096135891617
 20
0.1957901530646786
 10
0.2176282662791916
 20
0.1958429231921063
 10
0.2171357382122704
 20
0.1954807712832138
 10
0.2163566020564215
 20
0.1946024699496955
 10
0.215737256888184
 20
0.1935825278687539
 10
0.2152315796802529
 20
0.1924333036683092
  0
LWPOLYLINE
  5
2934
330
2
100
AcDbEntity
  8
Profilo
  6
Continuous
370
     0
100
AcDbPolyline
 90
       25
 70
   128
 43
0.0
 10
0.2137671571762901
 20
0.1783346684388547
 10
0.213561202661452
 20
0.178688086798046
 10
0.2135134499506211
 20
0.1794040172518547
 10
0.2137999609370219
 20
0.180215403541023
 10
0.2142410341437092
 20
0.1810375867624836
 10
0.2147897297618005
 20
0.1820978902642813
 10
0.21510065947813
 20
0.1834141308214796
 10
0.2152127950789172
 20
0.1851373686377246
 10
0.2150892524579447
 20
0.1871360534624961
 10
0.21456414419279
 20
0.1915422254258041
 10
0.2138956220769131
 20
0.1955991585414469
 10
0.2136568638013433
 20
0.1962673594077741
 10
0.2133226027434048
 20
0.1965060023357769
 10
0.2127495834098983
 20
0.1964582744180967
 10
0.2123198195695913
 20
0.1961241739849331
 10
0.211937805800822
 20
0.1949786855927999
 10
0.2109350226270067
 20
0.1923058837972921
 10
0.2095979783952529
 20
0.1878671206610043
 10
0.2091564433124585
 20
0.1856078617438743
 10
0.2089552527197483
 20
0.1831033508269797
 10
0.209120461844115
 20
0.1816146716058584
 10
0.2095024756128826
 20
0.1806600982240478
 10
0.2095024756128826
 20
0.1798487119348795
 10
0.209406972830514
 20
0.1789895960582297
 10
0.2092685076523622
 20
0.1786247646102328
  0
LWPOLYLINE
  5
2935
330
2
100
AcDbEntity
  8
Profilo
  6
Continuous
370
     0
100
AcDbPolyline
 90
        2
 70
   128
 43
0.0
 10
0.2124153223519599
 20
0.1782736672742231
 10
0.2128928389030978
 20
0.1914467679206433
  0
LWPOLYLINE
  5
2936
330
2
100
AcDbEntity
  8
Profilo
  6
Continuous
370
     0
100
AcDbPolyline
 90
        2
 70
   128
 43
0.0
 10
0.2108872725554672
 20
0.1784645822845447
 10
0.2125108251343285
 20
0.1913035824978013
  0
LWPOLYLINE
  5
2937
330
2
100
AcDbEntity
  8
Profilo
  6
Continuous
370
     0
100
AcDbPolyline
 90
        9
 70
   128
 43
0.0
 10
0.2107917697730986
 20
0.1920672408692893
 10
0.2097412338884524
 20
0.1949309576751197
 10
0.2088817062078366
 20
0.1964105448306152
 10
0.2084519397282381
 20
0.1967446452637788
 10
0.2080699285987603
 20
0.1966969173460986
 10
0.2076879148299927
 20
0.1962196298202936
 10
0.2071626482073153
 20
0.1951696006031225
 10
0.2068283871493769
 20
0.1940241138807905
 10
0.2066373815846379
 20
0.1927831696532969
  0
LWPOLYLINE
  5
2938
330
2
100
AcDbEntity
  8
Profilo
  6
Continuous
370
     0
100
AcDbPolyline
 90
       25
 70
   128
 43
0.0
 10
0.2088718533747965
 20
0.1787859133356357
 10
0.2085814451876274
 20
0.1790739843053985
 10
0.2083500231745457
 20
0.1797531607095403
 10
0.2084167693112541
 20
0.1806110541812564
 10
0.2086300166365987
 20
0.1815193803349826
 10
0.2088855891650315
 20
0.1826855677469996
 10
0.2088452560840551
 20
0.1840374330270806
 10
0.2085075639908172
 20
0.1857309757677485
 10
0.2078709332847627
 20
0.1876295818754172
 10
0.2062233164297528
 20
0.1917497091500839
 10
0.2045275620975456
 20
0.1954953793663498
 10
0.2041239962027742
 20
0.1960790166513912
 10
0.203739359479442
 20
0.1962230148909796
 10
0.2031982182003237
 20
0.1960286049459332
 10
0.2028695697628443
 20
0.195594657642198
 10
0.2027970470094203
 20
0.1943893283816737
 10
0.2025202048521258
 20
0.1915480607153499
 10
0.2023775557341555
 20
0.1869144922539074
 10
0.2025358048300433
 20
0.1846179380290695
 10
0.2029896847644977
 20
0.182146694295129
 10
0.2035345630589354
 20
0.1807514998561987
 10
0.2041506217953476
 20
0.1799283252124685
 10
0.2043606240199193
 20
0.1791445862406637
 10
0.2044907309667728
 20
0.1782900260886959
 10
0.204451409202148
 20
0.1779017885456439
  0
LWPOLYLINE
  5
2939
330
2
100
AcDbEntity
  8
Profilo
  6
Continuous
370
     0
100
AcDbPolyline
 90
        2
 70
   128
 43
0.0
 10
0.2075818694682795
 20
0.1783771101369147
 10
0.2046336657071595
 20
0.1912249386413831
  0
LWPOLYLINE
  5
293A
330
2
100
AcDbEntity
  8
Profilo
  6
Continuous
370
     0
100
AcDbPolyline
 90
        2
 70
   128
 43
0.0
 10
0.2060564742653256
 20
0.1781660314868138
 10
0.2043017278563198
 20
0.190987759704664
  0
LWPOLYLINE
  5
293B
330
2
100
AcDbEntity
  8
Profilo
  6
Continuous
370
     0
100
AcDbPolyline
 90
        9
 70
   128
 43
0.0
 10
0.2024435985555929
 20
0.1912804727810744
 10
0.2006876743640419
 20
0.1937747121084931
 10
0.1994744890441936
 20
0.1949814214206957
 10
0.1989728949471946
 20
0.1951929059077961
 10
0.1986162534253829
 20
0.1950479325237244
 10
0.1983707875617992
 20
0.1944880357371345
 10
0.1981351865245863
 20
0.1933378363922055
 10
0.198108788915652
 20
0.192144868055603
 10
0.1982454717076912
 20
0.1908967720994085
  0
LWPOLYLINE
  5
293C
330
2
100
AcDbEntity
  8
Profilo
  6
Continuous
370
     0
100
AcDbPolyline
 90
       25
 70
   128
 43
0.0
 10
0.2040265622321119
 20
0.1779547845800288
 10
0.2036714912106433
 20
0.178157876599833
 10
0.2032721709230604
 20
0.1787540142047585
 10
0.2031146035711618
 20
0.1795999508366612
 10
0.2030854925623512
 20
0.1805325189963553
 10
0.2030305251556644
 20
0.1817251165736795
 10
0.2026416779101986
 20
0.183020479191869
 10
0.201877171281026
 20
0.1845689147178937
 10
0.2007708378204281
 20
0.1862380552398172
 10
0.1981129947414125
 20
0.1897913579609074
 10
0.1955055710482508
 20
0.1929705040425699
 10
0.1949646998830797
 20
0.1934298038298558
 10
0.1945558998514084
 20
0.1934693441389698
 10
0.1940835145105716
 20
0.1931415008830359
 10
0.1938783783238197
 20
0.1926372795003466
 10
0.194120288891536
 20
0.1914542505686351
 10
0.1945882540862783
 20
0.1886381447275373
 10
0.1956497213837395
 20
0.1841255409742534
 10
0.1963969702439435
 20
0.1819481978168953
 10
0.1974749895381024
 20
0.1796786324424537
 10
0.1983624044472997
 20
0.1784720029810598
 10
0.1991705247665539
 20
0.1778363250670194
 10
0.1995762179111381
 20
0.177133643928317
 10
0.1999230680138006
 20
0.1763418763631594
 10
0.1999855693759788
 20
0.1759566904720191
  0
LWPOLYLINE
  5
293D
330
2
100
AcDbEntity
  8
Profilo
  6
Continuous
370
     0
100
AcDbPolyline
 90
        2
 70
   128
 43
0.0
 10
0.2028863395148384
 20
0.1772260386096318
 10
0.1967133306556402
 20
0.1888730366916096
  0
LWPOLYLINE
  5
293E
330
2
100
AcDbEntity
  8
Profilo
  6
Continuous
370
     0
100
AcDbPolyline
 90
        2
 70
   128
 43
0.0
 10
0.2014675520676668
 20
0.1766273509602889
 10
0.1964540897387131
 20
0.1885580275935934
  0
LWPOLYLINE
  5
293F
330
2
100
AcDbEntity
  8
Profilo
  6
Continuous
370
     0
100
AcDbPolyline
 90
        9
 70
   128
 43
0.0
 10
0.1945835149396299
 20
0.1883598474624992
 10
0.1922418657730255
 20
0.1903146310232697
 10
0.1907576993886085
 20
0.1911662272467349
 10
0.1902184604829987
 20
0.1912406834694697
 10
0.1899114930991829
 20
0.1910083443155501
 10
0.1898193032337364
 20
0.1904039943089095
 10
0.1898894236033236
 20
0.1892320090207844
 10
0.1901726883968206
 20
0.1880728578905779
 10
0.1906277448392381
 20
0.1869026658825203
  0
LWPOLYLINE
  5
2940
330
2
100
AcDbEntity
  8
Profilo
  6
Continuous
370
     0
100
AcDbPolyline
 90
       25
 70
   128
 43
0.0
 10
0.1995614823323862
 20
0.1758979222232228
 10
0.199165945979949
 20
0.1760021949075454
 10
0.1986259404355547
 20
0.1764746679206428
 10
0.1982547975496903
 20
0.1772509985292429
 10
0.1979853120738643
 20
0.1781442557159642
 10
0.1976235506699876
 20
0.1792819899045612
 10
0.1969126885572102
 20
0.1804325730391169
 10
0.195773467255474
 20
0.1817303780283114
 10
0.1942728258373695
 20
0.1830563037963057
 10
0.1907858841478923
 20
0.1858006302554871
 10
0.1874444827094909
 20
0.1881965986508686
 10
0.1868031657499959
 20
0.1885002604189238
 10
0.1863980614565698
 20
0.1884326481908418
 10
0.1860266243343386
 20
0.1879937136001241
 10
0.1859589800904363
 20
0.1874535799924472
 10
0.1864988381738805
 20
0.1863734728561963
 10
0.187679719665988
 20
0.1837744417995608
 10
0.1898729661367181
 20
0.1796903292427909
 10
0.1911582909863011
 20
0.1777805794908571
 10
0.1927869844067761
 20
0.1758673596055488
 10
0.1939564600711968
 20
0.1749315249254352
 10
0.1949015699090172
 20
0.1745266641404199
 10
0.1954753066562503
 20
0.1739529273931867
 10
0.1960152626534196
 20
0.1732779100659482
 10
0.1961753277778581
 20
0.1729220256086498
  0
LWPOLYLINE
  5
2941
330
2
100
AcDbEntity
  8
Profilo
  6
Continuous
370
     0
100
AcDbPolyline
 90
        2
 70
   128
 43
0.0
 10
0.1986487250982304
 20
0.1748988963147233
 10
0.1896715914933328
 20
0.1845513403024978
  0
LWPOLYLINE
  5
2942
330
2
100
AcDbEntity
  8
Profilo
  6
Continuous
370
     0
100
AcDbPolyline
 90
        2
 70
   128
 43
0.0
 10
0.1974332334267107
 20
0.1739533992400621
 10
0.1895027143503875
 20
0.1841799683926372
  0
LWPOLYLINE
  5
2943
330
2
100
AcDbEntity
  8
Profilo
  6
Continuous
370
     0
100
AcDbPolyline
 90
        9
 70
   128
 43
0.0
 10
0.187747170634237
 20
0.1835044007024648
 10
0.1849793760135242
 20
0.1847865132273527
 10
0.1833253720509355
 20
0.1852249614867795
 10
0.1827852365769967
 20
0.1851573153766155
 10
0.1825488626510993
 20
0.1848534439822298
 10
0.1826162313707688
 20
0.1842458262097535
 10
0.1829872945598489
 20
0.1831319238390223
 10
0.183560917728213
 20
0.1820855841491473
 10
0.1843033364764782
 20
0.1810730427407418
  0
LWPOLYLINE
  5
2944
330
2
100
AcDbEntity
  8
Profilo
  6
Continuous
370
     0
100
AcDbPolyline
 90
       25
 70
   128
 43
0.0
 10
0.1957809014918933
 20
0.1727554980357088
 10
0.1953718549572511
 20
0.1727538453734307
 10
0.1947279646414956
 20
0.1730704555396564
 10
0.1941685389959918
 20
0.1737242744769262
 10
0.193677044042985
 20
0.1745173466895761
 10
0.193033142083754
 20
0.175522682784688
 10
0.1920487091818931
 20
0.1764500760964196
 10
0.1906124092566565
 20
0.1774088072834929
 10
0.1888197261137595
 20
0.1783011586476657
 10
0.1847413151275138
 20
0.180049487531958
 10
0.1808936469299752
 20
0.1814989969544391
 10
0.1801955888671195
 20
0.1816263266555962
 10
0.1798217875000671
 20
0.1814561695519267
 10
0.1795766114224954
 20
0.1809360562934097
 10
0.1796510689648759
 20
0.1803968196734933
 10
0.180452084127818
 20
0.1794932418490782
 10
0.1822654067951014
 20
0.1772884052483127
 10
0.1854409663166315
 20
0.173911109409486
 10
0.1871767743911953
 20
0.1723990993525601
 10
0.1892451491729276
 20
0.1709726077298234
 10
0.1906169877586873
 20
0.1703713434179003
 10
0.1916346794414953
 20
0.170224890355344
 10
0.1923373605801985
 20
0.1698191972107598
 10
0.1930336253629857
 20
0.1693069314367716
 10
0.1932803460759761
 20
0.1690046013509538
  0
LWPOLYLINE
  5
2945
330
2
100
AcDbEntity
  8
Profilo
  6
Continuous
370
     0
100
AcDbPolyline
 90
        2
 70
   128
 43
0.0
 10
0.1951578126379602
 20
0.171554274153802
 10
0.1839883311071194
 20
0.1785543659410258
  0
LWPOLYLINE
  5
2946
330
2
100
AcDbEntity
  8
Profilo
  6
Continuous
370
     0
100
AcDbPolyline
 90
        2
 70
   128
 43
0.0
 10
0.1942284504908113
 20
0.1703264017169539
 10
0.1839213264363672
 20
0.1781519396012558
  0
LWPOLYLINE
  5
2947
330
2
100
AcDbEntity
  8
Profilo
  6
Continuous
370
     0
100
AcDbPolyline
 90
        9
 70
   128
 43
0.0
 10
0.1824004512062306
 20
0.1770450231736624
 10
0.1793951317608148
 20
0.1775670908128865
 10
0.1776840078567347
 20
0.177562511583966
 10
0.1771797851544005
 20
0.1773573731115198
 10
0.1770301131788422
 20
0.1770026778100237
 10
0.1772524494167144
 20
0.1764332004187723
 10
0.177899168082163
 20
0.1754532915711883
 10
0.178724058154431
 20
0.1745910696423516
 10
0.1797032445977497
 20
0.1738051818572772
  0
LWPOLYLINE
  5
2948
330
2
100
AcDbEntity
  8
Profilo
  6
Continuous
370
     0
100
AcDbPolyline
 90
       25
 70
   128
 43
0.0
 10
0.1929424600472057
 20
0.1687416630327642
 10
0.192547779175715
 20
0.1686341976500889
 10
0.1918438841495359
 20
0.1687733685098373
 10
0.1911342996776423
 20
0.1692601190956881
 10
0.1904542898162674
 20
0.1698989597735891
 10
0.1895721281561024
 20
0.1707033857817303
 10
0.1883812119405693
 20
0.1713443889490322
 10
0.1867457148581387
 20
0.1718987103879647
 10
0.1847831583840908
 20
0.1722966750775272
 10
0.1803912150698977
 20
0.1729298606627176
 10
0.176299492342309
 20
0.1733341294405821
 10
0.1755922646794815
 20
0.1732764497661294
 10
0.1752752401842322
 20
0.1730153437122898
 10
0.1751730334958307
 20
0.172449496645014
 10
0.17538451866603
 20
0.1719479050973757
 10
0.1763921030488561
 20
0.1712824339202956
 10
0.178714291948198
 20
0.1696220477460783
 10
0.1826557553869957
 20
0.167181725755366
 10
0.1847237542348182
 20
0.166170496380112
 10
0.1870908540545809
 20
0.1653279460666474
 10
0.1885715670291322
 20
0.165102227292136
 10
0.1895924865505588
 20
0.165224162486228
 10
0.1903762255223637
 20
0.1650141602616554
 10
0.1911813497964566
 20
0.164699556106856
 10
0.1914979124891311
 20
0.1644713836882434
  0
LWPOLYLINE
  5
2949
330
2
100
AcDbEntity
  8
Profilo
  6
Continuous
370
     0
100
AcDbPolyline
 90
        2
 70
   128
 43
0.0
 10
0.1926515020491891
 20
0.1674201025998864
 10
0.180050854300292
 20
0.1712907974994573
  0
LWPOLYLINE
  5
294A
330
2
100
AcDbEntity
  8
Profilo
  6
Continuous
370
     0
100
AcDbPolyline
 90
        2
 70
   128
 43
0.0
 10
0.1920716039208955
 20
0.1659935322782668
 10
0.1800902883593146
 20
0.1708847414197929
  0
LWPOLYLINE
  5
294B
330
2
100
AcDbEntity
  8
Profilo
  6
Continuous
370
     0
100
AcDbPolyline
 90
        9
 70
   128
 43
0.0
 10
0.178907726748761
 20
0.1694219107800527
 10
0.1758696900323212
 20
0.1691483554867587
 10
0.1742180564530461
 20
0.1687010608363734
 10
0.1737841084662112
 20
0.1683724098495351
 10
0.1737313383387843
 20
0.1679910625395641
 10
0.174093490247676
 20
0.1674985344726438
 10
0.174971791581196
 20
0.1667193983167949
 10
0.1759917336621367
 20
0.1661000531485583
 10
0.1771409578625814
 20
0.1655943759406273
  0
LWPOLYLINE
  5
294C
330
2
100
AcDbEntity
  8
Profilo
  6
Continuous
370
     0
100
AcDbPolyline
 90
       25
 70
   128
 43
0.0
 10
0.1912395930920351
 20
0.1641299534366635
 10
0.1908861747328437
 20
0.1639239989218264
 10
0.1901702442790359
 20
0.1638762462109955
 10
0.1893588579898676
 20
0.1641627571973953
 10
0.1885366747684071
 20
0.1646038304040826
 10
0.1874763712666084
 20
0.165152526022174
 10
0.186160130709412
 20
0.1654634557385035
 10
0.1844368928931651
 20
0.1655755913392915
 10
0.1824382080683936
 20
0.1654520487183182
 10
0.1780320361050866
 20
0.1649269404531634
 10
0.1739751029894429
 20
0.1642584183372866
 10
0.1733069021231156
 20
0.1640196600617176
 10
0.1730682591951137
 20
0.1636853990037792
 10
0.173115987112794
 20
0.1631123796702718
 10
0.1734500875459567
 20
0.1626826158299639
 10
0.1745955759380898
 20
0.1623006020611954
 10
0.1772683777335985
 20
0.1612978188873801
 10
0.1817071408698855
 20
0.1599607746556264
 10
0.1839663997870155
 20
0.1595192395728328
 10
0.1864709107039119
 20
0.1593180489801226
 10
0.1879595899250323
 20
0.1594832581044884
 10
0.188914163306842
 20
0.1598652718732569
 10
0.1897255495960121
 20
0.1598652718732569
 10
0.190584665472661
 20
0.1597697690908883
 10
0.190949496920657
 20
0.1596313039127357
  0
LWPOLYLINE
  5
294D
330
2
100
AcDbEntity
  8
Profilo
  6
Continuous
370
     0
100
AcDbPolyline
 90
        2
 70
   128
 43
0.0
 10
0.1913005942566685
 20
0.1627781186123333
 10
0.1781274936102474
 20
0.1632556351634713
  0
LWPOLYLINE
  5
294E
330
2
100
AcDbEntity
  8
Profilo
  6
Continuous
370
     0
100
AcDbPolyline
 90
        2
 70
   128
 43
0.0
 10
0.191109679246345
 20
0.1612500688158415
 10
0.1782706790330885
 20
0.1628736213947028
  0
LWPOLYLINE
  5
294F
330
2
100
AcDbEntity
  8
Profilo
  6
Continuous
370
     0
100
AcDbPolyline
 90
        9
 70
   128
 43
0.0
 10
0.1775070206616004
 20
0.1611545660334721
 10
0.1746433038557701
 20
0.1601040301488259
 10
0.1731637167002745
 20
0.1592445024682109
 10
0.1728296162671118
 20
0.1588147359886116
 10
0.1728773441847921
 20
0.1584327248591346
 10
0.1733546317105979
 20
0.1580507110903652
 10
0.1744046609277682
 20
0.1575254444676887
 10
0.175550147650101
 20
0.1571911834097503
 10
0.1767910918775929
 20
0.1570001778450123
  0
LWPOLYLINE
  5
2950
330
2
100
AcDbEntity
  8
Profilo
  6
Continuous
370
     0
100
AcDbPolyline
 90
       25
 70
   128
 43
0.0
 10
0.1907883481952549
 20
0.1592346496351708
 10
0.1905002772254921
 20
0.1589442414480009
 10
0.1898211008213494
 20
0.1587128194349201
 10
0.1889632073496333
 20
0.1587795655716275
 10
0.1880548811959081
 20
0.1589928128969722
 10
0.1868886937838902
 20
0.1592483854254049
 10
0.18553682850381
 20
0.1592080523444285
 10
0.1838432857631421
 20
0.1588703602511916
 10
0.1819446796554743
 20
0.158233729545137
 10
0.1778245523808067
 20
0.1565861126901262
 10
0.1740788821645399
 20
0.1548903583579199
 10
0.1734952448794985
 20
0.1544867924631476
 10
0.173351246639912
 20
0.1541021557398163
 10
0.1735456565849575
 20
0.1535610144606971
 10
0.1739796038886926
 20
0.1532323660232186
 10
0.175184933149216
 20
0.1531598432697947
 10
0.1780262008155408
 20
0.1528830011125001
 10
0.1826597692769841
 20
0.1527403519945289
 10
0.184956323501822
 20
0.1528986010904167
 10
0.1874275672357616
 20
0.1533524810248712
 10
0.1888227616746928
 20
0.1538973593193089
 10
0.1896459363184221
 20
0.154513418055721
 10
0.1904296752902269
 20
0.1547234202802936
 10
0.1912842354421947
 20
0.1548535272271471
 10
0.1916724729852476
 20
0.1548142054625223
  0
LWPOLYLINE
  5
2951
330
2
100
AcDbEntity
  8
Profilo
  6
Continuous
370
     0
100
AcDbPolyline
 90
        2
 70
   128
 43
0.0
 10
0.1911971513939751
 20
0.1579446657286538
 10
0.1783493228895076
 20
0.154996461967533
  0
LWPOLYLINE
  5
2952
330
2
100
AcDbEntity
  8
Profilo
  6
Continuous
370
     0
100
AcDbPolyline
 90
        2
 70
   128
 43
0.0
 10
0.1914082300440768
 20
0.156419270525699
 10
0.1785865018262275
 20
0.1546645241166932
  0
LWPOLYLINE
  5
2953
330
2
100
AcDbEntity
  8
Profilo
  6
Continuous
370
     0
100
AcDbPolyline
 90
        9
 70
   128
 43
0.0
 10
0.1782937887498172
 20
0.1528063948159663
 10
0.1757995494223966
 20
0.1510504706244153
 10
0.1745928401101949
 20
0.149837285304567
 10
0.1743813556230936
 20
0.1493356912075689
 10
0.1745263290071662
 20
0.1489790496857563
 10
0.175086225793757
 20
0.1487335838221726
 10
0.176236425138686
 20
0.1484979827849588
 10
0.1774293934752876
 20
0.1484715851760254
 10
0.1786774894314821
 20
0.1486082679680647
  0
LWPOLYLINE
  5
2954
330
2
100
AcDbEntity
  8
Profilo
  6
Continuous
370
     0
100
AcDbPolyline
 90
       25
 70
   128
 43
0.0
 10
0.1916194769508618
 20
0.1543893584924862
 10
0.1914163849310576
 20
0.1540342874710167
 10
0.1908202473261312
 20
0.1536349671834338
 10
0.1899743106942285
 20
0.1534773998315352
 10
0.1890417425345362
 20
0.1534482888227246
 10
0.1878491449572103
 20
0.1533933214160387
 10
0.1865537823390216
 20
0.153004474170572
 10
0.1850053468129978
 20
0.1522399675414003
 10
0.1833362062910734
 20
0.1511336340808016
 10
0.1797829035699842
 20
0.1484757910017868
 10
0.1766037574883207
 20
0.1458683673086242
 10
0.1761444577010348
 20
0.145327496143454
 10
0.1761049173919208
 20
0.1449186961117827
 10
0.1764327606478538
 20
0.144446310770945
 10
0.1769369820305432
 20
0.1442411745841931
 10
0.1781200109622564
 20
0.1444830851519094
 10
0.1809361168033533
 20
0.1449510503466526
 10
0.1854487205566372
 20
0.1460125176441138
 10
0.1876260637139954
 20
0.1467597665043178
 10
0.1898956290884378
 20
0.1478377857984758
 10
0.1911022585498309
 20
0.148725200707674
 10
0.1917379364638713
 20
0.1495333210269282
 10
0.1924406176025727
 20
0.1499390141715124
 10
0.1932323851677303
 20
0.1502858642741731
 10
0.1936175710588724
 20
0.1503483656363531
  0
LWPOLYLINE
  5
2955
330
2
100
AcDbEntity
  8
Profilo
  6
Continuous
370
     0
100
AcDbPolyline
 90
        2
 70
   128
 43
0.0
 10
0.1923482229212589
 20
0.1532491357752119
 10
0.1807012248392802
 20
0.1470761269160145
  0
LWPOLYLINE
  5
2956
330
2
100
AcDbEntity
  8
Profilo
  6
Continuous
370
     0
100
AcDbPolyline
 90
        2
 70
   128
 43
0.0
 10
0.1929469105706026
 20
0.1518303483280412
 10
0.1810162339372973
 20
0.1468168859990865
  0
LWPOLYLINE
  5
2957
330
2
100
AcDbEntity
  8
Profilo
  6
Continuous
370
     0
100
AcDbPolyline
 90
        9
 70
   128
 43
0.0
 10
0.1812144140683906
 20
0.1449463112000042
 10
0.1792596305076209
 20
0.1426046620333989
 10
0.1784080342841566
 20
0.1411204956489828
 10
0.1783335780614209
 20
0.1405812567433721
 10
0.1785659172153405
 20
0.1402742893595572
 10
0.179170267221982
 20
0.1401820994941107
 10
0.1803422525101063
 20
0.1402522198636979
 10
0.1815014036403128
 20
0.140535484657194
 10
0.1826715956483703
 20
0.1409905410996123
  0
LWPOLYLINE
  5
2958
330
2
100
AcDbEntity
  8
Profilo
  6
Continuous
370
     0
100
AcDbPolyline
 90
       25
 70
   128
 43
0.0
 10
0.1936763393076678
 20
0.1499242785927605
 10
0.1935720666233461
 20
0.1495287422403224
 10
0.1930995936102488
 20
0.148988736695929
 10
0.1923232630016468
 20
0.1486175938100637
 10
0.1914300058149273
 20
0.1483481083342386
 10
0.1902922716263294
 20
0.1479863469303619
 10
0.1891416884917728
 20
0.1472754848175836
 10
0.1878438835025801
 20
0.1461362635158482
 10
0.1865179577345849
 20
0.144635622097742
 10
0.1837736312754036
 20
0.1411486804082657
 10
0.181377662880022
 20
0.1378072789698643
 10
0.1810740011119659
 20
0.1371659620103702
 10
0.1811416133400489
 20
0.1367608577169432
 10
0.1815805479307656
 20
0.136389420594712
 10
0.1821206815384443
 20
0.1363217763508097
 10
0.1832007886746944
 20
0.1368616344342539
 10
0.1857998197313307
 20
0.1380425159263605
 10
0.1898839322880989
 20
0.1402357623970915
 10
0.1917936820400336
 20
0.1415210872466745
 10
0.1937069019253418
 20
0.1431497806671504
 10
0.1946427366054554
 20
0.1443192563315693
 10
0.1950475973904698
 20
0.1452643661693915
 10
0.195621334137703
 20
0.1458381029166238
 10
0.1962963514649424
 20
0.1463780589137921
 10
0.1966522359222417
 20
0.1465381240382315
  0
LWPOLYLINE
  5
2959
330
2
100
AcDbEntity
  8
Profilo
  6
Continuous
370
     0
100
AcDbPolyline
 90
        2
 70
   128
 43
0.0
 10
0.1946753652161682
 20
0.1490115213586038
 10
0.1850229212283928
 20
0.1400343877537062
  0
LWPOLYLINE
  5
295A
330
2
100
AcDbEntity
  8
Profilo
  6
Continuous
370
     0
100
AcDbPolyline
 90
        2
 70
   128
 43
0.0
 10
0.1956208622908285
 20
0.147796029687085
 10
0.1853942931382534
 20
0.1398655106107609
  0
LWPOLYLINE
  5
295B
330
2
100
AcDbEntity
  8
Profilo
  6
Continuous
370
     0
100
AcDbPolyline
 90
        9
 70
   128
 43
0.0
 10
0.1860698608284249
 20
0.1381099668946104
 10
0.1847877483035379
 20
0.1353421722738976
 10
0.1843493000441111
 20
0.1336881683113098
 10
0.1844169461542752
 20
0.133148032837371
 10
0.18472081754866
 20
0.1329116589114727
 10
0.1853284353211372
 20
0.1329790276311422
 10
0.1864423376918684
 20
0.1333500908202223
 10
0.1874886773817434
 20
0.1339237139885873
 10
0.1885012187901488
 20
0.1346661327368507
  0
LWPOLYLINE
  5
295C
330
2
100
AcDbEntity
  8
Profilo
  6
Continuous
370
     0
100
AcDbPolyline
 90
       25
 70
   128
 43
0.0
 10
0.1968187634951818
 20
0.1461436977522667
 10
0.196820416157459
 20
0.1457346512176254
 10
0.1965038059912342
 20
0.145090760901869
 10
0.1958499870539644
 20
0.1445313352563661
 10
0.1950569148413145
 20
0.1440398403033593
 10
0.1940515787462026
 20
0.1433959383441274
 10
0.193124185434472
 20
0.1424115054422665
 10
0.1921654542473977
 20
0.1409752055170299
 10
0.1912731028832259
 20
0.1391825223741329
 10
0.1895247739989326
 20
0.1351041113878881
 10
0.1880752645764506
 20
0.1312564431903486
 10
0.1879479348752945
 20
0.1305583851274938
 10
0.1881180919789639
 20
0.1301845837604413
 10
0.188638205237481
 20
0.1299394076828679
 10
0.1891774418573974
 20
0.1300138652252493
 10
0.1900810196818125
 20
0.1308148803881923
 10
0.1922858562825788
 20
0.1326282030554757
 10
0.1956631521214046
 20
0.1358037625770058
 10
0.1971751621783305
 20
0.1375395706515696
 10
0.1986016538010681
 20
0.139607945433301
 10
0.1992029181129912
 20
0.1409797840190607
 10
0.1993493711755466
 20
0.1419974757018696
 10
0.1997550643201308
 20
0.1427001568405719
 10
0.200267330094119
 20
0.14339642162336
 10
0.2005696601799368
 20
0.1436431423363486
  0
LWPOLYLINE
  5
295D
330
2
100
AcDbEntity
  8
Profilo
  6
Continuous
370
     0
100
AcDbPolyline
 90
        2
 70
   128
 43
0.0
 10
0.1980199873770886
 20
0.1455206088983336
 10
0.191019895589864
 20
0.1343511273674937
  0
LWPOLYLINE
  5
295E
330
2
100
AcDbEntity
  8
Profilo
  6
Continuous
370
     0
100
AcDbPolyline
 90
        2
 70
   128
 43
0.0
 10
0.1992478598139368
 20
0.1445912467511856
 10
0.1914223219296357
 20
0.1342841226967415
  0
LWPOLYLINE
  5
295F
330
2
100
AcDbEntity
  8
Profilo
  6
Continuous
370
     0
100
AcDbPolyline
 90
        9
 70
   128
 43
0.0
 10
0.1925292383572291
 20
0.1327632474666049
 10
0.1920071707180032
 20
0.1297579280211891
 10
0.1920117499469246
 20
0.128046804117109
 10
0.1922168884193717
 20
0.1275425814147739
 10
0.192571583720866
 20
0.1273929094392165
 10
0.1931410611121184
 20
0.1276152456770887
 10
0.1941209699597014
 20
0.1282619643425364
 10
0.1949831918885391
 20
0.1290868544148044
 10
0.1957690796736135
 20
0.130066040858124
  0
LWPOLYLINE
  5
2960
330
2
100
AcDbEntity
  8
Profilo
  6
Continuous
370
     0
100
AcDbPolyline
 90
       25
 70
   128
 43
0.0
 10
0.2008325984981255
 20
0.14330525630758
 10
0.2009400638808017
 20
0.1429105754360884
 10
0.2008008930210533
 20
0.1422066804099093
 10
0.2003141424352016
 20
0.1414970959380157
 10
0.1996753017573006
 20
0.1408170860766408
 10
0.1988708757491612
 20
0.1399349244164758
 10
0.1982298725818584
 20
0.1387440082009436
 10
0.197675551142925
 20
0.1371085111185121
 10
0.1972775864533635
 20
0.1351459546444642
 10
0.196644400868173
 20
0.1307540113302712
 10
0.1962401320903077
 20
0.1266622886026833
 10
0.1962978117647612
 20
0.1259550609398558
 10
0.1965589178186008
 20
0.1256380364446065
 10
0.1971247648858775
 20
0.125535829756205
 10
0.1976263564335149
 20
0.1257473149264043
 10
0.1982918276105942
 20
0.1267548993092304
 10
0.1999522137848132
 20
0.1290770882085723
 10
0.2023925357755246
 20
0.13301855164737
 10
0.2034037651507777
 20
0.1350865504951916
 10
0.2042463154642441
 20
0.1374536503149543
 10
0.2044720342387546
 20
0.1389343632895057
 10
0.2043500990446635
 20
0.1399552828109331
 10
0.2045601012692352
 20
0.140739021782738
 10
0.2048747054240337
 20
0.1415441460568309
 10
0.2051028778426481
 20
0.1418607087495045
  0
LWPOLYLINE
  5
2961
330
2
100
AcDbEntity
  8
Profilo
  6
Continuous
370
     0
100
AcDbPolyline
 90
        2
 70
   128
 43
0.0
 10
0.2021541589310033
 20
0.1430142983095625
 10
0.1982834640314334
 20
0.1304136505606663
  0
LWPOLYLINE
  5
2962
330
2
100
AcDbEntity
  8
Profilo
  6
Continuous
370
     0
100
AcDbPolyline
 90
        2
 70
   128
 43
0.0
 10
0.2035807292526247
 20
0.1424344001812689
 10
0.1986895201110969
 20
0.130453084619688
  0
LWPOLYLINE
  5
2963
330
2
100
AcDbEntity
  8
Profilo
  6
Continuous
370
     0
100
AcDbPolyline
 90
        9
 70
   128
 43
0.0
 10
0.2001523507508388
 20
0.1292705230091344
 10
0.200425906044131
 20
0.1262324862926946
 10
0.2008732006945163
 20
0.1245808527134195
 10
0.2012018516813555
 20
0.1241469047265855
 10
0.2015831989913256
 20
0.1240941345991586
 10
0.2020757270582468
 20
0.1244562865080502
 10
0.2028548632140957
 20
0.1253345878415685
 10
0.2034742083823314
 20
0.1263545299225101
 10
0.2039798855902624
 20
0.1275037541229548
  0
LWPOLYLINE
  5
2964
330
2
100
AcDbEntity
  8
Profilo
  6
Continuous
370
     0
100
AcDbPolyline
 90
        4
 70
     1
 43
0.0
 10
0.2065265682691614
 20
0.1132303138675661
 10
0.2119239653533778
 20
0.1132303138675661
 10
0.2119239653533778
 20
0.1184773157184213
 10
0.2065265682691614
 20
0.1184773157184213
  0
LWPOLYLINE
  5
2965
330
2
100
AcDbEntity
  8
Profilo
  6
Continuous
370
     0
100
AcDbPolyline
 90
        4
 70
     1
 43
0.0
 10
0.2070687237215832
 20
0.1137800874482468
 10
0.2113836257338765
 20
0.1137800874482468
 10
0.2113836257338765
 20
0.1179318552333341
 10
0.2070687237215832
 20
0.1179318552333341
  0
LINE
  5
2966
330
2
100
AcDbEntity
  8
Profilo
  6
Continuous
370
     0
100
AcDbLine
 10
0.2070687237215832
 20
0.1179318552333341
 30
0.0
 11
0.2113836257338765
 21
0.1137800874482468
 31
0.0
  0
LINE
  5
2967
330
2
100
AcDbEntity
  8
Profilo
  6
Continuous
370
     0
100
AcDbLine
 10
0.2070687237215832
 20
0.1137800874482468
 30
0.0
 11
0.2113836257338765
 21
0.1179318552333341
 31
0.0
  0
LWPOLYLINE
  5
2968
330
2
100
AcDbEntity
  8
Profilo
  6
Continuous
370
     0
100
AcDbPolyline
 90
        4
 70
     1
 43
0.0
 10
0.2132094512355206
 20
0.1132678307268324
 10
0.2185519105998242
 20
0.1140359604199694
 10
0.2178051843800009
 20
0.1192295553575346
 10
0.2124627250156973
 20
0.1184614256643976
  0
LWPOLYLINE
  5
2969
330
2
100
AcDbEntity
  8
Profilo
  6
Continuous
370
     0
100
AcDbPolyline
 90
        4
 70
     1
 43
0.0
 10
0.21366784738894
 20
0.1138891651707012
 10
0.2179388299203225
 20
0.1145032397527454
 10
0.217347971759439
 20
0.1186127485281349
 10
0.2130769892280565
 20
0.1179986739460907
  0
LINE
  5
296A
330
2
100
AcDbEntity
  8
Profilo
  6
Continuous
370
     0
100
AcDbLine
 10
0.2130769892280565
 20
0.1179986739460907
 30
0.0
 11
0.2179388299203225
 21
0.1145032397527454
 31
0.0
  0
LINE
  5
296B
330
2
100
AcDbEntity
  8
Profilo
  6
Continuous
370
     0
100
AcDbLine
 10
0.21366784738894
 20
0.1138891651707012
 30
0.0
 11
0.217347971759439
 21
0.1186127485281349
 31
0.0
  0
LWPOLYLINE
  5
296C
330
2
100
AcDbEntity
  8
Profilo
  6
Continuous
370
     0
100
AcDbPolyline
 90
        4
 70
     1
 43
0.0
 10
0.2198189728834446
 20
0.1142560391271236
 10
0.2249977374615582
 20
0.1157766616079489
 10
0.2235194862143658
 20
0.1208111230163859
 10
0.2183407216362521
 20
0.1192905005355615
  0
LWPOLYLINE
  5
296D
330
2
100
AcDbEntity
  8
Profilo
  6
Continuous
370
     0
100
AcDbPolyline
 90
        4
 70
     1
 43
0.0
 10
0.2201842781140822
 20
0.1149362858566822
 10
0.2243243962767117
 20
0.1161519342331256
 10
0.2231547081232069
 20
0.1201355262509957
 10
0.2190145899605792
 20
0.1189198778745523
  0
LINE
  5
296E
330
2
100
AcDbEntity
  8
Profilo
  6
Continuous
370
     0
100
AcDbLine
 10
0.2190145899605792
 20
0.1189198778745523
 30
0.0
 11
0.2243243962767117
 21
0.1161519342331256
 31
0.0
  0
LINE
  5
296F
330
2
100
AcDbEntity
  8
Profilo
  6
Continuous
370
     0
100
AcDbLine
 10
0.2201842781140822
 20
0.1149362858566822
 30
0.0
 11
0.2231547081232069
 21
0.1201355262509957
 31
0.0
  0
LWPOLYLINE
  5
2970
330
2
100
AcDbEntity
  8
Profilo
  6
Continuous
370
     0
100
AcDbPolyline
 90
        4
 70
     1
 43
0.0
 10
0.2262205824124695
 20
0.1161748219951668
 10
0.2311302274919061
 20
0.118416981775083
 10
0.2289505441498122
 20
0.1231898225383047
 10
0.2240408990703756
 20
0.1209476627583885
  0
LWPOLYLINE
  5
2971
330
2
100
AcDbEntity
  8
Profilo
  6
Continuous
370
     0
100
AcDbPolyline
 90
        4
 70
     1
 43
0.0
 10
0.2264853601592836
 20
0.1169001331486716
 10
0.2304103330864834
 20
0.1186926082242096
 10
0.2286856264180606
 20
0.1224691890388072
 10
0.2247606534908591
 20
0.1206767139632691
  0
LINE
  5
2972
330
2
100
AcDbEntity
  8
Profilo
  6
Continuous
370
     0
100
AcDbLine
 10
0.2247606534908591
 20
0.1206767139632691
 30
0.0
 11
0.2304103330864834
 21
0.1186926082242096
 31
0.0
  0
LINE
  5
2973
330
2
100
AcDbEntity
  8
Profilo
  6
Continuous
370
     0
100
AcDbLine
 10
0.2264853601592836
 20
0.1169001331486716
 30
0.0
 11
0.2286856264180606
 21
0.1224691890388072
 31
0.0
  0
LWPOLYLINE
  5
2974
330
2
100
AcDbEntity
  8
Profilo
  6
Continuous
370
     0
100
AcDbPolyline
 90
        4
 70
     1
 43
0.0
 10
0.2322839615132995
 20
0.1189851184450814
 10
0.2368245408784904
 20
0.121903171616825
 10
0.2339877975086534
 20
0.1263172304606283
 10
0.2294472181434624
 20
0.1233991772888847
  0
LWPOLYLINE
  5
2975
330
2
100
AcDbEntity
  8
Profilo
  6
Continuous
370
     0
100
AcDbPolyline
 90
        4
 70
     1
 43
0.0
 10
0.2324428216649196
 20
0.1197407287790726
 10
0.2360727482265808
 20
0.1220735409302384
 10
0.2338281330973665
 20
0.1255662302469378
 10
0.2301982065357052
 20
0.1232334180957719
  0
LINE
  5
2976
330
2
100
AcDbEntity
  8
Profilo
  6
Continuous
370
     0
100
AcDbLine
 10
0.2301982065357052
 20
0.1232334180957719
 30
0.0
 11
0.2360727482265808
 21
0.1220735409302384
 31
0.0
  0
LINE
  5
2977
330
2
100
AcDbEntity
  8
Profilo
  6
Continuous
370
     0
100
AcDbLine
 10
0.2324428216649196
 20
0.1197407287790726
 30
0.0
 11
0.2338281330973665
 21
0.1255662302469378
 31
0.0
  0
LWPOLYLINE
  5
2978
330
2
100
AcDbEntity
  8
Profilo
  6
Continuous
370
     0
100
AcDbPolyline
 90
        4
 70
     1
 43
0.0
 10
0.2378856772727854
 20
0.1226297189453731
 10
0.2419647578218026
 20
0.126164262361337
 10
0.2385287023387402
 20
0.1301296817767567
 10
0.234449621789723
 20
0.1265951383607919
  0
LWPOLYLINE
  5
2979
330
2
100
AcDbEntity
  8
Profilo
  6
Continuous
370
     0
100
AcDbPolyline
 90
        4
 70
     1
 43
0.0
 10
0.2379353858946388
 20
0.1234002464124495
 10
0.24119637125381
 20
0.1262259063111208
 10
0.2384775415548962
 20
0.1293636030475189
 10
0.2352165561957268
 20
0.1265379431488466
  0
LINE
  5
297A
330
2
100
AcDbEntity
  8
Profilo
  6
Continuous
370
     0
100
AcDbLine
 10
0.2352165561957268
 20
0.1265379431488466
 30
0.0
 11
0.24119637125381
 21
0.1262259063111208
 31
0.0
  0
LINE
  5
297B
330
2
100
AcDbEntity
  8
Profilo
  6
Continuous
370
     0
100
AcDbLine
 10
0.2379353858946388
 20
0.1234002464124495
 30
0.0
 11
0.2384775415548962
 21
0.1293636030475189
 31
0.0
  0
LWPOLYLINE
  5
297C
330
2
100
AcDbEntity
  8
Profilo
  6
Continuous
370
     0
100
AcDbPolyline
 90
        4
 70
     1
 43
0.0
 10
0.2429116949120772
 20
0.127034429940015
 10
0.2464462383280402
 20
0.131113510489033
 10
0.2424808189126214
 20
0.1345495659720963
 10
0.2389462754966566
 20
0.1304704854230782
  0
LWPOLYLINE
  5
297D
330
2
100
AcDbEntity
  8
Profilo
  6
Continuous
370
     0
100
AcDbPolyline
 90
        4
 70
     1
 43
0.0
 10
0.2428512400799715
 20
0.1278041888229661
 10
0.2456768999786437
 20
0.1310651741821364
 10
0.2425392032422465
 20
0.1337840038810484
 10
0.2397135433435743
 20
0.130523018521879
  0
LINE
  5
297E
330
2
100
AcDbEntity
  8
Profilo
  6
Continuous
370
     0
100
AcDbLine
 10
0.2397135433435743
 20
0.130523018521879
 30
0.0
 11
0.2456768999786437
 21
0.1310651741821364
 31
0.0
  0
LINE
  5
297F
330
2
100
AcDbEntity
  8
Profilo
  6
Continuous
370
     0
100
AcDbLine
 10
0.2428512400799715
 20
0.1278041888229661
 30
0.0
 11
0.2425392032422465
 21
0.1337840038810484
 31
0.0
  0
LWPOLYLINE
  5
2980
330
2
100
AcDbEntity
  8
Profilo
  6
Continuous
370
     0
100
AcDbPolyline
 90
        4
 70
     1
 43
0.0
 10
0.2472596992058747
 20
0.1321095842152952
 10
0.2501777523776184
 20
0.1366501635804862
 10
0.2457636935338151
 20
0.1394869069503232
 10
0.2428456403620714
 20
0.1349463275851332
  0
LWPOLYLINE
  5
2981
330
2
100
AcDbEntity
  8
Profilo
  6
Continuous
370
     0
100
AcDbPolyline
 90
        4
 70
     1
 43
0.0
 10
0.2470903116058555
 20
0.1328629044430653
 10
0.2494231237570222
 20
0.1364928310047257
 10
0.2459304344403229
 20
0.138737446133941
 10
0.2435976222891561
 20
0.1351075195722806
  0
LINE
  5
2982
330
2
100
AcDbEntity
  8
Profilo
  6
Continuous
370
     0
100
AcDbLine
 10
0.2435976222891561
 20
0.1351075195722806
 30
0.0
 11
0.2494231237570222
 21
0.1364928310047257
 31
0.0
  0
LINE
  5
2983
330
2
100
AcDbEntity
  8
Profilo
  6
Continuous
370
     0
100
AcDbLine
 10
0.2470903116058555
 20
0.1328629044430653
 30
0.0
 11
0.2459304344403229
 21
0.138737446133941
 31
0.0
  0
LWPOLYLINE
  5
2984
330
2
100
AcDbEntity
  8
Profilo
  6
Continuous
370
     0
100
AcDbPolyline
 90
        4
 70
     1
 43
0.0
 10
0.2508411773253695
 20
0.1377518662657057
 10
0.2530833371052857
 20
0.1426615113451423
 10
0.248310496342064
 20
0.1448411946872363
 10
0.2460683365621477
 20
0.1399315496077988
  0
LWPOLYLINE
  5
2985
330
2
100
AcDbEntity
  8
Profilo
  6
Continuous
370
     0
100
AcDbPolyline
 90
        4
 70
     1
 43
0.0
 10
0.2505663052004984
 20
0.1384734124108522
 10
0.2523587802760364
 20
0.1423983853380519
 10
0.2485821994614398
 20
0.1441230920064755
 10
0.2467897243859017
 20
0.1401981190792749
  0
LINE
  5
2986
330
2
100
AcDbEntity
  8
Profilo
  6
Continuous
370
     0
100
AcDbLine
 10
0.2467897243859017
 20
0.1401981190792749
 30
0.0
 11
0.2523587802760364
 21
0.1423983853380519
 31
0.0
  0
LINE
  5
2987
330
2
100
AcDbEntity
  8
Profilo
  6
Continuous
370
     0
100
AcDbLine
 10
0.2505663052004984
 20
0.1384734124108522
 30
0.0
 11
0.2485821994614398
 21
0.1441230920064755
 31
0.0
  0
LWPOLYLINE
  5
2988
330
2
100
AcDbEntity
  8
Profilo
  6
Continuous
370
     0
100
AcDbPolyline
 90
        4
 70
     1
 43
0.0
 10
0.2535832207041754
 20
0.1438464154996956
 10
0.2551038431850007
 20
0.1490251800778092
 10
0.2500693817765637
 20
0.1505034313250026
 10
0.2485487592957384
 20
0.145324666746889
  0
LWPOLYLINE
  5
2989
330
2
100
AcDbEntity
  8
Profilo
  6
Continuous
370
     0
100
AcDbPolyline
 90
        4
 70
     1
 43
0.0
 10
0.2532084596582496
 20
0.1445214989634713
 10
0.2544241080346939
 20
0.1486616171261008
 10
0.2504405160168229
 20
0.1498313052796056
 10
0.2492248676403804
 20
0.1456911871169761
  0
LINE
  5
298A
330
2
100
AcDbEntity
  8
Profilo
  6
Continuous
370
     0
100
AcDbLine
 10
0.2492248676403804
 20
0.1456911871169761
 30
0.0
 11
0.2544241080346939
 21
0.1486616171261008
 31
0.0
  0
LINE
  5
298B
330
2
100
AcDbEntity
  8
Profilo
  6
Continuous
370
     0
100
AcDbLine
 10
0.2532084596582496
 20
0.1445214989634713
 30
0.0
 11
0.2504405160168229
 21
0.1498313052796056
 31
0.0
  0
LWPOLYLINE
  5
298C
330
2
100
AcDbEntity
  8
Profilo
  6
Continuous
370
     0
100
AcDbPolyline
 90
        4
 70
     1
 43
0.0
 10
0.2554300092465024
 20
0.1502691644700921
 10
0.2561981389396394
 20
0.1556116238343958
 10
0.2510045440020733
 20
0.1563583500542191
 10
0.2502364143089363
 20
0.1510158906899163
  0
LWPOLYLINE
  5
298D
330
2
100
AcDbEntity
  8
Profilo
  6
Continuous
370
     0
100
AcDbPolyline
 90
        4
 70
     1
 43
0.0
 10
0.2549629883336944
 20
0.150884042499954
 10
0.2555770629157386
 20
0.1551550250313364
 10
0.2514675541403491
 20
0.1557458831922191
 10
0.2508534795583049
 20
0.1514749006608375
  0
LINE
  5
298E
330
2
100
AcDbEntity
  8
Profilo
  6
Continuous
370
     0
100
AcDbLine
 10
0.2508534795583049
 20
0.1514749006608375
 30
0.0
 11
0.2555770629157386
 21
0.1551550250313364
 31
0.0
  0
LINE
  5
298F
330
2
100
AcDbEntity
  8
Profilo
  6
Continuous
370
     0
100
AcDbLine
 10
0.2549629883336944
 20
0.150884042499954
 30
0.0
 11
0.2514675541403491
 21
0.1557458831922191
 31
0.0
  0
LWPOLYLINE
  5
2990
330
2
100
AcDbEntity
  8
Profilo
  6
Continuous
370
     0
100
AcDbPolyline
 90
        4
 70
     1
 43
0.0
 10
0.2563439476633246
 20
0.1568893645295348
 10
0.2563439476633246
 20
0.1622867616137513
 10
0.2510969458124702
 20
0.1622867616137513
 10
0.2510969458124702
 20
0.1568893645295348
  0
LWPOLYLINE
  5
2991
330
2
100
AcDbEntity
  8
Profilo
  6
Continuous
370
     0
100
AcDbPolyline
 90
        4
 70
     1
 43
0.0
 10
0.2557941740826429
 20
0.1574315199819575
 10
0.2557941740826429
 20
0.1617464219942499
 10
0.2516424062975556
 20
0.1617464219942499
 10
0.2516424062975556
 20
0.1574315199819575
  0
LINE
  5
2992
330
2
100
AcDbEntity
  8
Profilo
  6
Continuous
370
     0
100
AcDbLine
 10
0.2516424062975556
 20
0.1574315199819575
 30
0.0
 11
0.2557941740826429
 21
0.1617464219942499
 31
0.0
  0
LINE
  5
2993
330
2
100
AcDbEntity
  8
Profilo
  6
Continuous
370
     0
100
AcDbLine
 10
0.2557941740826429
 20
0.1574315199819575
 30
0.0
 11
0.2516424062975556
 21
0.1617464219942499
 31
0.0
  0
LWPOLYLINE
  5
2994
330
2
100
AcDbEntity
  8
Profilo
  6
Continuous
370
     0
100
AcDbPolyline
 90
        4
 70
     1
 43
0.0
 10
0.2563064308040573
 20
0.163572247495894
 10
0.2555383011109203
 20
0.1689147068601977
 10
0.250344706173356
 20
0.1681679806403735
 10
0.251112835866493
 20
0.1628255212760707
  0
LWPOLYLINE
  5
2995
330
2
100
AcDbEntity
  8
Profilo
  6
Continuous
370
     0
100
AcDbPolyline
 90
        4
 70
     1
 43
0.0
 10
0.2556850963601903
 20
0.1640306436493135
 10
0.2550710217781461
 20
0.1683016261806959
 10
0.2509615130027548
 20
0.1677107680198124
 10
0.251575587584799
 20
0.1634397854884308
  0
LINE
  5
2996
330
2
100
AcDbEntity
  8
Profilo
  6
Continuous
370
     0
100
AcDbLine
 10
0.251575587584799
 20
0.1634397854884308
 30
0.0
 11
0.2550710217781461
 21
0.1683016261806959
 31
0.0
  0
LINE
  5
2997
330
2
100
AcDbEntity
  8
Profilo
  6
Continuous
370
     0
100
AcDbLine
 10
0.2556850963601903
 20
0.1640306436493135
 30
0.0
 11
0.2509615130027548
 21
0.1677107680198124
 31
0.0
  0
LWPOLYLINE
  5
2998
330
2
100
AcDbEntity
  8
Profilo
  6
Continuous
370
     0
100
AcDbPolyline
 90
        4
 70
     1
 43
0.0
 10
0.255318222403767
 20
0.1701817691438189
 10
0.2537975999229417
 20
0.1753605337219326
 10
0.2487631385145047
 20
0.1738822824747392
 10
0.25028376099533
 20
0.1687035178966256
  0
LWPOLYLINE
  5
2999
330
2
100
AcDbEntity
  8
Profilo
  6
Continuous
370
     0
100
AcDbPolyline
 90
        4
 70
     1
 43
0.0
 10
0.2546379756742084
 20
0.1705470743744565
 10
0.2534223272977641
 20
0.174687192537086
 10
0.2494387352798949
 20
0.1735175043835812
 10
0.2506543836563374
 20
0.1693773862209517
  0
LINE
  5
299A
330
2
100
AcDbEntity
  8
Profilo
  6
Continuous
370
     0
100
AcDbLine
 10
0.2506543836563374
 20
0.1693773862209517
 30
0.0
 11
0.2534223272977641
 21
0.174687192537086
 31
0.0
  0
LINE
  5
299B
330
2
100
AcDbEntity
  8
Profilo
  6
Continuous
370
     0
100
AcDbLine
 10
0.2546379756742084
 20
0.1705470743744565
 30
0.0
 11
0.2494387352798949
 21
0.1735175043835812
 31
0.0
  0
LWPOLYLINE
  5
299C
330
2
100
AcDbEntity
  8
Profilo
  6
Continuous
370
     0
100
AcDbPolyline
 90
        4
 70
     1
 43
0.0
 10
0.2533994395357247
 20
0.176583378672843
 10
0.2511572797558085
 20
0.1814930237522805
 10
0.246384438992585
 20
0.1793133404101865
 10
0.2486265987725012
 20
0.1744036953307499
  0
LWPOLYLINE
  5
299D
330
2
100
AcDbEntity
  8
Profilo
  6
Continuous
370
     0
100
AcDbPolyline
 90
        4
 70
     1
 43
0.0
 10
0.252674128382219
 20
0.1768481564196571
 10
0.250881653306681
 20
0.1807731293468568
 10
0.2471050724920826
 20
0.1790484226784341
 10
0.2488975475676206
 20
0.1751234497512335
  0
LINE
  5
299E
330
2
100
AcDbEntity
  8
Profilo
  6
Continuous
370
     0
100
AcDbLine
 10
0.2488975475676206
 20
0.1751234497512335
 30
0.0
 11
0.250881653306681
 21
0.1807731293468568
 31
0.0
  0
LINE
  5
299F
330
2
100
AcDbEntity
  8
Profilo
  6
Continuous
370
     0
100
AcDbLine
 10
0.252674128382219
 20
0.1768481564196571
 30
0.0
 11
0.2471050724920826
 21
0.1790484226784341
 31
0.0
  0
LWPOLYLINE
  5
29A0
330
2
100
AcDbEntity
  8
Profilo
  6
Continuous
370
     0
100
AcDbPolyline
 90
        4
 70
     1
 43
0.0
 10
0.2505891430858092
 20
0.1826467577736739
 10
0.2476710899140656
 20
0.1871873371388639
 10
0.2432570310702623
 20
0.1843505937690268
 10
0.2461750842420059
 20
0.1798100144038368
  0
LWPOLYLINE
  5
29A1
330
2
100
AcDbEntity
  8
Profilo
  6
Continuous
370
     0
100
AcDbPolyline
 90
        4
 70
     1
 43
0.0
 10
0.249833532751818
 20
0.1828056179252939
 10
0.2475007206006531
 20
0.1864355444869543
 10
0.244008031283952
 20
0.184190929357739
 10
0.2463408434351187
 20
0.1805610027960777
  0
LINE
  5
29A2
330
2
100
AcDbEntity
  8
Profilo
  6
Continuous
370
     0
100
AcDbLine
 10
0.2463408434351187
 20
0.1805610027960777
 30
0.0
 11
0.2475007206006531
 21
0.1864355444869543
 31
0.0
  0
LINE
  5
29A3
330
2
100
AcDbEntity
  8
Profilo
  6
Continuous
370
     0
100
AcDbLine
 10
0.249833532751818
 20
0.1828056179252939
 30
0.0
 11
0.244008031283952
 21
0.184190929357739
 31
0.0
  0
LWPOLYLINE
  5
29A4
330
2
100
AcDbEntity
  8
Profilo
  6
Continuous
370
     0
100
AcDbPolyline
 90
        4
 70
     1
 43
0.0
 10
0.2469445425855184
 20
0.1882484735331588
 10
0.2434099991695536
 20
0.1923275540821769
 10
0.239444579754133
 20
0.1888914985991137
 10
0.2429791231700978
 20
0.1848124180500956
  0
LWPOLYLINE
  5
29A5
330
2
100
AcDbEntity
  8
Profilo
  6
Continuous
370
     0
100
AcDbPolyline
 90
        4
 70
     1
 43
0.0
 10
0.2461740151184411
 20
0.1882981821550131
 10
0.2433483552197689
 20
0.1915591675141834
 10
0.2402106584833717
 20
0.1888403378152705
 10
0.243036318382044
 20
0.1855793524561002
  0
LINE
  5
29A6
330
2
100
AcDbEntity
  8
Profilo
  6
Continuous
370
     0
100
AcDbLine
 10
0.243036318382044
 20
0.1855793524561002
 30
0.0
 11
0.2433483552197689
 21
0.1915591675141834
 31
0.0
  0
LINE
  5
29A7
330
2
100
AcDbEntity
  8
Profilo
  6
Continuous
370
     0
100
AcDbLine
 10
0.2461740151184411
 20
0.1882981821550131
 30
0.0
 11
0.2402106584833717
 21
0.1888403378152705
 31
0.0
  0
LWPOLYLINE
  5
29A8
330
2
100
AcDbEntity
  8
Profilo
  6
Continuous
370
     0
100
AcDbPolyline
 90
        4
 70
     1
 43
0.0
 10
0.2425398315908747
 20
0.1932744911724497
 10
0.2384607510418576
 20
0.1968090345884145
 10
0.2350246955587952
 20
0.1928436151729948
 10
0.2391037761078124
 20
0.1893090717570309
  0
LWPOLYLINE
  5
29A9
330
2
100
AcDbEntity
  8
Profilo
  6
Continuous
370
     0
100
AcDbPolyline
 90
        4
 70
     1
 43
0.0
 10
0.2417700727079254
 20
0.1932140363403458
 10
0.2385090873487542
 20
0.1960396962390171
 10
0.2357902576498422
 20
0.19290199950262
 10
0.2390512430090116
 20
0.1900763396039477
  0
LINE
  5
29AA
330
2
100
AcDbEntity
  8
Profilo
  6
Continuous
370
     0
100
AcDbLine
 10
0.2390512430090116
 20
0.1900763396039477
 30
0.0
 11
0.2385090873487542
 21
0.1960396962390171
 31
0.0
  0
LINE
  5
29AB
330
2
100
AcDbEntity
  8
Profilo
  6
Continuous
370
     0
100
AcDbLine
 10
0.2417700727079254
 20
0.1932140363403458
 30
0.0
 11
0.2357902576498422
 21
0.19290199950262
 31
0.0
  0
LWPOLYLINE
  5
29AC
330
2
100
AcDbEntity
  8
Profilo
  6
Continuous
370
     0
100
AcDbPolyline
 90
        4
 70
     1
 43
0.0
 10
0.2374646773155945
 20
0.1976224954662491
 10
0.2329240979504053
 20
0.2005405486379927
 10
0.2300873545805683
 20
0.1961264897941894
 10
0.2346279339457574
 20
0.1932084366224458
  0
LWPOLYLINE
  5
29AD
330
2
100
AcDbEntity
  8
Profilo
  6
Continuous
370
     0
100
AcDbPolyline
 90
        4
 70
     1
 43
0.0
 10
0.2367113570878253
 20
0.1974531078662298
 10
0.233081430526164
 20
0.1997859200173965
 10
0.2308368153969496
 20
0.1962932307006972
 10
0.2344667419586109
 20
0.1939604185495305
  0
LINE
  5
29AE
330
2
100
AcDbEntity
  8
Profilo
  6
Continuous
370
     0
100
AcDbLine
 10
0.2344667419586109
 20
0.1939604185495305
 30
0.0
 11
0.233081430526164
 21
0.1997859200173965
 31
0.0
  0
LINE
  5
29AF
330
2
100
AcDbEntity
  8
Profilo
  6
Continuous
370
     0
100
AcDbLine
 10
0.2367113570878253
 20
0.1974531078662298
 30
0.0
 11
0.2308368153969496
 21
0.1962932307006972
 31
0.0
  0
LWPOLYLINE
  5
29B0
330
2
100
AcDbEntity
  8
Profilo
  6
Continuous
370
     0
100
AcDbPolyline
 90
        4
 70
     1
 43
0.0
 10
0.2318223952651849
 20
0.2012039735857429
 10
0.2269127501857483
 20
0.2034461333656591
 10
0.2247330668436543
 20
0.1986732926024374
 10
0.2296427119230909
 20
0.1964311328225212
  0
LWPOLYLINE
  5
29B1
330
2
100
AcDbEntity
  8
Profilo
  6
Continuous
370
     0
100
AcDbPolyline
 90
        4
 70
     1
 43
0.0
 10
0.2311008491200393
 20
0.2009291014608727
 10
0.2271758761928378
 20
0.2027215765364107
 10
0.2254511695244151
 20
0.1989449957218132
 10
0.2293761424516166
 20
0.1971525206462752
  0
LINE
  5
29B2
330
2
100
AcDbEntity
  8
Profilo
  6
Continuous
370
     0
100
AcDbLine
 10
0.2293761424516166
 20
0.1971525206462752
 30
0.0
 11
0.2271758761928378
 21
0.2027215765364107
 31
0.0
  0
LINE
  5
29B3
330
2
100
AcDbEntity
  8
Profilo
  6
Continuous
370
     0
100
AcDbLine
 10
0.2311008491200393
 20
0.2009291014608727
 30
0.0
 11
0.2254511695244151
 21
0.1989449957218132
 31
0.0
  0
LWPOLYLINE
  5
29B4
330
2
100
AcDbEntity
  8
Profilo
  6
Continuous
370
     0
100
AcDbPolyline
 90
        4
 70
     1
 43
0.0
 10
0.2257278460311941
 20
0.2039460169645497
 10
0.2205490814530805
 20
0.2054666394453741
 10
0.219070830205888
 20
0.2004321780369371
 10
0.2242495947840016
 20
0.1989115555561118
  0
LWPOLYLINE
  5
29B5
330
2
100
AcDbEntity
  8
Profilo
  6
Continuous
370
     0
100
AcDbPolyline
 90
        4
 70
     1
 43
0.0
 10
0.2250527625674184
 20
0.203571255918624
 10
0.2209126444047889
 20
0.2047869042950674
 10
0.2197429562512859
 20
0.2008033122771972
 10
0.2238830744139136
 20
0.1995876639007538
  0
LINE
  5
29B6
330
2
100
AcDbEntity
  8
Profilo
  6
Continuous
370
     0
100
AcDbLine
 10
0.2238830744139136
 20
0.1995876639007538
 30
0.0
 11
0.2209126444047889
 21
0.2047869042950674
 31
0.0
  0
LINE
  5
29B7
330
2
100
AcDbEntity
  8
Profilo
  6
Continuous
370
     0
100
AcDbLine
 10
0.2250527625674184
 20
0.203571255918624
 30
0.0
 11
0.2197429562512859
 21
0.2008033122771972
 31
0.0
  0
LWPOLYLINE
  5
29B8
330
2
100
AcDbEntity
  8
Profilo
  6
Continuous
370
     0
100
AcDbPolyline
 90
        4
 70
     1
 43
0.0
 10
0.2193050970607985
 20
0.2057928055068758
 10
0.2139626376964948
 20
0.2065609352000128
 10
0.2132159114766715
 20
0.2013673402624476
 10
0.2185583708409752
 20
0.2005992105693106
  0
LWPOLYLINE
  5
29B9
330
2
100
AcDbEntity
  8
Profilo
  6
Continuous
370
     0
100
AcDbPolyline
 90
        4
 70
     1
 43
0.0
 10
0.2186902190309357
 20
0.2053257845940688
 10
0.214419236499555
 20
0.205939859176113
 10
0.2138283783386715
 20
0.2018303504007235
 10
0.218099360870054
 20
0.2012162758186784
  0
LINE
  5
29BA
330
2
100
AcDbEntity
  8
Profilo
  6
Continuous
370
     0
100
AcDbLine
 10
0.218099360870054
 20
0.2012162758186784
 30
0.0
 11
0.214419236499555
 21
0.205939859176113
 31
0.0
  0
LINE
  5
29BB
330
2
100
AcDbEntity
  8
Profilo
  6
Continuous
370
     0
100
AcDbLine
 10
0.2186902190309357
 20
0.2053257845940688
 30
0.0
 11
0.2138283783386715
 21
0.2018303504007235
 31
0.0
  0
LWPOLYLINE
  5
29BC
330
2
100
AcDbEntity
  8
Profilo
  6
Continuous
370
     0
100
AcDbPolyline
 90
        4
 70
     1
 43
0.0
 10
0.2126848970013558
 20
0.206706743923698
 10
0.2072874999171393
 20
0.206706743923698
 10
0.2072874999171393
 20
0.2014597420728436
 10
0.2126848970013558
 20
0.2014597420728436
  0
LWPOLYLINE
  5
29BD
330
2
100
AcDbEntity
  8
Profilo
  6
Continuous
370
     0
100
AcDbPolyline
 90
        4
 70
     1
 43
0.0
 10
0.2121427415489322
 20
0.2061569703430172
 10
0.2078278395366407
 20
0.2061569703430172
 10
0.2078278395366407
 20
0.2020052025579299
 10
0.2121427415489322
 20
0.2020052025579299
  0
LINE
  5
29BE
330
2
100
AcDbEntity
  8
Profilo
  6
Continuous
370
     0
100
AcDbLine
 10
0.2121427415489322
 20
0.2020052025579299
 30
0.0
 11
0.2078278395366407
 21
0.2061569703430172
 31
0.0
  0
LINE
  5
29BF
330
2
100
AcDbEntity
  8
Profilo
  6
Continuous
370
     0
100
AcDbLine
 10
0.2121427415489322
 20
0.2061569703430172
 30
0.0
 11
0.2078278395366407
 21
0.2020052025579299
 31
0.0
  0
LWPOLYLINE
  5
29C0
330
2
100
AcDbEntity
  8
Profilo
  6
Continuous
370
     0
100
AcDbPolyline
 90
        4
 70
     1
 43
0.0
 10
0.2060020140349966
 20
0.2066692270644316
 10
0.2006595546706929
 20
0.2059010973712946
 10
0.2014062808905162
 20
0.2007075024337294
 10
0.2067487402548199
 20
0.2014756321268664
  0
LWPOLYLINE
  5
29C1
330
2
100
AcDbEntity
  8
Profilo
  6
Continuous
370
     0
100
AcDbPolyline
 90
        4
 70
     1
 43
0.0
 10
0.2055436178815771
 20
0.2060478926205637
 10
0.2012726353501947
 20
0.2054338180385186
 10
0.2018634935110782
 20
0.2013243092631291
 10
0.2061344760424589
 20
0.2019383838451733
  0
LINE
  5
29C2
330
2
100
AcDbEntity
  8
Profilo
  6
Continuous
370
     0
100
AcDbLine
 10
0.2061344760424589
 20
0.2019383838451733
 30
0.0
 11
0.2012726353501947
 21
0.2054338180385186
 31
0.0
  0
LINE
  5
29C3
330
2
100
AcDbEntity
  8
Profilo
  6
Continuous
370
     0
100
AcDbLine
 10
0.2055436178815771
 20
0.2060478926205637
 30
0.0
 11
0.2018634935110782
 21
0.2013243092631291
 31
0.0
  0
LWPOLYLINE
  5
29C4
330
2
100
AcDbEntity
  8
Profilo
  6
Continuous
370
     0
100
AcDbPolyline
 90
        4
 70
     1
 43
0.0
 10
0.1993924923870708
 20
0.2056810186641404
 10
0.1942137278089572
 20
0.204160396183316
 10
0.1956919790561514
 20
0.1991259347748781
 10
0.200870743634265
 20
0.2006465572557034
  0
LWPOLYLINE
  5
29C5
330
2
100
AcDbEntity
  8
Profilo
  6
Continuous
370
     0
100
AcDbPolyline
 90
        4
 70
     1
 43
0.0
 10
0.1990271871564332
 20
0.2050007719345818
 10
0.1948870689938055
 20
0.2037851235581384
 10
0.1960567571473085
 20
0.1998015315402683
 10
0.200196875309938
 20
0.2010171799167117
  0
LINE
  5
29C6
330
2
100
AcDbEntity
  8
Profilo
  6
Continuous
370
     0
100
AcDbLine
 10
0.200196875309938
 20
0.2010171799167117
 30
0.0
 11
0.1948870689938055
 21
0.2037851235581384
 31
0.0
  0
LINE
  5
29C7
330
2
100
AcDbEntity
  8
Profilo
  6
Continuous
370
     0
100
AcDbLine
 10
0.1990271871564332
 20
0.2050007719345818
 30
0.0
 11
0.1960567571473085
 21
0.1998015315402683
 31
0.0
  0
LWPOLYLINE
  5
29C8
330
2
100
AcDbEntity
  8
Profilo
  6
Continuous
370
     0
100
AcDbPolyline
 90
        4
 70
     1
 43
0.0
 10
0.1929908828580477
 20
0.2037622357960973
 10
0.1880812377786111
 20
0.201520076016181
 10
0.190260921120705
 20
0.1967472352529593
 10
0.1951705662001416
 20
0.1989893950328756
  0
LWPOLYLINE
  5
29C9
330
2
100
AcDbEntity
  8
Profilo
  6
Continuous
370
     0
100
AcDbPolyline
 90
        4
 70
     1
 43
0.0
 10
0.1927261051112336
 20
0.2030369246425924
 10
0.1888011321840338
 20
0.2012444495670544
 10
0.1905258388524566
 20
0.1974678687524569
 10
0.1944508117796563
 20
0.1992603438279949
  0
LINE
  5
29CA
330
2
100
AcDbEntity
  8
Profilo
  6
Continuous
370
     0
100
AcDbLine
 10
0.1944508117796563
 20
0.1992603438279949
 30
0.0
 11
0.1888011321840338
 21
0.2012444495670544
 31
0.0
  0
LINE
  5
29CB
330
2
100
AcDbEntity
  8
Profilo
  6
Continuous
370
     0
100
AcDbLine
 10
0.1927261051112336
 20
0.2030369246425924
 30
0.0
 11
0.1905258388524566
 21
0.1974678687524569
 31
0.0
  0
LWPOLYLINE
  5
29CC
330
2
100
AcDbEntity
  8
Profilo
  6
Continuous
370
     0
100
AcDbPolyline
 90
        4
 70
     1
 43
0.0
 10
0.1869275037572159
 20
0.2009519393461836
 10
0.1823869243920267
 20
0.1980338861744399
 10
0.1852236677618638
 20
0.1936198273306366
 10
0.1897642471270548
 20
0.1965378805023794
  0
LWPOLYLINE
  5
29CD
330
2
100
AcDbEntity
  8
Profilo
  6
Continuous
370
     0
100
AcDbPolyline
 90
        4
 70
     1
 43
0.0
 10
0.1867686436055976
 20
0.2001963290121924
 10
0.1831387170439364
 20
0.1978635168610256
 10
0.1853833321731507
 20
0.1943708275443263
 10
0.189013258734812
 20
0.1967036396954931
  0
LINE
  5
29CE
330
2
100
AcDbEntity
  8
Profilo
  6
Continuous
370
     0
100
AcDbLine
 10
0.189013258734812
 20
0.1967036396954931
 30
0.0
 11
0.1831387170439364
 21
0.1978635168610256
 31
0.0
  0
LINE
  5
29CF
330
2
100
AcDbEntity
  8
Profilo
  6
Continuous
370
     0
100
AcDbLine
 10
0.1867686436055976
 20
0.2001963290121924
 30
0.0
 11
0.1853833321731507
 21
0.1943708275443263
 31
0.0
  0
LWPOLYLINE
  5
29D0
330
2
100
AcDbEntity
  8
Profilo
  6
Continuous
370
     0
100
AcDbPolyline
 90
        4
 70
     1
 43
0.0
 10
0.1813257879977318
 20
0.1973073388458919
 10
0.1772467074487146
 20
0.1937727954299271
 10
0.180682762931777
 20
0.1898073760145073
 10
0.1847618434807942
 20
0.1933419194304721
  0
LWPOLYLINE
  5
29D1
330
2
100
AcDbEntity
  8
Profilo
  6
Continuous
370
     0
100
AcDbPolyline
 90
        4
 70
     1
 43
0.0
 10
0.1812760793758766
 20
0.1965368113788146
 10
0.1780150940167072
 20
0.1937111514801432
 10
0.1807339237156192
 20
0.1905734547437461
 10
0.1839949090747904
 20
0.1933991146424174
  0
LINE
  5
29D2
330
2
100
AcDbEntity
  8
Profilo
  6
Continuous
370
     0
100
AcDbLine
 10
0.1839949090747904
 20
0.1933991146424174
 30
0.0
 11
0.1780150940167072
 21
0.1937111514801432
 31
0.0
  0
LINE
  5
29D3
330
2
100
AcDbEntity
  8
Profilo
  6
Continuous
370
     0
100
AcDbLine
 10
0.1812760793758766
 20
0.1965368113788146
 30
0.0
 11
0.1807339237156192
 21
0.1905734547437461
 31
0.0
  0
LWPOLYLINE
  5
29D4
330
2
100
AcDbEntity
  8
Profilo
  6
Continuous
370
     0
100
AcDbPolyline
 90
        4
 70
     1
 43
0.0
 10
0.17629977035844
 20
0.1929026278512491
 10
0.172765226942477
 20
0.188823547302231
 10
0.1767306463578958
 20
0.1853874918191678
 10
0.1802651897738606
 20
0.1894665723681858
  0
LWPOLYLINE
  5
29D5
330
2
100
AcDbEntity
  8
Profilo
  6
Continuous
370
     0
100
AcDbPolyline
 90
        4
 70
     1
 43
0.0
 10
0.1763602251905457
 20
0.1921328689682979
 10
0.1735345652918735
 20
0.1888718836091285
 10
0.1766722620282707
 20
0.1861530539102156
 10
0.1794979219269429
 20
0.189414039269385
  0
LINE
  5
29D6
330
2
100
AcDbEntity
  8
Profilo
  6
Continuous
370
     0
100
AcDbLine
 10
0.1794979219269429
 20
0.189414039269385
 30
0.0
 11
0.1735345652918735
 21
0.1888718836091285
 31
0.0
  0
LINE
  5
29D7
330
2
100
AcDbEntity
  8
Profilo
  6
Continuous
370
     0
100
AcDbLine
 10
0.1763602251905457
 20
0.1921328689682979
 30
0.0
 11
0.1766722620282707
 21
0.1861530539102156
 31
0.0
  0
LWPOLYLINE
  5
29D8
330
2
100
AcDbEntity
  8
Profilo
  6
Continuous
370
     0
100
AcDbPolyline
 90
        4
 70
     1
 43
0.0
 10
0.1719517660646407
 20
0.1878274735759688
 10
0.1690337128928988
 20
0.1832868942107788
 10
0.1734477717367021
 20
0.1804501508409408
 10
0.1763658249084458
 20
0.1849907302061317
  0
LWPOLYLINE
  5
29D9
330
2
100
AcDbEntity
  8
Profilo
  6
Continuous
370
     0
100
AcDbPolyline
 90
        4
 70
     1
 43
0.0
 10
0.17212115366466
 20
0.1870741533481996
 10
0.169788341513495
 20
0.1834442267865383
 10
0.1732810308301943
 20
0.1811996116573231
 10
0.1756138429813593
 20
0.1848295382189844
  0
LINE
  5
29DA
330
2
100
AcDbEntity
  8
Profilo
  6
Continuous
370
     0
100
AcDbLine
 10
0.1756138429813593
 20
0.1848295382189844
 30
0.0
 11
0.169788341513495
 21
0.1834442267865383
 31
0.0
  0
LINE
  5
29DB
330
2
100
AcDbEntity
  8
Profilo
  6
Continuous
370
     0
100
AcDbLine
 10
0.17212115366466
 20
0.1870741533481996
 30
0.0
 11
0.1732810308301943
 21
0.1811996116573231
 31
0.0
  0
LWPOLYLINE
  5
29DC
330
2
100
AcDbEntity
  8
Profilo
  6
Continuous
370
     0
100
AcDbPolyline
 90
        4
 70
     1
 43
0.0
 10
0.1683702879451477
 20
0.1821851915255592
 10
0.1661281281652315
 20
0.1772755464461217
 10
0.1709009689284532
 20
0.1750958631040278
 10
0.1731431287083695
 20
0.1800055081834652
  0
LWPOLYLINE
  5
29DD
330
2
100
AcDbEntity
  8
Profilo
  6
Continuous
370
     0
100
AcDbPolyline
 90
        4
 70
     1
 43
0.0
 10
0.1686451600700188
 20
0.1814636453804128
 10
0.1668526849944808
 20
0.1775386724532121
 10
0.1706292658090774
 20
0.1758139657847894
 10
0.1724217408846155
 20
0.17973893871199
  0
LINE
  5
29DE
330
2
100
AcDbEntity
  8
Profilo
  6
Continuous
370
     0
100
AcDbLine
 10
0.1724217408846155
 20
0.17973893871199
 30
0.0
 11
0.1668526849944808
 21
0.1775386724532121
 31
0.0
  0
LINE
  5
29DF
330
2
100
AcDbEntity
  8
Profilo
  6
Continuous
370
     0
100
AcDbLine
 10
0.1686451600700188
 20
0.1814636453804128
 30
0.0
 11
0.1706292658090774
 21
0.1758139657847894
 31
0.0
  0
LWPOLYLINE
  5
29E0
330
2
100
AcDbEntity
  8
Profilo
  6
Continuous
370
     0
100
AcDbPolyline
 90
        4
 70
     1
 43
0.0
 10
0.1656282445663418
 20
0.1760906422915684
 10
0.1641076220855165
 20
0.1709118777134548
 10
0.1691420834939535
 20
0.1694336264662614
 10
0.1706627059747788
 20
0.174612391044375
  0
LWPOLYLINE
  5
29E1
330
2
100
AcDbEntity
  8
Profilo
  6
Continuous
370
     0
100
AcDbPolyline
 90
        4
 70
     1
 43
0.0
 10
0.1660030056122658
 20
0.1754155588277928
 10
0.1647873572358233
 20
0.1712754406651633
 10
0.1687709492536943
 20
0.1701057525116593
 10
0.1699865976301368
 20
0.1742458706742879
  0
LINE
  5
29E2
330
2
100
AcDbEntity
  8
Profilo
  6
Continuous
370
     0
100
AcDbLine
 10
0.1699865976301368
 20
0.1742458706742879
 30
0.0
 11
0.1647873572358233
 21
0.1712754406651633
 31
0.0
  0
LINE
  5
29E3
330
2
100
AcDbEntity
  8
Profilo
  6
Continuous
370
     0
100
AcDbLine
 10
0.1660030056122658
 20
0.1754155588277928
 30
0.0
 11
0.1687709492536943
 21
0.1701057525116593
 31
0.0
  0
LWPOLYLINE
  5
29E4
330
2
100
AcDbEntity
  8
Profilo
  6
Continuous
370
     0
100
AcDbPolyline
 90
        4
 70
     1
 43
0.0
 10
0.1637814560240148
 20
0.1696678933211728
 10
0.1630133263308778
 20
0.1643254339568691
 10
0.1682069212684439
 20
0.1635787077370449
 10
0.1689750509615809
 20
0.1689211671013486
  0
LWPOLYLINE
  5
29E5
330
2
100
AcDbEntity
  8
Profilo
  6
Continuous
370
     0
100
AcDbPolyline
 90
        4
 70
     1
 43
0.0
 10
0.1642484769368228
 20
0.1690530152913101
 10
0.1636344023547786
 20
0.1647820327599285
 10
0.1677439111301681
 20
0.1641911745990449
 10
0.1683579857122123
 20
0.1684621571304274
  0
LINE
  5
29E6
330
2
100
AcDbEntity
  8
Profilo
  6
Continuous
370
     0
100
AcDbLine
 10
0.1683579857122123
 20
0.1684621571304274
 30
0.0
 11
0.1636344023547786
 21
0.1647820327599285
 31
0.0
  0
LINE
  5
29E7
330
2
100
AcDbEntity
  8
Profilo
  6
Continuous
370
     0
100
AcDbLine
 10
0.1642484769368228
 20
0.1690530152913101
 30
0.0
 11
0.1677439111301681
 21
0.1641911745990449
 31
0.0
  0
LWPOLYLINE
  5
29E8
330
2
100
AcDbEntity
  8
Profilo
  6
Continuous
370
     0
100
AcDbPolyline
 90
        4
 70
     1
 43
0.0
 10
0.1628675176071926
 20
0.1630476932617301
 10
0.1628675176071926
 20
0.1576502961775128
 10
0.168114519458047
 20
0.1576502961775128
 10
0.168114519458047
 20
0.1630476932617301
  0
LWPOLYLINE
  5
29E9
330
2
100
AcDbEntity
  8
Profilo
  6
Continuous
370
     0
100
AcDbPolyline
 90
        4
 70
     1
 43
0.0
 10
0.1634172911878725
 20
0.1625055378093065
 10
0.1634172911878725
 20
0.158190635797015
 10
0.1675690589729598
 20
0.158190635797015
 10
0.1675690589729598
 20
0.1625055378093065
  0
LINE
  5
29EA
330
2
100
AcDbEntity
  8
Profilo
  6
Continuous
370
     0
100
AcDbLine
 10
0.1675690589729598
 20
0.1625055378093065
 30
0.0
 11
0.1634172911878725
 21
0.158190635797015
 31
0.0
  0
LINE
  5
29EB
330
2
100
AcDbEntity
  8
Profilo
  6
Continuous
370
     0
100
AcDbLine
 10
0.1634172911878725
 20
0.1625055378093065
 30
0.0
 11
0.1675690589729598
 21
0.158190635797015
 31
0.0
  0
LWPOLYLINE
  5
29EC
330
2
100
AcDbEntity
  8
Profilo
  6
Continuous
370
     0
100
AcDbPolyline
 90
        4
 70
     1
 43
0.0
 10
0.1629050344664581
 20
0.15636481029537
 10
0.1636731641595969
 20
0.1510223509310664
 10
0.1688667590971612
 20
0.1517690771508906
 10
0.1680986294040242
 20
0.1571115365151942
  0
LWPOLYLINE
  5
29ED
330
2
100
AcDbEntity
  8
Profilo
  6
Continuous
370
     0
100
AcDbPolyline
 90
        4
 70
     1
 43
0.0
 10
0.1635263689103269
 20
0.1559064141419506
 10
0.1641404434923711
 20
0.151635431610569
 10
0.1682499522677606
 20
0.1522262897714516
 10
0.1676358776857164
 20
0.1564972723028332
  0
LINE
  5
29EE
330
2
100
AcDbEntity
  8
Profilo
  6
Continuous
370
     0
100
AcDbLine
 10
0.1676358776857164
 20
0.1564972723028332
 30
0.0
 11
0.1641404434923711
 21
0.151635431610569
 31
0.0
  0
LINE
  5
29EF
330
2
100
AcDbEntity
  8
Profilo
  6
Continuous
370
     0
100
AcDbLine
 10
0.1635263689103269
 20
0.1559064141419506
 30
0.0
 11
0.1682499522677606
 21
0.1522262897714516
 31
0.0
  0
LWPOLYLINE
  5
29F0
330
2
100
AcDbEntity
  8
Profilo
  6
Continuous
370
     0
100
AcDbPolyline
 90
        4
 70
     1
 43
0.0
 10
0.1638932428667502
 20
0.1497552886474451
 10
0.1654138653475755
 20
0.1445765240693315
 10
0.1704483267560125
 20
0.1460547753165248
 10
0.1689277042751872
 20
0.1512335398946385
  0
LWPOLYLINE
  5
29F1
330
2
100
AcDbEntity
  8
Profilo
  6
Continuous
370
     0
100
AcDbPolyline
 90
        4
 70
     1
 43
0.0
 10
0.1645734895963088
 20
0.1493899834168075
 10
0.1657891379727513
 20
0.1452498652541789
 10
0.1697727299906223
 20
0.1464195534076828
 10
0.1685570816141798
 20
0.1505596715703123
  0
LINE
  5
29F2
330
2
100
AcDbEntity
  8
Profilo
  6
Continuous
370
     0
100
AcDbLine
 10
0.1685570816141798
 20
0.1505596715703123
 30
0.0
 11
0.1657891379727513
 21
0.1452498652541789
 31
0.0
  0
LINE
  5
29F3
330
2
100
AcDbEntity
  8
Profilo
  6
Continuous
370
     0
100
AcDbLine
 10
0.1645734895963088
 20
0.1493899834168075
 30
0.0
 11
0.1697727299906223
 21
0.1464195534076828
 31
0.0
  0
LWPOLYLINE
  5
29F4
330
2
100
AcDbEntity
  8
Profilo
  6
Continuous
370
     0
100
AcDbPolyline
 90
        4
 70
     1
 43
0.0
 10
0.1658120257347925
 20
0.1433536791184211
 10
0.1680541855147087
 20
0.1384440340389845
 10
0.1728270262779304
 20
0.1406237173810775
 10
0.1705848664980142
 20
0.145533362460515
  0
LWPOLYLINE
  5
29F5
330
2
100
AcDbEntity
  8
Profilo
  6
Continuous
370
     0
100
AcDbPolyline
 90
        4
 70
     1
 43
0.0
 10
0.1665373368882982
 20
0.1430889013716079
 10
0.1683298119638362
 20
0.1391639284444072
 10
0.1721063927784329
 20
0.14088863511283
 10
0.1703139177028948
 20
0.1448136080400306
  0
LINE
  5
29F6
330
2
100
AcDbEntity
  8
Profilo
  6
Continuous
370
     0
100
AcDbLine
 10
0.1703139177028948
 20
0.1448136080400306
 30
0.0
 11
0.1683298119638362
 21
0.1391639284444072
 31
0.0
  0
LINE
  5
29F7
330
2
100
AcDbEntity
  8
Profilo
  6
Continuous
370
     0
100
AcDbLine
 10
0.1665373368882982
 20
0.1430889013716079
 30
0.0
 11
0.1721063927784329
 21
0.14088863511283
 31
0.0
  0
LWPOLYLINE
  5
29F8
330
2
100
AcDbEntity
  8
Profilo
  6
Continuous
370
     0
100
AcDbPolyline
 90
        4
 70
     1
 43
0.0
 10
0.168622322184708
 20
0.1372903000175902
 10
0.1715403753564516
 20
0.1327497206524002
 10
0.1759544342002549
 20
0.1355864640222372
 10
0.1730363810285113
 20
0.1401270433874273
  0
LWPOLYLINE
  5
29F9
330
2
100
AcDbEntity
  8
Profilo
  6
Continuous
370
     0
100
AcDbPolyline
 90
        4
 70
     1
 43
0.0
 10
0.1693779325186991
 20
0.137131439865971
 10
0.1717107446698641
 20
0.1335015133043098
 10
0.1752034339865635
 20
0.135746128433525
 10
0.1728706218353985
 20
0.1393760549951863
  0
LINE
  5
29FA
330
2
100
AcDbEntity
  8
Profilo
  6
Continuous
370
     0
100
AcDbLine
 10
0.1728706218353985
 20
0.1393760549951863
 30
0.0
 11
0.1717107446698641
 21
0.1335015133043098
 31
0.0
  0
LINE
  5
29FB
330
2
100
AcDbEntity
  8
Profilo
  6
Continuous
370
     0
100
AcDbLine
 10
0.1693779325186991
 20
0.137131439865971
 30
0.0
 11
0.1752034339865635
 21
0.135746128433525
 31
0.0
  0
LWPOLYLINE
  5
29FC
330
2
100
AcDbEntity
  8
Profilo
  6
Continuous
370
     0
100
AcDbPolyline
 90
        4
 70
     1
 43
0.0
 10
0.1722669226849988
 20
0.1316885842581052
 10
0.1758014661009636
 20
0.1276095037090871
 10
0.1797668855163824
 20
0.1310455591921504
 10
0.1762323421004176
 20
0.1351246397411685
  0
LWPOLYLINE
  5
29FD
330
2
100
AcDbEntity
  8
Profilo
  6
Continuous
370
     0
100
AcDbPolyline
 90
        4
 70
     1
 43
0.0
 10
0.1730374501520761
 20
0.1316388756362509
 10
0.1758631100507465
 20
0.1283778902770815
 10
0.1790008067871455
 20
0.1310967199759935
 10
0.1761751468884732
 20
0.1343577053351638
  0
LINE
  5
29FE
330
2
100
AcDbEntity
  8
Profilo
  6
Continuous
370
     0
100
AcDbLine
 10
0.1761751468884732
 20
0.1343577053351638
 30
0.0
 11
0.1758631100507465
 21
0.1283778902770815
 31
0.0
  0
LINE
  5
29FF
330
2
100
AcDbEntity
  8
Profilo
  6
Continuous
370
     0
100
AcDbLine
 10
0.1730374501520761
 20
0.1316388756362509
 30
0.0
 11
0.1790008067871455
 21
0.1310967199759935
 31
0.0
  0
LWPOLYLINE
  5
2A00
330
2
100
AcDbEntity
  8
Profilo
  6
Continuous
370
     0
100
AcDbPolyline
 90
        4
 70
     1
 43
0.0
 10
0.1766716336796407
 20
0.1266625666188143
 10
0.1807507142286596
 20
0.1231280232028495
 10
0.184186769711722
 20
0.1270934426182692
 10
0.1801076891627048
 20
0.130627986034234
  0
LWPOLYLINE
  5
2A01
330
2
100
AcDbEntity
  8
Profilo
  6
Continuous
370
     0
100
AcDbPolyline
 90
        4
 70
     1
 43
0.0
 10
0.1774413925625918
 20
0.1267230214509191
 10
0.180702377921763
 20
0.1238973615522469
 10
0.183421207620675
 20
0.127035058288645
 10
0.1801602222615056
 20
0.1298607181873163
  0
LINE
  5
2A02
330
2
100
AcDbEntity
  8
Profilo
  6
Continuous
370
     0
100
AcDbLine
 10
0.1801602222615056
 20
0.1298607181873163
 30
0.0
 11
0.180702377921763
 21
0.1238973615522469
 31
0.0
  0
LINE
  5
2A03
330
2
100
AcDbEntity
  8
Profilo
  6
Continuous
370
     0
100
AcDbLine
 10
0.1774413925625918
 20
0.1267230214509191
 30
0.0
 11
0.183421207620675
 21
0.127035058288645
 31
0.0
  0
LWPOLYLINE
  5
2A04
330
2
100
AcDbEntity
  8
Profilo
  6
Continuous
370
     0
100
AcDbPolyline
 90
        4
 70
     1
 43
0.0
 10
0.1817467879549209
 20
0.122314562325015
 10
0.1862873673201119
 20
0.1193965091532722
 10
0.1891241106899489
 20
0.1238105679970755
 10
0.1845835313247598
 20
0.1267286211688183
  0
LWPOLYLINE
  5
2A05
330
2
100
AcDbEntity
  8
Profilo
  6
Continuous
370
     0
100
AcDbPolyline
 90
        4
 70
     1
 43
0.0
 10
0.1825001081826919
 20
0.1224839499250343
 10
0.1861300347443514
 20
0.1201511377738684
 10
0.1883746498735676
 20
0.1236438270905668
 10
0.1847447233119063
 20
0.1259766392417336
  0
LINE
  5
2A06
330
2
100
AcDbEntity
  8
Profilo
  6
Continuous
370
     0
100
AcDbLine
 10
0.1847447233119063
 20
0.1259766392417336
 30
0.0
 11
0.1861300347443514
 21
0.1201511377738684
 31
0.0
  0
LINE
  5
2A07
330
2
100
AcDbEntity
  8
Profilo
  6
Continuous
370
     0
100
AcDbLine
 10
0.1825001081826919
 20
0.1224839499250343
 30
0.0
 11
0.1883746498735676
 21
0.1236438270905668
 31
0.0
  0
LWPOLYLINE
  5
2A08
330
2
100
AcDbEntity
  8
Profilo
  6
Continuous
370
     0
100
AcDbPolyline
 90
        4
 70
     1
 43
0.0
 10
0.1873890700053323
 20
0.1187330842055211
 10
0.1922987150847689
 20
0.1164909244256049
 10
0.1944783984268629
 20
0.1212637651888266
 10
0.1895687533474245
 20
0.1235059249687429
  0
LWPOLYLINE
  5
2A09
330
2
100
AcDbEntity
  8
Profilo
  6
Continuous
370
     0
100
AcDbPolyline
 90
        4
 70
     1
 43
0.0
 10
0.1881106161504779
 20
0.1190079563303922
 10
0.1920355890776776
 20
0.1172154812548533
 10
0.1937602957461003
 20
0.1209920620694509
 10
0.1898353228189006
 20
0.1227845371449898
  0
LINE
  5
2A0A
330
2
100
AcDbEntity
  8
Profilo
  6
Continuous
370
     0
100
AcDbLine
 10
0.1898353228189006
 20
0.1227845371449898
 30
0.0
 11
0.1920355890776776
 21
0.1172154812548533
 31
0.0
  0
LINE
  5
2A0B
330
2
100
AcDbEntity
  8
Profilo
  6
Continuous
370
     0
100
AcDbLine
 10
0.1881106161504779
 20
0.1190079563303922
 30
0.0
 11
0.1937602957461003
 21
0.1209920620694509
 31
0.0
  0
LWPOLYLINE
  5
2A0C
330
2
100
AcDbEntity
  8
Profilo
  6
Continuous
370
     0
100
AcDbPolyline
 90
        4
 70
     1
 43
0.0
 10
0.1934836192393213
 20
0.1159910408267152
 10
0.1986623838174349
 20
0.11447041834589
 10
0.2001406350646292
 20
0.1195048797543278
 10
0.1949618704865156
 20
0.1210255022351522
  0
LWPOLYLINE
  5
2A0D
330
2
100
AcDbEntity
  8
Profilo
  6
Continuous
370
     0
100
AcDbPolyline
 90
        4
 70
     1
 43
0.0
 10
0.194158702703097
 20
0.1163658018726401
 10
0.1982988208657265
 20
0.1151501534961976
 10
0.1994685090192313
 20
0.1191337455140677
 10
0.1953283908566018
 20
0.1203493938905111
  0
LINE
  5
2A0E
330
2
100
AcDbEntity
  8
Profilo
  6
Continuous
370
     0
100
AcDbLine
 10
0.1953283908566018
 20
0.1203493938905111
 30
0.0
 11
0.1982988208657265
 21
0.1151501534961976
 31
0.0
  0
LINE
  5
2A0F
330
2
100
AcDbEntity
  8
Profilo
  6
Continuous
370
     0
100
AcDbLine
 10
0.194158702703097
 20
0.1163658018726401
 30
0.0
 11
0.1994685090192313
 21
0.1191337455140677
 31
0.0
  0
LWPOLYLINE
  5
2A10
330
2
100
AcDbEntity
  8
Profilo
  6
Continuous
370
     0
100
AcDbPolyline
 90
        4
 70
     1
 43
0.0
 10
0.1999063682097187
 20
0.1141442522843891
 10
0.2052488275740224
 20
0.1133761225912521
 10
0.2059955537938457
 20
0.1185697175288165
 10
0.200653094429542
 20
0.1193378472219535
  0
LWPOLYLINE
  5
2A11
330
2
100
AcDbEntity
  8
Profilo
  6
Continuous
370
     0
100
AcDbPolyline
 90
        4
 70
     1
 43
0.0
 10
0.2005212462395796
 20
0.1146112731971962
 10
0.2047922287709621
 20
0.1139971986151511
 10
0.2053830869318457
 20
0.1181067073905415
 10
0.2011121044004632
 20
0.1187207819725857
  0
LINE
  5
2A12
330
2
100
AcDbEntity
  8
Profilo
  6
Continuous
370
     0
100
AcDbLine
 10
0.2011121044004632
 20
0.1187207819725857
 30
0.0
 11
0.2047922287709621
 21
0.1139971986151511
 31
0.0
  0
LINE
  5
2A13
330
2
100
AcDbEntity
  8
Profilo
  6
Continuous
370
     0
100
AcDbLine
 10
0.2005212462395796
 20
0.1146112731971962
 30
0.0
 11
0.2053830869318457
 21
0.1181067073905415
 31
0.0
  0
LWPOLYLINE
  5
2A14
330
2
100
AcDbEntity
  8
Profilo
  6
Continuous
370
     0
100
AcDbPolyline
 90
       14
 70
   128
 43
0.0
 10
0.2104656588489711
 20
0.1669746726205972
 10
0.2105870557255178
 20
0.1689767771975078
 10
0.2104656588489711
 20
0.1712822328249395
 10
0.2098861330188138
 20
0.172716955255188
 10
0.2091637785524686
 20
0.1735974595914997
 10
0.2080226511139528
 20
0.1743932274353838
 10
0.2073592029502774
 20
0.1736902982564456
 10
0.206823715602471
 20
0.1728596502726031
 10
0.2062774243794251
 20
0.1718282627121158
 10
0.2061560248635852
 20
0.1707362046075642
 10
0.2062774243794254
 20
0.1695834759589486
 10
0.2065809192100854
 20
0.1682487390177413
 10
0.2070058109172911
 20
0.166914002076533
 10
0.2071879088714037
 20
0.1663679738591574
  0
LWPOLYLINE
  5
2A15
330
2
100
AcDbEntity
  8
Profilo
  6
Continuous
370
     0
100
AcDbPolyline
 90
        2
 70
   128
 43
0.0
 10
0.2052562409503981
 20
0.1653371796301553
 10
0.2016070591926127
 20
0.1707362047173832
  0
LWPOLYLINE
  5
2A16
330
2
100
AcDbEntity
  8
Profilo
  6
Continuous
370
     0
100
AcDbPolyline
 90
        2
 70
   128
 43
0.0
 10
0.2057819117026287
 20
0.1656406757804607
 10
0.2017874414389364
 20
0.1708976067940321
  0
LWPOLYLINE
  5
2A17
330
2
100
AcDbEntity
  8
Profilo
  6
Continuous
370
     0
100
AcDbPolyline
 90
       14
 70
   128
 43
0.0
 10
0.2068473787192311
 20
0.166465990450873
 10
0.2059514592098055
 20
0.1682605623137841
 10
0.2046935986170599
 20
0.1701964470161643
 10
0.2034743533108703
 20
0.1711491901730602
 10
0.2024085238243224
 20
0.1715505520632759
 10
0.2010223945516701
 20
0.1716691435123365
 10
0.2007992961773022
 20
0.170728664904477
 10
0.200750874522618
 20
0.1697415589749638
 10
0.2007934662258394
 20
0.1685752055349116
 10
0.2012343602133907
 20
0.1675687557160412
 10
0.2019158596024233
 20
0.1666311631805901
 10
0.2028460623062957
 20
0.1656269944974651
 10
0.2038813977891973
 20
0.164683524252612
 10
0.2043121133521239
 20
0.1643016989222379
  0
LWPOLYLINE
  5
2A18
330
2
100
AcDbEntity
  8
Profilo
  6
Continuous
370
     0
100
AcDbPolyline
 90
        2
 70
   128
 43
0.0
 10
0.2031546369753585
 20
0.1624431709733448
 10
0.1972948403264757
 20
0.1652942729756611
  0
LWPOLYLINE
  5
2A19
330
2
100
AcDbEntity
  8
Profilo
  6
Continuous
370
     0
100
AcDbPolyline
 90
        2
 70
   128
 43
0.0
 10
0.203458133125664
 20
0.1629688417255755
 10
0.1973703548958594
 20
0.1655242423974244
  0
LWPOLYLINE
  5
2A1A
330
2
100
AcDbEntity
  8
Profilo
  6
Continuous
370
     0
100
AcDbPolyline
 90
       14
 70
   128
 43
0.0
 10
0.20396819729373
 20
0.1642163187045697
 10
0.2022950223073657
 20
0.1653225037720547
 10
0.2002377407284387
 20
0.1663700988067409
 10
0.1987054717413855
 20
0.1665855759307997
 10
0.1975817553848247
 20
0.1664002507805634
 10
0.1963220364972483
 20
0.1658098893517954
 10
0.1965990669414325
 20
0.1648838617984892
 10
0.1970506855231392
 20
0.1640047921599625
 10
0.1976707477401455
 20
0.1630159963026966
 10
0.1985557980431759
 20
0.1623648321856963
 10
0.1996147900944673
 20
0.1618936029261133
 10
0.2009224536082522
 20
0.1614890686887784
 10
0.202290815560311
 20
0.1611896672304717
 10
0.2028547388447977
 20
0.1610743545760227
  0
LWPOLYLINE
  5
2A1B
330
2
100
AcDbEntity
  8
Profilo
  6
Continuous
370
     0
100
AcDbPolyline
 90
        2
 70
   128
 43
0.0
 10
0.2027815988726852
 20
0.1588860839702552
 10
0.1962813151125836
 20
0.1584253124086003
  0
LWPOLYLINE
  5
2A1C
330
2
100
AcDbEntity
  8
Profilo
  6
Continuous
370
     0
100
AcDbPolyline
 90
        2
 70
   128
 43
0.0
 10
0.2027815988726852
 20
0.1594930762708661
 10
0.1962317279371441
 20
0.1586622290546328
  0
LWPOLYLINE
  5
2A1D
330
2
100
AcDbEntity
  8
Profilo
  6
Continuous
370
     0
100
AcDbPolyline
 90
       14
 70
   128
 43
0.0
 10
0.2025995889102934
 20
0.1608284551093444
 10
0.2005974843333829
 20
0.1609498519858912
 10
0.1982920287059511
 20
0.1608284551093444
 10
0.1968573062757026
 20
0.1602489292791871
 10
0.1959768019393909
 20
0.159526574812842
 10
0.1951810340955068
 20
0.1583854473743262
 10
0.195883963274445
 20
0.1577219992106508
 10
0.1967146112582875
 20
0.1571865118628444
 10
0.1977459988187747
 20
0.1566402206397985
 10
0.1988380569233265
 20
0.1565188211239585
 10
0.199990785571942
 20
0.1566402206397988
 10
0.2013255225131493
 20
0.1569437154704587
 10
0.2026602594543576
 20
0.1573686071776644
 10
0.2032062876717332
 20
0.1575507051317771
  0
LWPOLYLINE
  5
2A1E
330
2
100
AcDbEntity
  8
Profilo
  6
Continuous
370
     0
100
AcDbPolyline
 90
        2
 70
   128
 43
0.0
 10
0.2042370819007353
 20
0.1556190372107715
 10
0.1988380568135074
 20
0.1519698554529861
  0
LWPOLYLINE
  5
2A1F
330
2
100
AcDbEntity
  8
Profilo
  6
Continuous
370
     0
100
AcDbPolyline
 90
        2
 70
   128
 43
0.0
 10
0.2039335857504299
 20
0.1561447079630021
 10
0.1986766547368586
 20
0.1521502376993099
  0
LWPOLYLINE
  5
2A20
330
2
100
AcDbEntity
  8
Profilo
  6
Continuous
370
     0
100
AcDbPolyline
 90
       14
 70
   128
 43
0.0
 10
0.2031082710800176
 20
0.1572101749796045
 10
0.2013136992171065
 20
0.1563142554701788
 10
0.1993778145147262
 20
0.1550563948774334
 10
0.1984250713578304
 20
0.1538371495712437
 10
0.1980237094676147
 20
0.1527713200846958
 10
0.1979051180185541
 20
0.1513851908120436
 10
0.1988455966264137
 20
0.1511620924376756
 10
0.1998327025559268
 20
0.1511136707829914
 10
0.200999055995979
 20
0.1511562624862128
 10
0.2020055058148493
 20
0.1515971564737641
 10
0.2029430983503004
 20
0.1522786558627967
 10
0.2039472670334255
 20
0.1532088585666691
 10
0.2048907372782787
 20
0.1542441940495707
 10
0.2052725626086527
 20
0.1546749096124973
  0
LWPOLYLINE
  5
2A21
330
2
100
AcDbEntity
  8
Profilo
  6
Continuous
370
     0
100
AcDbPolyline
 90
        2
 70
   128
 43
0.0
 10
0.2071310905575458
 20
0.153517433235732
 10
0.2042799885552295
 20
0.1476576365868491
  0
LWPOLYLINE
  5
2A22
330
2
100
AcDbEntity
  8
Profilo
  6
Continuous
370
     0
100
AcDbPolyline
 90
        2
 70
   128
 43
0.0
 10
0.2066054198053151
 20
0.1538209293860374
 10
0.2040500191334662
 20
0.1477331511562328
  0
LWPOLYLINE
  5
2A23
330
2
100
AcDbEntity
  8
Profilo
  6
Continuous
370
     0
100
AcDbPolyline
 90
       14
 70
   128
 43
0.0
 10
0.2053579428263209
 20
0.1543309935541035
 10
0.2042517577588359
 20
0.1526578185677391
 10
0.2032041627241497
 20
0.1506005369888121
 10
0.202988685600091
 20
0.1490682680017589
 10
0.2031740107503271
 20
0.1479445516451981
 10
0.2037643721790952
 20
0.1466848327576217
 10
0.2046903997324013
 20
0.1469618632018059
 10
0.2055694693709281
 20
0.1474134817835126
 10
0.206558265228194
 20
0.1480335440005189
 10
0.2072094293451943
 20
0.1489185943035493
 10
0.2076806586047773
 20
0.1499775863548407
 10
0.2080851928421122
 20
0.1512852498686256
 10
0.2083845943004189
 20
0.1526536118206844
 10
0.2084999069548679
 20
0.1532175351051712
  0
LWPOLYLINE
  5
2A24
330
2
100
AcDbEntity
  8
Profilo
  6
Continuous
370
     0
100
AcDbPolyline
 90
        2
 70
   128
 43
0.0
 10
0.2106881775606354
 20
0.1531443951330586
 10
0.2111489491222903
 20
0.146644111372957
  0
LWPOLYLINE
  5
2A25
330
2
100
AcDbEntity
  8
Profilo
  6
Continuous
370
     0
100
AcDbPolyline
 90
        2
 70
   128
 43
0.0
 10
0.2100811852600245
 20
0.1531443951330586
 10
0.2109120324762578
 20
0.1465945241975175
  0
LWPOLYLINE
  5
2A26
330
2
100
AcDbEntity
  8
Profilo
  6
Continuous
370
     0
100
AcDbPolyline
 90
       14
 70
   128
 43
0.0
 10
0.2087458064215462
 20
0.1529623851706668
 10
0.2086244095449994
 20
0.1509602805937562
 10
0.2087458064215462
 20
0.1486548249663245
 10
0.2093253322517035
 20
0.147220102536076
 10
0.2100476867180486
 20
0.1463395981997643
 10
0.2111888141565644
 20
0.1455438303558802
 10
0.2118522623202398
 20
0.1462467595348184
 10
0.2123877496680462
 20
0.1470774075186609
 10
0.2129340408910921
 20
0.1481087950791482
 10
0.213055440406932
 20
0.1492008531836998
 10
0.2129340408910918
 20
0.1503535818323154
 10
0.2126305460604319
 20
0.1516883187735226
 10
0.2122056543532262
 20
0.153023055714731
 10
0.2120235563991135
 20
0.1535690839321066
  0
LWPOLYLINE
  5
2A27
330
2
100
AcDbEntity
  8
Profilo
  6
Continuous
370
     0
100
AcDbPolyline
 90
        2
 70
   128
 43
0.0
 10
0.2139552243201192
 20
0.1545998781611088
 10
0.2176044060779045
 20
0.1492008530738808
  0
LWPOLYLINE
  5
2A28
330
2
100
AcDbEntity
  8
Profilo
  6
Continuous
370
     0
100
AcDbPolyline
 90
        2
 70
   128
 43
0.0
 10
0.2134295535678885
 20
0.1542963820108033
 10
0.2174240238315808
 20
0.1490394509972319
  0
LWPOLYLINE
  5
2A29
330
2
100
AcDbEntity
  8
Profilo
  6
Continuous
370
     0
100
AcDbPolyline
 90
       14
 70
   128
 43
0.0
 10
0.2123640865512861
 20
0.153471067340391
 10
0.2132600060607117
 20
0.1516764954774799
 10
0.2145178666534573
 20
0.1497406107750997
 10
0.2157371119596469
 20
0.1487878676182038
 10
0.2168029414461948
 20
0.1483865057279881
 10
0.2181890707188471
 20
0.1482679142789276
 10
0.2184121690932149
 20
0.1492083928867871
 10
0.2184605907478993
 20
0.1501954988163002
 10
0.2184179990446778
 20
0.1513618522563524
 10
0.2179771050571265
 20
0.1523683020752228
 10
0.2172956056680939
 20
0.1533058946106739
 10
0.2163654029642216
 20
0.1543100632937989
 10
0.2153300674813199
 20
0.155253533538652
 10
0.2148993519183934
 20
0.1556353588690261
  0
LWPOLYLINE
  5
2A2A
330
2
100
AcDbEntity
  8
Profilo
  6
Continuous
370
     0
100
AcDbPolyline
 90
        2
 70
   128
 43
0.0
 10
0.2160568282951587
 20
0.1574938868179192
 10
0.2219166249440415
 20
0.1546427848156029
  0
LWPOLYLINE
  5
2A2B
330
2
100
AcDbEntity
  8
Profilo
  6
Continuous
370
     0
100
AcDbPolyline
 90
        2
 70
   128
 43
0.0
 10
0.2157533321448533
 20
0.1569682160656886
 10
0.2218411103746578
 20
0.1544128153938396
  0
LWPOLYLINE
  5
2A2C
330
2
100
AcDbEntity
  8
Profilo
  6
Continuous
370
     0
100
AcDbPolyline
 90
       14
 70
   128
 43
0.0
 10
0.2152432679767871
 20
0.1557207390866943
 10
0.2169164429631515
 20
0.1546145540192094
 10
0.2189737245420785
 20
0.1535669589845232
 10
0.2205059935291317
 20
0.1533514818604644
 10
0.2216297098856925
 20
0.1535368070107006
 10
0.2228894287732689
 20
0.1541271684394687
 10
0.2226123983290847
 20
0.1550531959927748
 10
0.222160779747378
 20
0.1559322656313015
 10
0.2215407175303717
 20
0.1569210614885674
 10
0.2206556672273413
 20
0.1575722256055678
 10
0.2195966751760499
 20
0.1580434548651508
 10
0.218289011662265
 20
0.1584479891024856
 10
0.2169206497102062
 20
0.1587473905607923
 10
0.2163567264257194
 20
0.1588627032152414
  0
LWPOLYLINE
  5
2A2D
330
2
100
AcDbEntity
  8
Profilo
  6
Continuous
370
     0
100
AcDbPolyline
 90
        2
 70
   128
 43
0.0
 10
0.216429866397832
 20
0.1610509738210088
 10
0.2229301501579336
 20
0.1615117453826637
  0
LWPOLYLINE
  5
2A2E
330
2
100
AcDbEntity
  8
Profilo
  6
Continuous
370
     0
100
AcDbPolyline
 90
        2
 70
   128
 43
0.0
 10
0.216429866397832
 20
0.1604439815203979
 10
0.2229797373333731
 20
0.1612748287366312
  0
LWPOLYLINE
  5
2A2F
330
2
100
AcDbEntity
  8
Profilo
  6
Continuous
370
     0
100
AcDbPolyline
 90
       14
 70
   128
 43
0.0
 10
0.2166118763602238
 20
0.1591086026819196
 10
0.2186139809371344
 20
0.1589872058053728
 10
0.2209194365645661
 20
0.1591086026819196
 10
0.2223541589948146
 20
0.1596881285120768
 10
0.2232346633311263
 20
0.160410482978422
 10
0.2240304311750104
 20
0.1615516104169378
 10
0.2233275019960722
 20
0.1622150585806132
 10
0.2224968540122298
 20
0.1627505459284196
 10
0.2214654664517424
 20
0.1632968371514655
 10
0.2203734083471907
 20
0.1634182366673055
 10
0.2192206796985752
 20
0.1632968371514652
 10
0.217885942757368
 20
0.1629933423208053
 10
0.2165512058161596
 20
0.1625684506135996
 10
0.216005177598784
 20
0.1623863526594869
  0
LWPOLYLINE
  5
2A30
330
2
100
AcDbEntity
  8
Profilo
  6
Continuous
370
     0
100
AcDbPolyline
 90
        2
 70
   128
 43
0.0
 10
0.2149743833697819
 20
0.1643180205804926
 10
0.2203734084570098
 20
0.1679672023382779
  0
LWPOLYLINE
  5
2A31
330
2
100
AcDbEntity
  8
Profilo
  6
Continuous
370
     0
100
AcDbPolyline
 90
        2
 70
   128
 43
0.0
 10
0.2152778795200874
 20
0.163792349828262
 10
0.2205348105336586
 20
0.1677868200919541
  0
LWPOLYLINE
  5
2A32
330
2
100
AcDbEntity
  8
Profilo
  6
Continuous
370
     0
100
AcDbPolyline
 90
       14
 70
   128
 43
0.0
 10
0.2161031941904996
 20
0.1627268828116595
 10
0.2178977660534107
 20
0.1636228023210852
 10
0.219833650755791
 20
0.1648806629138307
 10
0.2207863939126868
 20
0.1660999082200203
 10
0.2211877558029025
 20
0.1671657377065683
 10
0.221306347251963
 20
0.1685518669792205
 10
0.2203658686441035
 20
0.1687749653535884
 10
0.2193787627145904
 20
0.1688233870082727
 10
0.2182124092745382
 20
0.1687807953050512
 10
0.2172059594556679
 20
0.1683399013174999
 10
0.2162683669202168
 20
0.1676584019284673
 10
0.2152641982370917
 20
0.166728199224595
 10
0.2143207279922386
 20
0.1656928637416933
 10
0.2139389026618645
 20
0.1652621481787668
  0
LWPOLYLINE
  5
2A33
330
2
100
AcDbEntity
  8
Profilo
  6
Continuous
370
     0
100
AcDbPolyline
 90
        2
 70
   128
 43
0.0
 10
0.2120803747129715
 20
0.166419624555532
 10
0.2149314767152877
 20
0.1722794212044149
  0
LWPOLYLINE
  5
2A34
330
2
100
AcDbEntity
  8
Profilo
  6
Continuous
370
     0
100
AcDbPolyline
 90
        2
 70
   128
 43
0.0
 10
0.2126060454652021
 20
0.1661161284052266
 10
0.215161446137051
 20
0.1722039066350312
  0
LWPOLYLINE
  5
2A35
330
2
100
AcDbEntity
  8
Profilo
  6
Continuous
370
     0
100
AcDbPolyline
 90
       14
 70
   128
 43
0.0
 10
0.2138535224441963
 20
0.1656060642371606
 10
0.2149597075116812
 20
0.1672792392235249
 10
0.2160073025463674
 20
0.1693365208024519
 10
0.2162227796704262
 20
0.1708687897895051
 10
0.21603745452019
 20
0.171992506146066
 10
0.2154470930914219
 20
0.1732522250336423
 10
0.2145210655381158
 20
0.1729751945894582
 10
0.2136419958995891
 20
0.1725235760077514
 10
0.2126532000423232
 20
0.1719035137907451
 10
0.2120020359253228
 20
0.1710184634877147
 10
0.2115308066657398
 20
0.1699594714364234
 10
0.211126272428405
 20
0.1686518079226384
 10
0.2108268709700983
 20
0.1672834459705796
 10
0.2107115583156492
 20
0.1667195226860929
  0
DIMENSION
  5
2A3C
102
{ACAD_XDICTIONARY
360
2A46
102
}
102
{ACAD_REACTORS
330
2A4D
102
}
330
2
100
AcDbEntity
  8
Sezione
  6
ACAD_ISO10W100
100
AcDbDimension
  2
*D30
 10
0.1523607811903642
 20
0.1115122028476156
 30
0.0
 11
0.2850690535665202
 21
0.2103631079855691
 31
0.0
 70
    35
  1
d 600 mm
 71
     5
 42
0.1499999999999999
  3
Bovelacci
100
AcDbDiametricDimension
 15
0.266850684080153
 25
0.2084248549436485
 35
0.0
 40
0.0
1001
ACAD
1000
DSTYLE
1002
{
1070
   288
1070
     1
1002
}
  0
ENDSEC
  0
SECTION
  2
OBJECTS
  0
DICTIONARY
  5
9
330
0
100
AcDbDictionary
281
     1
  3
ACAD_2007HEADERVARS_RT
350
208
  3
ACAD_COLOR
350
184
  3
ACAD_GROUP
350
17F
  3
ACAD_LAYOUT
350
164
  3
ACAD_MATERIAL
350
B
  3
ACAD_MLINESTYLE
350
180
  3
ACAD_PLOTSETTINGS
350
181
  3
ACAD_PLOTSTYLENAME
350
8
  3
ACAD_TABLESTYLE
350
185
  3
ACAD_VISUALSTYLE
350
17A
  3
ACDBHEADERROUNDTRIPXREC
350
2A5D
  3
AcDbVariableDictionary
350
18B
  3
ASE_INDEX_DICTIONARY
350
2433
  3
DWGPROPS
350
2A5C
  0
DICTIONARY
  5
16E
330
16D
100
AcDbDictionary
280
     1
281
     1
  3
ACAD_LAYERSTATES
360
16F
  0
DICTIONARY
  5
3
330
2
100
AcDbDictionary
280
     1
281
     1
  3
ACAD_SORTENTS
360
18A
  0
DICTIONARY
  5
1378
330
12F0
100
AcDbDictionary
280
     1
281
     1
  3
ACAD_SORTENTS
360
1379
  0
DICTIONARY
  5
2A5E
330
18
100
AcDbDictionary
280
     1
281
     1
  3
ACAD_MTEXT_RT
360
2A5F
  0
DICTIONARY
  5
2A46
330
2A3C
100
AcDbDictionary
280
     1
281
     1
  3
ACAD_DIMASSOC
360
2A4D
  0
DICTIONARY
  5
208
102
{ACAD_REACTORS
330
9
102
}
330
9
100
AcDbDictionary
281
     1
  3
DIMFXL
350
209
  0
DICTIONARY
  5
184
102
{ACAD_REACTORS
330
9
102
}
330
9
100
AcDbDictionary
281
     1
  0
DICTIONARY
  5
17F
102
{ACAD_REACTORS
330
9
102
}
330
9
100
AcDbDictionary
281
     1
  0
DICTIONARY
  5
164
102
{ACAD_REACTORS
330
9
102
}
330
9
100
AcDbDictionary
281
     1
  3
Layout1
350
168
  3
Layout2
350
16C
  3
Model
350
163
  0
DICTIONARY
  5
B
102
{ACAD_REACTORS
330
9
102
}
330
9
100
AcDbDictionary
281
     1
  3
ByBlock
350
183
  3
ByLayer
350
182
  3
Global
350
A
  0
DICTIONARY
  5
180
102
{ACAD_REACTORS
330
9
102
}
330
9
100
AcDbDictionary
281
     1
  3
Standard
350
186
  0
DICTIONARY
  5
181
102
{ACAD_REACTORS
330
9
102
}
330
9
100
AcDbDictionary
281
     1
  0
ACDBDICTIONARYWDFLT
  5
8
102
{ACAD_REACTORS
330
9
102
}
330
9
100
AcDbDictionary
281
     1
  3
Normal
350
7
100
AcDbDictionaryWithDefault
340
7
  0
DICTIONARY
  5
185
102
{ACAD_REACTORS
330
9
102
}
330
9
100
AcDbDictionary
281
     1
  3
Standard
350
187
  0
DICTIONARY
  5
17A
102
{ACAD_REACTORS
330
9
102
}
330
9
100
AcDbDictionary
281
     1
  3
2dWireframe
350
179
  3
3D Hidden
350
1BD
  3
3dWireframe
350
189
  3
Basic
350
1BC
  3
Brighten
350
1C0
  3
ColorChange
350
1C4
  3
Conceptual
350
1BE
  3
Dim
350
1BF
  3
Facepattern
350
1C3
  3
Flat
350
1B8
  3
FlatWithEdges
350
1B9
  3
Gouraud
350
1BA
  3
GouraudWithEdges
350
1BB
  3
Linepattern
350
1C2
  3
Realistic
350
188
  3
Thicken
350
1C1
  0
DICTIONARY
  5
2A5D
102
{ACAD_REACTORS
330
9
102
}
330
9
100
AcDbDictionary
281
     1
  0
DICTIONARY
  5
18B
102
{ACAD_REACTORS
330
9
102
}
330
9
100
AcDbDictionary
281
     1
  3
CTABLESTYLE
350
18C
  3
DIMASSOC
350
190
  3
HIDETEXT
350
18F
  3
INDEXCTL
350
18E
  3
PROJECTNAME
350
31D
  3
SORTENTS
350
18D
  0
DICTIONARY
  5
2433
102
{ACAD_REACTORS
330
9
102
}
330
9
100
AcDbDictionary
281
     1
  3
ASEBlockHierarchyIndexRecord
350
2434
1001
DCO15
1040
1598724577.312
  0
XRECORD
  5
2A5C
102
{ACAD_REACTORS
330
9
102
}
330
9
100
AcDbXrecord
280
     1
  1
DWGPROPS COOKIE
  2

  3

  4

  6

  7

  8
Mario
  9

300
=
301
=
302
=
303
=
304
=
305
=
306
=
307
=
308
=
309
=
 40
0.2353479629629629
 41
2454297.625402373
 42
2454306.968533704
  1

 90
        0
  0
DICTIONARY
  5
16F
102
{ACAD_REACTORS
330
16E
102
}
330
16E
100
AcDbDictionary
281
     1
  0
SORTENTSTABLE
  5
18A
102
{ACAD_REACTORS
330
3
102
}
330
3
100
AcDbSortentsTable
330
2
331
10
  5
18
331
21
  5
23F
331
23F
  5
1CA6
331
11
  5
1C
331
22
  5
2AC
331
1C
  5
22
331
17
  5
1E
331
12
  5
1D
331
23
  5
3BB
331
D
  5
17
331
1D
  5
23
331
18
  5
21
331
24
  5
1F
331
1E
  5
24
331
25
  5
1066
331
1F
  5
25
  0
SORTENTSTABLE
  5
1379
102
{ACAD_REACTORS
330
1378
102
}
330
1378
100
AcDbSortentsTable
330
12F0
  0
XRECORD
  5
2A5F
102
{ACAD_REACTORS
330
2A5E
102
}
330
2A5E
100
AcDbXrecord
280
     1
 40
7955300.0
  1
{\fTimes New Roman|b0|i0|c238|p18;\H1.6x;\C4;Bovelacci\P\pt0.09;\H0.4375x;\T0.95;via del Commercio, 5  47100 Forli - Italy  \fTimes New Roman|b0|i0|c0|p18;\P\fTimes New Roman|b0|i0|c238|p18;tel.+39-0543721386  fax +39-0543721127\fTimes New Roman|b0|i
  1
0|c0|p18; \fTimes New Roman|b0|i0|c238|p18;www.bovelacci.it\fTimes New Roman|b0|i0|c0|p18; \fTimes New Roman|b0|i0|c238|p18;e-mail: bovelacci@bovelacci\fTimes New Roman|b0|i0|c0|p18;.it}
  0
DIMASSOC
  5
2A4D
102
{ACAD_REACTORS
330
2A46
102
}
330
2A46
100
AcDbDimAssoc
330
2A3C
 90
        2
 70
     0
 71
     0
  1
AcDbOsnapPointRef
 72
     3
331
2901
 73
     2
 91
        0
 40
0.0
 10
0.0
 20
0.0
 30
0.0
 75
     0
  0
XRECORD
  5
209
102
{ACAD_REACTORS
330
208
102
}
330
208
100
AcDbXrecord
280
     1
 40
0.18
  0
LAYOUT
  5
168
102
{ACAD_XDICTIONARY
360
2A62
102
}
102
{ACAD_REACTORS
330
164
102
}
330
164
100
AcDbPlotSettings
  1

  2
C:\Documents and Settings\All Users\Dati applicazioni\Autodesk\ADT 2006\enu\Plotters\Default Windows System Printer.pc3
  4

  6

 40
0.0
 41
0.0
 42
0.0
 43
0.0
 44
0.0
 45
0.0
 46
0.0
 47
0.0
 48
0.0
 49
0.0
140
0.0
141
0.0
142
1.0
143
1.0
 70
   688
 72
     0
 73
     0
 74
     5
  7

 75
    16
147
1.0
148
0.0
149
0.0
100
AcDbLayout
  1
Layout1
 70
     1
 71
     1
 10
0.0
 20
0.0
 11
420.0
 21
297.0
 12
0.0
 22
0.0
 32
0.0
 14
1.000000000000000E+20
 24
1.000000000000000E+20
 34
1.000000000000000E+20
 15
-1.000000000000000E+20
 25
-1.000000000000000E+20
 35
-1.000000000000000E+20
146
0.0
 13
0.0
 23
0.0
 33
0.0
 16
1.0
 26
0.0
 36
0.0
 17
0.0
 27
1.0
 37
0.0
 76
     0
330
165
  0
LAYOUT
  5
16C
102
{ACAD_XDICTIONARY
360
2A64
102
}
102
{ACAD_REACTORS
330
164
102
}
330
164
100
AcDbPlotSettings
  1

  2
C:\Documents and Settings\All Users\Dati applicazioni\Autodesk\ADT 2006\enu\Plotters\Default Windows System Printer.pc3
  4

  6

 40
0.0
 41
0.0
 42
0.0
 43
0.0
 44
0.0
 45
0.0
 46
0.0
 47
0.0
 48
0.0
 49
0.0
140
0.0
141
0.0
142
1.0
143
1.0
 70
   688
 72
     0
 73
     0
 74
     5
  7

 75
    16
147
1.0
148
0.0
149
0.0
100
AcDbLayout
  1
Layout2
 70
     1
 71
     2
 10
0.0
 20
0.0
 11
12.0
 21
9.0
 12
0.0
 22
0.0
 32
0.0
 14
0.0
 24
0.0
 34
0.0
 15
0.0
 25
0.0
 35
0.0
146
0.0
 13
0.0
 23
0.0
 33
0.0
 16
1.0
 26
0.0
 36
0.0
 17
0.0
 27
1.0
 37
0.0
 76
     0
330
169
  0
LAYOUT
  5
163
102
{ACAD_XDICTIONARY
360
2A60
102
}
102
{ACAD_REACTORS
330
164
102
}
330
164
100
AcDbPlotSettings
  1

  2
C:\Documents and Settings\All Users\Dati applicazioni\Autodesk\ADT 2006\enu\Plotters\Default Windows System Printer.pc3
  4

  6

 40
0.0
 41
0.0
 42
0.0
 43
0.0
 44
0.0
 45
0.0
 46
0.0
 47
0.0
 48
0.0
 49
0.0
140
0.0
141
0.0
142
1.0
143
1.0
 70
  1712
 72
     0
 73
     0
 74
     0
  7

 75
     0
147
1.0
148
0.0
149
0.0
100
AcDbLayout
  1
Model
 70
     1
 71
     0
 10
0.0
 20
0.0
 11
12.0
 21
9.0
 12
0.0
 22
0.0
 32
0.0
 14
0.0
 24
0.0
 34
0.0
 15
0.0
 25
0.0
 35
0.0
146
0.0
 13
0.0
 23
0.0
 33
0.0
 16
1.0
 26
0.0
 36
0.0
 17
0.0
 27
1.0
 37
0.0
 76
     0
330
2
  0
MATERIAL
  5
183
102
{ACAD_XDICTIONARY
360
1B0
102
}
102
{ACAD_REACTORS
330
B
102
}
330
B
100
AcDbMaterial
  1
ByBlock
  0
MATERIAL
  5
182
102
{ACAD_XDICTIONARY
360
1AE
102
}
102
{ACAD_REACTORS
330
B
102
}
330
B
100
AcDbMaterial
  1
ByLayer
  0
MATERIAL
  5
A
102
{ACAD_XDICTIONARY
360
193
102
}
102
{ACAD_REACTORS
330
B
102
}
330
B
100
AcDbMaterial
  1
Global
  0
MLINESTYLE
  5
186
102
{ACAD_REACTORS
330
180
102
}
330
180
100
AcDbMlineStyle
  2
STANDARD
 70
     0
  3

 62
   256
 51
90.0
 52
90.0
 71
     2
 49
0.5
 62
   256
  6
BYLAYER
 49
-0.5
 62
   256
  6
BYLAYER
  0
ACDBPLACEHOLDER
  5
7
102
{ACAD_REACTORS
330
8
102
}
330
8
  0
TABLESTYLE
  5
187
102
{ACAD_XDICTIONARY
360
21A
102
}
102
{ACAD_REACTORS
330
185
102
}
330
185
100
AcDbTableStyle
  3
Standard
 70
     0
 71
     0
 40
1.5
 41
1.5
280
     0
281
     0
  7
Standard
140
4.5
170
     2
 62
     0
 63
     7
283
     0
274
    -2
284
     1
 64
     0
275
    -2
285
     1
 65
     0
276
    -2
286
     1
 66
     0
277
    -2
287
     1
 67
     0
278
    -2
288
     1
 68
     0
279
    -2
289
     1
 69
     0
  7
Standard
140
6.0
170
     5
 62
     0
 63
     7
283
     0
274
    -2
284
     1
 64
     0
275
    -2
285
     1
 65
     0
276
    -2
286
     1
 66
     0
277
    -2
287
     1
 67
     0
278
    -2
288
     1
 68
     0
279
    -2
289
     1
 69
     0
  7
Standard
140
4.5
170
     5
 62
     0
 63
     7
283
     0
274
    -2
284
     1
 64
     0
275
    -2
285
     1
 65
     0
276
    -2
286
     1
 66
     0
277
    -2
287
     1
 67
     0
278
    -2
288
     1
 68
     0
279
    -2
289
     1
 69
     0
  0
VISUALSTYLE
  5
179
102
{ACAD_REACTORS
330
17A
102
}
330
17A
100
AcDbVisualStyle
  2
2dWireframe
 70
     4
 71
     0
 72
     2
 73
     0
 90
        0
 40
-0.6
 41
-30.0
 62
     5
 63
     7
 74
     1
 91
        4
 64
     7
 65
   257
 75
     1
175
     1
 42
1.0
 92
        0
 66
   257
 43
1.0
 76
     1
 77
     6
 78
     2
 67
     7
 79
     5
170
     0
171
     0
290
     0
174
     0
 93
        1
 44
0.0
173
     0
291
     0
 45
0.0
1001
ACAD
1000
AcDbSavedByObjectVersion
1070
     0
1000
AcDbSavedByObjectVersion
1070
     0
1000
AcDbSavedByObjectVersion
1070
     0
1001
ACAD
1000
AcRTDxfName
1000
VISUALSTYLE
  0
VISUALSTYLE
  5
1BD
102
{ACAD_REACTORS
330
17A
102
}
330
17A
100
AcDbVisualStyle
  2
3D Hidden
 70
     6
 71
     1
 72
     2
 73
     2
 90
        0
 40
-0.6
 41
-30.0
 62
     5
 63
     7
 74
     2
 91
        2
 64
     7
 65
   257
 75
     2
175
     1
 42
40.0
 92
        0
 66
   257
 43
1.0
 76
     1
 77
     6
 78
     2
 67
     7
 79
     3
170
     0
171
     0
290
     0
174
     0
 93
        1
 44
0.0
173
     0
291
     0
 45
0.0
1001
ACAD
1000
AcDbSavedByObjectVersion
1070
     0
1000
AcDbSavedByObjectVersion
1070
     0
1001
ACAD
1000
AcRTDxfName
1000
VISUALSTYLE
  0
VISUALSTYLE
  5
189
102
{ACAD_REACTORS
330
17A
102
}
330
17A
100
AcDbVisualStyle
  2
3dWireframe
 70
     5
 71
     0
 72
     2
 73
     0
 90
        0
 40
-0.6
 41
-30.0
 62
     5
 63
     7
 74
     1
 91
        4
 64
     7
 65
   257
 75
     1
175
     1
 42
1.0
 92
        0
 66
   257
 43
1.0
 76
     1
 77
     6
 78
     2
 67
     7
 79
     5
170
     0
171
     0
290
     0
174
     0
 93
        1
 44
0.0
173
     0
291
     0
 45
0.0
1001
ACAD
1000
AcDbSavedByObjectVersion
1070
     0
1000
AcDbSavedByObjectVersion
1070
     0
1000
AcDbSavedByObjectVersion
1070
     0
1001
ACAD
1000
AcRTDxfName
1000
VISUALSTYLE
  0
VISUALSTYLE
  5
1BC
102
{ACAD_REACTORS
330
17A
102
}
330
17A
100
AcDbVisualStyle
  2
Basic
 70
     7
 71
     1
 72
     0
 73
     1
 90
        0
 40
-0.6
 41
-30.0
 62
     5
 63
     7
 74
     0
 91
        4
 64
     7
 65
   257
 75
     1
175
     1
 42
1.0
 92
        8
 66
     7
 43
1.0
 76
     1
 77
     6
 78
     2
 67
     7
 79
     5
170
     0
171
     0
290
     0
174
     0
 93
        1
 44
0.0
173
     0
291
     1
 45
0.0
1001
ACAD
1000
AcDbSavedByObjectVersion
1070
     0
1000
AcDbSavedByObjectVersion
1070
     0
1001
ACAD
1000
AcRTDxfName
1000
VISUALSTYLE
  0
VISUALSTYLE
  5
1C0
102
{ACAD_REACTORS
330
17A
102
}
330
17A
100
AcDbVisualStyle
  2
Brighten
 70
    12
 71
     2
 72
     2
 73
     0
 90
        0
 40
-0.6
 41
-30.0
 62
     5
 63
     7
 74
     1
 91
        4
 64
     7
 65
   257
 75
     1
175
     1
 42
1.0
 92
        8
 66
     7
 43
1.0
 76
     1
 77
     6
 78
     2
 67
     7
 79
     5
170
     0
171
     0
290
     0
174
     0
 93
        1
 44
50.0
173
     0
291
     1
 45
0.0
1001
ACAD
1000
AcDbSavedByObjectVersion
1070
     0
1000
AcDbSavedByObjectVersion
1070
     0
1001
ACAD
1000
AcRTDxfName
1000
VISUALSTYLE
  0
VISUALSTYLE
  5
1C4
102
{ACAD_REACTORS
330
17A
102
}
330
17A
100
AcDbVisualStyle
  2
ColorChange
 70
    16
 71
     2
 72
     2
 73
     3
 90
        0
 40
-0.6
 41
-30.0
 62
     5
 63
     8
 74
     1
 91
        4
 64
     7
 65
   257
 75
     1
175
     1
 42
1.0
 92
        8
 66
     8
 43
1.0
 76
     1
 77
     6
 78
     2
 67
     7
 79
     5
170
     0
171
     0
290
     0
174
     0
 93
        1
 44
0.0
173
     0
291
     1
 45
0.0
1001
ACAD
1000
AcDbSavedByObjectVersion
1070
     0
1000
AcDbSavedByObjectVersion
1070
     0
1001
ACAD
1000
AcRTDxfName
1000
VISUALSTYLE
  0
VISUALSTYLE
  5
1BE
102
{ACAD_REACTORS
330
17A
102
}
330
17A
100
AcDbVisualStyle
  2
Conceptual
 70
     9
 71
     3
 72
     2
 73
     0
 90
        0
 40
-0.6
 41
-30.0
 62
     5
 63
     7
 74
     2
 91
        2
 64
     7
 65
   257
 75
     1
175
     1
 42
40.0
 92
        8
 66
     7
 43
1.0
 76
     1
 77
     6
 78
     2
 67
     7
 79
     3
170
     0
171
     0
290
     0
174
     0
 93
        1
 44
0.0
173
     0
291
     0
 45
0.0
1001
ACAD
1000
AcDbSavedByObjectVersion
1070
     0
1000
AcDbSavedByObjectVersion
1070
     0
1001
ACAD
1000
AcRTDxfName
1000
VISUALSTYLE
  0
VISUALSTYLE
  5
1BF
102
{ACAD_REACTORS
330
17A
102
}
330
17A
100
AcDbVisualStyle
  2
Dim
 70
    11
 71
     2
 72
     2
 73
     0
 90
        0
 40
-0.6
 41
-30.0
 62
     5
 63
     7
 74
     1
 91
        4
 64
     7
 65
   257
 75
     1
175
     1
 42
1.0
 92
        8
 66
     7
 43
1.0
 76
     1
 77
     6
 78
     2
 67
     7
 79
     5
170
     0
171
     0
290
     0
174
     0
 93
        1
 44
-50.0
173
     0
291
     1
 45
0.0
1001
ACAD
1000
AcDbSavedByObjectVersion
1070
     0
1000
AcDbSavedByObjectVersion
1070
     0
1001
ACAD
1000
AcRTDxfName
1000
VISUALSTYLE
  0
VISUALSTYLE
  5
1C3
102
{ACAD_REACTORS
330
17A
102
}
330
17A
100
AcDbVisualStyle
  2
Facepattern
 70
    15
 71
     2
 72
     2
 73
     0
 90
        0
 40
-0.6
 41
-30.0
 62
     5
 63
     7
 74
     1
 91
        4
 64
     7
 65
   257
 75
     1
175
     1
 42
1.0
 92
        8
 66
     7
 43
1.0
 76
     1
 77
     6
 78
     2
 67
     7
 79
     5
170
     0
171
     0
290
     0
174
     0
 93
        1
 44
0.0
173
     0
291
     1
 45
0.0
1001
ACAD
1000
AcDbSavedByObjectVersion
1070
     0
1000
AcDbSavedByObjectVersion
1070
     0
1001
ACAD
1000
AcRTDxfName
1000
VISUALSTYLE
  0
VISUALSTYLE
  5
1B8
102
{ACAD_REACTORS
330
17A
102
}
330
17A
100
AcDbVisualStyle
  2
Flat
 70
     0
 71
     2
 72
     1
 73
     1
 90
        2
 40
-0.6
 41
30.0
 62
     5
 63
     7
 74
     0
 91
        4
 64
     7
 65
   257
 75
     1
175
     1
 42
1.0
 92
        8
 66
     7
 43
1.0
 76
     1
 77
     6
 78
     2
 67
     7
 79
     5
170
     0
171
     0
290
     0
174
     0
 93
       13
 44
0.0
173
     0
291
     1
 45
0.0
1001
ACAD
1000
AcDbSavedByObjectVersion
1070
     0
1000
AcDbSavedByObjectVersion
1070
     0
1001
ACAD
1000
AcRTDxfName
1000
VISUALSTYLE
  0
VISUALSTYLE
  5
1B9
102
{ACAD_REACTORS
330
17A
102
}
330
17A
100
AcDbVisualStyle
  2
FlatWithEdges
 70
     1
 71
     2
 72
     1
 73
     1
 90
        2
 40
-0.6
 41
30.0
 62
     5
 63
     7
 74
     1
 91
        4
 64
     7
 65
   257
 75
     1
175
     1
 42
1.0
 92
        0
 66
   257
 43
1.0
 76
     1
 77
     6
 78
     2
 67
     7
 79
     5
170
     0
171
     0
290
     0
174
     0
 93
       13
 44
0.0
173
     0
291
     1
 45
0.0
1001
ACAD
1000
AcDbSavedByObjectVersion
1070
     0
1000
AcDbSavedByObjectVersion
1070
     0
1001
ACAD
1000
AcRTDxfName
1000
VISUALSTYLE
  0
VISUALSTYLE
  5
1BA
102
{ACAD_REACTORS
330
17A
102
}
330
17A
100
AcDbVisualStyle
  2
Gouraud
 70
     2
 71
     2
 72
     2
 73
     1
 90
        2
 40
-0.6
 41
30.0
 62
     5
 63
     7
 74
     0
 91
        4
 64
     7
 65
   257
 75
     1
175
     1
 42
1.0
 92
        0
 66
     7
 43
1.0
 76
     1
 77
     6
 78
     2
 67
     7
 79
     5
170
     0
171
     0
290
     0
174
     0
 93
       13
 44
0.0
173
     0
291
     1
 45
0.0
1001
ACAD
1000
AcDbSavedByObjectVersion
1070
     0
1000
AcDbSavedByObjectVersion
1070
     0
1001
ACAD
1000
AcRTDxfName
1000
VISUALSTYLE
  0
VISUALSTYLE
  5
1BB
102
{ACAD_REACTORS
330
17A
102
}
330
17A
100
AcDbVisualStyle
  2
GouraudWithEdges
 70
     3
 71
     2
 72
     2
 73
     1
 90
        2
 40
-0.6
 41
30.0
 62
     5
 63
     7
 74
     1
 91
        4
 64
     7
 65
   257
 75
     1
175
     1
 42
1.0
 92
        0
 66
   257
 43
1.0
 76
     1
 77
     6
 78
     2
 67
     7
 79
     5
170
     0
171
     0
290
     0
174
     0
 93
       13
 44
0.0
173
     0
291
     1
 45
0.0
1001
ACAD
1000
AcDbSavedByObjectVersion
1070
     0
1000
AcDbSavedByObjectVersion
1070
     0
1001
ACAD
1000
AcRTDxfName
1000
VISUALSTYLE
  0
VISUALSTYLE
  5
1C2
102
{ACAD_REACTORS
330
17A
102
}
330
17A
100
AcDbVisualStyle
  2
Linepattern
 70
    14
 71
     2
 72
     2
 73
     0
 90
        0
 40
-0.6
 41
-30.0
 62
     5
 63
     7
 74
     1
 91
        4
 64
     7
 65
   257
 75
     7
175
     7
 42
1.0
 92
        8
 66
     7
 43
1.0
 76
     1
 77
     6
 78
     2
 67
     7
 79
     5
170
     0
171
     0
290
     0
174
     0
 93
        1
 44
0.0
173
     0
291
     1
 45
0.0
1001
ACAD
1000
AcDbSavedByObjectVersion
1070
     0
1000
AcDbSavedByObjectVersion
1070
     0
1001
ACAD
1000
AcRTDxfName
1000
VISUALSTYLE
  0
VISUALSTYLE
  5
188
102
{ACAD_REACTORS
330
17A
102
}
330
17A
100
AcDbVisualStyle
  2
Realistic
 70
     8
 71
     2
 72
     2
 73
     0
 90
        0
 40
-0.6
 41
-30.0
 62
     5
 63
     7
 74
     1
 91
        0
 64
     7
 65
   257
 75
     1
175
     1
 42
1.0
 92
        8
 66
     8
 43
1.0
 76
     1
 77
     6
 78
     2
 67
     7
 79
     5
170
     0
171
     0
290
     0
174
     0
 93
       13
 44
0.0
173
     0
291
     0
 45
0.0
1001
ACAD
1000
AcDbSavedByObjectVersion
1070
     0
1000
AcDbSavedByObjectVersion
1070
     0
1000
AcDbSavedByObjectVersion
1070
     0
1001
ACAD
1000
AcRTDxfName
1000
VISUALSTYLE
  0
VISUALSTYLE
  5
1C1
102
{ACAD_REACTORS
330
17A
102
}
330
17A
100
AcDbVisualStyle
  2
Thicken
 70
    13
 71
     2
 72
     2
 73
     0
 90
        0
 40
-0.6
 41
-30.0
 62
     5
 63
     7
 74
     1
 91
        4
 64
     7
 65
   257
 75
     1
175
     1
 42
1.0
 92
       12
 66
     7
 43
1.0
 76
     1
 77
     6
 78
     2
 67
     7
 79
     5
170
     0
171
     0
290
     0
174
     0
 93
        1
 44
0.0
173
     0
291
     1
 45
0.0
1001
ACAD
1000
AcDbSavedByObjectVersion
1070
     0
1000
AcDbSavedByObjectVersion
1070
     0
1001
ACAD
1000
AcRTDxfName
1000
VISUALSTYLE
  0
DICTIONARYVAR
  5
18C
102
{ACAD_REACTORS
330
18B
102
}
330
18B
100
DictionaryVariables
280
     0
  1
STANDARD
  0
DICTIONARYVAR
  5
190
102
{ACAD_REACTORS
330
18B
102
}
330
18B
100
DictionaryVariables
280
     0
  1
2
  0
DICTIONARYVAR
  5
18F
102
{ACAD_REACTORS
330
18B
102
}
330
18B
100
DictionaryVariables
280
     0
  1
1
  0
DICTIONARYVAR
  5
18E
102
{ACAD_REACTORS
330
18B
102
}
330
18B
100
DictionaryVariables
280
     0
  1
0
  0
DICTIONARYVAR
  5
31D
102
{ACAD_REACTORS
330
18B
102
}
330
18B
100
DictionaryVariables
280
     0
  1

  0
DICTIONARYVAR
  5
18D
102
{ACAD_REACTORS
330
18B
102
}
330
18B
100
DictionaryVariables
280
     0
  1
127
  0
XRECORD
  5
2434
102
{ACAD_REACTORS
330
2433
102
}
330
2433
100
AcDbXrecord
280
     1
330
21AC
330
2410
330
242E
330
276C
330
27AA
330
2A57
  0
DICTIONARY
  5
2A62
330
168
100
AcDbDictionary
280
     1
281
     1
  3
ACAD_XREC_ROUNDTRIP
360
2A63
  0
DICTIONARY
  5
2A64
330
16C
100
AcDbDictionary
280
     1
281
     1
  3
ACAD_XREC_ROUNDTRIP
360
2A65
  0
DICTIONARY
  5
2A60
330
163
100
AcDbDictionary
280
     1
281
     1
  3
ACAD_XREC_ROUNDTRIP
360
2A61
  0
DICTIONARY
  5
1B0
330
183
100
AcDbDictionary
280
     1
281
     1
  3
ACAD_XREC_ROUNDTRIP
360
1B1
  0
DICTIONARY
  5
1AE
330
182
100
AcDbDictionary
280
     1
281
     1
  3
ACAD_XREC_ROUNDTRIP
360
1AF
  0
DICTIONARY
  5
193
330
A
100
AcDbDictionary
280
     1
281
     1
  3
ACAD_XREC_ROUNDTRIP
360
194
  0
DICTIONARY
  5
21A
330
187
100
AcDbDictionary
280
     1
281
     1
  3
ACAD_XREC_ROUNDTRIP
360
21B
  0
XRECORD
  5
2A63
102
{ACAD_REACTORS
330
2A62
102
}
330
2A62
100
AcDbXrecord
280
     1
102
SHADEPLOT
 70
     0
102
SHADEPLOTRESLEVEL
 70
     2
102
SHADEPLOTCUSTOMDPI
 70
   300
  0
XRECORD
  5
2A65
102
{ACAD_REACTORS
330
2A64
102
}
330
2A64
100
AcDbXrecord
280
     1
102
SHADEPLOT
 70
     0
102
SHADEPLOTRESLEVEL
 70
     2
102
SHADEPLOTCUSTOMDPI
 70
   300
  0
XRECORD
  5
2A61
102
{ACAD_REACTORS
330
2A60
102
}
330
2A60
100
AcDbXrecord
280
     1
102
SHADEPLOT
 70
     0
102
SHADEPLOTRESLEVEL
 70
     2
102
SHADEPLOTCUSTOMDPI
 70
   300
  0
XRECORD
  5
1B1
102
{ACAD_REACTORS
330
1B0
102
}
330
1B0
100
AcDbXrecord
280
     1
102
MATERIAL
148
0.0
149
0.0
149
0.0
 93
        0
 94
       63
282
     0
 72
     1
 77
     1
171
     1
175
     1
179
     1
273
     0
  0
XRECORD
  5
1AF
102
{ACAD_REACTORS
330
1AE
102
}
330
1AE
100
AcDbXrecord
280
     1
102
MATERIAL
148
0.0
149
0.0
149
0.0
 93
        0
 94
       63
282
     0
 72
     1
 77
     1
171
     1
175
     1
179
     1
273
     0
  0
XRECORD
  5
194
102
{ACAD_REACTORS
330
193
102
}
330
193
100
AcDbXrecord
280
     1
102
MATERIAL
148
0.0
149
0.0
149
0.0
 93
        0
 94
       63
282
     0
 72
     1
 77
     1
171
     1
175
     1
179
     1
273
     0
  0
XRECORD
  5
21B
102
{ACAD_REACTORS
330
21A
102
}
330
21A
100
AcDbXrecord
280
     1
102
ACAD_ROUNDTRIP_PRE2007_TABLESTYLE
 90
        4
 91
        0
  1

 92
        4
 93
        0
  2

 94
        4
 95
        0
  3

  0
ENDSEC
  0
EOF
